osu file format v14

[General]
AudioFilename: audio.mp3
AudioLeadIn: 0
PreviewTime:42827
Countdown: 0
SampleSet: Soft
StackLeniency: 0.7
Mode: 0
LetterboxInBreaks: 0
WidescreenStoryboard: 0

[Editor]
Bookmarks: 47202
DistanceSpacing: 1.1
BeatDivisor: 8
GridSize: 8
TimelineZoom: 2.4

[Metadata]
Title:Mizuumi
TitleUnicode:みずうみ
Artist:Ichinose Go
ArtistUnicode:一之瀬剛
Creator:Kingling
Version:Poke Ball
Source:ポケットモンスター ダイヤモンド・パール
Tags:diamond pearl platinum pokemon sinnoh region pokémon pocket monsters poketto monsuta electronic 8bit 8 bit instrumental eight nintendo DS lake deviouspanda verychill le mirai sirmirai cacturne jamesjan3 saltylucario saltking wanpachi video game
BeatmapID:3133612
BeatmapSetID:1532238

[Difficulty]
HPDrainRate:3
CircleSize:4
OverallDifficulty:3
ApproachRate:4
SliderMultiplier:1
SliderTickRate:1

[Events]
//Background and Video events
0,0,"IumHtZ4.jpeg",0,0
//Break Periods
//Storyboard Layer 0 (Background)
//Storyboard Layer 1 (Fail)
//Storyboard Layer 2 (Pass)
//Storyboard Layer 3 (Foreground)
//Storyboard Layer 4 (Overlay)
//Storyboard Sound Samples

[TimingPoints]
-12793,937.5,4,2,1,19,1,0
488,-50,4,2,1,22,0,0
644,-50,4,2,1,25,0,0
800,-50,4,2,1,28,0,0
956,-50,4,2,1,31,0,0
1113,-50,4,2,1,34,0,0
1269,-50,4,2,1,37,0,0
1425,-50,4,2,1,40,0,0
1581,-50,4,2,1,43,0,0
1738,-50,4,2,1,46,0,0
1894,-50,4,2,1,49,0,0
2050,-50,4,2,1,52,0,0
2206,-50,4,2,1,55,0,0
43457,-50,4,2,1,60,0,0
45332,-50,4,2,1,65,0,0
47207,312.5,4,2,1,70,1,1
47207,-149.253731343284,4,2,1,70,0,1
67207,937.5,4,2,1,60,1,0
70957,-100,4,2,1,5,0,0

[Colours]
Combo1 : 174,210,255
Combo2 : 215,255,170
Combo3 : 149,255,154
Combo4 : 164,255,255

[HitObjects]
0,51,2207,38,0,P|46:32|95:31,1,100,6|2,1:2|0:0,0:0:0:0:
174,107,3144,2,0,P|220:125|274:125,1,100,10|0,3:2|0:0,0:0:0:0:
299,103,3769,1,2,1:2:0:0:
332,38,4082,2,0,P|380:22|476:77,1,166.666666666667,2|0,1:2|0:0,0:0:0:0:
480,111,5019,1,10,3:2:0:0:
442,174,5332,2,0,P|437:227|449:282,1,100,2|0,1:2|0:2,0:2:0:0:
465,303,5957,6,0,P|420:338|371:344,1,100,2|2,1:2|0:2,0:0:0:0:
327,247,6894,2,0,P|282:212|233:206,1,100,10|2,3:2|0:0,0:0:0:0:
209,225,7519,1,2,1:2:0:0:
168,286,7832,2,0,P|164:324|146:357,1,66.6666666666667,2|2,1:2|0:0,0:0:0:0:
82,372,8457,1,2,1:2:0:0:
23,327,8769,2,0,P|18:306|19:276,1,33.3333333333333,10|2,3:2|0:0,0:0:0:0:
25,258,9082,1,2,1:2:0:0:
56,191,9394,2,0,L|98:194,1,33.3333333333333,2|2,0:0|0:0,0:0:0:0:
114,166,9707,38,0,P|161:148|211:150,1,100,2|2,1:2|0:0,0:0:0:0:
270,241,10644,2,0,P|316:258|366:256,1,100,10|2,3:2|0:0,0:0:0:0:
392,229,11269,1,2,1:2:0:0:
462,248,11582,2,0,P|472:164|473:79,1,166.666666666667,2|0,1:2|0:0,0:0:0:0:
453,51,12519,1,10,3:2:0:0:
391,10,12832,2,0,B|360:0|338:15|338:15|317:31|295:23,1,100,2|0,1:2|0:0,0:0:0:0:
264,41,13457,6,0,P|245:87|251:136,1,100,2|2,1:2|1:2,0:0:0:0:
350,181,14394,2,0,P|368:227|362:276,1,100,10|0,3:2|0:0,0:0:0:0:
366,312,15019,1,2,1:2:0:0:
319,368,15332,2,0,P|285:369|253:361,1,66.6666666666667,2|2,1:2|0:0,0:0:0:0:
229,291,15957,1,2,1:2:0:0:
155,291,16269,2,0,P|122:298|91:319,1,66.6666666666667,8|0,3:2|1:2,0:0:0:0:
26,342,16894,2,0,L|18:301,1,33.3333333333333,0|2,1:0|0:0,0:0:0:0:
21,272,17207,38,0,B|47:224|33:175|33:175|15:122|36:72,1,200,6|10,1:2|3:2,0:0:0:0:
160,3,18769,1,2,1:2:0:0:
208,58,19082,2,0,P|249:65|305:42,1,100,2|0,1:2|0:0,0:0:0:0:
409,19,20019,1,10,3:2:0:0:
469,61,20332,2,0,P|483:94|486:168,1,100,0|2,1:0|0:0,0:0:0:0:
482,193,20957,6,0,B|427:224|387:197|387:197|338:166|291:184,1,200,6|10,1:2|3:2,0:0:0:0:
146,170,22519,1,2,1:2:0:0:
78,141,22832,2,0,P|54:151|20:218,1,100,2|2,1:2|3:2,0:0:0:0:
33,247,23457,1,2,1:2:0:0:
9,316,23769,1,10,3:2:0:0:
49,377,24082,2,0,P|96:358|145:358,1,100,0|2,1:2|0:0,0:0:0:0:
178,373,24707,38,0,P|206:385|281:367,1,100,6|0,3:2|1:0,0:0:0:0:
297,346,25332,1,2,1:2:0:0:
279,274,25644,1,10,3:2:0:0:
337,229,25957,2,0,L|341:194,1,33.3333333333333,2|2,0:0|0:0,0:0:0:0:
305,184,26269,2,0,L|301:149,1,33.3333333333333,2|2,1:2|0:0,0:0:0:0:
329,126,26582,2,0,B|360:110|393:127|393:127|426:145|470:120,1,133.333333333333,2|0,1:2|0:0,0:0:0:0:
510,76,27519,1,10,3:2:0:0:
490,5,27832,1,2,1:2:0:0:
416,3,28144,2,0,P|399:2|382:5,1,33.3333333333333,2|2,0:0|0:0,0:0:0:0:
360,33,28457,6,0,P|310:40|261:34,1,100,6|2,1:2|0:0,0:0:0:0:
155,1,29394,1,10,3:2:0:0:
15,45,30019,1,2,1:2:0:0:
67,95,30332,2,0,P|69:134|30:191,1,100,2|2,1:2|1:2,0:0:0:0:
14,212,30957,1,0,1:0:0:0:
14,285,31269,2,0,L|77:300,1,33.3333333333333,10|2,3:2|0:0,0:0:0:0:
63,325,31582,2,0,L|106:319,1,33.3333333333333,2|2,1:2|0:0,0:0:0:0:
123,296,31894,2,0,L|170:306,1,33.3333333333333,2|0,0:0|0:0,0:0:0:0:
173,335,32207,38,0,B|222:369|268:350|268:350|317:326|364:352,1,200,6|8,1:2|3:2,0:0:0:0:
508,369,33769,2,0,L|513:336,1,33.3333333333333,0|2,1:0|0:0,0:0:0:0:
497,302,34082,2,0,P|482:268|490:216,1,66.6666666666667,2|0,1:2|0:0,0:0:0:0:
502,93,35019,1,8,3:2:0:0:
492,20,35332,2,0,P|439:10|383:21,1,100,0|2,1:0|0:0,0:0:0:0:
358,28,35957,6,0,B|330:66|351:109|351:109|375:157|357:186,1,166.666666666667,6|2,1:2|0:0,0:0:0:0:
369,220,36894,1,8,3:2:0:0:
316,356,37519,1,0,1:0:0:0:
262,306,37832,2,0,P|222:319|163:302,1,100,2|0,1:2|1:0,0:0:0:0:
137,283,38457,1,0,1:0:0:0:
75,322,38769,1,8,3:2:0:0:
16,277,39082,2,0,P|20:239|20:166,1,100,0|2,1:0|0:0,0:0:0:0:
18,140,39707,38,0,L|72:124,1,33.3333333333333,6|2,1:2|0:0,0:0:0:0:
63,96,40019,2,0,B|85:86|111:102|111:102|131:114|158:101,1,100,2|2,0:0|0:0,0:0:0:0:
192,87,40644,2,0,L|197:47,1,33.3333333333333,8|2,3:2|0:0,0:0:0:0:
211,20,40957,2,0,L|251:15,1,33.3333333333333,2|2,0:0|0:0,0:0:0:0:
269,42,41269,2,0,L|309:47,1,33.3333333333333,0|2,1:0|0:0,0:0:0:0:
331,23,41582,6,0,B|365:9|399:29|399:29|435:46|459:31,1,133.333333333333,2|0,1:2|0:0,0:0:0:0:
510,82,42519,1,8,3:2:0:0:
473,145,42832,1,0,1:0:0:0:
506,210,43144,2,0,P|507:226|507:243,1,33.3333333333333,2|2,0:0|0:0,0:0:0:0:
497,278,43457,38,0,P|452:301|403:298,1,100,6|0,1:2|1:0,0:0:0:0:
385,265,44082,2,0,P|363:245|290:238,1,100,2|8,0:0|3:2,0:0:0:0:
277,268,44707,2,0,P|247:304|193:289,1,100,0|2,1:0|0:0,0:0:0:0:
184,261,45332,2,0,P|159:221|111:260,1,100,0|2,1:0|0:0,0:0:0:0:
100,269,45957,2,0,P|70:305|16:290,1,100,2|2,1:2|3:2,0:0:0:0:
4,264,46582,2,0,L|11:221,1,33.3333333333333,2|10,3:2|0:0,0:0:0:0:
31,201,46894,2,0,L|24:158,1,33.3333333333333,2|10,0:0|0:0,0:0:0:0:
13,125,47207,21,14,1:2:0:0:
13,125,47363,2,0,P|16:92|34:65,1,66.9999968307497,2|2,1:2|3:2,0:0:0:0:
72,50,47832,1,10,3:2:0:0:
147,85,48144,1,14,1:2:0:0:
147,85,48300,2,0,P|179:97|211:89,1,66.9999968307497,2|2,1:2|0:0,0:0:0:0:
241,63,48769,1,10,3:2:0:0:
303,13,49082,6,0,L|348:21,1,33.3333333333333,10|2,1:2|3:2,0:0:0:0:
365,45,49394,2,0,L|410:37,1,33.3333333333333,10|2,3:2|3:2,0:0:0:0:
428,13,49707,1,14,1:2:0:0:
428,13,49863,2,0,P|457:31|472:60,1,66.9999968307497,2|2,1:2|3:2,0:0:0:0:
459,99,50332,1,10,0:0:0:0:
504,168,50644,1,14,1:2:0:0:
504,168,50800,2,0,P|513:201|512:234,1,66.9999968307497,2|2,1:2|3:2,0:0:0:0:
498,272,51269,1,10,3:2:0:0:
462,343,51582,38,0,L|417:351,1,33.3333333333333,10|2,3:2|3:2,0:0:0:0:
400,321,51894,2,0,L|355:313,1,33.3333333333333,10|2,0:0|0:0,0:0:0:0:
336,339,52207,1,14,1:2:0:0:
336,339,52363,2,0,P|290:359|240:355,1,100.499995246124,2|10,1:2|3:2,0:0:0:0:
189,294,53144,1,14,1:2:0:0:
189,294,53300,2,0,P|143:274|93:278,1,100.499995246124,2|10,1:2|3:2,0:0:0:0:
13,273,54082,2,0,L|10:235,1,33.3333333333333,10|2,1:2|1:2,0:0:0:0:
34,208,54394,2,0,L|37:170,1,33.3333333333333,10|2,3:2|0:0,0:0:0:0:
14,147,54707,5,14,1:2:0:0:
14,147,54863,2,0,P|4:98|25:53,1,100.499995246124,2|10,1:2|3:2,0:0:0:0:
97,20,55644,1,14,1:2:0:0:
97,20,55800,2,0,B|123:36|150:26|150:26|178:17|194:23,1,100.499995246124,2|10,1:2|3:2,0:0:0:0:
255,74,56582,2,0,L|261:114,1,33.3333333333333,14|2,1:2|3:2,0:0:0:0:
237,139,56894,2,0,L|231:179,1,33.3333333333333,10|2,3:2|0:2,0:0:0:0:
253,210,57207,37,6,1:2:0:0:
253,210,57363,2,0,P|284:224|317:230,1,66.9999968307497,0|2,1:0|3:2,0:0:0:0:
352,209,57832,1,8,3:2:0:0:
427,245,58144,1,14,1:2:0:0:
427,245,58300,2,0,P|458:232|477:205,1,66.9999968307497,2|2,1:2|0:0,0:0:0:0:
482,165,58769,1,10,3:2:0:0:
450,91,59082,6,0,L|404:83,1,33.3333333333333,2|2,1:2|3:2,0:0:0:0:
389,56,59394,2,0,L|343:64,1,33.3333333333333,10|2,3:2|3:2,0:0:0:0:
330,94,59707,1,6,1:2:0:0:
330,94,59863,2,0,P|298:103|265:100,1,66.9999968307497,0|2,1:0|3:2,0:0:0:0:
238,71,60332,1,10,3:2:0:0:
190,12,60644,1,6,1:2:0:0:
190,12,60800,2,0,P|157:6|123:7,1,66.9999968307497,0|2,1:0|3:2,0:0:0:0:
86,22,61269,1,10,3:2:0:0:
13,57,61582,6,0,L|7:99,1,33.4999984153748,10|2,3:2|3:2,0:0:0:0:
46,103,61894,2,0,L|52:145,1,33.4999984153748,10|2,3:2|0:0,0:0:0:0:
86,163,62207,1,6,1:2:0:0:
86,163,62363,2,0,P|95:201|93:232,1,66.9999968307497,2|2,1:2|0:0,0:0:0:0:
74,264,62832,1,10,3:2:0:0:
15,318,63144,1,6,1:2:0:0:
15,318,63300,2,0,P|32:347|61:365,1,66.9999968307497,2|2,1:2|0:2,0:0:0:0:
98,348,63769,1,10,3:2:0:0:
167,307,64082,2,0,L|210:316,1,33.3333333333333,10|2,1:2|1:2,0:0:0:0:
229,340,64394,2,0,L|272:331,1,33.3333333333333,10|2,3:2|3:2,0:0:0:0:
296,311,64707,5,6,1:2:0:0:
296,311,64863,2,0,P|304:279|304:246,1,66.9999968307497,2|2,1:2|0:2,0:0:0:0:
279,215,65332,1,10,3:2:0:0:
201,191,65644,1,6,1:2:0:0:
201,191,65800,2,0,P|194:159|193:126,1,66.9999968307497,2|2,1:2|0:0,0:0:0:0:
211,90,66269,1,10,3:2:0:0:
269,34,66582,2,0,L|306:40,1,33.3333333333333,6|2,1:2|3:2,0:0:0:0:
330,66,66894,2,0,L|367:60,1,33.3333333333333,10|2,3:2|3:2,0:0:0:0:
393,34,67207,1,6,1:0:0:0:
256,192,67324,12,0,70957,0:0:0:0:
