osu file format v14

[General]
AudioFilename: audio.mp3
AudioLeadIn: 0
PreviewTime:42827
Countdown: 0
SampleSet: Soft
StackLeniency: 0.3
Mode: 0
LetterboxInBreaks: 0
WidescreenStoryboard: 1

[Editor]
Bookmarks: 19858,27358,28452,30327,32202,47202,52202,57202,62202
DistanceSpacing: 1.2
BeatDivisor: 12
GridSize: 8
TimelineZoom: 1.8

[Metadata]
Title:Mizuumi
TitleUnicode:みずうみ
Artist:Ichinose Go
ArtistUnicode:一之瀬剛
Creator:Kingling
Version:Master Ball
Source:ポケットモンスター ダイヤモンド・パール
Tags:diamond pearl platinum pokemon sinnoh region pokémon pocket monsters poketto monsuta electronic 8bit 8 bit instrumental eight nintendo DS lake deviouspanda verychill le mirai sirmirai cacturne jamesjan3 saltylucario saltking wanpachi video game
BeatmapID:3133779
BeatmapSetID:1532238

[Difficulty]
HPDrainRate:5
CircleSize:5
OverallDifficulty:7
ApproachRate:8
SliderMultiplier:1.7
SliderTickRate:1

[Events]
//Background and Video events
0,0,"IumHtZ4.jpeg",0,0
//Break Periods
//Storyboard Layer 0 (Background)
//Storyboard Layer 1 (Fail)
//Storyboard Layer 2 (Pass)
//Storyboard Layer 3 (Foreground)
//Storyboard Layer 4 (Overlay)
//Storyboard Sound Samples

[TimingPoints]
-12793,937.5,4,2,1,19,1,0
488,-50,4,2,1,22,0,0
644,-50,4,2,1,25,0,0
800,-50,4,2,1,28,0,0
956,-50,4,2,1,31,0,0
1113,-50,4,2,1,34,0,0
1269,-50,4,2,1,37,0,0
1425,-50,4,2,1,40,0,0
1581,-50,4,2,1,43,0,0
1738,-50,4,2,1,46,0,0
1894,-50,4,2,1,49,0,0
2050,-50,4,2,1,52,0,0
2206,-50,4,2,1,55,0,0
2519,-62.5,4,2,1,55,0,0
2832,-83.3333333333333,4,2,1,55,0,0
3144,-58.8235294117647,4,2,1,55,0,0
3457,-76.9230769230769,4,2,1,55,0,0
3769,-111.111111111111,4,2,1,55,0,0
4082,-62.5,4,2,1,55,0,0
5332,-50,4,2,1,55,0,0
6269,-62.5,4,2,1,55,0,0
6582,-83.3333333333333,4,2,1,55,0,0
6894,-58.8235294117647,4,2,1,55,0,0
7207,-76.9230769230769,4,2,1,55,0,0
7519,-111.111111111111,4,2,1,55,0,0
8144,-50,4,2,1,55,0,0
10019,-62.5,4,2,1,55,0,0
10332,-83.3333333333333,4,2,1,55,0,0
10644,-58.8235294117647,4,2,1,55,0,0
10957,-76.9230769230769,4,2,1,55,0,0
11269,-111.111111111111,4,2,1,55,0,0
11582,-50,4,2,1,55,0,0
13769,-62.5,4,2,1,55,0,0
14082,-83.3333333333333,4,2,1,55,0,0
14394,-58.8235294117647,4,2,1,55,0,0
14707,-76.9230769230769,4,2,1,55,0,0
15019,-111.111111111111,4,2,1,55,0,0
15332,-50,4,2,1,55,0,0
16269,-76.9230769230769,4,2,1,55,0,0
19082,-58.8235294117647,4,2,1,55,0,0
20332,-76.9230769230769,4,2,1,55,0,0
26582,-58.8235294117647,4,2,1,55,0,0
27519,-76.9230769230769,4,2,1,55,0,0
34082,-58.8235294117647,4,2,1,55,0,0
35332,-76.9230769230769,4,2,1,55,0,0
37832,-58.8235294117647,4,2,1,55,0,0
38769,-76.9230769230769,4,2,1,55,0,0
41582,-58.8235294117647,4,2,1,55,0,0
43457,-58.8235294117647,4,2,1,60,0,0
44707,-53.763440860215,4,2,1,60,0,0
45332,-50,4,2,1,65,0,0
45957,-58.8235294117647,4,2,1,65,0,0
47207,312.5,4,2,1,70,1,1
47207,-149.253731343284,4,2,1,70,0,1
50332,-114.942528735632,4,2,1,70,0,1
52832,-149.253731343284,4,2,1,70,0,1
53457,-212.765957446809,4,2,1,70,0,1
54238,-149.253731343284,4,2,1,70,0,1
54707,-114.942528735632,4,2,1,70,0,1
55332,-149.253731343284,4,2,1,70,0,1
55957,-212.765957446809,4,2,1,70,0,1
57207,-149.253731343284,4,2,1,70,0,1
62207,-114.942528735632,4,2,1,70,0,1
62832,-149.253731343284,4,2,1,70,0,1
63457,-212.765957446809,4,2,1,70,0,1
64082,-149.253731343284,4,2,1,70,0,1
64707,-114.942528735632,4,2,1,70,0,1
65332,-149.253731343284,4,2,1,70,0,1
65957,-212.765957446809,4,2,1,70,0,1
66582,-149.253731343284,4,2,1,70,0,1
67207,937.5,4,2,1,60,1,0
70957,-100,4,2,1,5,0,0

[Colours]
Combo1 : 174,210,255
Combo2 : 215,255,170
Combo3 : 149,255,154
Combo4 : 164,255,255

[HitObjects]
49,34,2207,38,0,P|64:57|87:73,1,56.6666666666667,6|2,1:2|0:0,0:0:0:0:
47,124,2519,2,0,P|66:135|88:139,1,45.3333333333334,2|2,3:2|0:0,0:0:0:0:
84,202,2832,2,0,P|100:202|117:199,1,33.9999989624024,2|2,0:0|0:0,0:0:0:0:
185,204,3144,2,0,P|179:226|165:246,1,48.1666675853729,10|0,3:2|0:0,0:0:0:0:
204,300,3457,2,0,P|188:309|169:313,1,36.8333316472372,2|0,0:0|0:0,0:0:0:0:
173,376,3769,2,0,P|158:376|144:373,1,25.4999992218018,2|2,1:2|0:0,0:0:0:0:
92,329,4003,5,0,0:0:0:0:
92,329,4082,2,0,B|112:279|66:228|66:228|24:174|43:120,1,226.666666666667,2|0,1:2|0:0,0:0:0:0:
35,49,5019,1,10,3:2:0:0:
35,49,5332,2,0,B|28:31|6:33|-12:55|-5:84|23:101|61:99|87:81|103:34,1,170,2|0,1:2|0:2,0:2:0:0:
162,30,5957,38,0,P|191:38|212:58,1,56.6666666666667,2|2,1:2|0:0,0:0:0:0:
245,0,6269,2,0,P|261:15|271:35,1,45.3333333333333,2|2,3:2|0:2,0:0:0:0:
331,5,6582,2,0,P|336:20|338:37,1,33.9999989624024,2|2,0:0|0:0,0:0:0:0:
343,102,6894,6,0,P|366:96|385:82,1,48.1666675853729,10|2,3:2|0:0,0:0:0:0:
421,135,7207,2,0,P|435:122|443:105,1,36.8333316472372,2|2,0:0|0:0,0:0:0:0:
505,133,7519,2,0,P|509:121|512:108,1,25.4999992218018,2|2,1:2|0:0,0:0:0:0:
479,38,7832,37,2,1:2:0:0:
397,72,7988,1,2,0:0:0:0:
385,200,8144,2,0,P|405:238|475:274,1,113.333333333333,2|2,0:0|1:2,0:0:0:0:
484,270,8769,1,10,3:2:0:0:
466,192,8925,1,2,0:0:0:0:
425,335,9082,2,0,P|402:351|375:359,1,56.6666666666667,2|0,1:2|0:0,0:0:0:0:
306,350,9394,1,2,0:0:0:0:
253,282,9550,1,2,0:0:0:0:
277,170,9707,6,0,P|295:191|303:217,1,56.6666666666667,2|2,1:2|0:0,0:0:0:0:
235,114,10019,2,0,P|219:130|210:150,1,45.3333333333333,2|2,3:2|0:0,0:0:0:0:
280,59,10332,2,0,P|295:75|304:95,1,33.9999989624024,2|2,0:0|0:0,0:0:0:0:
236,3,10644,2,0,P|217:24|209:50,1,48.1666675853729,10|2,3:2|0:0,0:0:0:0:
150,15,10957,2,0,P|145:32|145:51,1,36.8333316472372,2|2,0:0|0:0,0:0:0:0:
81,62,11269,2,0,P|83:74|88:86,1,25.4999992218018,2|2,1:2|0:0,0:0:0:0:
146,123,11503,37,0,0:0:0:0:
146,123,11582,2,0,B|144:162|134:192|96:201|45:208|34:234|46:265|45:300|80:319|124:313|141:289|144:267,1,283.333333333333,2|0,1:2|0:0,0:0:0:0:
181,228,12519,1,10,3:2:0:0:
181,228,12832,2,0,P|178:301|266:317,1,170,2|0,1:2|0:0,0:0:0:0:
307,263,13457,6,0,P|325:284|335:310,1,56.6666666666667,2|0,1:2|1:0,0:0:0:0:
318,195,13769,2,0,P|339:201|358:214,1,45.3333333333333,2|2,0:0|1:2,0:0:0:0:
289,133,14082,2,0,P|305:128|322:127,1,33.9999989624024,2|2,1:2|0:0,0:0:0:0:
233,175,14394,2,0,P|222:154|218:131,1,48.1666675853729,10|0,3:2|0:0,0:0:0:0:
154,138,14707,2,0,P|154:119|158:101,1,36.8333316472372,2|0,0:0|0:0,0:0:0:0:
97,75,15019,2,0,P|102:64|110:54,1,25.4999992218018,2|2,1:2|0:0,0:0:0:0:
210,45,15332,38,0,L|214:74,1,28.3333333333333,2|0,1:2|0:0,0:0:0:0:
142,150,15488,1,2,0:0:0:0:
4,106,15644,1,2,0:0:0:0:
41,158,15957,1,2,1:2:0:0:
55,259,16269,2,0,P|50:295|30:325,1,73.6666632944744,8|0,3:2|1:2,0:0:0:0:
13,329,16894,1,0,1:0:0:0:
122,269,17050,1,2,0:0:0:0:
214,361,17207,5,6,1:2:0:0:
246,331,17363,1,2,0:0:0:0:
285,350,17519,1,2,0:2:0:0:
298,308,17675,1,2,0:0:0:0:
340,304,17832,1,2,0:2:0:0:
331,262,17988,1,2,0:0:0:0:
291,242,18144,1,10,3:2:0:0:
297,215,18300,1,2,0:0:0:0:
274,199,18457,1,2,0:0:0:0:
293,178,18612,1,2,0:0:0:0:
282,153,18769,1,2,1:2:0:0:
308,144,18925,1,2,0:0:0:0:
380,178,19082,38,0,P|476:181|488:59,1,240.833337926865,2|0,1:2|0:0,0:0:0:0:
410,42,20019,1,10,3:2:0:0:
410,42,20332,2,0,P|369:62|306:39,1,110.499994941712,0|2,1:0|0:0,0:0:0:0:
211,8,20957,5,6,1:2:0:0:
179,38,21113,1,2,0:0:0:0:
140,19,21269,1,2,0:2:0:0:
127,61,21425,1,2,0:0:0:0:
85,65,21582,1,2,0:2:0:0:
94,107,21738,1,2,0:0:0:0:
134,127,21894,1,10,3:2:0:0:
128,154,22050,1,2,0:0:0:0:
151,170,22206,1,2,0:0:0:0:
132,191,22362,1,2,0:0:0:0:
143,216,22519,1,2,1:2:0:0:
117,224,22675,1,2,0:0:0:0:
28,256,22832,38,0,P|30:311|67:350,1,110.499994941712,2|2,1:2|3:2,0:0:0:0:
155,322,23457,1,2,1:2:0:0:
155,322,23769,2,0,P|203:352|223:349,1,73.6666632944744,10|0,3:2|1:2,0:0:0:0:
238,339,24238,1,2,0:0:0:0:
276,246,24394,1,2,0:0:0:0:
330,384,24550,1,2,0:0:0:0:
407,324,24707,5,6,3:2:0:0:
371,297,24863,1,2,0:0:0:0:
327,290,25019,1,2,0:0:0:0:
363,263,25175,1,0,1:0:0:0:
407,256,25332,1,2,1:2:0:0:
371,229,25488,1,2,0:0:0:0:
344,219,25644,1,10,3:2:0:0:
367,201,25800,1,2,0:0:0:0:
395,196,25956,1,2,0:0:0:0:
372,179,26112,1,2,0:0:0:0:
344,174,26269,1,2,1:2:0:0:
367,157,26425,1,2,0:0:0:0:
455,122,26582,38,0,B|507:77|494:13|494:13|425:14|386:60,1,240.833337926865,2|0,1:2|0:0,0:0:0:0:
321,96,27519,1,10,3:2:0:0:
321,96,27832,2,0,P|289:113|252:109,1,73.6666632944744,2|2,1:2|0:0,0:0:0:0:
211,48,28300,1,2,0:0:0:0:
101,113,28457,5,6,1:2:0:0:
60,128,28613,1,2,0:0:0:0:
26,156,28769,1,2,0:2:0:0:
67,171,28925,1,2,0:0:0:0:
101,199,29082,1,2,0:2:0:0:
60,214,29238,1,2,0:0:0:0:
32,248,29394,1,10,3:2:0:0:
59,257,29550,1,2,0:0:0:0:
81,275,29706,1,2,0:0:0:0:
54,285,29862,1,2,0:0:0:0:
32,303,30019,1,2,1:2:0:0:
59,313,30175,1,2,0:0:0:0:
103,375,30332,38,0,P|146:342|202:344,1,110.499994941712,2|2,1:2|1:2,0:0:0:0:
290,380,30957,1,0,1:0:0:0:
290,380,31269,5,10,3:2:0:0:
314,310,31425,1,2,0:0:0:0:
386,323,31582,37,2,1:2:0:0:
360,254,31738,1,2,0:0:0:0:
424,217,31894,5,2,0:0:0:0:
360,181,32050,1,2,0:0:0:0:
295,217,32207,37,6,1:2:0:0:
257,193,32363,1,2,0:0:0:0:
213,199,32519,1,2,0:2:0:0:
199,156,32675,1,2,0:0:0:0:
162,132,32832,1,2,0:2:0:0:
179,90,32988,1,2,0:0:0:0:
166,48,33144,1,8,3:2:0:0:
193,38,33300,1,0,0:0:0:0:
212,15,33457,1,2,0:0:0:0:
239,24,33613,1,0,0:0:0:0:
268,19,33769,1,0,1:0:0:0:
283,43,33925,1,2,0:0:0:0:
256,111,34082,6,0,B|224:144|158:121|144:66|144:66|134:27|96:11|70:23,1,240.833337926865,2|0,1:2|0:0,0:0:0:0:
14,71,35019,1,8,3:2:0:0:
14,71,35332,2,0,P|7:117|13:155,1,73.6666632944744,0|0,1:0|0:0,0:0:0:0:
60,217,35800,1,2,0:0:0:0:
182,162,35957,37,6,1:2:0:0:
173,205,36113,1,2,0:0:0:0:
209,230,36269,1,2,0:0:0:0:
179,262,36425,1,2,0:0:0:0:
199,302,36582,1,2,0:0:0:0:
157,315,36738,1,2,0:0:0:0:
140,355,36894,1,8,3:2:0:0:
112,349,37050,1,0,0:0:0:0:
95,372,37206,1,2,0:0:0:0:
75,353,37362,1,0,0:0:0:0:
49,366,37519,1,0,1:0:0:0:
40,338,37675,1,2,0:0:0:0:
69,260,37832,6,0,P|79:208|63:163,1,96.3333351707459,2|0,1:2|0:0,0:0:0:0:
34,163,38300,1,0,1:0:0:0:
27,48,38457,1,0,1:0:0:0:
27,48,38769,2,0,P|45:72|58:40,1,73.6666632944744,8|0,3:2|1:0,0:0:0:0:
73,21,39238,1,2,0:0:0:0:
215,56,39394,1,2,0:0:0:0:
273,116,39550,1,2,0:0:0:0:
276,187,39707,37,6,1:2:0:0:
288,227,39863,1,2,0:0:0:0:
259,260,40019,1,2,0:0:0:0:
296,286,40175,1,2,0:0:0:0:
298,330,40332,1,2,0:0:0:0:
343,326,40488,1,2,0:0:0:0:
367,289,40644,1,8,3:2:0:0:
392,283,40800,1,2,0:0:0:0:
402,256,40956,1,2,0:0:0:0:
428,268,41112,1,2,0:0:0:0:
453,255,41269,1,0,1:0:0:0:
466,282,41425,1,2,0:0:0:0:
419,342,41582,6,0,P|384:282|393:205,1,144.500002756119,2|0,1:2|0:0,0:0:0:0:
469,161,42207,1,0,0:0:0:0:
469,161,42519,2,0,P|417:188|401:105,1,144.500002756119,8|0,3:2|0:0,0:0:0:0:
432,10,43144,1,2,0:0:0:0:
345,67,43300,1,2,0:0:0:0:
230,11,43457,38,0,P|245:77|191:119,1,144.500002756119,6|0,1:2|1:0,0:0:0:0:
108,67,44082,2,0,P|158:89|123:180,1,144.500002756119,2|8,0:0|3:2,0:0:0:0:
51,179,44707,2,0,P|130:173|123:234,1,158.10000494545,0|2,1:0|0:0,0:0:0:0:
84,300,45332,2,0,P|103:248|142:313,1,170,0|2,1:0|0:0,0:0:0:0:
156,373,45957,2,0,P|160:319|239:319,1,144.500002756119,2|2,1:2|3:2,0:0:0:0:
302,361,46582,2,0,L|309:322,3,24.0833337926865,2|2|10|2,3:2|0:0|0:0|0:0,0:0:0:0:
372,317,46894,2,0,L|365:278,3,24.0833337926865,2|2|10|2,0:0|0:0|0:0|0:0,0:0:0:0:
435,370,47207,21,14,1:2:0:0:
486,268,47363,1,2,1:2:0:0:
438,190,47519,1,10,0:0:0:0:
369,191,47675,1,2,3:2:0:0:
344,228,47832,2,0,P|319:240|291:241,1,56.6666666666667,10|2,3:2|0:0,0:0:0:0:
269,233,48144,5,14,1:2:0:0:
202,163,48300,1,2,1:2:0:0:
234,41,48457,1,10,0:0:0:0:
328,21,48613,1,2,0:0:0:0:
394,64,48769,1,10,3:2:0:0:
394,64,49082,37,10,1:2:0:0:
318,105,49238,1,2,3:2:0:0:
234,41,49394,1,10,3:2:0:0:
143,123,49550,1,2,3:2:0:0:
0,35,49707,5,14,1:2:0:0:
96,52,49863,2,0,P|115:104|95:155,1,113.899994612274,2|2,1:2|3:2,0:0:0:0:
21,213,50332,2,0,P|9:247|18:283,1,73.6666632944744,10|2,0:0|0:0,0:0:0:0:
130,361,50644,1,14,1:2:0:0:
227,287,50800,1,2,1:2:0:0:
200,191,50957,1,10,3:2:0:0:
126,191,51113,1,2,3:2:0:0:
95,241,51269,1,10,3:2:0:0:
111,273,51425,37,2,0:0:0:0:
148,272,51582,1,10,3:2:0:0:
152,261,51660,1,2,3:2:0:0:
156,250,51738,1,2,3:2:0:0:
160,239,51816,1,2,3:2:0:0:
164,228,51894,1,10,0:0:0:0:
201,97,52050,1,2,0:0:0:0:
319,54,52207,6,0,L|358:71,3,36.8333316472372,14|2|2|2,1:2|0:0|1:2|0:0,0:0:0:0:
394,14,52519,2,0,L|419:48,3,36.8333316472372,10|2|2|2,3:2|0:0|0:2|0:0,0:0:0:0:
479,147,52832,38,0,L|453:158,3,28.3333333333333,10|2|2|2,3:2|0:0|0:0|0:0,0:0:0:0:
406,108,53144,2,0,L|389:130,3,28.3333333333333,14|2|2|2,1:2|0:0|1:2|0:0,0:0:0:0:
337,238,53457,6,0,L|356:246,3,19.9749996952057,10|2|2|2,3:2|0:0|0:2|0:0,0:0:0:0:
402,196,53769,2,0,L|413:213,3,19.9749996952057,10|2|2|2,3:2|0:0|0:2|0:0,0:0:0:0:
471,364,54082,37,10,1:2:0:0:
448,371,54160,1,0,0:0:0:0:
424,373,54238,2,0,P|409:372|395:369,1,28.3333333333333,2|0,1:2|0:0,0:0:0:0:
349,311,54394,1,10,3:2:0:0:
326,304,54472,1,0,0:0:0:0:
302,302,54550,2,0,P|298:302|273:305,1,28.3333333333333,2|2,0:0|0:0,0:0:0:0:
200,318,54707,6,0,P|198:343|191:369,3,36.8333316472372,14|2|2|2,1:2|0:0|1:2|0:0,0:0:0:0:
132,327,55019,2,0,P|117:347|98:366,3,36.8333316472372,10|2|2|2,3:2|0:0|0:0|0:0,0:0:0:0:
11,233,55332,38,0,P|0:255|-6:281,3,28.3333333333333,10|2|2|2,3:2|0:0|0:0|0:0,0:0:0:0:
64,273,55644,2,0,P|66:297|73:323,3,28.3333333333333,14|0|2|0,1:2|0:0|1:2|0:0,0:0:0:0:
154,172,55957,6,0,P|163:178|170:185,3,19.9749996952057,10|2|2|2,3:2|0:0|0:0|0:0,0:0:0:0:
122,233,56269,2,0,P|127:243|130:252,3,19.9749996952057,10|2|2|2,3:2|0:0|0:0|0:0,0:0:0:0:
70,194,56582,37,14,1:2:0:0:
59,95,56738,1,2,3:2:0:0:
143,23,56894,1,10,3:2:0:0:
279,62,57050,1,2,0:2:0:0:
290,249,57207,5,6,1:2:0:0:
199,155,57363,1,0,1:0:0:0:
95,159,57519,1,8,3:2:0:0:
43,214,57675,1,2,3:2:0:0:
34,263,57832,2,0,P|29:290|37:318,1,56.6666666666667,8|2,3:2|0:0,0:0:0:0:
62,344,58144,37,14,1:2:0:0:
157,329,58300,1,2,1:2:0:0:
215,231,58457,1,10,0:0:0:0:
203,135,58613,1,2,0:0:0:0:
154,72,58769,1,10,3:2:0:0:
154,72,59082,5,2,1:2:0:0:
127,155,59238,1,2,3:2:0:0:
215,231,59394,1,10,3:2:0:0:
137,336,59550,1,2,3:2:0:0:
311,384,59707,37,6,1:2:0:0:
223,302,59863,2,0,P|244:249|289:217,1,113.899994612274,0|2,1:0|3:2,0:0:0:0:
398,216,60332,2,0,P|423:204|442:183,1,56.6666666666667,10|2,3:2|0:0,0:0:0:0:
465,119,60644,1,6,1:2:0:0:
402,5,60800,1,0,1:0:0:0:
305,17,60957,5,8,3:2:0:0:
299,101,61113,1,2,3:2:0:0:
357,134,61269,1,10,3:2:0:0:
398,104,61425,1,2,0:0:0:0:
367,62,61582,1,10,3:2:0:0:
347,61,61660,1,2,3:2:0:0:
327,60,61738,1,2,3:2:0:0:
307,60,61816,1,2,3:2:0:0:
287,60,61894,1,10,3:2:0:0:
214,131,62050,1,2,0:0:0:0:
206,267,62207,38,0,L|215:302,3,36.8333316472372,6|2|2|2,1:2|0:0|1:2|0:0,0:0:0:0:
145,308,62519,2,0,L|135:342,3,36.8333316472372,10|2|2|2,3:2|0:0|0:0|0:2,0:0:0:0:
24,193,62832,6,0,L|16:220,3,28.3333333333333,10|2|2|2,3:2|0:0|0:0|0:2,0:0:0:0:
82,229,63144,2,0,L|89:256,3,28.3333333333333,6|2|2|2,1:2|0:0|1:2|0:0,0:0:0:0:
213,147,63457,38,0,L|218:166,3,19.9749996952057,10|2|2|2,3:2|0:0|0:2|0:0,0:0:0:0:
151,179,63769,2,0,L|145:198,3,19.9749996952057,10|2|2|2,3:2|0:0|0:2|0:0,0:0:0:0:
43,43,64082,5,10,1:2:0:0:
73,29,64160,1,0,0:0:0:0:
106,24,64238,2,0,L|143:32,1,28.3333333333333,2|0,1:2|0:0,0:0:0:0:
202,70,64394,1,10,3:2:0:0:
243,80,64472,1,0,0:0:0:0:
284,71,64550,2,0,L|307:55,1,28.3333333333333,2|2,3:2|0:0,0:0:0:0:
390,49,64707,38,0,L|381:13,3,36.8333316472372,6|2|2|2,1:2|0:0|1:2|0:0,0:0:0:0:
450,86,65019,2,0,L|460:50,3,36.8333316472372,10|2|2|2,3:2|0:0|0:2|0:0,0:0:0:0:
488,144,65332,6,0,L|508:124,3,28.3333333333333,10|2|2|2,3:2|0:0|0:2|0:0,0:0:0:0:
485,214,65644,2,0,L|512:207,3,28.3333333333333,6|0|2|0,1:2|0:0|1:2|0:0,0:0:0:0:
471,276,65957,38,0,L|490:281,3,19.9749996952057,10|2|2|2,3:2|0:0|0:0|0:0,0:0:0:0:
419,314,66269,2,0,L|433:328,3,19.9749996952057,10|2|2|2,3:2|0:0|0:0|0:0,0:0:0:0:
295,249,66582,5,6,1:2:0:0:
264,234,66660,1,2,3:2:0:0:
230,228,66738,2,0,P|215:228|201:230,1,28.3333333333333,2|2,3:2|3:2,0:0:0:0:
166,323,66894,1,10,3:2:0:0:
128,343,66972,1,2,3:2:0:0:
85,342,67050,2,0,P|70:340|58:334,1,28.3333333333333,2|2,3:2|3:2,0:0:0:0:
1,179,67207,1,6,1:2:0:0:
256,192,67285,12,0,70957,0:0:0:0:
