osu file format v14

[General]
AudioFilename: audio.mp3
AudioLeadIn: 0
PreviewTime: 17025
Countdown: 0
SampleSet: Normal
StackLeniency: 0.7
Mode: 1
LetterboxInBreaks: 0
WidescreenStoryboard: 1

[Editor]
Bookmarks: 7786,18221
DistanceSpacing: 0.5
BeatDivisor: 4
GridSize: 32
TimelineZoom: 1

[Metadata]
Title:Friendly Shop
TitleUnicode:フレンドリィショップ
Artist:Ichinose Go
ArtistUnicode:一之瀬剛
Creator:Vaf
Version:Muzukashii
Source:ポケットモンスター ハートゴールド・ソウルシルバー
Tags:pokemon pokémon pokemart pokémart heartgold soulsilver heart gold soul silver kanto johto gamefreak freak video game instrumental ds nds gen 4 iv pocket monsters nintendo 景山将太 kageyama shouta
BeatmapID:2786850
BeatmapSetID:1345690

[Difficulty]
HPDrainRate:7.5
CircleSize:5
OverallDifficulty:4
ApproachRate:5
SliderMultiplier:1.4
SliderTickRate:1

[Events]
//Background and Video events
0,0,"fTaaJxE.jpg",0,0
//Break Periods
//Storyboard Layer 0 (Background)
//Storyboard Layer 1 (Fail)
//Storyboard Layer 2 (Pass)
//Storyboard Layer 3 (Foreground)
//Storyboard Layer 4 (Overlay)
//Storyboard Sound Samples

[TimingPoints]
4091,434.782608695652,4,1,0,50,1,0

[HitObjects]
245,121,4091,5,8,0:0:0:0:
245,121,4417,1,0,0:0:0:0:
245,121,4525,1,8,0:0:0:0:
218,144,4743,1,0,0:0:0:0:
228,161,5612,1,8,0:0:0:0:
227,153,5721,1,8,0:0:0:0:
227,153,5830,1,8,0:0:0:0:
226,149,6047,1,0,0:0:0:0:
226,149,6264,1,0,0:0:0:0:
228,145,6482,1,8,0:0:0:0:
223,156,7134,1,8,0:0:0:0:
223,156,7243,1,8,0:0:0:0:
223,156,7351,1,8,0:0:0:0:
236,166,7569,1,0,0:0:0:0:
246,172,7895,1,0,0:0:0:0:
249,165,8004,1,8,0:0:0:0:
249,165,8221,1,0,0:0:0:0:
263,212,9090,1,8,0:0:0:0:
255,199,9199,1,8,0:0:0:0:
255,199,9308,1,8,0:0:0:0:
255,199,9525,1,0,0:0:0:0:
255,199,9743,1,8,0:0:0:0:
255,199,9960,1,8,0:0:0:0:
255,199,10612,1,0,0:0:0:0:
255,199,10721,1,0,0:0:0:0:
255,199,10830,1,0,0:0:0:0:
239,184,11047,1,8,0:0:0:0:
239,173,11373,1,0,0:0:0:0:
239,173,11482,1,8,0:0:0:0:
238,173,11699,1,0,0:0:0:0:
221,179,11917,1,0,0:0:0:0:
232,185,12134,1,8,0:0:0:0:
230,162,13004,1,8,0:0:0:0:
232,165,13438,1,0,0:0:0:0:
231,167,13656,1,8,0:0:0:0:
250,178,14090,1,8,0:0:0:0:
240,177,14308,1,0,0:0:0:0:
233,172,14525,1,8,0:0:0:0:
230,168,15177,1,0,0:0:0:0:
233,172,15286,1,0,0:0:0:0:
233,172,15395,1,0,0:0:0:0:
233,191,15612,1,8,0:0:0:0:
237,188,15830,1,0,0:0:0:0:
240,148,16047,1,0,0:0:0:0:
236,157,16264,1,8,0:0:0:0:
194,176,17134,1,8,0:0:0:0:
242,166,17351,1,8,0:0:0:0:
245,186,17569,1,0,0:0:0:0:
246,174,17786,1,0,0:0:0:0:
249,179,18004,1,8,0:0:0:0:
243,176,18330,1,0,0:0:0:0:
267,175,18438,1,8,0:0:0:0:
240,211,18656,1,0,0:0:0:0:
263,212,19525,1,8,0:0:0:0:
255,199,19634,1,8,0:0:0:0:
255,199,19743,1,8,0:0:0:0:
255,199,20395,1,8,0:0:0:0:
243,183,20830,1,0,0:0:0:0:
243,183,21047,1,8,0:0:0:0:
242,151,21264,1,8,0:0:0:0:
230,152,21482,1,0,0:0:0:0:
235,147,21808,1,0,0:0:0:0:
239,145,21917,1,8,0:0:0:0:
225,160,22134,1,0,0:0:0:0:
230,146,23004,1,8,0:0:0:0:
231,138,23112,1,8,0:0:0:0:
231,138,23221,1,8,0:0:0:0:
217,140,23873,1,8,0:0:0:0:
224,147,24308,1,0,0:0:0:0:
236,153,24525,1,8,0:0:0:0:
243,139,24743,1,8,0:0:0:0:
243,139,24851,1,8,0:0:0:0:
243,139,24960,1,8,0:0:0:0:
256,161,25395,1,8,0:0:0:0:
255,160,25612,1,0,0:0:0:0:
250,157,25830,1,0,0:0:0:0:
250,157,26047,1,8,0:0:0:0:
238,128,26917,1,8,0:0:0:0:
236,136,27134,1,0,0:0:0:0:
240,129,27351,1,0,0:0:0:0:
237,128,27569,1,8,0:0:0:0:
236,135,27786,1,0,0:0:0:0:
235,135,28004,1,8,0:0:0:0:
238,128,28221,1,8,0:0:0:0:
236,136,28438,1,8,0:0:0:0:
233,115,29090,1,0,0:0:0:0:
233,115,29199,1,0,0:0:0:0:
233,115,29308,1,0,0:0:0:0:
233,115,29525,1,0,0:0:0:0:
233,115,29743,1,8,0:0:0:0:
239,113,29960,1,8,0:0:0:0:
239,113,30177,1,0,0:0:0:0:
227,146,30612,1,8,0:0:0:0:
227,146,31047,1,0,0:0:0:0:
227,146,31482,1,0,0:0:0:0:
228,152,31699,1,8,0:0:0:0:
227,151,31917,1,8,0:0:0:0:
227,146,32351,1,8,0:0:0:0:
227,151,32786,1,8,0:0:0:0:
225,165,33004,1,0,0:0:0:0:
240,166,33221,1,0,0:0:0:0:
240,166,33438,1,8,0:0:0:0:
230,149,34090,1,8,0:0:0:0:
224,132,34525,1,0,0:0:0:0:
241,148,34960,1,0,0:0:0:0:
222,160,35395,1,0,0:0:0:0:
241,148,35612,1,0,0:0:0:0:
241,148,35830,1,8,0:0:0:0:
259,159,36047,1,0,0:0:0:0:
247,150,36482,1,0,0:0:0:0:
212,159,36699,1,0,0:0:0:0:
249,162,36917,1,8,0:0:0:0:
259,154,37569,1,0,0:0:0:0:
258,155,37786,1,8,0:0:0:0:
235,196,38004,1,8,0:0:0:0:
249,162,38112,1,8,0:0:0:0:
249,162,38221,1,8,0:0:0:0:
259,166,38438,1,8,0:0:0:0:
259,166,38656,1,0,0:0:0:0:
259,166,38873,1,8,0:0:0:0:
250,157,39308,1,8,0:0:0:0:
250,157,39743,1,8,0:0:0:0:
250,157,39960,1,0,0:0:0:0:
250,157,40177,1,8,0:0:0:0:
250,157,40395,1,8,0:0:0:0:
237,157,41047,1,0,0:0:0:0:
240,142,41156,1,0,0:0:0:0:
240,142,41264,1,0,0:0:0:0:
239,143,41482,1,0,0:0:0:0:
230,122,41590,1,0,0:0:0:0:
241,143,41699,1,0,0:0:0:0:
241,143,41917,1,8,0:0:0:0:
232,122,42025,1,8,0:0:0:0:
243,143,42134,1,8,0:0:0:0:
245,175,42351,1,8,0:0:0:0:
236,151,42786,1,8,0:0:0:0:
236,151,43004,1,0,0:0:0:0:
236,151,43438,1,0,0:0:0:0:
236,151,43656,1,8,0:0:0:0:
236,151,43873,1,8,0:0:0:0:
240,139,44525,1,8,0:0:0:0:
240,139,44743,1,0,0:0:0:0:
222,150,45177,1,8,0:0:0:0:
238,128,45395,1,8,0:0:0:0:
249,130,45612,1,0,0:0:0:0:
248,130,45830,1,8,0:0:0:0:
235,157,46264,1,8,0:0:0:0:
240,100,46482,1,8,0:0:0:0:
240,93,46699,1,0,0:0:0:0:
240,119,47134,1,8,0:0:0:0:
237,130,47351,1,0,0:0:0:0:
237,130,47569,1,8,0:0:0:0:
228,154,48004,1,8,0:0:0:0:
228,154,48221,1,0,0:0:0:0:
228,154,48656,1,0,0:0:0:0:
228,154,48873,1,8,0:0:0:0:
228,154,49090,1,8,0:0:0:0:
228,154,49308,1,0,0:0:0:0:
206,156,49743,1,0,0:0:0:0:
231,132,49960,1,8,0:0:0:0:
224,158,50395,1,0,0:0:0:0:
228,139,50612,1,8,0:0:0:0:
228,139,50830,1,0,0:0:0:0:
228,140,51047,1,8,0:0:0:0:
228,140,51264,1,8,0:0:0:0:
228,139,51699,1,0,0:0:0:0:
175,192,52786,1,12,0:0:0:0:
