osu file format v14

[General]
AudioFilename: audio.mp3
AudioLeadIn: 0
PreviewTime: 17025
Countdown: 0
SampleSet: Normal
StackLeniency: 0.7
Mode: 1
LetterboxInBreaks: 0
WidescreenStoryboard: 1

[Editor]
Bookmarks: 7786,18221
DistanceSpacing: 0.5
BeatDivisor: 16
GridSize: 32
TimelineZoom: 1

[Metadata]
Title:Friendly Shop
TitleUnicode:フレンドリィショップ
Artist:Ichinose Go
ArtistUnicode:一之瀬剛
Creator:Vaf
Version:Kantan
Source:ポケットモンスター ハートゴールド・ソウルシルバー
Tags:pokemon pokémon pokemart pokémart heartgold soulsilver heart gold soul silver kanto johto gamefreak freak video game instrumental ds nds gen 4 iv pocket monsters nintendo 景山将太 kageyama shouta
BeatmapID:2786849
BeatmapSetID:1345690

[Difficulty]
HPDrainRate:9
CircleSize:5
OverallDifficulty:2
ApproachRate:5
SliderMultiplier:1.4
SliderTickRate:1

[Events]
//Background and Video events
0,0,"fTaaJxE.jpg",0,0
//Break Periods
//Storyboard Layer 0 (Background)
//Storyboard Layer 1 (Fail)
//Storyboard Layer 2 (Pass)
//Storyboard Layer 3 (Foreground)
//Storyboard Layer 4 (Overlay)
//Storyboard Sound Samples

[TimingPoints]
4091,434.782608695652,4,1,0,50,1,0

[HitObjects]
245,121,4091,5,8,0:0:0:0:
218,144,4743,1,0,0:0:0:0:
227,153,5830,1,8,0:0:0:0:
228,145,6482,1,8,0:0:0:0:
223,156,7134,1,8,0:0:0:0:
236,166,7569,1,0,0:0:0:0:
249,165,8221,1,0,0:0:0:0:
255,199,9308,1,8,0:0:0:0:
255,199,9960,1,8,0:0:0:0:
255,199,10612,1,0,0:0:0:0:
239,184,11047,1,8,0:0:0:0:
238,173,11699,1,0,0:0:0:0:
230,162,13004,1,0,0:0:0:0:
231,167,13656,1,8,0:0:0:0:
250,178,14090,1,8,0:0:0:0:
233,172,14525,1,8,0:0:0:0:
233,172,15395,1,0,0:0:0:0:
237,188,15830,1,0,0:0:0:0:
236,157,16264,1,8,0:0:0:0:
194,176,17134,1,8,0:0:0:0:
245,186,17569,1,0,0:0:0:0:
246,174,18004,1,0,0:0:0:0:
240,211,18656,1,0,0:0:0:0:
255,199,19743,1,8,0:0:0:0:
255,199,20395,1,8,0:0:0:0:
243,183,21047,1,8,0:0:0:0:
230,152,21482,1,0,0:0:0:0:
225,160,22134,1,0,0:0:0:0:
231,138,23221,1,8,0:0:0:0:
217,140,23873,1,8,0:0:0:0:
224,147,24308,1,0,0:0:0:0:
243,139,24960,1,8,0:0:0:0:
255,160,25612,1,0,0:0:0:0:
238,128,27134,1,0,0:0:0:0:
237,128,27569,1,8,0:0:0:0:
235,135,28004,1,0,0:0:0:0:
236,136,28438,1,8,0:0:0:0:
233,115,29308,1,0,0:0:0:0:
233,115,29743,1,8,0:0:0:0:
239,113,30177,1,0,0:0:0:0:
227,146,31482,1,0,0:0:0:0:
227,151,31917,1,8,0:0:0:0:
227,146,32351,1,8,0:0:0:0:
227,151,32786,1,8,0:0:0:0:
240,166,33438,1,8,0:0:0:0:
230,149,34090,1,8,0:0:0:0:
224,132,34525,1,0,0:0:0:0:
222,160,35395,1,0,0:0:0:0:
259,159,36047,1,0,0:0:0:0:
249,162,36917,1,8,0:0:0:0:
258,155,37786,1,8,0:0:0:0:
259,166,38438,1,0,0:0:0:0:
259,166,38873,1,8,0:0:0:0:
250,157,39308,1,8,0:0:0:0:
250,157,39743,1,8,0:0:0:0:
250,157,40395,1,8,0:0:0:0:
245,175,42351,1,8,0:0:0:0:
236,151,43004,1,0,0:0:0:0:
236,151,43438,1,0,0:0:0:0:
236,151,43873,1,8,0:0:0:0:
240,139,44743,1,0,0:0:0:0:
238,128,45395,1,8,0:0:0:0:
248,130,45830,1,8,0:0:0:0:
237,130,47569,1,8,0:0:0:0:
228,154,48873,1,8,0:0:0:0:
228,154,49308,1,0,0:0:0:0:
228,139,50612,1,8,0:0:0:0:
228,140,51047,1,8,0:0:0:0:
228,139,51699,1,0,0:0:0:0:
149,178,52786,1,12,0:0:0:0:
