osu file format v14

[General]
AudioFilename: audio.ogg
AudioLeadIn: 0
PreviewTime: 43759
Countdown: 0
SampleSet: Soft
StackLeniency: 0.7
Mode: 0
LetterboxInBreaks: 0
WidescreenStoryboard: 0

[Editor]
DistanceSpacing: 0.7
BeatDivisor: 3
GridSize: 32
TimelineZoom: 1.5

[Metadata]
Title:216 Bandouro (Hiru)
TitleUnicode:216ばんどうろ (昼)
Artist:Ichinose Go
ArtistUnicode:一之瀬剛
Creator:SaltyLucario
Version:Nostalgia
Source:ポケットモンスター ダイヤモンド・パール
Tags:saltking salty jelljel route 216 day pokemon diamond pearl platinum プラチナ pokémon pocket monsters game freak gamefreak nintendo ds gō gou video game videogame vgm instrumental ost original soundtrack electronic jazz snow
BeatmapID:2715255
BeatmapSetID:1309775

[Difficulty]
HPDrainRate:5
CircleSize:4
OverallDifficulty:8
ApproachRate:9.2
SliderMultiplier:1.7
SliderTickRate:1

[Events]
//Background and Video events
0,0,"bg.jpg",0,0
//Break Periods
//Storyboard Layer 0 (Background)
//Storyboard Layer 1 (Fail)
//Storyboard Layer 2 (Pass)
//Storyboard Layer 3 (Foreground)
//Storyboard Layer 4 (Overlay)
//Storyboard Sound Samples

[TimingPoints]
365,319.148936170213,4,2,1,35,1,0
365,-181.818181818181,4,2,1,35,0,0
4753,-181.818181818182,4,2,99,35,0,0
4833,-125,4,2,1,35,0,0
5072,-181.818181818182,4,2,99,35,0,0
5152,-125,4,2,1,35,0,0
5471,-181.818181818181,4,2,1,35,0,0
6109,-333.333333333333,4,2,1,35,0,0
6747,-181.818181818182,4,2,1,35,0,0
9859,-181.818181818182,4,2,99,35,0,0
9939,-125,4,2,1,35,0,0
10178,-181.818181818182,4,2,99,35,0,0
10258,-125,4,2,1,35,0,0
10577,-181.818181818181,4,2,1,35,0,0
11215,-333.333333333333,4,2,1,35,0,0
11854,-181.818181818182,4,2,1,35,0,0
14966,-181.818181818182,4,2,99,35,0,0
15045,-125,4,2,1,35,0,0
15285,-181.818181818182,4,2,99,35,0,0
15365,-125,4,2,1,35,0,0
15683,-181.818181818181,4,2,1,35,0,0
16321,-333.333333333333,4,2,1,35,0,0
16960,-181.818181818182,4,2,1,35,0,0
20072,-181.818181818182,4,2,99,35,0,0
20152,-125,4,2,1,35,0,0
20391,-181.818181818182,4,2,99,35,0,0
20471,-125,4,2,1,35,0,0
20790,-181.818181818181,4,2,1,35,0,0
21428,-333.333333333333,4,2,1,35,0,0
22067,-181.818181818182,4,2,1,35,0,0
23024,-133.333333333333,4,2,1,35,0,0
23343,-181.818181818182,4,2,1,45,0,0
25178,-181.818181818182,4,2,99,45,0,0
25258,-125,4,2,1,45,0,0
25817,-181.818181818182,4,2,99,100,0,0
25896,-181.818181818181,4,2,1,45,0,0
26534,-333.333333333333,4,2,1,45,0,0
27173,-181.818181818182,4,2,1,45,0,0
28689,-181.818181818182,4,2,99,45,0,0
28769,-149.253731343284,4,2,1,45,0,0
29008,-181.818181818182,4,2,99,45,0,0
29088,-125,4,2,1,45,0,0
29327,-181.818181818182,4,2,99,45,0,0
29407,-109.89010989011,4,2,1,45,0,0
29646,-181.818181818182,4,2,99,45,0,0
29726,-166.666666666667,4,2,1,45,0,0
30365,-125,4,2,1,45,0,0
30923,-181.818181818182,4,2,99,45,0,0
31003,-181.818181818181,4,2,1,45,0,0
31641,-333.333333333333,4,2,1,45,0,0
32280,-181.818181818182,4,2,1,45,0,0
34753,-181.818181818182,4,2,99,45,0,0
34833,-181.818181818182,4,2,1,45,0,0
35072,-181.818181818182,4,2,99,45,0,0
35152,-181.818181818182,4,2,1,45,0,0
35391,-181.818181818182,4,2,99,45,0,0
35471,-125,4,2,1,45,0,0
35710,-181.818181818182,4,2,99,45,0,0
35790,-125,4,2,1,45,0,0
36109,-181.818181818181,4,2,1,45,0,0
36747,-333.333333333333,4,2,1,45,0,0
37386,-181.818181818182,4,2,1,45,0,0
40497,-181.818181818182,4,2,99,45,0,0
40577,-125,4,2,1,45,0,0
40817,-181.818181818182,4,2,99,45,0,0
40896,-125,4,2,1,45,0,0
41215,-142.857142857143,4,2,1,45,0,0
42492,-117.647058823529,4,2,1,45,0,0
43769,-100,4,2,1,75,0,1
53662,-76.9230769230769,4,2,1,75,0,1
53982,-100,4,2,1,75,0,1
63875,-76.9230769230769,4,2,1,75,0,1
64194,-117.647058823529,4,2,1,50,0,0
74407,-105.263157894737,4,2,1,65,0,0

[Colours]
Combo1 : 238,207,83
Combo2 : 123,123,247
Combo3 : 65,194,111

[HitObjects]
93,226,365,6,0,B|180:231|180:231|195:243|195:243|298:251,1,187.000005706787,2|0,3:3|0:0,0:0:0:0:
275,249,1641,2,0,P|309:246|340:258,1,46.7500014266968,2|0,3:3|0:0,0:0:0:0:
360,137,1960,2,0,B|273:142|273:142|258:154|258:154|155:162,1,187.000005706787,2|0,3:0|0:0,0:0:0:0:
164,169,2678,1,2,0:0:0:0:
151,179,2758,1,2,0:0:0:0:
138,189,2838,1,2,0:0:0:0:
127,201,2918,6,0,B|104:218|104:218|116:57,1,187.000005706787,2|0,3:0|0:0,0:0:0:0:
115,60,4194,1,2,3:0:0:0:
245,143,4513,2,0,B|268:160|268:160|261:107,1,70.1250021400452,2|0,3:0|0:0,0:0:0:0:
257,98,4833,6,0,P|309:66|369:84,1,102,2|0,0:0|0:0,0:0:0:0:
376,86,5152,1,2,0:0:0:0:
405,268,5471,2,0,P|370:249|362:199,1,93.5000028533936,2|0,3:0|0:0,0:0:0:0:
499,108,6109,2,0,P|499:129|478:146,1,50.9999984436036,2|0,0:0|0:0,0:0:0:0:
257,98,6747,6,0,P|256:132|263:159,1,46.7500014266968,2|0,3:3|0:0,0:0:0:0:
220,261,7067,2,0,B|169:234|169:234|37:263,1,187.000005706787,2|0,3:0|0:0,0:0:0:0:
34,247,7785,1,2,0:0:0:0:
26,232,7865,1,2,0:0:0:0:
18,217,7944,1,2,0:0:0:0:
9,199,8024,6,0,B|152:166|152:166|101:155,1,187.000005706787,2|0,3:0|0:0,0:0:0:0:
112,157,9301,5,2,3:3:0:0:
83,152,9460,1,0,0:0:0:0:
20,79,9620,2,0,B|39:60|39:60|93:69,1,70.1250021400452,2|0,3:0|0:0,0:0:0:0:
109,44,9939,6,0,P|175:95|217:90,1,102,2|0,0:0|0:0,0:0:0:0:
223,90,10258,1,2,0:0:0:0:
235,291,10577,2,0,P|241:242|210:210,1,93.5000028533936,2|0,3:3|0:0,0:0:0:0:
369,129,11216,2,0,P|340:140|332:167,1,50.9999984436036,2|0,0:0|0:0,0:0:0:0:
466,346,11854,6,0,P|463:311|473:283,1,46.7500014266968,2|0,3:3|0:0,0:0:0:0:
512,197,12173,2,0,B|430:206|430:206|413:220|413:220|318:233,1,187.000005706787,2|0,3:0|0:0,0:0:0:0:
326,247,12891,1,2,0:0:0:0:
320,262,12971,1,2,0:0:0:0:
315,277,13051,1,2,0:0:0:0:
310,292,13130,6,0,L|121:276,1,187.000005706787,2|0,3:3|0:0,0:0:0:0:
123,276,14407,1,2,3:3:0:0:
96,274,14567,1,0,0:0:0:0:
39,203,14726,2,0,B|61:177|61:177|99:181,1,70.1250021400452,2|0,3:0|0:0,0:0:0:0:
133,162,15045,6,0,P|122:100|153:56,1,102,2|0,0:0|0:0,0:0:0:0:
171,45,15365,1,2,0:0:0:0:
296,204,15684,2,0,P|263:231|214:225,1,93.5000028533936,2|0,3:3|0:0,0:0:0:0:
295,45,16322,2,0,P|316:52|327:77,1,50.9999984436036,2|0,0:0|0:0,0:0:0:0:
215,226,16960,6,0,P|230:259|231:290,1,46.7500014266968,2|0,3:3|0:0,0:0:0:0:
334,358,17279,2,0,B|317:329|317:329|346:173,1,187.000005706787,2|0,3:0|0:0,0:0:0:0:
363,174,17997,1,2,0:0:0:0:
381,170,18077,1,2,0:0:0:0:
399,167,18157,1,2,0:0:0:0:
416,160,18237,6,0,B|478:144|478:144|450:281,1,187.000005706787,2|0,3:0|0:0,0:0:0:0:
453,264,19513,2,0,P|450:301|455:324,1,46.7500014266968,2|0,3:3|0:0,0:0:0:0:
345,178,19833,2,0,B|297:192|297:192|307:170,1,70.1250021400452,2|0,3:0|0:0,0:0:0:0:
313,149,20152,6,0,P|270:132|248:60,1,102,2|0,0:0|0:0,0:0:0:0:
244,51,20471,1,2,0:0:0:0:
154,280,20790,2,0,P|180:259|242:276,1,93.5000028533936,2|0,3:3|0:0,0:0:0:0:
91,106,21428,2,0,P|93:124|68:149,1,50.9999984436036,2|0,0:0|0:0,0:0:0:0:
87,332,22067,6,0,P|73:303|73:274,1,46.7500014266968,2|0,3:3|0:0,0:0:0:0:
149,189,22386,2,0,B|196:198|196:198|205:196|205:196|262:208,1,93.5000028533936,2|0,3:3|0:0,0:0:0:0:
411,150,23024,6,0,L|361:158,1,31.8750012159348,2|0,0:0|0:0,0:0:0:0:
482,222,23184,2,0,L|446:215,1,31.8750012159348,2|0,0:0|0:0,0:0:0:0:
511,99,23343,6,0,L|444:88,1,46.7500014266968,2|0,3:2|0:0,0:0:0:0:
425,17,23662,2,0,L|326:4,1,93.5000028533936
218,129,24301,1,2,0:0:0:0:
231,115,24380,1,2,0:0:0:0:
232,96,24460,1,2,0:0:0:0:
155,44,24620,6,0,L|99:49,1,46.7500014266968,2|0,3:2|0:0,0:0:0:0:
45,126,24939,2,0,B|73:145|73:145|114:133,1,70.1250021400452,2|0,3:2|0:0,0:0:0:0:
139,166,25258,6,0,P|150:218|138:250,1,68,2|2,0:0|0:0,0:0:0:0:
135,256,25497,1,2,0:0:0:0:
116,276,25577,1,2,0:0:0:0:
211,368,25896,2,0,P|256:344|309:344,1,93.5000028533936,2|0,3:2|0:0,0:0:0:0:
444,273,26535,2,0,P|415:270|390:256,1,50.9999984436036,2|0,0:0|0:0,0:0:0:0:
317,114,27173,5,2,3:3:0:0:
328,145,27333,1,0,0:0:0:0:
359,48,27492,2,0,B|323:34|323:34|256:50,1,93.5000028533936,2|0,3:0|0:0,0:0:0:0:
121,46,28130,5,2,0:0:0:0:
132,60,28210,1,2,0:0:0:0:
139,77,28290,1,2,0:0:0:0:
144,95,28370,1,2,0:0:0:0:
144,113,28450,2,0,P|114:185|115:192,1,70.1250021400452,2|0,3:2|0:0,0:0:0:0:
52,215,28769,2,0,P|87:284|93:287,1,85.4249959592058,2|0,0:0|0:0,0:0:0:0:
75,359,29088,2,0,P|164:379|172:376,1,102,2|0,0:0|0:0,0:0:0:0:
274,360,29407,1,2,0:0:0:0:
270,377,29487,2,0,P|248:336|253:273,1,77.3500025965882,2|0,0:0|0:0,0:0:0:0:
284,240,29726,6,0,L|375:258,1,76.4999976654053,0|2,3:0|0:0,0:0:0:0:
378,262,30045,1,2,3:2:0:0:
474,123,30365,1,2,0:0:0:0:
390,157,30524,1,2,0:0:0:0:
312,49,30684,6,0,P|259:46|199:70,1,102,2|0,0:0|0:0,0:0:0:0:
156,112,31003,2,0,P|182:173|176:220,1,93.5000028533936,2|0,3:2|0:0,0:0:0:0:
103,275,31482,1,2,0:0:0:0:
89,261,31561,1,2,0:0:0:0:
77,246,31641,2,0,P|78:219|91:195,1,50.9999984436036,2|2,0:0|0:0,0:0:0:0:
256,281,32279,5,2,3:3:0:0:
261,315,32439,1,0,0:0:0:0:
202,223,32599,2,0,B|239:202|239:202|300:212,1,93.5000028533936,2|0,3:0|0:0,0:0:0:0:
460,160,33237,5,2,0:0:0:0:
447,145,33317,1,2,0:0:0:0:
437,129,33396,1,2,0:0:0:0:
431,111,33476,1,2,0:0:0:0:
430,90,33556,2,0,L|486:82,1,46.7500014266968,2|0,3:2|0:0,0:0:0:0:
371,168,33875,2,0,L|232:154,1,140.25000428009,2|2,0:0|0:0,0:0:0:0:
213,160,34434,1,2,0:0:0:0:
196,169,34513,2,0,P|197:225|188:253,1,70.1250021400452,2|0,0:0|0:0,0:0:0:0:
130,285,34833,5,2,3:2:0:0:
119,269,34912,2,0,L|54:258,1,46.7500014266968,2|0,0:0|0:0,0:0:0:0:
6,293,35152,2,0,B|-8:260|-8:260|16:212,1,70.1250021400452,2|0,3:0|0:0,0:0:0:0:
3,201,35471,6,0,P|25:160|15:99,1,102,2|0,0:0|0:0,0:0:0:0:
7,81,35790,1,2,0:0:0:0:
184,63,36109,2,0,P|137:65|97:43,1,93.5000028533936,2|0,3:2|0:0,0:0:0:0:
5,197,36747,2,0,P|28:188|54:191,1,50.9999984436036,2|0,0:0|0:0,0:0:0:0:
215,288,37386,5,2,3:0:0:0:
181,302,37545,1,0,0:0:0:0:
296,318,37705,2,0,B|302:270|302:270|276:230,1,93.5000028533936,2|0,3:0|0:0,0:0:0:0:
399,138,38343,2,0,L|433:142,1,23.3750007133484,2|0,0:0|0:0,0:0:0:0:
481,196,38503,2,0,L|515:190,1,23.3750007133484,2|0,0:0|0:0,0:0:0:0:
466,74,38662,6,0,L|529:64,2,46.7500014266968,2|0|0,3:2|0:0|0:0,0:0:0:0:
333,173,39301,2,0,P|286:176|191:141,1,140.25000428009,2|2,0:0|0:0,0:0:0:0:
181,153,39859,1,2,0:0:0:0:
163,160,39939,2,0,L|100:155,1,46.7500014266968,2|0,3:2|0:0,0:0:0:0:
12,126,40258,2,0,B|28:160|28:160|15:208,1,70.1250021400452,0|0,3:0|0:0,0:0:0:0:
0,238,40577,6,0,P|54:219|118:242,1,102,2|0,0:0|0:0,0:0:0:0:
146,289,40896,1,2,0:0:0:0:
214,189,41056,1,2,0:0:0:0:
226,206,41136,1,2,0:0:0:0:
240,224,41216,2,0,L|254:350,1,118.999996368408,2|0,0:0|3:0,0:0:0:0:
357,384,41694,1,2,0:0:0:0:
369,367,41774,1,2,0:0:0:0:
383,349,41854,6,0,L|394:248,1,79.3333309122722,2|0,0:3|0:0,0:0:0:0:
471,231,42173,2,0,L|481:142,1,79.3333309122722,0|0,3:0|0:0,0:0:0:0:
512,33,42492,2,0,P|479:56|418:49,1,96.3333351707459,2|0,0:3|0:0,0:0:0:0:
313,9,42811,2,0,B|339:53|339:53|314:113,1,96.3333351707459,2|0,1:2|0:0,0:0:0:0:
252,155,43130,6,0,L|182:146,1,48.1666675853729,0|0,1:0|0:0,0:0:0:0:
100,131,43343,1,0,1:0:0:0:
113,288,43556,1,2,0:0:0:0:
107,309,43662,1,2,0:0:0:0:
39,283,43770,6,0,L|33:163,1,113.333333333333,6|0,3:2|3:0,0:0:0:0:
162,211,44089,1,2,3:3:0:0:
183,218,44195,1,2,0:3:0:0:
204,223,44301,1,2,0:3:0:0:
225,231,44408,2,0,L|209:365,1,113.333333333333,2|0,1:3|0:0,0:0:0:0:
341,384,44727,1,2,3:2:0:0:
329,309,44833,1,2,0:2:0:0:
398,330,44940,1,2,3:2:0:0:
359,345,45046,6,0,P|349:267|351:257,1,56.6666666666667,2|0,3:2|0:0,0:0:0:0:
413,193,45259,1,0,0:0:0:0:
472,245,45365,2,0,P|488:189|479:103,1,113.333333333333,0|0,3:0|0:0,0:0:0:0:
415,61,45684,2,0,P|387:53|364:38,1,56.6666666666667,0|0,1:0|0:0,0:0:0:0:
281,132,45897,1,0,3:0:0:0:
305,152,46004,2,0,P|361:124|383:85,1,56.6666666666667,0|0,3:0|0:0,0:0:0:0:
243,300,46216,1,0,0:0:0:0:
301,247,46323,6,0,P|246:222|187:245,1,113.333333333333,2|0,3:2|3:0,0:0:0:0:
81,322,46642,2,0,L|159:330,1,56.6666666666667,2|0,3:2|0:0,0:0:0:0:
186,226,46855,1,2,0:0:0:0:
101,186,46961,2,0,L|33:211,1,56.6666666666667,2|0,1:2|0:0,0:0:0:0:
1,285,47174,1,2,0:0:0:0:
54,83,47493,1,2,3:2:0:0:
149,81,47599,6,0,L|176:152,1,56.6666666666667,2|0,3:2|0:2,0:2:0:0:
97,287,47811,1,2,0:2:0:0:
47,205,47917,2,0,L|94:146,1,56.6666666666667,2|0,3:2|0:2,0:2:0:0:
254,143,48130,1,2,0:2:0:0:
207,227,48236,2,0,L|132:214,1,56.6666666666667,2|0,1:2|0:2,0:2:0:0:
377,149,48450,1,2,3:2:0:0:
294,198,48556,2,0,L|235:150,1,56.6666666666667,2|0,3:2|0:2,0:2:0:0:
485,216,48769,1,2,0:2:0:0:
388,217,48875,6,0,L|361:145,2,56.6666666666667,2|0|0,3:2|0:2|0:2,0:2:0:0:
433,330,49195,1,2,3:3:0:0:
411,335,49301,1,2,0:3:0:0:
389,342,49408,1,2,0:3:0:0:
366,346,49514,2,0,L|242:318,1,113.333333333333,2|0,1:3|0:2,0:2:0:0:
110,255,49833,1,2,3:2:0:0:
121,262,49940,1,2,0:2:0:0:
199,232,50046,1,2,0:2:0:0:
181,314,50152,6,0,P|177:344|181:378,1,56.6666666666667,2|0,3:2|0:2,0:2:0:0:
52,187,50365,1,2,0:2:0:0:
122,149,50471,2,0,P|126:218|108:303,1,113.333333333333,2|0,3:2|0:2,0:2:0:0:
171,85,50790,2,0,P|92:74|80:82,1,56.6666666666667,2|0,1:2|0:2,0:2:0:0:
249,169,51003,1,0,3:2:0:0:
264,149,51109,2,0,L|248:3,1,113.333333333333,2|0,3:2|0:2,0:2:0:0:
367,0,51428,6,0,L|354:112,1,113.333333333333,2|0,3:2|3:2,0:2:0:0:
337,203,51747,2,0,L|401:193,1,56.6666666666667,2|0,3:2|0:2,0:2:0:0:
440,119,51960,1,2,0:2:0:0:
457,123,52067,2,0,L|521:133,1,56.6666666666667,0|0,1:2|0:2,0:2:0:0:
413,264,52279,1,2,0:2:0:0:
485,315,52386,2,0,L|463:404,1,56.6666666666667,2|0,3:2|0:2,0:2:0:0:
330,301,52599,1,2,3:2:0:0:
406,249,52706,6,0,L|384:158,1,56.6666666666667,2|0,3:2|0:2,0:2:0:0:
355,66,52918,1,2,0:2:0:0:
126,181,53237,1,2,0:2:0:0:
193,93,53343,2,0,L|285:106,1,56.6666666666667,2|0,1:2|0:2,0:2:0:0:
51,116,53556,1,2,3:2:0:0:
131,195,53662,2,2,B|170:188|170:188|189:209|189:209|239:183|239:183|290:184,1,147.333326588949,2|0,3:1|3:2,0:1:0:0:
334,293,53982,6,0,L|205:283,1,113.333333333333,6|0,3:2|3:0,0:0:0:0:
111,370,54301,1,2,3:3:0:0:
88,373,54407,1,2,0:3:0:0:
65,376,54513,1,2,0:3:0:0:
42,378,54620,2,0,L|59:228,1,113.333333333333,2|0,1:3|0:0,0:0:0:0:
78,117,54939,1,2,3:2:0:0:
71,104,55045,1,2,0:2:0:0:
160,131,55152,1,2,3:2:0:0:
98,203,55258,6,0,P|20:193|10:195,1,56.6666666666667,2|0,3:2|0:0,0:0:0:0:
212,328,55471,1,0,0:0:0:0:
242,255,55577,2,0,P|185:254|135:296,1,113.333333333333,0|0,3:0|0:0,0:0:0:0:
319,309,55896,2,0,P|320:281|329:254,1,56.6666666666667,0|0,1:0|0:0,0:0:0:0:
427,181,56109,1,0,3:0:0:0:
450,182,56216,2,0,P|458:209|460:238,1,56.6666666666667,0|0,3:0|0:0,0:0:0:0:
344,122,56428,1,0,0:0:0:0:
322,47,56535,6,0,P|391:58|417:92,1,113.333333333333,2|0,3:2|3:0,0:0:0:0:
264,162,56854,2,0,L|247:73,1,56.6666666666667,2|0,3:2|0:0,0:0:0:0:
224,3,57067,1,2,0:0:0:0:
139,84,57173,2,0,L|132:140,1,56.6666666666667,2|0,1:2|0:0,0:0:0:0:
204,233,57386,1,2,0:0:0:0:
127,214,57492,1,2,3:2:0:0:
85,280,57599,1,2,0:2:0:0:
135,342,57705,1,2,3:2:0:0:
203,310,57811,6,0,L|298:334,1,56.6666666666667,2|0,3:2|0:2,0:2:0:0:
436,280,58024,1,2,0:2:0:0:
360,334,58130,2,0,L|344:279,1,56.6666666666667,2|0,3:2|0:2,0:2:0:0:
220,157,58343,1,2,0:2:0:0:
310,193,58449,2,0,L|270:233,1,56.6666666666667,2|0,1:2|0:2,0:2:0:0:
141,115,58662,1,2,3:2:0:0:
235,90,58768,2,0,L|230:146,1,56.6666666666667,2|0,3:2|0:2,0:2:0:0:
55,130,58982,1,2,0:2:0:0:
109,52,59088,6,0,L|142:97,2,56.6666666666667,2|0|0,3:2|0:2|0:2,0:2:0:0:
40,149,59407,1,2,3:3:0:0:
35,182,59513,1,2,0:3:0:0:
42,215,59620,1,2,0:3:0:0:
63,241,59726,2,0,L|187:269,1,113.333333333333,2|0,1:3|0:2,0:2:0:0:
294,316,60045,1,2,3:2:0:0:
304,326,60152,1,2,0:2:0:0:
220,337,60258,1,2,0:2:0:0:
251,254,60364,6,0,P|253:225|244:192,1,56.6666666666667,2|0,3:2|0:2,0:2:0:0:
402,147,60577,1,2,0:2:0:0:
334,184,60683,2,0,P|327:127|332:71,1,113.333333333333,2|0,3:2|0:2,0:2:0:0:
445,25,61002,2,0,P|375:-1|357:-19,1,56.6666666666667,2|0,1:2|0:2,0:2:0:0:
225,22,61215,1,0,3:2:0:0:
240,9,61322,2,0,L|254:130,1,113.333333333333,2|0,3:2|0:2,0:2:0:0:
183,174,61641,6,0,P|103:151|55:172,1,113.333333333333,2|0,3:2|3:2,0:2:0:0:
1,207,61960,2,0,L|9:278,1,56.6666666666667,2|0,3:2|0:2,0:2:0:0:
101,314,62172,1,2,0:2:0:0:
117,299,62279,2,0,L|124:206,1,56.6666666666667,0|0,1:2|0:2,0:2:0:0:
290,181,62492,1,2,0:2:0:0:
251,266,62598,2,0,L|162:244,1,56.6666666666667,2|0,3:2|0:2,0:2:0:0:
238,106,62811,1,2,3:2:0:0:
315,170,62918,6,0,L|406:148,1,56.6666666666667,2|0,3:2|0:2,0:2:0:0:
470,133,63130,1,2,0:2:0:0:
455,313,63450,1,2,0:2:0:0:
352,293,63556,2,0,L|333:204,1,56.6666666666667,2|0,1:2|0:2,0:2:0:0:
376,383,63769,1,2,3:2:0:0:
478,321,63875,2,2,B|490:273|490:273|470:252|470:252|503:217|503:217|502:194,1,147.333326588949,2|0,3:1|3:2,0:1:0:0:
474,57,64194,6,0,B|398:81|409:11|314:47,1,144.500002756119,2|0,3:2|3:2,0:2:0:0:
346,213,64833,1,0,1:2:0:0:
361,188,64939,1,0,0:2:0:0:
367,159,65045,1,0,0:2:0:0:
363,130,65152,1,0,0:2:0:0:
248,38,65365,1,0,3:2:0:0:
228,56,65471,6,0,L|250:173,1,96.3333351707459,0|0,3:2|0:2,0:2:0:0:
308,213,65790,2,0,L|290:330,1,96.3333351707459,0|0,3:2|0:2,0:2:0:0:
256,384,66109,2,0,P|208:364|157:363,1,96.3333351707459,2|0,1:2|3:2,0:2:0:0:
63,293,66428,1,2,3:2:0:0:
30,340,66535,1,2,0:2:0:0:
88,346,66641,1,2,3:2:0:0:
64,280,66747,6,0,L|53:178,1,96.3333351707459,2|0,3:2|0:2,0:2:0:0:
5,93,67067,2,0,L|9:58,2,24.0833337926865,0|0|0,3:2|0:2|0:2,0:2:0:0:
26,102,67226,2,0,L|118:90,1,72.2500013780594,2|0,0:2|1:2,0:2:0:0:
291,141,67705,1,2,0:2:0:0:
280,114,67811,1,0,0:2:0:0:
277,85,67918,1,0,3:2:0:0:
283,56,68024,6,0,B|347:65|347:65|367:80|367:80|423:88,1,144.500002756119,0|2,3:2|3:2,0:2:0:0:
469,267,68662,2,0,L|483:162,1,96.3333351707459,2|0,1:2|3:2,0:2:0:0:
383,249,68982,2,0,L|401:370,1,96.3333351707459,2|0,3:2|3:2,0:2:0:0:
291,245,69300,5,2,3:2:0:0:
301,207,69407,1,2,0:2:0:0:
258,220,69513,2,0,B|186:260|183:183|93:241,1,144.500002756119,2|0,0:2|0:2,0:2:0:0:
75,313,69939,1,2,1:2:0:0:
47,296,70045,2,0,P|23:244|42:167,1,96.3333351707459,0|0,0:2|0:2,0:2:0:0:
61,60,70471,1,0,3:2:0:0:
89,76,70577,6,0,B|123:96|123:96|136:228,1,144.500002756119,2|2,3:2|3:2,0:2:0:0:
323,87,71216,2,0,P|251:89|201:132,1,96.3333351707459,2|0,1:2|3:2,0:2:0:0:
214,183,71535,1,2,3:2:0:0:
400,136,71854,6,0,P|407:183|435:221,1,96.3333351707459,2|0,3:2|3:2,0:2:0:0:
395,321,72173,2,0,P|350:304|302:309,1,96.3333351707459,2|0,3:2|0:2,0:2:0:0:
208,349,72492,1,2,1:2:0:0:
219,322,72599,1,0,0:2:0:0:
222,293,72705,1,0,0:2:0:0:
214,265,72811,1,2,0:2:0:0:
90,304,73024,1,0,3:2:0:0:
85,275,73130,6,0,L|76:212,1,48.1666675853729,0|0,3:2|0:2,0:2:0:0:
83,144,73343,1,2,0:2:0:0:
160,172,73450,2,0,L|170:64,1,96.3333351707459,2|0,3:2|0:2,0:2:0:0:
291,31,73769,5,2,1:2:0:0:
310,53,73875,1,2,0:2:0:0:
319,82,73982,1,2,0:2:0:0:
302,130,74088,1,2,3:2:0:0:
244,158,74194,1,2,0:2:0:0:
179,119,74301,1,2,3:2:0:0:
245,189,74407,6,0,L|236:279,1,53.8333318958283,6|0,3:2|0:2,0:2:0:0:
329,319,74620,1,0,0:2:0:0:
355,293,74726,2,0,L|349:239,1,53.8333318958283,2|0,3:2|0:2,0:2:0:0:
346,89,74939,1,2,0:2:0:0:
321,115,75045,2,0,L|315:168,1,53.8333318958283,2|0,1:2|0:2,0:2:0:0:
443,255,75258,2,0,L|430:142,1,107.666663791657,2|0,0:2|0:2,0:2:0:0:
460,30,75577,1,0,3:2:0:0:
476,58,75684,6,0,B|439:75|439:75|344:59,1,107.666663791657,0|2,3:2|0:2,0:2:0:0:
286,40,76003,1,0,3:2:0:0:
209,180,76216,1,2,0:2:0:0:
209,180,76269,1,2,0:2:0:0:
209,180,76322,2,0,L|323:169,1,107.666663791657,2|0,1:2|0:2,0:2:0:0:
393,208,76641,2,0,L|384:273,1,53.8333318958283,2|0,3:2|0:2,0:2:0:0:
310,328,76854,1,2,3:2:0:0:
248,289,76960,6,0,L|170:298,1,53.8333318958283,2|0,3:2|0:2,0:2:0:0:
83,196,77173,1,0,0:2:0:0:
66,228,77279,2,0,L|144:237,1,53.8333318958283,2|0,3:2|0:2,0:2:0:0:
180,335,77492,1,2,0:2:0:0:
165,366,77598,2,0,L|53:380,1,107.666663791657,2|0,1:2|0:2,0:2:0:0:
26,298,77918,2,0,L|-15:294,2,26.9166659479141,2|2|2,0:2|0:2|0:2,0:2:0:0:
119,234,78130,1,0,3:2:0:0:
148,215,78237,6,0,B|158:131,1,53.8333318958283,0|0,3:2|0:2,0:2:0:0:
17,128,78450,1,0,3:2:0:0:
20,160,78556,1,2,3:2:0:0:
172,60,78875,2,0,P|223:75|287:62,1,107.666663791657,2|0,1:2|0:2,0:2:0:0:
374,101,79194,2,0,P|357:59|358:34,1,53.8333318958283,2|0,3:2|0:2,0:2:0:0:
482,47,79407,1,0,1:0:0:0:
474,103,79513,6,0,L|464:186,1,53.8333318958283,2|0,3:2|0:2,0:2:0:0:
367,242,79726,1,0,0:2:0:0:
338,225,79833,2,0,L|331:171,1,53.8333318958283,2|0,3:2|0:2,0:2:0:0:
463,245,80045,1,0,3:2:0:0:
487,269,80152,2,0,L|480:322,1,53.8333318958283,2|0,1:2|0:2,0:2:0:0:
358,369,80365,2,0,P|304:339|248:347,1,107.666663791657,2|0,0:2|0:2,0:2:0:0:
160,363,80684,1,0,3:2:0:0:
144,330,80790,6,0,L|161:206,1,107.666663791657,2|0,3:2|3:2,0:2:0:0:
188,129,81109,2,0,L|171:246,1,107.666663791657,2|0,3:2|0:2,0:2:0:0:
69,285,81428,2,0,L|53:178,1,107.666663791657,2|0,1:2|3:2,0:2:0:0:
3,120,81747,1,2,1:2:0:0:
186,17,82067,6,0,L|261:25,1,53.8333318958283,2|0,3:2|0:2,0:2:0:0:
353,70,82279,1,0,0:2:0:0:
334,97,82386,2,0,L|259:105,1,53.8333318958283,2|0,3:2|0:2,0:2:0:0:
192,170,82599,1,0,3:2:0:0:
211,202,82705,2,0,L|336:221,1,107.666663791657,2|0,1:2|0:2,0:2:0:0:
416,194,83024,2,0,P|404:154|409:119,1,53.8333318958283,2|0,0:2|0:2,0:2:0:0:
502,215,83237,1,0,3:2:0:0:
512,239,83343,6,0,P|494:307|481:325,1,53.8333318958283,0|0,3:2|0:2,0:2:0:0:
413,351,83556,1,2,0:2:0:0:
404,322,83662,1,2,0:2:0:0:
193,342,83982,5,2,1:2:0:0:
208,319,84088,1,2,0:2:0:0:
210,277,84194,1,2,3:2:0:0:
182,236,84301,1,2,3:2:0:0:
111,221,84407,1,2,0:2:0:0:
59,285,84513,1,2,3:2:0:0:
112,200,84620,6,0,P|121:136|110:77,1,107.666663791657,6|0,3:2|0:2,0:2:0:0:
28,23,84939,2,0,P|22:76|31:129,1,107.666663791657,2|0,3:2|0:2,0:2:0:0:
120,11,85258,2,0,P|188:39|201:57,1,53.8333318958283,0|0,1:2|0:2,0:2:0:0:
224,104,85471,1,0,3:2:0:0:
249,81,85577,2,0,L|376:74,1,107.666663791657,0|0,3:2|1:2,0:2:0:0:
444,67,85896,5,2,3:2:0:0:
405,203,86109,1,2,1:2:0:0:
405,203,86162,1,2,0:2:0:0:
405,203,86216,2,0,P|365:177|298:177,1,107.666663791657,2|0,3:2|0:2,0:2:0:0:
235,248,86535,2,0,L|222:174,1,53.8333318958283,2|0,1:2|0:2,0:2:0:0:
255,347,86747,1,2,0:2:0:0:
328,309,86854,2,0,L|341:235,1,53.8333318958283,2|0,0:2|0:2,0:2:0:0:
174,318,87067,1,2,0:2:0:0:
153,238,87173,6,0,L|130:116,1,107.666663791657,2|0,3:2|0:2,0:2:0:0:
23,101,87492,2,0,L|15:145,2,26.9166659479141,2|0|0,3:2|0:2|0:2,0:2:0:0:
1,236,87705,1,0,0:2:0:0:
26,258,87811,2,0,P|64:245|101:251,1,53.8333318958283,0|0,1:2|0:2,0:2:0:0:
128,321,88024,1,0,3:2:0:0:
153,334,88130,2,0,P|216:340|289:303,1,107.666663791657,0|0,3:2|1:2,0:2:0:0:
371,367,88450,6,0,P|344:315|340:261,1,107.666663791657,2|0,0:2|1:2,0:2:0:0:
461,186,88769,2,0,P|454:239|429:286,1,107.666663791657,2|0,0:2|0:2,0:2:0:0:
365,176,89088,1,2,1:2:0:0:
503,73,89301,1,2,0:2:0:0:
503,73,89354,1,2,0:2:0:0:
503,73,89407,2,0,L|436:67,1,53.8333318958283,2|0,0:2|0:2,0:2:0:0:
328,14,89620,1,2,3:2:0:0:
357,103,89726,6,0,B|271:132|285:46|190:88,1,161.499995687485,2|0,3:2|3:2,0:2:0:0:
58,166,90258,1,2,0:2:0:0:
34,136,90365,2,0,L|26:64,1,53.8333318958283,0|0,1:2|0:2,0:2:0:0:
135,157,90577,2,0,L|116:296,1,107.666663791657,2|0,3:2|0:2,0:2:0:0:
206,344,90896,1,2,1:2:0:0:
235,323,91003,6,0,L|222:189,1,107.666663791657,0|0,3:2|1:2,0:2:0:0:
196,102,91322,2,0,P|254:132|302:128,1,107.666663791657,2|0,3:2|0:2,0:2:0:0:
355,39,91641,2,0,P|413:9|461:13,1,107.666663791657,2|0,1:2|3:2,0:2:0:0:
512,66,91960,1,2,1:2:0:0:
411,242,92279,6,0,L|428:92,1,107.666663791657,2|0,3:2|0:2,0:2:0:0:
355,39,92599,2,0,L|359:84,2,26.9166659479141,2|0|0,3:2|0:2|0:2,0:2:0:0:
268,16,92811,1,0,0:2:0:0:
241,7,92918,1,0,1:2:0:0:
134,148,93130,2,0,B|227:111|213:207|331:141,1,161.499995687485,2|0,3:2|1:2,0:2:0:0:
374,130,93556,5,2,3:2:0:0:
319,277,93769,1,2,0:2:0:0:
319,277,93822,1,2,0:2:0:0:
319,277,93875,2,0,L|212:267,1,107.666663791657,0|0,3:2|0:2,0:2:0:0:
115,241,94194,2,0,L|120:299,1,53.8333318958283,2|0,1:2|3:2,0:2:0:0:
21,324,94407,2,0,B|36:181,1,107.666663791657,2|0,1:2|0:2,0:2:0:0:
49,48,94726,1,2,3:2:0:0:
4,122,94833,6,0,P|59:131|110:109,1,107.666663791657,2|0,3:2|0:2,0:2:0:0:
233,33,95152,2,0,P|178:42|127:20,1,107.666663791657,2|0,3:2|0:2,0:2:0:0:
162,169,95471,2,0,P|186:143|192:108,1,53.8333318958283,0|0,1:2|0:2,0:2:0:0:
290,99,95684,1,2,3:2:0:0:
312,117,95790,2,0,L|319:258,1,107.666663791657,0|0,3:2|1:2,0:2:0:0:
248,315,96109,5,2,3:2:0:0:
413,299,96322,1,2,1:2:0:0:
413,299,96375,1,2,0:2:0:0:
413,299,96428,2,0,L|427:165,1,107.666663791657,2|0,3:2|0:2,0:2:0:0:
409,100,96748,2,0,L|355:108,1,53.8333318958283,2|0,1:2|0:2,0:2:0:0:
512,89,96960,1,2,0:2:0:0:
449,26,97067,2,0,L|395:17,1,53.8333318958283,2|0,0:2|0:2,0:2:0:0:
509,170,97280,1,2,0:2:0:0:
425,192,97386,6,0,P|382:191|303:215,1,107.666663791657,2|0,3:2|0:2,0:2:0:0:
271,319,97705,2,0,P|217:318|165:304,1,107.666663791657,2|0,3:2|0:2,0:2:0:0:
159,165,98024,2,0,P|170:192|171:225,1,53.8333318958283,2|0,1:2|0:2,0:2:0:0:
64,276,98237,1,0,3:2:0:0:
51,251,98343,2,0,P|45:188|82:115,1,107.666663791657,0|0,3:2|1:2,0:2:0:0:
165,57,98662,6,0,L|51:44,1,107.666663791657,2|0,3:2|1:2,0:2:0:0:
152,169,98982,2,0,L|265:157,1,107.666663791657,2|2,3:2|0:2,0:2:0:0:
323,91,99301,1,0,1:2:0:0:
374,267,99513,1,2,0:2:0:0:
291,298,99620,2,0,L|298:245,1,53.8333318958283,2|0,0:2|0:2,0:2:0:0:
389,357,99833,1,2,0:2:0:0:
462,303,99939,6,0,B|499:221|421:224|466:139,1,161.499995687485,0|0,3:2|0:2,0:2:0:0:
512,0,100471,1,2,0:2:0:0:
482,24,100578,2,0,L|410:32,1,53.8333318958283,0|0,1:2|0:2,0:2:0:0:
345,113,100790,2,0,P|346:67|302:9,1,107.666663791657,2|0,3:2|0:2,0:2:0:0:
218,104,101109,1,0,1:2:0:0:
253,93,101216,5,2,3:2:0:0:
326,243,101428,1,2,1:2:0:0:
326,243,101482,1,2,0:2:0:0:
326,243,101535,2,0,P|268:213|220:217,1,107.666663791657,2|0,3:2|0:2,0:2:0:0:
187,301,101854,2,0,P|129:331|81:327,1,107.666663791657,2|0,1:2|0:2,0:2:0:0:
17,282,102173,2,0,L|32:154,1,107.666663791657,2|0,3:2|0:2,0:2:0:0:
48,95,102492,5,0,3:2:0:0:
143,216,102705,1,2,0:2:0:0:
143,216,102758,1,0,0:2:0:0:
143,216,102811,2,0,L|137:150,1,53.8333318958283,0|0,3:2|0:2,0:2:0:0:
130,69,103024,1,2,0:2:0:0:
161,81,103130,1,0,1:2:0:0:
308,0,103343,1,2,3:2:0:0:
291,34,103450,1,0,0:2:0:0:
287,71,103556,1,0,0:2:0:0:
294,107,103662,1,0,1:2:0:0:
315,138,103769,6,0,L|406:126,1,53.8333318958283,2|0,3:2|0:2,0:2:0:0:
468,75,103982,2,0,P|455:156|473:195,1,107.666663791657,2|0,1:2|0:2,0:2:0:0:
512,256,104301,1,0,0:2:0:0:
439,307,104407,5,2,1:2:0:0:
429,280,104513,1,2,1:2:0:0:
405,243,104620,1,2,3:2:0:0:
355,223,104726,1,2,1:2:0:0:
281,237,104833,1,2,3:2:0:0:
250,306,104939,1,2,1:2:0:0:
262,211,105045,5,6,3:2:0:0:
