osu file format v14

[General]
AudioFilename: audio.ogg
AudioLeadIn: 0
PreviewTime: 43759
Countdown: 0
SampleSet: Soft
StackLeniency: 0.7
Mode: 0
LetterboxInBreaks: 0
WidescreenStoryboard: 1

[Editor]
DistanceSpacing: 0.7
BeatDivisor: 3
GridSize: 32
TimelineZoom: 1

[Metadata]
Title:216 Bandouro (Hiru)
TitleUnicode:216ばんどうろ (昼)
Artist:Ichinose Go
ArtistUnicode:一之瀬剛
Creator:SaltyLucario
Version:Normal
Source:ポケットモンスター ダイヤモンド・パール
Tags:saltking salty jelljel route 216 day pokemon diamond pearl platinum プラチナ pokémon pocket monsters game freak gamefreak nintendo ds gō gou video game videogame vgm instrumental ost original soundtrack electronic jazz snow
BeatmapID:2715254
BeatmapSetID:1309775

[Difficulty]
HPDrainRate:3
CircleSize:3.5
OverallDifficulty:3
ApproachRate:4.5
SliderMultiplier:1.2
SliderTickRate:1

[Events]
//Background and Video events
0,0,"bg.jpg",0,0
//Break Periods
//Storyboard Layer 0 (Background)
//Storyboard Layer 1 (Fail)
//Storyboard Layer 2 (Pass)
//Storyboard Layer 3 (Foreground)
//Storyboard Layer 4 (Overlay)
//Storyboard Sound Samples

[TimingPoints]
365,319.148936170213,4,2,1,35,1,0
365,-133.333333333333,4,2,1,35,0,0
23343,-133.333333333333,4,2,1,45,0,0
41854,-120.481927710843,4,2,1,45,0,0
42492,-109.89010989011,4,2,1,45,0,0
43769,-100,4,2,1,75,0,1
64194,-125,4,2,1,50,0,0
74407,-111.111111111111,4,2,1,65,0,0
75365,-111.111111111111,4,2,1,100,0,0
75684,-111.111111111111,4,2,1,65,0,0
80471,-111.111111111111,4,2,1,100,0,0
80790,-111.111111111111,4,2,1,65,0,0

[Colours]
Combo1 : 238,207,83
Combo2 : 141,141,248
Combo3 : 65,194,111

[HitObjects]
49,87,365,6,0,B|138:63|133:143|222:116,1,180.000006866455,2|0,3:3|0:0,0:0:0:0:
390,54,1641,1,2,3:3:0:0:
390,54,1960,1,2,3:0:0:0:
470,311,2918,6,0,B|381:287|386:367|297:340,1,180.000006866455,2|0,3:0|0:0,0:0:0:0:
130,278,4194,1,2,3:0:0:0:
130,278,4513,1,2,3:0:0:0:
216,252,4833,2,0,B|247:242|247:242|257:161,1,90.0000034332277,2|2,0:0|0:0,0:0:0:0:
261,91,5471,6,0,P|200:79|121:166,1,180.000006866455,2|2,3:0|0:0,0:0:0:0:
195,325,6747,1,2,3:3:0:0:
195,325,7067,1,2,3:0:0:0:
351,105,8024,6,0,P|412:93|491:180,1,180.000006866455,2|0,3:0|0:0,0:0:0:0:
417,339,9300,1,2,3:3:0:0:
417,339,9620,1,2,3:0:0:0:
389,253,9939,2,0,B|343:242|343:242|304:261,1,90.0000034332277,2|2,0:0|0:0,0:0:0:0:
229,310,10577,6,0,B|177:224|269:227|209:120,1,180.000006866455,2|2,3:3|0:0,0:0:0:0:
48,189,11854,1,2,3:3:0:0:
48,189,12173,1,2,3:0:0:0:
309,256,13130,6,0,B|361:170|269:173|329:66,1,180.000006866455,2|0,3:3|0:0,0:0:0:0:
490,135,14407,1,2,3:3:0:0:
490,135,14726,1,2,3:0:0:0:
447,214,15045,2,0,B|424:256|424:256|440:305,1,90.0000034332277,2|2,0:0|0:0,0:0:0:0:
382,367,15684,6,0,B|305:361|305:361|288:347|288:347|195:342,1,180.000006866455,2|2,3:3|0:0,0:0:0:0:
34,380,16960,1,2,3:3:0:0:
34,380,17279,1,2,3:0:0:0:
0,111,18237,6,0,B|77:105|77:105|94:91|94:91|187:86,1,180.000006866455,2|0,3:0|0:0,0:0:0:0:
348,124,19513,1,2,3:3:0:0:
348,124,19832,1,2,3:0:0:0:
286,190,20152,2,0,B|244:170|244:170|173:185,1,90.0000034332277,2|2,0:0|0:0,0:0:0:0:
124,225,20790,6,0,L|99:29,1,180.000006866455,2|2,3:3|0:0,0:0:0:0:
283,24,22067,1,2,3:3:0:0:
283,24,22386,1,2,3:3:0:0:
309,201,23024,2,0,L|322:289,1,45.0000017166138,2|2,0:0|0:0,0:0:0:0:
314,290,23343,6,0,P|383:339|392:212,1,270.000010299683,2|2,3:2|0:0,0:0:0:0:
432,142,24620,1,2,3:2:0:0:
432,142,24939,1,2,3:2:0:0:
401,66,25258,2,0,B|364:47|364:47|306:66,1,90.0000034332277,2|2,0:0|0:0,0:0:0:0:
224,68,25896,6,0,B|253:106|253:106|222:265,1,180.000006866455,2|2,3:2|0:0,0:0:0:0:
75,332,27173,1,2,3:3:0:0:
75,332,27492,1,2,3:0:0:0:
56,153,28130,2,0,L|49:79,1,45.0000017166138,2|2,0:0|0:0,0:0:0:0:
83,75,28450,6,0,P|41:53|-6:44,2,90.0000034332277,2|2|2,3:2|0:0|0:0,0:0:0:0:
137,146,29407,2,0,B|241:175|203:81|326:115,1,180.000006866455,2|2,0:0|3:2,0:0:0:0:
393,93,30365,2,0,L|401:28,2,45.0000017166138,2|2|2,0:0|0:0|0:0,0:0:0:0:
372,180,31003,5,2,3:2:0:0:
492,313,31641,1,2,0:0:0:0:
320,355,32279,1,2,3:3:0:0:
320,355,32599,1,2,3:0:0:0:
372,180,33237,2,0,L|306:186,1,45.0000017166138,2|2,0:0|0:0,0:0:0:0:
282,189,33556,5,2,3:2:0:0:
237,110,33875,2,0,B|108:97|108:97|61:148,1,180.000006866455,2|2,0:0|0:0,0:0:0:0:
18,205,34833,1,2,3:2:0:0:
18,205,35152,1,2,3:0:0:0:
78,271,35471,2,0,B|116:250|116:250|162:258,1,90.0000034332277,2|2,0:0|0:0,0:0:0:0:
201,339,36109,6,0,L|391:318,1,180.000006866455,2|2,3:2|0:0,0:0:0:0:
491,178,37386,1,2,3:0:0:0:
491,178,37705,1,2,3:0:0:0:
353,61,38343,2,0,L|294:67,1,45.0000017166138,2|2,0:0|0:0,0:0:0:0:
265,50,38662,5,2,3:2:0:0:
324,220,39301,2,0,P|341:295|320:362,1,135.000005149841,2|2,0:0|0:0,0:0:0:0:
299,384,39939,1,2,3:2:0:0:
299,384,40258,1,0,3:0:0:0:
225,332,40577,2,0,B|185:307|185:307|116:318,1,90.0000034332277,2|2,0:0|0:0,0:0:0:0:
69,366,41216,6,0,P|52:320|60:276,1,90.0000034332277,2|0,0:0|3:0,0:0:0:0:
131,226,41854,2,0,P|147:184|138:129,1,99.6000014437867,2|0,0:3|3:0,0:0:0:0:
67,76,42492,1,2,0:3:0:0:
67,76,42811,1,2,1:2:0:0:
153,30,43130,2,0,L|239:41,1,72.8000024438477,0|0,1:0|1:0,0:0:0:0:
350,9,43769,6,0,B|336:69|336:69|369:147,1,120,6|2,3:2|3:3,0:0:0:0:
407,205,44407,1,2,1:3:0:0:
350,282,44726,2,0,P|320:266|274:266,1,80,2|2,3:2|3:2,0:0:0:0:
265,296,45045,2,0,P|227:327|147:332,1,120,2|0,3:2|3:0,0:0:0:0:
67,366,45684,2,0,P|36:328|31:248,1,120,0|0,1:0|3:0,0:0:0:0:
54,167,46322,5,2,3:2:0:0:
145,196,46641,2,0,L|157:98,1,80,2|2,3:2|0:0,0:0:0:0:
134,91,46960,2,0,L|122:-7,1,80,2|2,1:2|0:0,0:0:0:0:
251,25,47599,1,2,3:2:0:0:
345,38,47918,1,2,3:2:0:0:
313,128,48237,2,0,L|393:138,1,80,2|2,1:2|3:2,0:0:0:0:
423,130,48556,2,0,L|389:221,1,80,2|2,3:2|0:0,0:0:0:0:
396,237,48875,6,0,B|408:316|408:316|381:364,2,120,2|2|2,3:2|3:3|1:3,0:2:0:0:
300,220,49833,1,2,3:2:0:0:
240,145,50152,2,0,P|183:136|120:166,1,120,2|2,3:2|3:2,0:2:0:0:
113,254,50790,2,0,P|170:245|233:275,1,120,2|2,1:2|3:2,0:2:0:0:
272,352,51428,5,2,3:2:0:0:
367,338,51747,2,0,L|377:257,1,80,2|2,3:2|0:2,0:2:0:0:
466,224,52279,2,0,L|450:88,1,120,2|2,0:2|3:2,0:0:0:0:
458,73,52705,2,0,L|368:55,1,80,2|2,3:2|0:2,0:2:0:0:
331,140,53237,2,0,L|193:155,1,120,2|2,0:2|3:2,0:0:0:0:
182,140,53662,1,2,3:1:0:0:
145,229,53982,6,0,B|167:288|167:288|139:363,1,120,6|2,3:2|3:3,0:0:0:0:
66,289,54620,1,2,1:3:0:0:
42,195,54939,2,0,P|58:165|58:119,1,80,2|2,3:2|3:2,0:0:0:0:
42,91,55258,2,0,P|92:67|164:71,1,120,2|0,3:2|3:0,0:0:0:0:
239,22,55896,2,0,P|289:46|361:42,1,120,0|0,1:0|3:0,0:0:0:0:
443,76,56535,5,2,3:2:0:0:
403,163,56854,2,0,B|375:240|375:240|402:305,1,120,2|2,3:2|1:2,0:0:0:0:
339,357,57492,2,0,P|289:346|240:359,1,80,2|2,3:2|3:2,0:0:0:0:
234,368,57812,1,2,3:2:0:0:
188,283,58131,1,2,3:2:0:0:
102,327,58450,2,0,L|86:235,1,80,2|2,1:2|3:2,0:0:0:0:
56,248,58769,2,0,L|43:152,1,80,2|2,3:2|0:0,0:0:0:0:
14,159,59088,6,0,B|29:32,2,120,2|2|2,3:2|3:3|1:3,0:2:0:0:
56,248,60046,1,2,3:2:0:0:
139,199,60365,2,0,P|117:132|132:73,1,120,2|2,3:2|3:2,0:2:0:0:
219,62,61003,2,0,P|277:70|333:49,1,120,2|2,1:2|3:2,0:2:0:0:
429,53,61641,5,2,3:2:0:0:
419,148,61960,2,0,L|409:227,1,80,2|2,3:2|0:2,0:2:0:0:
326,277,62492,2,0,L|310:141,1,120,2|2,0:2|3:2,0:0:0:0:
283,171,62918,2,0,L|193:153,1,80,2|2,3:2|0:2,0:2:0:0:
109,167,63450,2,0,L|125:17,1,120,2|2,0:2|3:2,0:0:0:0:
100,23,63875,1,2,3:1:0:0:
18,76,64194,6,0,B|-21:175|66:165|22:282,1,192,2|0,3:2|1:2,0:2:0:0:
156,377,65471,2,0,L|260:360,1,96,0|0,3:2|3:2,0:2:0:0:
319,309,66109,1,2,1:2:0:0:
382,367,66428,1,2,3:2:0:0:
453,318,66747,6,0,B|464:237|464:237|453:206|453:206|467:109,1,192,2|0,3:2|1:2,0:2:0:0:
406,64,67705,2,0,P|364:108|223:88,1,192,2|2,0:2|3:2,0:0:0:0:
183,37,68662,1,2,1:2:0:0:
115,91,68982,1,2,3:2:0:0:
34,60,69301,5,2,3:2:0:0:
18,232,69939,2,0,L|8:335,2,96,2|0|2,1:2|0:2|3:2,0:0:0:0:
179,169,71216,1,2,1:2:0:0:
190,254,71535,1,2,3:2:0:0:
207,338,71854,6,0,P|261:317|310:330,1,96,2|2,3:2|3:2,0:2:0:0:
377,355,72492,2,0,P|424:360|467:340,1,96,2|2,1:2|0:2,0:0:0:0:
509,265,73130,1,0,3:2:0:0:
390,138,73769,2,0,P|408:215|398:246,1,96,2|2,1:2|3:2,0:0:0:0:
307,238,74407,6,0,L|175:220,2,107.999996704102,6|2|2,3:2|3:2|1:2,0:2:0:0:
350,331,75365,1,0,0:0:0:0:
350,331,75684,2,0,L|218:349,1,107.999996704102,0|0,3:2|3:2,0:2:0:0:
156,301,76322,1,2,1:2:0:0:
81,363,76641,1,2,3:2:0:0:
16,290,76960,6,0,B|67:178|-48:186|14:73,1,215.999993408203,2|2,3:2|1:2,0:2:0:0:
97,42,77918,1,2,0:2:0:0:
97,42,78237,2,0,P|147:64|225:58,1,107.999996704102,0|2,3:2|3:2,0:2:0:0:
293,40,78875,1,2,1:2:0:0:
287,137,79194,1,2,3:2:0:0:
379,166,79513,6,0,P|429:144|507:150,2,107.999996704102,2|2|2,3:2|3:2|1:2,0:2:0:0:
329,249,80471,1,0,0:0:0:0:
232,242,80790,2,0,P|250:291|239:343,1,107.999996704102,2|2,3:2|3:2,0:2:0:0:
143,353,81428,2,0,P|124:303|135:251,1,107.999996704102,2|2,1:2|1:2,0:2:0:0:
98,160,82067,5,2,3:2:0:0:
2,141,82386,1,2,3:2:0:0:
33,48,82705,2,0,L|141:30,1,107.999996704102,2|2,1:2|0:2,0:2:0:0:
207,100,83343,2,0,L|338:83,1,107.999996704102,0|2,3:2|0:2,0:2:0:0:
402,44,83982,2,0,P|401:98|438:159,1,107.999996704102,2|2,1:2|3:2,0:0:0:0:
502,203,84620,5,6,3:2:0:0:
427,265,84939,2,0,L|299:243,2,107.999996704102,2|0|0,3:2|1:2|3:2,0:2:0:0:
501,327,85896,2,0,P|465:358|394:366,1,107.999996704102,2|2,3:2|3:2,0:0:0:0:
313,340,86535,2,0,P|260:333|227:349,1,71.9999978027344,2|2,1:2|0:2,0:2:0:0:
221,362,86854,1,2,0:2:0:0:
134,318,87173,5,2,3:2:0:0:
160,220,87492,2,0,L|146:105,2,107.999996704102,2|0|0,3:2|1:2|3:2,0:2:0:0:
63,212,88450,2,0,L|49:78,1,107.999996704102,2|2,0:2|0:2,0:2:0:0:
108,25,89088,1,2,1:2:0:0:
147,113,89407,2,0,P|190:122|219:115,1,71.9999978027344,2|2,0:2|3:2,0:2:0:0:
231,78,89726,6,0,B|278:55|278:55|418:85,1,179.999994506836,2|2,3:2|0:2,0:2:0:0:
496,108,90577,2,0,L|481:235,1,107.999996704102,2|2,3:2|1:2,0:2:0:0:
459,237,91003,1,0,3:2:0:0:
364,214,91322,1,2,3:2:0:0:
328,304,91641,2,0,L|215:322,1,107.999996704102,2|2,1:2|1:2,0:2:0:0:
163,242,92279,5,2,3:2:0:0:
258,220,92599,1,2,3:2:0:0:
301,132,92918,2,0,P|299:83|309:47,1,71.9999978027344,0|2,1:2|3:2,0:0:0:0:
185,7,93556,2,0,P|134:37|97:40,1,71.9999978027344,2|2,3:2|0:2,0:0:0:0:
89,37,93875,1,0,3:2:0:0:
131,124,94194,2,0,L|122:221,1,71.9999978027344,2|2,1:2|1:2,0:2:0:0:
50,302,94833,5,2,3:2:0:0:
30,206,95152,2,0,L|8:78,2,107.999996704102,2|0|0,3:2|1:2|3:2,0:2:0:0:
126,196,96109,2,0,P|186:191|238:218,1,107.999996704102,2|2,3:2|3:2,0:0:0:0:
270,297,96748,2,0,P|304:289|339:298,1,71.9999978027344,2|2,1:2|0:2,0:2:0:0:
358,324,97067,1,2,0:2:0:0:
454,313,97386,5,2,3:2:0:0:
438,217,97705,2,0,L|325:200,2,107.999996704102,2|2|0,3:2|1:2|3:2,0:2:0:0:
481,129,98663,2,0,L|347:108,1,107.999996704102,2|2,3:2|3:2,0:2:0:0:
295,55,99301,1,0,1:2:0:0:
230,127,99620,2,0,P|187:136|158:129,1,71.9999978027344,2|2,0:2|0:2,0:2:0:0:
135,108,99939,6,0,B|132:190|132:190|115:212|115:212|110:313,1,179.999994506836,0|2,3:2|0:2,0:2:0:0:
110,379,100790,2,0,P|168:357|234:371,1,107.999996704102,2|0,3:2|1:2,0:2:0:0:
239,380,101216,1,2,3:2:0:0:
300,304,101535,1,2,3:2:0:0:
396,314,101854,2,0,P|454:336|520:322,1,107.999996704102,2|2,1:2|3:2,0:2:0:0:
490,234,102492,6,0,L|482:148,1,71.9999978027344,0|2,3:2|0:2,0:0:0:0:
359,123,103130,2,0,L|351:209,1,71.9999978027344,0|2,1:2|3:2,0:0:0:0:
240,261,103769,6,0,P|179:253|146:267,1,71.9999978027344,2|2,3:2|1:2,0:2:0:0:
149,281,104088,1,0,3:0:0:0:
113,371,104407,2,0,B|224:406|211:300|335:349,1,215.999993408203,2|6,1:2|3:2,0:0:0:0:
