osu file format v14

[General]
AudioFilename: audio.ogg
AudioLeadIn: 0
PreviewTime: 43759
Countdown: 0
SampleSet: Soft
StackLeniency: 0.7
Mode: 0
LetterboxInBreaks: 0
WidescreenStoryboard: 1

[Editor]
DistanceSpacing: 0.9
BeatDivisor: 3
GridSize: 8
TimelineZoom: 2.3

[Metadata]
Title:216 Bandouro (Hiru)
TitleUnicode:216ばんどうろ (昼)
Artist:Ichinose Go
ArtistUnicode:一之瀬剛
Creator:SaltyLucario
Version:Jelljel's Insane
Source:ポケットモンスター ダイヤモンド・パール
Tags:saltking salty jelljel route 216 day pokemon diamond pearl platinum プラチナ pokémon pocket monsters game freak gamefreak nintendo ds gō gou video game videogame vgm instrumental ost original soundtrack electronic jazz snow
BeatmapID:2715253
BeatmapSetID:1309775

[Difficulty]
HPDrainRate:4.5
CircleSize:3.8
OverallDifficulty:7
ApproachRate:8.2
SliderMultiplier:2
SliderTickRate:1

[Events]
//Background and Video events
0,0,"bg.jpg",0,0
//Break Periods
//Storyboard Layer 0 (Background)
//Storyboard Layer 1 (Fail)
//Storyboard Layer 2 (Pass)
//Storyboard Layer 3 (Foreground)
//Storyboard Layer 4 (Overlay)
//Storyboard Sound Samples

[TimingPoints]
365,319.148936170213,4,2,1,35,1,0
365,-500,4,2,1,35,0,0
23343,-200,4,2,1,45,0,0
25258,-166.666666666667,4,2,1,45,0,0
25896,-200,4,2,1,45,0,0
35471,-166.666666666667,4,2,1,45,0,0
36109,-200,4,2,1,45,0,0
40577,-166.666666666667,4,2,1,45,0,0
41216,-200,4,2,1,45,0,0
42492,-166.666666666667,4,2,1,45,0,0
42811,-142.857142857143,4,2,1,45,0,0
43130,-125,4,2,1,45,0,0
43769,-100,4,2,1,75,0,1
64194,-200,4,2,1,50,0,0
74407,-125,4,2,1,65,0,0
105045,-125,4,2,1,65,0,0
105684,-125,4,2,1,55,0,0
106322,-125,4,2,1,45,0,0
106960,-125,4,2,1,35,0,0
107599,-125,4,2,1,25,0,0
108237,-125,4,2,1,15,0,0
108875,-125,4,2,99,5,0,0

[Colours]
Combo1 : 238,207,83
Combo2 : 123,123,247
Combo3 : 65,194,111

[HitObjects]
32,310,365,6,0,L|117:296,1,80,2|0,3:3|0:0,0:0:0:0:
22,328,1641,2,0,L|64:321,1,40,2|2,3:3|3:0,0:0:0:0:
161,320,2678,5,2,0:0:0:0:
163,305,2758,1,2,0:0:0:0:
160,290,2838,1,2,0:0:0:0:
152,277,2918,6,0,L|67:263,1,80,2|0,3:3|0:0,0:0:0:0:
0,373,4194,2,0,L|40:366,1,40,2|2,3:0|3:0,0:0:0:0:
204,217,4833,1,2,0:0:0:0:
204,217,5152,2,0,P|189:210|161:209,1,40,2|2,0:0|3:0,0:0:0:0:
162,124,5790,2,0,P|146:123|120:134,1,40,2|0,0:0|0:0,0:0:0:0:
27,189,6428,1,2,0:0:0:0:
27,189,6747,2,0,L|70:197,1,40,2|2,3:3|3:0,0:0:0:0:
287,28,7784,5,2,0:0:0:0:
302,26,7864,1,2,0:0:0:0:
317,29,7944,1,2,0:0:0:0:
330,37,8024,6,0,L|343:115,1,80,2|0,3:3|0:0,0:0:0:0:
280,289,9300,2,0,L|286:250,1,40,2|2,3:3|3:0,0:0:0:0:
251,135,9939,1,2,0:0:0:0:
251,135,10258,2,0,P|266:128|294:127,1,40,2|2,0:0|3:3,0:0:0:0:
309,43,10896,2,0,P|325:43|351:54,1,40,2|0,0:0|0:0,0:0:0:0:
413,124,11535,1,2,0:0:0:0:
413,124,11854,2,0,L|421:81,1,40,2|2,3:3|3:0,0:0:0:0:
471,261,12891,5,2,0:0:0:0:
468,276,12971,1,2,0:0:0:0:
466,291,13051,1,2,0:0:0:0:
464,306,13130,6,0,L|385:319,1,80,2|0,3:3|0:0,0:0:0:0:
322,207,14407,2,0,L|361:214,1,40,2|2,3:3|3:0,0:0:0:0:
475,141,15045,1,2,0:0:0:0:
475,141,15364,2,0,P|470:126|451:105,1,40,2|2,0:0|3:3,0:0:0:0:
512,46,16002,2,0,P|501:35|475:25,1,40,2|0,0:0|0:0,0:0:0:0:
342,64,16641,1,2,0:0:0:0:
342,64,16960,2,0,L|385:56,1,40,2|2,3:3|3:0,0:0:0:0:
41,261,17997,5,2,0:0:0:0:
44,276,18077,1,2,0:0:0:0:
46,291,18157,1,2,0:0:0:0:
48,306,18236,6,0,L|126:319,1,80,2|0,3:3|0:0,0:0:0:0:
190,207,19513,2,0,L|150:214,1,40,2|2,3:3|3:0,0:0:0:0:
37,141,20151,1,2,0:0:0:0:
37,141,20470,2,0,P|42:126|61:105,1,40,2|2,0:0|3:3,0:0:0:0:
0,46,21108,2,0,P|11:35|37:25,1,40,2|0,0:0|0:0,0:0:0:0:
170,64,21747,1,2,0:0:0:0:
170,64,22066,2,0,L|127:56,1,40,2|2,3:3|3:0,0:0:0:0:
236,353,23024,5,2,0:0:0:0:
262,282,23184,1,2,0:0:0:0:
213,220,23343,1,2,3:2:0:0:
213,220,23423,2,0,B|167:189|114:217|114:217|54:249|-6:212,1,225
65,134,24301,1,2,0:0:0:0:
65,134,24380,1,2,0:0:0:0:
65,134,24460,1,2,0:0:0:0:
152,229,24620,6,0,L|160:284,1,50,2|0,3:2|0:0,0:0:0:0:
55,349,24939,2,0,L|63:300,1,50,2|0,3:2|0:0,0:0:0:0:
161,211,25258,6,0,P|172:239|172:271,1,59.9999981689454,2|2,0:0|0:0,0:0:0:0:
34,361,25577,2,0,P|23:333|23:301,1,59.9999981689454,2|0,0:0|0:0,0:0:0:0:
169,371,25896,6,0,B|229:364|229:364|303:327|303:327|359:321,1,200,2|2,3:2|0:0,0:0:0:0:
359,320,27173,6,0,L|292:327,1,50,2|0,3:3|0:0,0:0:0:0:
169,371,27492,2,0,L|218:365,1,50,2|0,3:0|0:0,0:0:0:0:
405,203,28130,5,2,0:0:0:0:
418,181,28209,1,2,0:0:0:0:
422,157,28289,1,2,0:0:0:0:
419,132,28369,1,2,0:0:0:0:
404,109,28450,6,0,L|338:102,1,50,2|0,3:2|0:0,0:0:0:0:
322,28,28769,2,0,P|295:47|270:69,1,50,2|0,0:0|0:0,0:0:0:0:
154,0,29088,2,0,P|142:29|146:66,1,50,2|0,0:0|0:0,0:0:0:0:
65,159,29407,1,2,0:0:0:0:
65,159,29487,2,0,P|90:191|180:186,1,125
180,171,29966,1,2,0:0:0:0:
180,171,30045,2,0,P|152:186|156:222,1,50,2|0,3:2|0:0,0:0:0:0:
238,271,30365,5,2,0:0:0:0:
309,248,30524,1,2,0:0:0:0:
382,232,30684,2,0,P|416:251|445:362,1,150,2|0,0:0|0:0,0:0:0:0:
309,248,31482,1,2,0:0:0:0:
345,240,31561,1,2,0:0:0:0:
382,232,31642,2,0,P|416:251|445:362,1,150,2|0,0:0|0:0,0:0:0:0:
380,237,32279,6,0,P|402:247|422:263,1,50,2|0,3:3|0:0,0:0:0:0:
442,350,32599,2,0,P|445:325|442:300,1,50,2|0,3:0|0:0,0:0:0:0:
274,363,33238,5,2,0:0:0:0:
252,376,33317,1,2,0:0:0:0:
228,380,33397,1,2,0:0:0:0:
203,377,33477,1,2,0:0:0:0:
180,362,33556,6,0,L|173:296,1,50,2|0,3:2|0:0,0:0:0:0:
212,232,33875,2,0,P|228:189|198:127,1,100,2|0,0:0|0:0,0:0:0:0:
117,243,34354,1,2,0:0:0:0:
152,231,34434,1,2,0:0:0:0:
186,217,34513,2,0,P|196:183|190:159,1,50,2|0,0:0|0:0,0:0:0:0:
210,138,34833,6,0,P|223:160|226:185,1,50,2|0,3:0|0:0,0:0:0:0:
212,231,35152,2,0,P|223:209|228:185,1,50,2|0,3:2|0:0,0:0:0:0:
131,267,35471,6,0,L|194:247,1,59.9999981689454,2|0,0:0|0:0,0:0:0:0:
299,166,35790,2,0,L|236:146,1,59.9999981689454,2|0,0:0|0:0,0:0:0:0:
100,82,36109,6,0,B|160:75|160:75|234:38|234:38|290:32,1,200,2|2,3:2|0:0,0:0:0:0:
290,31,37386,6,0,L|223:38,1,50,2|0,3:0|0:0,0:0:0:0:
100,82,37705,2,0,L|149:76,1,50,2|0,3:0|0:0,0:0:0:0:
299,149,38343,6,0,L|292:184,1,25,2|0,0:0|0:0,0:0:0:0:
230,226,38503,2,0,L|237:261,1,25,2|0,0:0|0:0,0:0:0:0:
301,308,38662,2,0,P|338:288|446:323,1,150,2|0,3:2|0:0,0:0:0:0:
504,376,39301,2,0,L|514:264,1,100,2|0,0:0|0:0,0:0:0:0:
433,146,39779,1,2,0:0:0:0:
421,168,39859,1,2,0:0:0:0:
411,191,39939,2,0,P|378:204|343:203,1,50,2|0,3:2|0:0,0:0:0:0:
278,96,40258,2,0,P|305:118|322:148,1,50,0|0,3:0|0:0,0:0:0:0:
227,227,40577,6,0,L|242:153,1,59.9999981689454,2|0,0:0|0:0,0:0:0:0:
331,261,40896,2,0,L|346:335,1,59.9999981689454,2|2,0:0|0:0,0:0:0:0:
335,333,41136,1,2,0:0:0:0:
325,344,41216,6,0,P|287:331|215:346,1,100,2|0,0:0|3:0,0:0:0:0:
113,375,41694,1,2,0:0:0:0:
113,375,41774,1,2,0:0:0:0:
113,375,41854,2,0,P|143:348|166:278,1,100,2|0,0:3|3:0,0:0:0:0:
107,177,42492,6,0,L|188:187,1,59.9999981689454,2|0,0:3|0:0,0:0:0:0:
312,212,42811,6,0,L|229:227,1,69.9999978637696,2|0,1:2|0:0,0:0:0:0:
368,282,43130,6,0,L|399:230,1,53.3333333333333,0|0,1:0|0:0,0:0:0:0:
394,53,43343,2,0,L|425:105,1,53.3333333333333,0|0,1:0|0:0,0:0:0:0:
501,184,43556,5,0,0:0:0:0:
489,214,43662,1,0,0:0:0:0:
509,286,43769,6,0,L|496:381,1,66.6666666666667,6|0,3:2|0:0,0:0:0:0:
393,384,43982,1,0,3:0:0:0:
393,384,44088,2,0,L|481:347,1,66.6666666666667,2|2,3:3|0:3,0:0:0:0:
337,281,44301,1,2,0:3:0:0:
337,281,44407,2,0,P|268:272|199:321,1,133.333333333333,2|0,1:3|0:0,0:0:0:0:
121,361,44726,1,2,3:2:0:0:
102,289,44833,1,2,0:2:0:0:
122,254,44939,1,2,3:2:0:0:
89,189,45045,6,0,P|50:182|-2:195,1,66.6666666666667,2|0,3:2|0:0,0:0:0:0:
174,67,45258,1,0,0:0:0:0:
174,67,45365,2,0,B|223:55|223:55|255:62|255:62|311:48,1,133.333333333333,0|0,3:0|0:0,0:0:0:0:
418,105,45684,2,0,L|328:129,1,66.6666666666667,0|0,1:0|0:0,0:0:0:0:
282,228,45896,1,0,3:0:0:0:
282,228,46003,2,0,L|346:210,1,66.6666666666667,0|0,3:0|0:0,0:0:0:0:
182,170,46216,5,0,0:0:0:0:
182,170,46322,2,0,L|165:261,1,66.6666666666667,2|0,3:2|0:0,0:0:0:0:
244,350,46535,1,0,3:0:0:0:
244,350,46641,2,0,L|227:259,1,66.6666666666667,2|0,3:2|0:0,0:0:0:0:
345,183,46854,1,2,0:0:0:0:
345,183,46960,2,0,P|331:215|334:248,1,66.6666666666667,2|0,1:2|0:0,0:0:0:0:
460,345,47173,2,0,P|439:316|409:302,1,66.6666666666667,2|0,0:0|0:0,0:0:0:0:
467,21,47492,5,2,3:2:0:0:
467,21,47599,2,0,L|387:35,1,66.6666666666667,2|0,3:2|0:2,0:2:0:0:
238,65,47811,1,2,0:2:0:0:
238,65,47918,2,0,L|318:79,1,66.6666666666667,2|0,3:2|0:2,0:2:0:0:
475,164,48130,1,2,0:2:0:0:
475,164,48237,2,0,P|447:186|376:180,1,66.6666666666667,2|0,1:2|0:2,0:2:0:0:
232,160,48450,1,2,3:2:0:0:
232,160,48557,2,0,P|260:182|331:176,1,66.6666666666667,2|0,3:2|0:2,0:2:0:0:
143,82,48769,5,2,0:2:0:0:
143,82,48875,2,0,L|79:105,1,66.6666666666667,2|0,3:2|0:2,0:2:0:0:
51,192,49088,1,0,0:2:0:0:
124,213,49194,1,2,3:3:0:0:
155,197,49301,1,2,0:3:0:0:
232,201,49407,1,2,0:3:0:0:
232,201,49513,2,0,L|311:224,1,66.6666666666667,2|0,1:3|0:0,0:2:0:0:
357,277,49726,1,0,0:2:0:0:
405,222,49833,5,2,3:2:0:0:
403,175,49939,1,2,0:2:0:0:
365,202,50045,1,2,0:2:0:0:
439,238,50152,2,0,L|526:224,1,66.6666666666667,2|0,3:2|0:2,0:2:0:0:
403,355,50365,1,2,0:2:0:0:
403,355,50471,2,0,P|314:353|275:316,1,133.333333333333,2|0,3:2|0:2,0:2:0:0:
207,137,50790,6,0,L|187:259,1,66.6666666666667,2|0,1:2|0:2,0:2:0:0:
301,96,51003,1,0,3:2:0:0:
301,96,51109,2,0,L|321:218,1,66.6666666666667,2|0,3:2|0:0,0:2:0:0:
191,55,51322,1,0,0:2:0:0:
191,55,51428,6,0,L|91:65,1,66.6666666666667,2|0,3:2|0:0,0:2:0:0:
67,206,51747,6,0,L|163:206,1,66.6666666666667,2|0,3:2|0:2,0:2:0:0:
200,206,51960,2,0,L|104:206,1,66.6666666666667,2|0,0:2|1:2,0:0:0:0:
59,323,52279,5,2,0:2:0:0:
59,323,52385,2,0,L|159:333,1,66.6666666666667,2|0,3:2|0:2,0:2:0:0:
204,373,52599,1,2,3:2:0:0:
204,373,52705,2,0,L|304:363,1,66.6666666666667,2|0,3:2|0:2,0:2:0:0:
360,291,52918,2,0,L|260:281,1,66.6666666666667,2|0,0:2|3:0,0:0:0:0:
435,334,53237,5,2,0:2:0:0:
435,334,53343,2,0,P|445:292|405:223,1,66.6666666666667,2|0,1:2|0:2,0:2:0:0:
326,166,53556,1,2,3:2:0:0:
326,166,53662,2,2,B|350:178|350:178|364:176|364:176|380:185|380:185|411:181|411:181|429:193|429:193|459:190,1,133.333333333333,2|0,3:1|3:2,0:1:0:0:
412,54,53982,6,0,L|339:68,1,66.6666666666667,6|0,3:2|0:0,0:0:0:0:
200,101,54194,1,0,3:0:0:0:
200,101,54301,2,0,L|273:115,1,66.6666666666667,2|2,3:3|0:3,0:0:0:0:
148,32,54513,1,2,0:3:0:0:
148,32,54620,2,0,P|123:67|140:161,1,133.333333333333,2|0,1:3|0:0,0:0:0:0:
194,221,54939,1,2,3:2:0:0:
146,276,55045,1,2,0:2:0:0:
119,255,55152,1,2,3:2:0:0:
46,261,55258,6,0,P|35:297|40:335,1,66.6666666666667,2|0,3:2|0:0,0:0:0:0:
118,375,55471,1,0,0:0:0:0:
118,375,55577,2,0,B|178:408|189:318|272:367,1,133.333333333333,0|0,3:0|0:0,0:0:0:0:
272,286,55896,2,0,P|221:277|155:300,1,66.6666666666667,0|0,1:0|0:0,0:0:0:0:
324,370,56109,1,0,3:0:0:0:
324,370,56216,2,0,P|357:330|370:261,1,66.6666666666667,0|0,3:0|0:0,0:0:0:0:
267,190,56428,5,0,0:0:0:0:
267,190,56535,2,0,L|348:174,1,66.6666666666667,2|0,3:2|0:0,0:0:0:0:
406,52,56747,1,0,3:0:0:0:
406,52,56854,2,0,L|379:130,1,66.6666666666667,2|0,3:2|0:0,0:0:0:0:
460,244,57067,1,2,0:0:0:0:
460,244,57174,2,0,L|405:181,1,66.6666666666667,2|0,1:2|0:0,0:0:0:0:
362,315,57386,5,2,0:0:0:0:
362,315,57492,2,0,L|373:361,3,33.3333333333333,2|0|2|0,3:2|0:0|0:2|0:0,0:0:0:0:
285,287,57705,1,2,3:2:0:0:
285,287,57811,2,0,L|297:221,1,66.6666666666667,2|0,3:2|0:2,0:2:0:0:
214,335,58024,1,2,0:2:0:0:
214,335,58130,2,0,L|201:269,1,66.6666666666667,2|0,3:2|0:2,0:2:0:0:
213,159,58343,1,2,0:2:0:0:
213,159,58450,2,0,P|184:189|117:195,1,66.6666666666667,2|0,1:2|0:2,0:2:0:0:
284,115,58662,1,2,3:2:0:0:
284,115,58769,2,0,P|255:85|188:79,1,66.6666666666667,2|0,3:2|0:2,0:2:0:0:
91,64,58982,5,2,0:2:0:0:
91,64,59088,2,0,L|77:147,1,66.6666666666667,2|0,3:2|0:2,0:2:0:0:
101,212,59301,1,0,0:2:0:0:
169,247,59407,1,2,3:3:0:0:
186,234,59513,1,2,0:3:0:0:
277,261,59620,1,2,0:3:0:0:
277,261,59726,2,0,L|262:171,1,66.6666666666667,2|0,1:3|0:0,0:2:0:0:
253,124,59939,1,0,0:2:0:0:
313,82,60045,5,2,3:2:0:0:
346,115,60151,1,2,0:2:0:0:
301,127,60257,1,2,0:2:0:0:
319,40,60365,2,0,L|384:30,1,66.6666666666667,2|0,3:2|0:2,0:2:0:0:
463,99,60577,1,2,0:2:0:0:
463,99,60684,2,0,B|438:129|438:129|317:109,1,133.333333333333,2|0,3:2|0:2,0:2:0:0:
220,41,61003,6,0,L|240:163,1,66.6666666666667,2|0,1:2|0:2,0:2:0:0:
126,0,61216,1,0,3:2:0:0:
126,0,61322,2,0,L|106:122,1,66.6666666666667,2|0,3:2|0:0,0:2:0:0:
55,247,61535,1,0,0:2:0:0:
55,247,61641,6,0,L|43:158,1,66.6666666666667,2|0,3:2|0:0,0:2:0:0:
196,251,61960,6,0,L|196:317,1,66.6666666666667,2|0,3:2|0:2,0:2:0:0:
198,384,62173,2,0,L|196:316,1,66.6666666666667,2|0,0:2|1:2,0:0:0:0:
265,151,62492,5,2,0:2:0:0:
265,151,62599,2,0,L|172:165,1,66.6666666666667,2|0,3:2|0:2,0:2:0:0:
274,61,62811,1,2,3:2:0:0:
274,61,62918,2,0,L|367:75,1,66.6666666666667,2|0,3:2|0:2,0:2:0:0:
417,171,63130,2,0,L|324:185,1,66.6666666666667,2|0,0:2|3:0,0:0:0:0:
461,109,63450,5,2,0:2:0:0:
461,109,63556,2,0,P|488:142|487:191,1,66.6666666666667,2|0,1:2|0:2,0:2:0:0:
436,264,63769,1,2,3:2:0:0:
436,264,63875,2,2,B|412:276|412:276|398:274|398:274|382:283|382:283|351:279|351:279|333:291|333:291|303:288,1,133.333333333333,2|0,3:1|3:2,0:1:0:0:
227,242,64194,6,0,P|240:201|214:136,1,100,2|0,3:2|0:0,0:2:0:0:
54,171,64833,1,0,1:2:0:0:
50,204,64939,1,0,0:2:0:0:
46,237,65045,1,0,0:2:0:0:
42,270,65152,1,0,0:2:0:0:
131,359,65365,5,0,3:2:0:0:
138,339,65471,1,0,3:2:0:0:
212,282,65684,1,0,0:2:0:0:
219,302,65790,1,0,3:2:0:0:
315,351,66003,2,0,L|318:328,1,16.6666666666667,0|0,0:2|0:0,0:0:0:0:
326,367,66109,6,0,P|338:342|323:284,1,66.6666666666667,2|0,1:2|3:2,0:2:0:0:
301,224,66428,1,2,3:2:0:0:
285,194,66535,1,2,0:2:0:0:
291,161,66641,1,2,3:2:0:0:
314,137,66747,2,0,L|436:123,1,100,2|0,3:2|3:2,0:2:0:0:
504,235,67226,2,0,L|393:217,1,100,2|0,0:0|0:0,0:0:0:0:
289,112,67705,6,0,P|250:101|140:176,1,166.666666666667,2|0,0:2|0:0,0:0:0:0:
238,249,68343,2,0,L|232:178,1,66.6666666666667,2|0,3:2|0:0,0:0:0:0:
163,281,68662,1,2,1:2:0:0:
314,217,68982,1,2,3:2:0:0:
465,369,69301,5,2,3:2:0:0:
432,374,69407,1,2,0:2:0:0:
399,365,69513,2,0,P|368:330|361:279,1,100,2|0,0:2|0:2,0:2:0:0:
438,205,69939,5,2,1:2:0:0:
454,175,70045,1,0,0:2:0:0:
455,141,70152,1,0,0:0:0:0:
441,110,70258,1,0,0:2:0:0:
300,57,70471,5,0,3:2:0:0:
332,48,70577,1,2,3:2:0:0:
279,142,70790,1,0,3:0:0:0:
247,133,70896,1,2,3:2:0:0:
138,52,71216,6,0,L|146:121,1,66.6666666666667,2|0,1:2|0:0,0:2:0:0:
217,209,71535,2,0,L|224:141,1,66.6666666666667,2|0,3:2|0:0,0:0:0:0:
254,278,71854,2,0,P|225:285|186:279,1,66.6666666666667,2|0,3:2|0:0,0:2:0:0:
107,207,72173,2,0,P|127:228|144:273,1,66.6666666666667,2|0,3:2|0:0,0:2:0:0:
23,362,72492,1,2,1:2:0:0:
21,328,72599,1,0,0:2:0:0:
31,296,72705,1,0,0:2:0:0:
58,276,72811,1,2,0:2:0:0:
194,363,73024,5,0,3:2:0:0:
161,370,73130,1,0,3:2:0:0:
219,283,73343,1,2,0:2:0:0:
252,290,73449,1,2,3:2:0:0:
426,371,73769,5,2,1:2:0:0:
421,338,73875,1,2,0:2:0:0:
416,304,73982,1,2,0:2:0:0:
411,271,74088,1,2,3:2:0:0:
406,238,74194,1,2,0:2:0:0:
400,204,74301,1,2,3:2:0:0:
346,150,74407,6,0,L|283:142,1,53.3333333333333,6|0,3:2|0:2,0:2:0:0:
179,200,74620,1,0,0:2:0:0:
179,200,74726,2,0,L|242:192,1,53.3333333333333,2|0,3:2|0:2,0:2:0:0:
117,137,74939,2,0,P|91:200|121:267,1,106.666666666667,2|0,0:2|0:2,0:0:0:0:
194,334,75258,1,2,0:2:0:0:
194,334,75365,2,0,P|160:341|118:335,1,53.3333333333333,0|0,0:0|0:2,0:0:0:0:
257,266,75577,1,0,3:2:0:0:
257,266,75684,6,0,L|269:330,1,53.3333333333333,0|0,3:2|0:0,0:2:0:0:
301,196,75896,1,2,0:2:0:0:
301,196,76003,2,0,L|313:132,1,53.3333333333333,0|0,3:2|0:0,0:0:0:0:
381,244,76216,2,0,L|386:276,1,26.6666666666667,2|2,0:2|0:2,0:0:0:0:
402,222,76322,2,0,P|423:197|415:115,1,106.666666666667,2|0,1:2|0:2,0:2:0:0:
339,58,76641,2,0,L|272:67,1,53.3333333333333,2|0,3:2|0:2,0:2:0:0:
141,147,76854,5,2,3:2:0:0:
141,147,76960,2,0,P|172:122|200:115,1,53.3333333333333,2|0,3:2|0:2,0:2:0:0:
244,224,77173,1,0,0:2:0:0:
244,224,77279,2,0,P|212:199|184:192,1,53.3333333333333,2|0,3:2|0:2,0:2:0:0:
144,333,77492,2,0,L|215:318,2,53.3333333333333,2|2|0,0:2|1:2|0:0,0:0:0:0:
28,287,77811,1,0,0:2:0:0:
28,287,77918,2,0,P|48:259|53:230,1,53.3333333333333,2|2,0:2|0:2,0:2:0:0:
9,138,78130,5,0,3:2:0:0:
9,138,78237,2,0,L|75:124,1,53.3333333333333,0|0,3:2|0:2,0:2:0:0:
170,206,78450,1,0,3:2:0:0:
170,206,78556,6,0,B|146:171|146:171|161:96,1,106.666666666667,2|0,3:2|0:0,0:0:0:0:
234,146,78875,2,0,P|254:213|238:270,1,106.666666666667,2|0,1:2|0:2,0:2:0:0:
190,347,79194,2,0,L|251:339,1,53.3333333333333,2|0,3:2|0:0,0:2:0:0:
391,306,79407,5,0,1:2:0:0:
391,306,79513,2,0,L|329:299,1,53.3333333333333,2|0,3:2|0:2,0:2:0:0:
471,225,79726,1,0,0:2:0:0:
471,225,79832,2,0,L|409:232,1,53.3333333333333,2|0,3:2|0:2,0:2:0:0:
337,180,80045,2,0,P|332:128|366:88,1,106.666666666667,0|0,3:2|0:2,0:0:0:0:
274,29,80365,5,2,0:2:0:0:
269,46,80471,1,0,0:0:0:0:
179,143,80684,5,0,3:2:0:0:
179,143,80790,2,0,L|162:24,1,106.666666666667,2|0,3:2|3:2,0:2:0:0:
109,192,81109,2,0,L|92:73,1,106.666666666667,2|0,3:2|0:2,0:2:0:0:
207,222,81428,6,0,P|185:263|125:294,1,106.666666666667,2|0,1:2|3:2,0:2:0:0:
52,278,81747,2,0,P|98:303|124:349,1,106.666666666667,2|2,1:2|0:0,0:0:0:0:
238,381,82067,6,0,L|248:326,1,53.3333333333333,2|0,3:2|0:2,0:2:0:0:
319,245,82279,1,0,0:2:0:0:
319,245,82386,2,0,P|329:270|328:297,1,53.3333333333333,2|0,3:2|0:2,0:2:0:0:
248,181,82599,1,0,3:2:0:0:
248,181,82705,2,0,P|294:159|358:162,1,106.666666666667,2|0,1:2|0:2,0:2:0:0:
419,212,83024,2,0,P|397:195|384:171,1,53.3333333333333,2|0,0:2|0:2,0:2:0:0:
452,12,83237,5,0,3:2:0:0:
452,12,83343,2,0,L|381:21,1,53.3333333333333,0|0,3:2|0:2,0:2:0:0:
331,76,83556,1,2,0:2:0:0:
331,76,83662,2,0,L|211:58,1,106.666666666667,2|0,0:2|0:0,0:0:0:0:
137,21,83982,5,2,1:2:0:0:
113,56,84088,1,2,0:2:0:0:
105,97,84194,1,2,3:2:0:0:
112,139,84301,1,2,3:2:0:0:
137,172,84407,1,2,0:2:0:0:
177,185,84513,1,2,3:2:0:0:
218,172,84620,6,0,P|261:163|331:192,1,106.666666666667,6|0,3:2|0:2,0:2:0:0:
402,258,84939,2,0,L|413:149,1,106.666666666667,2|0,3:2|0:2,0:2:0:0:
328,43,85258,2,0,L|340:112,1,53.3333333333333,0|0,1:2|0:2,0:2:0:0:
473,89,85471,1,0,3:2:0:0:
459,48,85577,1,0,3:2:0:0:
385,282,85790,1,0,1:2:0:0:
366,308,85896,6,0,L|293:318,1,53.3333333333333,2|0,3:2|0:0,0:0:0:0:
192,237,86109,2,0,L|223:242,2,26.6666666666667,2|2|2,1:2|0:2|3:2,0:0:0:0:
67,362,86428,1,0,0:2:0:0:
57,320,86535,1,2,1:2:0:0:
118,150,86747,1,2,0:2:0:0:
108,192,86854,1,2,0:2:0:0:
11,60,87067,1,2,0:2:0:0:
53,50,87174,1,2,3:2:0:0:
261,216,87492,1,2,3:2:0:0:
189,61,87705,5,0,0:2:0:0:
189,61,87811,2,0,L|179:117,1,53.3333333333333,0|0,1:2|0:2,0:2:0:0:
287,196,88024,1,0,3:2:0:0:
287,196,88130,2,0,L|277:140,1,53.3333333333333,0|0,3:2|0:0,0:2:0:0:
183,312,88343,1,0,1:2:0:0:
183,312,88450,2,0,L|307:325,1,106.666666666667,2|0,0:2|1:2,0:2:0:0:
467,232,88769,2,0,L|343:245,1,106.666666666667,2|0,0:2|0:2,0:2:0:0:
450,333,89088,5,2,1:2:0:0:
285,212,89301,2,0,L|293:167,2,26.6666666666667,2|2|2,0:2|0:2|0:2,0:0:0:0:
455,46,89620,1,2,3:2:0:0:
455,46,89726,6,0,B|377:21|378:110|283:71,1,160,2|0,3:2|3:2,0:2:0:0:
170,3,90258,2,0,L|178:66,1,53.3333333333333,2|0,0:2|1:2,0:0:0:0:
326,227,90577,2,0,P|288:206|214:218,1,106.666666666667,2|0,3:2|0:2,0:2:0:0:
142,256,90896,2,0,L|162:141,1,106.666666666667,2|0,1:2|0:0,0:0:0:0:
247,69,91216,5,0,1:2:0:0:
254,110,91322,1,2,3:2:0:0:
74,75,91535,2,0,L|81:47,2,26.6666666666667,0|0|2,0:2|0:0|1:2,0:0:0:0:
162,134,91854,2,0,L|169:162,2,26.6666666666667,0|0|2,3:2|3:0|1:2,0:0:0:0:
33,313,92173,5,0,0:0:0:0:
33,313,92279,2,0,P|78:291|150:291,1,106.666666666667,2|0,3:2|0:2,0:2:0:0:
209,364,92599,2,0,L|179:369,2,26.6666666666667,2|0|0,3:2|0:2|0:2,0:2:0:0:
273,315,92811,1,0,0:2:0:0:
273,315,92918,2,0,P|253:273|255:244,1,53.3333333333333,0|0,1:2|0:0,0:0:0:0:
284,189,93130,2,0,P|329:211|401:211,1,106.666666666667,2|0,3:2|0:0,0:2:0:0:
453,52,93556,5,2,3:2:0:0:
242,35,93769,2,0,L|227:83,2,26.6666666666667,2|2|0,0:2|0:2|3:2,0:0:0:0:
469,73,94194,5,2,1:2:0:0:
378,189,94407,2,0,P|358:223|365:297,1,106.666666666667,2|0,1:2|0:2,0:2:0:0:
305,164,94726,5,2,3:2:0:0:
305,164,94833,2,0,P|262:155|192:184,1,106.666666666667,2|0,3:2|0:2,0:2:0:0:
121,250,95152,2,0,L|110:141,1,106.666666666667,2|0,3:2|0:2,0:2:0:0:
195,35,95471,2,0,L|183:104,1,53.3333333333333,0|0,1:2|0:2,0:2:0:0:
50,81,95684,1,2,3:2:0:0:
64,40,95790,1,0,3:2:0:0:
138,274,96003,1,0,1:2:0:0:
157,300,96109,6,0,L|230:310,1,53.3333333333333,2|0,3:2|0:0,0:0:0:0:
331,229,96322,2,0,L|300:234,2,26.6666666666667,2|2|2,1:2|0:2|3:2,0:0:0:0:
456,354,96641,1,0,0:2:0:0:
466,312,96748,1,2,1:2:0:0:
405,142,96960,1,2,0:2:0:0:
415,184,97067,1,2,0:2:0:0:
512,52,97280,1,2,0:2:0:0:
470,42,97386,5,2,3:2:0:0:
251,216,97705,1,2,3:2:0:0:
358,355,97918,1,0,0:2:0:0:
358,355,98024,2,0,L|296:364,1,53.3333333333333,2|0,1:2|0:2,0:2:0:0:
216,324,98237,1,0,3:2:0:0:
216,324,98343,2,0,L|154:315,1,53.3333333333333,0|0,3:2|0:0,0:2:0:0:
46,366,98556,1,0,1:2:0:0:
46,366,98662,6,0,P|68:329|61:257,1,106.666666666667,2|0,3:2|1:2,0:2:0:0:
16,169,98982,2,0,P|47:189|82:191,1,53.3333333333333,2|0,3:2|0:0,0:2:0:0:
137,132,99194,2,0,P|174:110|246:117,1,106.666666666667,2|0,0:2|0:0,0:0:0:0:
318,218,99513,1,2,0:2:0:0:
309,175,99620,1,2,0:2:0:0:
212,299,99833,1,2,0:2:0:0:
212,299,99939,6,0,B|290:274|289:363|384:324,1,160,0|0,3:2|0:2,0:2:0:0:
448,253,100471,2,0,L|426:142,1,106.666666666667,2|0,0:2|0:2,0:0:0:0:
320,70,100790,2,0,L|299:174,1,106.666666666667,2|0,3:2|0:2,0:2:0:0:
343,297,101109,1,0,1:2:0:0:
337,260,101216,1,2,3:2:0:0:
210,344,101428,2,0,L|206:381,2,26.6666666666667,2|2|2,1:2|0:2|3:2,0:0:0:0:
109,252,101854,6,0,P|96:219|120:137,1,106.666666666667,2|0,1:2|0:2,0:2:0:0:
201,107,102173,1,2,3:2:0:0:
35,52,102386,1,0,0:2:0:0:
74,36,102492,1,0,3:2:0:0:
297,73,102705,6,0,L|315:190,1,106.666666666667,2|0,0:2|0:2,0:0:0:0:
263,258,103024,1,2,0:2:0:0:
391,39,103343,5,2,3:2:0:0:
433,33,103450,1,0,0:2:0:0:
472,48,103556,1,0,0:2:0:0:
490,86,103662,1,0,1:2:0:0:
497,128,103769,2,0,L|488:204,1,53.3333333333333,2|0,3:2|0:2,0:2:0:0:
395,234,103982,2,0,L|386:158,1,53.3333333333333,2|0,1:2|3:0,0:2:0:0:
256,192,104301,5,0,0:2:0:0:
256,192,104407,2,0,L|274:276,2,53.3333333333333,2|2|2,1:2|1:2|3:2,0:0:0:0:
187,116,104726,2,0,L|205:32,2,53.3333333333333,2|2|2,1:2|3:2|1:2,0:0:0:0:
103,201,105045,5,6,3:2:0:0:
256,192,105125,12,0,108875,0:0:0:0:
