osu file format v14

[General]
AudioFilename: audio.ogg
AudioLeadIn: 0
PreviewTime: 43759
Countdown: 0
SampleSet: Soft
StackLeniency: 0.7
Mode: 0
LetterboxInBreaks: 0
WidescreenStoryboard: 1

[Editor]
Bookmarks: 355,33546,43759,53972,64184,74397,84610,94823,105035
DistanceSpacing: 0.7
BeatDivisor: 4
GridSize: 32
TimelineZoom: 1

[Metadata]
Title:216 Bandouro (Hiru)
TitleUnicode:216ばんどうろ (昼)
Artist:Ichinose Go
ArtistUnicode:一之瀬剛
Creator:SaltyLucario
Version:Collab Hard
Source:ポケットモンスター ダイヤモンド・パール
Tags:saltking salty jelljel route 216 day pokemon diamond pearl platinum プラチナ pokémon pocket monsters game freak gamefreak nintendo ds gō gou video game videogame vgm instrumental ost original soundtrack electronic jazz snow
BeatmapID:2715252
BeatmapSetID:1309775

[Difficulty]
HPDrainRate:4
CircleSize:4
OverallDifficulty:5.6
ApproachRate:8
SliderMultiplier:1.4
SliderTickRate:1

[Events]
//Background and Video events
0,0,"bg.jpg",0,0
//Break Periods
//Storyboard Layer 0 (Background)
//Storyboard Layer 1 (Fail)
//Storyboard Layer 2 (Pass)
//Storyboard Layer 3 (Foreground)
//Storyboard Layer 4 (Overlay)
//Storyboard Sound Samples

[TimingPoints]
365,319.148936170213,4,2,1,35,1,0
365,-142.857142857143,4,2,1,35,0,0
23343,-133.333333333333,4,2,1,45,0,0
28609,-133.333333333333,4,2,99,5,0,0
28769,-133.333333333333,4,2,1,45,0,0
28928,-133.333333333333,4,2,99,5,0,0
29088,-133.333333333333,4,2,1,45,0,0
29247,-133.333333333333,4,2,99,5,0,0
29407,-133.333333333333,4,2,1,45,0,0
34194,-133.333333333333,4,2,99,5,0,0
34354,-133.333333333333,4,2,1,45,0,0
39620,-133.333333333333,4,2,99,5,0,0
39779,-133.333333333333,4,2,1,45,0,0
43769,-100,4,2,1,75,0,1
64194,-125,4,2,1,50,0,0
74407,-111.111111111111,4,2,1,65,0,0
93024,-111.111111111111,4,2,99,5,0,0
93130,-111.111111111111,4,2,1,65,0,0

[Colours]
Combo1 : 238,207,83
Combo2 : 123,123,247
Combo3 : 65,194,111

[HitObjects]
103,244,365,6,0,B|113:171|113:171|99:136|99:136|112:38,1,195.999994018555,2|0,3:3|0:0,0:0:0:0:
110,52,1641,2,0,P|157:55|175:50,1,48.9999985046387,2|0,3:3|0:0,0:0:0:0:
241,24,1960,1,2,3:0:0:0:
241,24,2678,2,0,L|249:-17,2,24.4999992523194,2|2|2,0:0|0:0|0:0,0:0:0:0:
213,56,2918,6,0,B|224:139|224:139|210:174|210:174|220:247,1,195.999994018555,2|0,3:0|0:0,0:0:0:0:
220,247,4194,1,2,3:0:0:0:
365,285,4513,1,2,3:0:0:0:
307,126,4833,2,0,B|321:173|321:173|302:231,1,97.9999970092774,2|2,0:0|0:0,0:0:0:0:
242,359,5471,6,0,B|150:306|147:397|49:346,1,195.999994018555,2|2,3:0|0:0,0:0:0:0:
54,348,6747,2,0,P|62:308|57:283,1,48.9999985046387,2|0,3:3|0:0,0:0:0:0:
32,228,7067,1,2,3:0:0:0:
32,228,7785,2,0,L|-5:233,2,24.4999992523194,2|2|2,0:0|0:0|0:0,0:0:0:0:
55,190,8024,6,0,B|147:137|150:228|248:177,1,195.999994018555,2|0,3:0|0:0,0:0:0:0:
242,179,9301,1,2,3:3:0:0:
227,18,9620,1,2,3:0:0:0:
381,81,9939,2,0,B|332:77|332:77|284:120,1,97.9999970092774,2|2,0:0|0:0,0:0:0:0:
424,230,10577,6,0,B|383:199|383:199|237:238,1,195.999994018555,2|2,3:3|0:0,0:0:0:0:
243,236,11854,2,0,P|241:283|252:303,1,48.9999985046387,2|0,3:3|0:0,0:0:0:0:
288,350,12173,1,2,3:0:0:0:
288,350,12891,2,0,L|329:344,2,24.4999992523194,2|2|2,0:0|0:0|0:0,0:0:0:0:
245,334,13130,6,0,B|204:365|204:365|58:326,1,195.999994018555,2|0,3:3|0:0,0:0:0:0:
64,327,14407,1,2,3:3:0:0:
42,166,14726,1,2,3:0:0:0:
196,226,15045,2,0,B|154:207|154:207|141:135,1,97.9999970092774,2|2,0:0|0:0,0:0:0:0:
196,32,15684,6,0,P|221:73|362:61,1,195.999994018555,2|2,3:3|0:0,0:0:0:0:
353,70,16960,2,0,P|350:101|358:126,1,48.9999985046387,2|0,3:3|0:0,0:0:0:0:
410,175,17279,1,2,3:0:0:0:
410,175,17997,2,0,L|449:166,2,24.4999992523194,2|2|2,0:0|0:0|0:0,0:0:0:0:
384,215,18237,6,0,P|294:189|226:253,1,195.999994018555,2|0,3:0|0:0,0:0:0:0:
226,253,19513,2,0,P|240:287|241:315,1,48.9999985046387,2|0,3:3|0:0,0:0:0:0:
207,374,19833,1,2,3:0:0:0:
352,326,20152,2,0,B|405:311|405:311|459:332,1,97.9999970092774,2|2,0:0|0:0,0:0:0:0:
512,207,20790,6,0,B|432:212|432:212|400:189|400:189|303:196,1,195.999994018555,2|2,3:3|0:0,0:0:0:0:
323,194,22067,2,0,P|331:151|328:130,1,48.9999985046387,2|0,3:3|0:0,0:0:0:0:
306,66,22386,1,2,3:3:0:0:
306,66,23024,1,2,0:0:0:0:
256,122,23184,1,2,0:0:0:0:
196,76,23343,6,0,B|90:105|105:4|-5:38,1,210.000008010865,2|0,3:2|0:0,0:0:0:0:
24,172,24301,2,0,L|31:133,2,26.2500010013581,2|2|2,0:0|0:0|0:0,0:0:0:0:
83,229,24620,2,0,P|85:262|82:292,1,52.5000020027161,2|0,3:2|0:0,0:0:0:0:
37,345,24939,1,2,3:2:0:0:
183,307,25258,2,0,B|239:293|239:293|307:312,1,105.000004005432,2|2,0:0|0:0,0:0:0:0:
415,337,25896,6,0,P|398:268|482:311,1,210.000008010865,2|2,3:2|0:0,0:0:0:0:
483,304,27173,2,0,P|492:276|490:232,1,52.5000020027161,2|0,3:3|0:0,0:0:0:0:
472,174,27492,1,2,3:0:0:0:
472,174,28130,1,2,0:0:0:0:
463,172,28210,1,2,0:0:0:0:
454,170,28290,1,2,0:0:0:0:
394,119,28450,6,0,P|399:86|406:65,1,52.5000020027161,2|0,3:2|0:0,0:0:0:0:
340,15,28769,2,0,P|308:27|287:31,1,52.5000020027161,2|0,0:0|0:0,0:0:0:0:
273,112,29088,2,0,P|299:132|313:149,1,52.5000020027161,2|0,0:0|0:0,0:0:0:0:
394,119,29407,1,2,0:0:0:0:
346,267,29726,6,0,P|287:251|251:249,1,78.7500030040742,0|2,3:0|0:0,0:0:0:0:
258,253,30045,1,2,3:2:0:0:
142,360,30365,1,2,0:0:0:0:
125,290,30524,1,2,0:0:0:0:
108,221,30684,2,0,L|-4:206,1,105.000004005432,2|2,0:0|3:2,0:0:0:0:
100,58,31482,2,0,L|146:53,2,26.2500010013581,2|2|2,0:0|0:0|0:0,0:0:0:0:
100,58,32279,6,0,P|105:95|100:128,1,52.5000020027161,2|0,3:3|0:0,0:0:0:0:
68,179,32599,1,2,3:0:0:0:
68,179,33237,1,2,0:0:0:0:
79,181,33317,1,2,0:0:0:0:
90,184,33396,1,2,0:0:0:0:
166,175,33556,6,0,P|189:138|191:108,1,52.5000020027161,2|0,3:2|0:0,0:0:0:0:
252,260,33875,2,0,P|247:219|279:161,1,105.000004005432,2|0,0:0|0:0,0:0:0:0:
357,224,34354,2,0,L|312:230,2,26.2500010013581,2|2|2,0:0|0:0|0:0,0:0:0:0:
429,298,34833,5,2,3:2:0:0:
457,173,35152,1,2,3:0:0:0:
423,323,35471,5,2,0:0:0:0:
462,147,35790,1,2,0:0:0:0:
330,59,36109,2,0,B|218:24|247:149|121:101,1,210.000008010865,2|2,3:2|0:0,0:0:0:0:
429,298,37386,5,2,3:0:0:0:
457,173,37705,1,2,3:0:0:0:
270,358,38343,5,2,0:0:0:0:
196,348,38503,1,2,0:0:0:0:
123,339,38662,2,0,P|109:307|158:250,1,105.000004005432,2|0,3:2|0:0,0:0:0:0:
49,351,39301,2,0,P|39:297|59:236,1,105.000004005432,2|0,0:0|0:0,0:0:0:0:
159,169,39779,6,0,L|125:178,2,26.2500010013581,2|2|2,0:0|0:0|3:2,0:0:0:0:
54,98,40258,1,0,3:0:0:0:
195,157,40577,1,2,0:0:0:0:
24,83,40896,1,2,0:0:0:0:
107,44,41056,1,2,0:0:0:0:
107,44,41136,1,2,0:0:0:0:
107,44,41216,6,0,P|148:36|213:40,1,105.000004005432,2|0,0:0|3:0,0:0:0:0:
219,122,41694,1,2,0:0:0:0:
219,122,41774,1,2,0:0:0:0:
219,122,41854,2,0,P|172:110|116:123,1,105.000004005432,2|0,0:3|3:0,0:0:0:0:
104,271,42492,5,2,0:3:0:0:
261,190,42811,1,2,1:2:0:0:
222,340,43130,6,0,L|180:346,2,35.0000013351441,0|0|0,1:0|0:0|1:0,0:0:0:0:
286,285,43450,2,0,L|327:290,2,35.0000013351441,0|2|2,0:0|0:0|0:0,0:0:0:0:
225,222,43769,6,0,B|166:230|166:230|149:226|149:226|57:238,1,140,6|2,3:2|3:3,0:0:0:0:
16,139,44301,1,2,0:3:0:0:
16,139,44407,2,0,L|109:147,1,93.3333333333333,2|0,1:3|0:0,0:0:0:0:
188,156,44726,1,2,3:2:0:0:
188,156,44833,2,0,P|179:109|159:86,1,46.6666666666667,2|2,0:2|3:2,0:0:0:0:
139,44,45045,6,0,L|272:26,1,93.3333333333333,2|0,3:2|0:0,0:0:0:0:
310,19,45365,1,0,3:0:0:0:
361,180,45684,2,0,L|228:162,1,93.3333333333333,0|0,1:0|3:0,0:0:0:0:
190,155,46004,1,0,3:0:0:0:
119,236,46216,1,0,0:0:0:0:
119,236,46322,6,0,P|138:285|137:356,1,93.3333333333333,2|0,3:2|3:0,0:0:0:0:
213,359,46641,2,0,P|247:340|277:337,1,46.6666666666667,2|0,3:2|0:0,0:0:0:0:
306,281,46854,1,2,0:0:0:0:
306,281,46960,2,0,L|405:285,1,93.3333333333333,2|2,1:2|0:0,0:0:0:0:
478,144,47492,1,2,3:2:0:0:
478,144,47599,6,0,P|454:102|440:35,1,93.3333333333333,2|2,3:2|0:2,0:2:0:0:
361,49,47918,2,0,P|349:94|349:140,1,93.3333333333333,2|2,3:2|0:2,0:2:0:0:
275,172,48237,2,0,P|251:130|237:63,1,93.3333333333333,2|2,1:2|3:2,0:2:0:0:
260,15,48556,1,2,3:2:0:0:
160,52,48769,1,2,0:2:0:0:
160,52,48875,6,0,L|78:44,2,46.6666666666667,2|0|0,3:2|0:2|0:2,0:2:0:0:
170,131,49194,2,0,L|65:142,1,93.3333333333333,2|2,3:3|0:3,0:0:0:0:
0,154,49513,1,2,1:3:0:0:
62,305,49833,1,2,3:2:0:0:
79,302,49939,1,2,0:2:0:0:
98,298,50045,1,2,0:2:0:0:
124,324,50152,6,0,L|221:335,1,93.3333333333333,2|2,3:2|0:2,0:2:0:0:
295,347,50471,1,2,3:2:0:0:
263,248,50684,1,0,0:2:0:0:
263,248,50790,2,0,P|309:249|355:240,1,93.3333333333333,2|0,1:2|3:2,0:2:0:0:
420,290,51109,1,2,3:2:0:0:
487,134,51428,6,0,L|472:25,1,93.3333333333333,2|0,3:2|3:2,0:2:0:0:
402,10,51747,2,0,L|396:66,1,46.6666666666667,2|0,3:2|0:2,0:2:0:0:
387,132,51960,1,2,0:2:0:0:
257,49,52279,1,2,0:2:0:0:
257,49,52386,2,0,P|198:43|152:54,1,93.3333333333333,2|2,3:2|3:2,0:2:0:0:
85,42,52705,6,0,L|94:113,1,46.6666666666667,2|0,3:2|0:2,0:2:0:0:
68,159,52918,1,2,0:2:0:0:
232,121,53237,1,2,0:2:0:0:
232,121,53343,2,0,L|246:251,1,93.3333333333333,2|2,1:2|3:2,0:2:0:0:
196,282,53662,2,2,B|190:314|190:314|200:335|200:335|194:381,1,93.3333333333333,2|0,3:1|3:2,0:1:0:0:
281,343,53982,6,0,P|334:321|387:324,1,93.3333333333333,6|0,3:2|3:0,0:0:0:0:
452,366,54301,1,2,3:3:0:0:
512,241,54513,1,2,0:3:0:0:
512,241,54620,2,0,L|491:140,1,93.3333333333333,2|0,1:3|0:0,0:0:0:0:
407,135,54939,2,0,L|397:192,2,46.6666666666667,2|2|2,3:2|0:2|3:2,0:0:0:0:
460,70,55258,5,2,3:2:0:0:
339,26,55471,1,0,0:0:0:0:
339,26,55577,2,0,P|286:48|233:45,1,93.3333333333333,0|0,3:0|0:0,0:0:0:0:
163,33,55896,2,0,L|181:124,1,93.3333333333333,0|0,1:0|3:0,0:0:0:0:
245,179,56216,2,0,L|226:270,1,93.3333333333333,0|0,3:0|0:0,0:0:0:0:
145,308,56535,6,0,L|136:259,2,46.6666666666667,2|0|0,3:2|0:0|3:0,0:0:0:0:
201,373,56854,1,2,3:2:0:0:
74,369,57067,1,2,0:0:0:0:
74,369,57173,2,0,P|52:316|55:263,1,93.3333333333333,2|2,1:2|0:0,0:0:0:0:
78,200,57492,6,0,L|116:196,4,23.3333333333333,2|0|2|0|2,3:2|0:0|0:2|0:0|3:2,0:0:0:0:
23,141,57811,5,2,3:2:0:0:
82,48,58024,1,2,0:2:0:0:
82,48,58130,2,0,P|135:70|188:67,1,93.3333333333333,2|2,3:2|0:2,0:2:0:0:
238,18,58450,1,2,1:2:0:0:
268,124,58662,1,2,3:2:0:0:
268,124,58769,1,2,3:2:0:0:
201,209,58982,1,2,0:2:0:0:
201,209,59088,6,0,L|259:221,2,46.6666666666667,2|0|0,3:2|0:2|0:2,0:2:0:0:
121,237,59407,1,2,3:3:0:0:
125,264,59513,1,2,0:3:0:0:
129,291,59620,1,2,0:3:0:0:
133,318,59726,2,0,P|175:337|221:340,1,93.3333333333333,2|0,1:3|0:2,0:2:0:0:
308,294,60045,2,0,L|320:236,2,46.6666666666667,2|2|2,3:2|0:2|0:2,0:0:0:0:
363,357,60365,5,2,3:2:0:0:
474,287,60577,1,2,0:2:0:0:
474,287,60684,2,0,P|454:244|451:198,1,93.3333333333333,2|0,3:2|0:2,0:2:0:0:
473,110,61003,2,0,L|381:128,1,93.3333333333333,2|0,1:2|3:2,0:2:0:0:
320,188,61323,2,0,L|228:169,1,93.3333333333333,2|0,3:2|0:2,0:2:0:0:
201,85,61641,6,0,B|215:68|215:68|309:56,1,93.3333333333333,2|0,3:2|3:2,0:2:0:0:
357,107,61960,1,2,3:2:0:0:
378,253,62173,2,0,L|317:266,1,46.6666666666667,2|0,0:2|1:2,0:0:0:0:
357,107,62492,1,2,0:2:0:0:
357,107,62599,2,0,L|462:117,1,93.3333333333333,2|2,3:2|3:2,0:2:0:0:
493,191,62918,5,2,3:2:0:0:
504,44,63130,2,0,L|433:38,1,46.6666666666667,2|0,0:2|3:0,0:0:0:0:
493,191,63450,5,2,0:2:0:0:
493,191,63556,2,0,L|479:291,1,93.3333333333333,2|2,1:2|3:2,0:2:0:0:
432,351,63875,2,2,B|395:356|395:356|370:351|370:351|338:355,1,93.3333333333333,2|0,3:1|3:2,0:1:0:0:
297,281,64194,6,0,L|174:271,1,112,2|0,3:2|3:2,0:2:0:0:
47,322,64833,2,0,P|30:275|57:207,1,112,0|0,1:2|0:2,0:0:0:0:
167,185,65365,1,0,3:2:0:0:
167,185,65471,6,0,L|153:81,1,74.6666666666667,0|0,3:2|0:2,0:2:0:0:
227,77,65790,2,0,L|242:183,1,74.6666666666667,0|0,3:2|0:2,0:2:0:0:
251,229,66109,1,2,1:2:0:0:
358,120,66428,2,0,L|293:110,2,37.3333333333333,2|2|2,3:2|0:2|3:2,0:0:0:0:
387,192,66747,6,0,P|441:175|487:180,1,74.6666666666667,2|0,3:2|3:2,0:2:0:0:
476,250,67067,2,0,L|484:310,2,56,0|2|0,3:2|0:2|1:2,0:2:0:0:
317,230,67705,2,0,L|327:328,1,74.6666666666667,2|0,0:2|3:2,0:0:0:0:
270,360,68024,6,0,B|243:346|243:346|132:363,1,112,0|2,3:2|3:2,0:2:0:0:
96,224,68662,2,0,L|170:233,1,74.6666666666667,2|0,1:2|3:2,0:2:0:0:
243,246,68982,1,2,3:2:0:0:
282,98,69301,5,2,3:2:0:0:
282,98,69407,2,0,L|207:107,1,74.6666666666667,2|0,0:2|3:0,0:0:0:0:
47,50,69939,2,0,B|66:85|66:85|43:179,1,112,2|0,1:2|0:2,0:0:0:0:
0,250,70471,1,0,3:2:0:0:
0,250,70577,6,0,P|62:242|115:289,1,112,2|2,3:2|3:2,0:2:0:0:
202,384,71216,2,0,L|280:374,1,74.6666666666667,2|0,1:2|3:2,0:2:0:0:
348,360,71535,1,2,3:2:0:0:
271,207,71854,6,0,P|266:163|275:127,1,74.6666666666667,2|0,3:2|3:2,0:2:0:0:
345,109,72173,2,0,P|350:65|341:29,1,74.6666666666667,2|0,3:2|0:2,0:2:0:0:
274,11,72492,2,0,P|238:39|161:44,1,112,2|2,1:2|0:2,0:0:0:0:
64,20,73024,1,0,3:2:0:0:
64,20,73130,6,0,L|73:122,1,74.6666666666667,0|2,3:2|0:2,0:2:0:0:
80,170,73450,1,2,3:2:0:0:
244,127,73769,2,0,L|305:129,2,37.3333333333333,2|2|2,1:2|0:2|0:2,0:0:0:0:
234,202,74088,2,0,L|283:214,2,37.3333333333333,2|2|2,3:2|0:2|3:2,0:0:0:0:
152,257,74407,6,0,P|142:313|149:348,1,83.9999974365235,6|0,3:2|0:2,0:2:0:0:
222,375,74726,1,2,3:2:0:0:
305,287,74939,2,0,P|356:262|392:260,1,83.9999974365235,2|0,0:2|0:2,0:0:0:0:
453,314,75258,1,2,0:2:0:0:
453,314,75365,1,0,0:0:0:0:
506,216,75577,1,0,3:2:0:0:
506,216,75684,6,0,L|494:117,1,83.9999974365235,0|2,3:2|0:2,0:2:0:0:
422,100,76003,2,0,L|411:183,1,83.9999974365235,0|2,3:2|0:2,0:0:0:0:
399,262,76322,6,0,B|356:238|356:238|311:235,1,83.9999974365235,2|0,1:2|0:2,0:2:0:0:
271,301,76641,1,2,3:2:0:0:
156,259,76854,1,2,3:2:0:0:
156,259,76960,2,0,P|184:206|170:113,1,125.999996154785,2|2,3:2|3:2,0:2:0:0:
161,28,77492,2,0,L|240:43,1,41.9999987182618,2|2,0:2|1:2,0:0:0:0:
302,124,77811,1,0,0:2:0:0:
302,124,77918,2,0,P|273:179|275:241,1,125.999996154785,2|0,0:2|3:2,0:2:0:0:
446,358,78556,5,2,3:2:0:0:
460,258,78875,1,2,1:2:0:0:
475,158,79194,1,2,3:2:0:0:
354,259,79513,6,0,P|364:315|357:350,1,83.9999974365235,2|0,3:2|0:2,0:2:0:0:
288,381,79832,1,2,3:2:0:0:
206,284,80045,2,0,P|154:259|118:257,1,83.9999974365235,0|0,3:2|0:2,0:0:0:0:
69,310,80364,1,2,0:2:0:0:
69,310,80471,1,0,0:0:0:0:
0,218,80683,1,0,3:2:0:0:
0,218,80790,6,0,L|12:119,1,83.9999974365235,2|0,3:2|3:2,0:2:0:0:
89,88,81109,2,0,L|99:171,1,83.9999974365235,2|0,3:2|0:2,0:2:0:0:
128,255,81428,6,0,P|172:240|233:247,1,83.9999974365235,2|0,1:2|3:2,0:2:0:0:
275,305,81747,2,0,P|319:320|380:313,1,83.9999974365235,2|2,1:2|0:0,0:0:0:0:
407,252,82067,1,2,3:2:0:0:
433,369,82279,1,0,0:2:0:0:
433,369,82386,1,2,3:2:0:0:
507,283,82599,1,0,3:2:0:0:
507,283,82705,2,0,L|489:176,1,83.9999974365235,2|0,1:2|0:2,0:2:0:0:
510,114,83024,2,0,P|466:129|405:122,1,83.9999974365235,2|0,0:2|3:2,0:2:0:0:
347,74,83343,5,0,3:2:0:0:
366,199,83662,1,2,0:2:0:0:
225,158,83982,6,0,L|160:151,2,41.9999987182618,2|2|2,1:2|0:2|3:2,0:0:0:0:
302,207,84301,2,0,L|367:200,2,41.9999987182618,2|2|2,3:2|0:2|3:2,0:0:0:0:
268,286,84620,6,0,B|202:290|202:290|131:349,1,125.999996154785,6|2,3:2|3:2,0:2:0:0:
59,212,85258,2,0,P|76:159|71:100,1,83.9999974365235,0|0,1:2|3:2,0:2:0:0:
44,63,85577,1,0,3:2:0:0:
153,34,85789,1,0,1:2:0:0:
153,34,85896,6,0,P|201:53|254:50,1,83.9999974365235,2|2,3:2|1:2,0:0:0:0:
274,122,86216,2,0,P|255:170|268:263,1,125.999996154785,2|2,3:2|1:2,0:2:0:0:
307,347,86747,1,2,0:2:0:0:
307,347,86854,1,2,0:2:0:0:
406,307,87067,1,2,0:2:0:0:
406,307,87173,6,0,L|415:169,1,125.999996154785,2|2,3:2|3:2,0:2:0:0:
491,48,87811,2,0,P|443:60|396:57,1,83.9999974365235,0|0,1:2|3:2,0:2:0:0:
340,19,88130,1,0,3:2:0:0:
297,122,88343,1,0,1:2:0:0:
297,122,88450,6,0,P|249:110|202:113,1,83.9999974365235,2|0,0:2|1:2,0:2:0:0:
172,181,88769,2,0,P|184:229|181:276,1,83.9999974365235,2|0,0:2|0:2,0:2:0:0:
129,324,89088,2,0,B|70:296|70:296|1:320,1,125.999996154785,2|2,1:2|0:2,0:0:0:0:
9,204,89620,1,2,3:2:0:0:
9,204,89726,6,0,L|2:39,1,125.999996154785,2|0,3:2|3:2,0:2:0:0:
170,27,90365,2,0,L|165:79,1,41.9999987182618,0|0,1:2|0:2,0:2:0:0:
155,139,90577,1,2,3:2:0:0:
307,190,90896,1,2,1:2:0:0:
307,190,91003,6,0,L|301:101,1,83.9999974365235,0|0,3:2|1:2,0:2:0:0:
291,30,91322,1,2,3:2:0:0:
449,70,91641,2,0,B|432:109|432:109|450:168,1,83.9999974365235,2|0,1:2|3:2,0:2:0:0:
477,217,91960,1,2,1:2:0:0:
433,375,92279,6,0,L|339:361,1,83.9999974365235,2|0,3:2|0:2,0:2:0:0:
328,290,92599,2,0,L|244:302,1,83.9999974365235,2|0,3:2|0:2,0:2:0:0:
170,339,92918,2,0,L|158:276,1,41.9999987182618,0|0,1:2|0:0,0:0:0:0:
145,225,93130,1,2,3:2:0:0:
7,297,93450,1,0,1:2:0:0:
7,297,93556,6,0,P|13:225|2:189,1,83.9999974365235,2|2,3:2|0:2,0:0:0:0:
10,128,93875,2,0,P|66:153|121:151,1,83.9999974365235,0|0,3:2|0:2,0:2:0:0:
168,136,94194,2,0,L|160:72,1,41.9999987182618,2|0,1:2|3:2,0:2:0:0:
149,20,94407,1,2,1:2:0:0:
298,87,94726,1,2,3:2:0:0:
298,87,94833,6,0,P|288:145|324:213,1,125.999996154785,2|2,3:2|3:2,0:2:0:0:
489,261,95471,1,0,1:2:0:0:
417,335,95684,1,2,3:2:0:0:
417,335,95790,2,0,B|380:319|380:319|309:323,1,83.9999974365235,0|0,3:2|1:2,0:2:0:0:
271,365,96109,5,2,3:2:0:0:
223,285,96322,1,2,1:2:0:0:
223,285,96428,2,0,P|237:230|235:177,1,83.9999974365235,2|0,3:2|0:2,0:2:0:0:
196,135,96747,1,2,1:2:0:0:
134,224,96960,1,2,0:2:0:0:
134,224,97067,1,2,0:2:0:0:
77,134,97279,1,2,0:2:0:0:
77,134,97386,2,0,P|70:87|148:22,1,125.999996154785,2|2,3:2|3:2,0:2:0:0:
258,9,98024,5,2,1:2:0:0:
201,81,98237,1,0,3:2:0:0:
201,81,98343,1,0,3:2:0:0:
239,163,98556,1,0,1:2:0:0:
239,163,98662,6,0,P|305:136|385:135,1,125.999996154785,2|2,3:2|3:2,0:2:0:0:
465,228,99194,1,2,0:2:0:0:
497,70,99513,1,2,0:2:0:0:
497,70,99620,1,2,0:2:0:0:
434,143,99833,1,2,0:2:0:0:
434,143,99939,6,0,P|461:209|462:289,1,125.999996154785,0|0,3:2|0:2,0:2:0:0:
381,333,100471,2,0,L|251:310,1,125.999996154785,2|2,0:2|3:2,0:0:0:0:
196,158,101109,1,0,1:2:0:0:
196,158,101216,2,0,P|261:186|341:188,1,125.999996154785,2|2,3:2|3:2,0:0:0:0:
446,89,101854,1,2,1:2:0:0:
290,105,102173,1,2,3:2:0:0:
77,360,102705,5,2,0:2:0:0:
77,360,102811,2,0,P|105:294|107:214,1,125.999996154785,0|0,3:2|1:2,0:2:0:0:
49,117,103343,2,0,L|-7:111,2,41.9999987182618,2|0|0,3:2|0:2|0:2,0:0:0:0:
122,75,103662,1,0,1:2:0:0:
122,75,103769,2,0,L|219:66,1,83.9999974365235,2|2,3:2|1:2,0:2:0:0:
288,195,104301,5,0,0:2:0:0:
288,195,104407,2,0,L|217:203,2,41.9999987182618,2|2|2,1:2|1:2|3:2,0:0:0:0:
347,141,104726,2,0,L|418:149,2,41.9999987182618,2|2|2,1:2|3:2|1:2,0:0:0:0:
301,71,105045,5,6,3:2:0:0:
