osu file format v14

[General]
AudioFilename: audio.ogg
AudioLeadIn: 0
PreviewTime: 388290
Countdown: 0
SampleSet: Soft
StackLeniency: 0.7
Mode: 3
LetterboxInBreaks: 0
SpecialStyle: 0
WidescreenStoryboard: 0

[Editor]
Bookmarks: 36648,60665,138048,159220,205084,245477,258346,347964,392269,422849
DistanceSpacing: 1.5
BeatDivisor: 4
GridSize: 4
TimelineZoom: 1.1

[Metadata]
Title:IMPERIAL SMOKE TOWN
TitleUnicode:IMPERIAL SMOKE TOWN
Artist:Ichiko Aoba
ArtistUnicode:青葉市子
Creator:Disguise
Version:Hide her away - - Hide us away
Source:
Tags:うたびこ utabiko プネウマ pneuma Jun Miyake 三宅純 Tatsuhisa Yamamoto 山本達久 Hitoshi Watanabe 渡辺等 remastered P-VINE acoustic folk guitar vocal japanese
BeatmapID:4413953
BeatmapSetID:2103722

[Difficulty]
HPDrainRate:7
CircleSize:4
OverallDifficulty:7.7
ApproachRate:5
SliderMultiplier:1.4
SliderTickRate:1

[Events]
//Background and Video events
0,0,"leftalone.jpg",0,0
//Break Periods
2,31515,35447
//Storyboard Layer 0 (Background)
//Storyboard Layer 1 (Fail)
//Storyboard Layer 2 (Pass)
//Storyboard Layer 3 (Foreground)
//Storyboard Layer 4 (Overlay)
//Storyboard Sound Samples

[TimingPoints]
18321,967.57339,4,2,1,15,1,8
18321,-100.017419400493,4,2,1,15,0,0
19289,967.596796,4,2,1,15,1,8
19289,-100.014999996328,4,2,1,15,0,0
20257,941.155802,4,2,1,15,1,8
20257,-102.824838717179,4,2,1,15,0,0
21198,850.43053,4,2,1,15,1,0
21198,-113.794354899732,4,2,1,15,0,0
22048,419.79472,4,2,1,15,1,8
22048,-230.527419564465,4,2,1,15,0,0
22468,950.838481,4,2,1,15,1,0
22468,-101.777741942679,4,2,1,15,0,0
23419,729.914576,4,2,1,15,1,0
23419,-132.582903164804,4,2,1,15,0,0
23769,800.7837,4,2,1,15,1,8
23769,-120.849354886203,4,2,1,15,0,0
24186,762.614599,4,2,1,15,1,0
24186,-126.897903181089,4,2,1,15,0,0
24551,785.632355,4,2,1,15,1,8
24551,-123.180000075719,4,2,1,15,0,0
24960,938.073104,4,2,1,15,1,0
24960,-103.162741939553,4,2,1,15,0,0
25898,1104.217928,4,2,1,15,1,0
25898,-87.6404839067122,4,2,1,15,0,0
28107,872.482343,4,2,1,15,1,0
28107,-110.918225824069,4,2,1,15,0,0
28597,830.269409,4,2,1,15,1,8
28597,-116.557580586938,4,2,1,15,0,0
28961,792.086528,4,2,1,15,1,0
28961,-122.176290250435,4,2,1,15,0,0
29753,1004.648172,4,2,1,15,1,0
29753,-96.326451633047,4,2,1,15,0,0
30757,991.162138,4,2,1,15,1,0
30757,-97.6370967354153,4,2,1,15,0,0
31315,969.537143,4,2,1,15,1,8
31315,-99.8148387063776,4,2,1,15,0,0
31739,981.701092,4,2,1,15,1,8
31739,-98.5780644811456,4,2,1,15,0,0
35666,981.813541,4,2,1,15,1,8
35666,-98.5667741451399,4,2,1,15,0,0
36648,817.437578,4,2,1,30,1,8
36648,-118.387258125766,4,2,1,30,0,0
37465,817.459853,4,2,1,30,1,8
37465,-118.384032186088,4,2,1,30,0,0
38283,546.482927,4,2,1,30,1,0
38283,-177.085483858834,4,2,1,30,0,0
38829,407.77768,4,2,1,30,1,0
38829,-237.320967514424,4,2,1,30,0,0
39237,400.090687,4,2,1,30,1,0
39237,-241.880645295768,4,2,1,30,0,0
39637,432.538424,4,2,1,30,1,0
39637,-223.735483783025,4,2,1,30,0,0
40070,524.420515,4,2,1,30,1,0
40070,-184.535483987287,4,2,1,30,0,0
40594,603.554938588285,4,2,1,30,1,0
40594,-160.340322580645,4,2,1,30,0,0
40897,614.499736,4,2,1,30,1,8
40897,-157.484516068835,4,2,1,30,0,0
41256,849.229254,4,2,1,30,1,0
41256,-113.955322538132,4,2,1,30,0,0
42954,827.102495,4,2,1,30,1,8
42954,-117.003870902828,4,2,1,30,0,0
43644,960.136723,4,2,1,30,1,8
43644,-100.792096823472,4,2,1,30,0,0
43804,963.991697,4,2,1,30,1,0
43804,-100.38903223913,4,2,1,30,0,0
44768,964.013381,4,2,1,30,1,8
44768,-100.386774142077,4,2,1,30,0,0
45732,380.974151,4,2,1,30,1,8
45732,-254.017741871382,4,2,1,30,0,0
46113,375.239215,4,2,1,30,1,0
46113,-257.899999999699,4,2,1,30,0,0
46488,334.172478,4,2,1,30,1,0
46488,-289.593548001242,4,2,1,30,0,0
46822,436.713007,4,2,1,30,1,0
46822,-221.596774076361,4,2,1,30,0,0
47259,465.397682,4,2,1,30,1,0
47259,-207.93870982019,4,2,1,30,0,0
47724,617.596561,4,2,1,30,1,0
47724,-156.694838766091,4,2,1,30,0,0
48342,765.170461,4,2,1,30,1,0
48342,-126.474032233175,4,2,1,30,0,0
49107,811.088115,4,2,1,30,1,0
49107,-119.314032296463,4,2,1,30,0,0
51540,811.111141,4,2,1,30,1,0
51540,-119.310645183688,4,2,1,30,0,0
52351,875.374405,4,2,1,30,1,8
52351,-110.551774184427,4,2,1,30,0,0
53227,772.880151,4,2,1,30,1,0
53227,-125.212419316468,4,2,1,30,0,0
53999,772.902054,4,2,1,30,1,8
53999,-125.20887096567,4,2,1,30,0,0
54772,808.094957,4,2,1,30,1,0
54772,-119.755967674461,4,2,1,30,0,0
56389,749.18339,4,2,1,30,1,0
56389,-129.172903243873,4,2,1,30,0,0
57138,749.206777,4,2,1,30,1,8
57138,-129.168871023689,4,2,1,30,0,0
57887,694.626141,4,2,1,30,1,0
57887,-139.318387023369,4,2,1,30,0,0
59971,693.817279,4,2,1,30,1,8
59971,-139.48080637004,4,2,1,30,0,0
60231,695.147638,4,2,1,30,1,0
60231,-139.213870922175,4,2,1,30,0,0
60665,389.501633,5,2,1,30,1,0
60665,-248.456451396667,5,2,1,30,0,0
61055,390.566517,5,2,1,30,1,8
61055,-247.779032088373,4,2,1,30,0,0
61299,418.684493,5,2,1,30,1,8
61299,-231.138709855173,4,2,1,30,0,0
61456,412.720031,5,2,1,30,1,8
61456,-234.479032466411,4,2,1,30,0,0
61869,389.501633,5,2,1,30,1,8
61869,-248.456451396667,4,2,1,30,0,0
62258,354.760891,5,2,1,30,1,8
62258,-272.78709689673,4,2,1,30,0,0
62613,373.016021,5,2,1,30,1,0
62613,-259.437096800695,4,2,1,30,0,0
62986,384.625247,5,2,1,30,1,8
62986,-251.606451482856,4,2,1,30,0,0
63371,396.23576,5,2,1,30,1,8
63371,-244.233871138706,4,2,1,30,0,0
63767,373.016021,5,2,1,30,1,8
63767,-259.437096800695,4,2,1,30,0,0
64140,361.49587,5,2,1,30,1,8
64140,-267.704838642796,4,2,1,30,0,0
64501,378.570392,5,2,1,30,1,0
64501,-255.6306451678,4,2,1,30,0,0
65259,378.594279,5,2,1,30,1,8
65259,-255.614516426401,4,2,1,30,0,0
65637,356.485057,5,2,1,30,1,8
65637,-271.467742190347,4,2,1,30,0,0
65994,356.508357,5,2,1,30,1,8
65994,-271.450000114267,4,2,1,30,0,0
66350,350.702867,6,2,1,30,1,0
66350,-275.9435483839,6,2,1,30,0,0
66701,390.137328,6,2,1,30,1,8
66701,-248.05161311913,4,2,1,30,0,0
67091,378.525014,6,2,1,30,1,8
67091,-255.661290454076,4,2,1,30,0,0
67470,344.898945,6,2,1,30,1,8
67470,-280.587096456288,4,2,1,30,0,0
67814,321.677872,6,2,1,30,1,8
67814,-300.841935277373,4,2,1,30,0,0
68136,391.338377,6,2,1,30,1,8
68136,-247.290322738746,4,2,1,30,0,0
68527,374.218818,5,2,1,30,1,0
68527,-258.60322595639,5,2,1,30,0,0
69650,362.358227,5,2,1,30,1,8
69650,-267.067742188691,4,2,1,30,0,0
70012,362.380113,5,2,1,30,1,8
70012,-267.051612593286,4,2,1,30,0,0
70375,364.808172,5,2,1,30,1,0
70375,-265.274193332454,4,2,1,30,0,0
70740,388.028041,5,2,1,30,1,8
70740,-249.400000316954,4,2,1,30,0,0
71128,376.439883,5,2,1,30,1,8
71128,-257.077419048042,4,2,1,30,0,0
71504,363.605512,5,2,1,30,1,8
71504,-266.151613093223,4,2,1,30,0,0
72231,350.635234,5,2,1,30,1,0
72231,-275.996774324132,4,2,1,30,0,0
72582,397.074882,5,2,1,30,1,8
72582,-243.71774175428,4,2,1,30,0,0
72979,373.878365,5,2,1,30,1,8
72979,-258.838709611847,4,2,1,30,0,0
73353,363.876743,5,2,1,30,1,8
73353,-265.953225673417,4,2,1,30,0,0
73717,329.070048,5,2,1,30,1,8
73717,-294.083871007267,4,2,1,30,0,0
74046,358.095647,6,2,1,30,1,0
74046,-270.246774455728,6,2,1,30,0,0
74404,404.536199,6,2,1,30,1,8
74404,-239.222580791558,4,2,1,30,0,0
74809,381.33735,6,2,1,30,1,8
74809,-253.775806509347,4,2,1,30,0,0
75190,333.741239,6,2,1,30,1,8
75190,-289.967742189592,4,2,1,30,0,0
75524,348.118708,6,2,1,30,1,8
75524,-277.991935866851,4,2,1,30,0,0
75872,365.782286,6,2,1,30,1,8
75872,-264.56774221261,4,2,1,30,0,0
76237,358.117021,6,2,1,30,1,8
76237,-270.230644938787,4,2,1,30,0,0
76596,425.441395,5,2,1,30,1,0
76596,-227.467742174894,5,2,1,30,0,0
77021,402.222952,5,2,1,30,1,8
77021,-240.598387205878,4,2,1,30,0,0
77423,402.244524,5,2,1,30,1,8
77423,-240.58548413797,4,2,1,30,0,0
77826,382.472558,5,2,1,30,1,8
77826,-253.022580376569,4,2,1,30,0,0
78590,381.587148,6,2,1,30,1,0
78590,-253.609677515625,6,2,1,30,0,0
79354,381.608991,6,2,1,30,1,8
79354,-253.595161096157,4,2,1,30,0,0
79735,367.505191,6,2,1,30,1,8
79735,-263.327419362594,4,2,1,30,0,0
80838,391.655135,5,2,1,30,1,0
80838,-247.090322327542,5,2,1,30,0,0
82013,382.584743,5,2,1,30,1,8
82013,-252.948386779729,5,2,1,30,0,0
82395,382.606699,5,2,1,30,1,8
82395,-252.933871260804,5,2,1,30,0,0
82778,383.673417,6,2,1,30,1,0
82778,-252.230645284417,6,2,1,30,0,0
83545,383.717584,6,2,1,30,1,8
83545,-252.201612810079,4,2,1,30,0,0
83929,365.078979,6,2,1,30,1,8
83929,-265.077419175063,4,2,1,30,0,0
84659,365.125634,6,2,1,30,1,8
84659,-265.043548129483,4,2,1,30,0,0
85024,383.310654,6,2,1,30,1,0
85024,-252.469354917505,6,2,1,30,0,0
85791,383.332694,6,2,1,30,1,8
85791,-252.45483900308,4,2,1,30,0,0
86174,381.949086,6,2,1,30,1,8
86174,-253.369354962633,4,2,1,30,0,0
86938,381.973402,6,2,1,30,1,8
86938,-253.35322575258,4,2,1,30,0,0
87320,385.329232,5,2,1,30,1,0
87320,-251.146774009575,5,2,1,30,0,0
88091,385.37378,5,2,1,30,1,8
88091,-251.11774223038,4,2,1,30,0,0
88476,380.998343,5,2,1,30,1,8
88476,-254.001612674696,4,2,1,30,0,0
88857,381.020118,5,2,1,30,1,8
88857,-253.987096682352,4,2,1,30,0,0
89238,402.357817,5,2,1,30,1,0
89238,-240.517741819807,4,2,1,30,0,0
90043,402.403691,5,2,1,30,1,8
90043,-240.490322809656,4,2,1,30,0,0
90445,374.286516,5,2,1,30,1,8
90445,-258.556451839657,4,2,1,30,0,0
90820,374.307531,5,2,1,30,1,8
90820,-258.541935530512,4,2,1,30,0,0
91194,388.706773,6,2,1,30,1,0
91194,-248.964515852126,6,2,1,30,0,0
91971,388.729438,6,2,1,30,1,8
91971,-248.949999892694,4,2,1,30,0,0
92360,336.394523,6,2,1,30,1,8
92360,-287.680645586454,4,2,1,30,0,0
92696,371.225105,6,2,1,30,1,8
92696,-260.688709478275,4,2,1,30,0,0
93068,406.099616,6,2,1,30,1,8
93068,-238.301613041631,4,2,1,30,0,0
93474,357.641,6,2,1,30,1,0
93474,-270.590322553586,6,2,1,30,0,0
94547,319.8874,6,2,1,30,1,8
94547,-302.525806106733,4,2,1,30,0,0
94867,354.716847,6,2,1,30,1,8
94867,-272.820967954722,4,2,1,30,0,0
95576,343.01591,6,2,1,30,1,0
95576,-282.127419536858,4,2,1,30,0,0
96605,350.023627,6,2,1,30,1,8
96605,-276.479031937999,4,2,1,30,0,0
96955,361.633135,6,2,1,30,1,8
96955,-267.603225983114,4,2,1,30,0,0
97317,373.287543,6,2,1,30,1,8
97317,-259.248387370877,4,2,1,30,0,0
97690,366.553239,5,2,1,30,1,0
97690,-264.011290180925,5,2,1,30,0,0
98790,352.878904,5,2,1,30,1,8
98790,-274.2419352685,4,2,1,30,0,0
99142,352.901735,5,2,1,30,1,8
99142,-274.224193169204,4,2,1,30,0,0
99495,373.808485,5,2,1,30,1,0
99495,-258.887097087663,4,2,1,30,0,0
100617,355.170393,5,2,1,30,1,8
100617,-272.472580642123,4,2,1,30,0,0
100972,355.193521,5,2,1,30,1,8
100972,-272.454838916916,4,2,1,30,0,0
101327,366.849072,5,2,1,30,1,0
101327,-263.798387224453,4,2,1,30,0,0
102061,366.893937,5,2,1,30,1,8
102061,-263.766129088111,4,2,1,30,0,0
102428,363.673833,5,2,1,30,1,8
102428,-266.10161294829,4,2,1,30,0,0
103155,363.106009,6,2,1,30,1,0
103155,-266.517741788148,6,2,1,30,0,0
104244,357.438595,6,2,1,30,1,8
104244,-270.743548408328,4,2,1,30,0,0
104602,400.202769,6,2,1,30,1,8
104602,-241.812903469409,4,2,1,30,0,0
104939,382.90214297566,6,2,1,15,1,8
104939,-250,6,2,1,15,0,8
105322,396.644388,4,2,1,30,1,8
105322,-243.982258355782,4,2,1,30,0,0
105719,384.716496,5,2,1,30,1,0
105719,-251.546774194957,5,2,1,30,0,0
106488,384.738698,5,2,1,30,1,8
106488,-251.532258261131,4,2,1,30,0,0
106873,384.42071,5,2,1,30,1,8
106873,-251.74032259705,4,2,1,30,0,0
107257,384.445341,5,2,1,30,1,8
107257,-251.724193865018,4,2,1,30,0,0
107642,373.264321,6,2,1,30,1,0
107642,-259.264516064977,6,2,1,30,0,0
108388,373.310769,6,2,1,30,1,8
108388,-259.23225790571,4,2,1,30,0,0
108761,372.381691,6,2,1,30,1,8
108761,-259.87903242103,4,2,1,30,0,0
109134,349.162011,6,2,1,30,1,8
109134,-277.161290460053,4,2,1,30,0,0
109483,360.793746,6,2,1,30,1,8
109483,-268.225806631324,4,2,1,30,0,0
109844,400.657078,5,2,1,30,1,0
109844,-241.538709440663,5,2,1,30,0,0
110244,377.436827,5,2,1,30,1,8
110244,-256.3983867647,4,2,1,30,0,0
110622,354.218447,5,2,1,30,1,8
110622,-273.204838336348,4,2,1,30,0,0
110976,406.077629,5,2,1,30,1,8
110976,-238.3145158395,4,2,1,30,0,0
111382,359.660481,5,2,1,30,1,8
111382,-269.070967372662,4,2,1,30,0,0
111742,364.874726,6,2,1,30,1,0
111742,-265.225806701632,6,2,1,30,0,0
112472,364.896917,6,2,1,30,1,8
112472,-265.209677143935,4,2,1,30,0,0
112837,359.569954,6,2,1,30,1,8
112837,-269.13870992788,4,2,1,30,0,0
113556,359.615212,6,2,1,30,1,8
113556,-269.104838502736,4,2,1,30,0,0
113915,374.330884,6,2,1,30,1,8
113915,-258.525806137832,4,2,1,30,0,0
114664,374.375261,6,2,1,30,1,8
114664,-258.495161485542,4,2,1,30,0,0
115038,378.888342,6,2,1,30,1,8
115038,-255.416128766472,4,2,1,30,0,0
115417,344.058398,6,2,1,30,1,8
115417,-281.27258079132,4,2,1,30,0,0
115761,355.66937,6,2,1,30,1,8
115761,-272.090322392359,4,2,1,30,0,0
116117,394.85374,5,2,1,30,1,0
116117,-245.088709425386,5,2,1,30,0,0
117301,363.627548,5,2,1,30,1,8
117301,-266.135484180608,4,2,1,30,0,0
117665,363.651791,5,2,1,30,1,8
117665,-266.117742146325,4,2,1,30,0,0
118029,400.453848,5,2,1,30,1,0
118029,-241.661290137951,4,2,1,30,0,0
118429,388.842804,5,2,1,30,1,8
118429,-248.87741923697,4,2,1,30,0,0
119207,358.07214,5,2,1,30,1,8
119207,-270.264515827417,4,2,1,30,0,0
119565,358.095647,5,2,1,30,1,8
119565,-270.246774455728,4,2,1,30,0,0
119923,369.137633,6,2,1,30,1,0
119923,-262.16290320198,6,2,1,30,0,0
120292,380.749315,6,2,1,30,1,8
120292,-254.167741702666,4,2,1,30,0,0
120673,369.160345,6,2,1,30,1,8
120673,-262.146774048516,4,2,1,30,0,0
121042,358.684346,6,2,1,30,1,8
121042,-269.803225670705,4,2,1,30,0,0
121401,370.29494,6,2,1,30,1,8
121401,-261.343548330385,4,2,1,30,0,0
121771,370.317794,6,2,1,30,1,8
121771,-261.327419628091,4,2,1,30,0,0
122141,336.32664,6,2,1,30,1,0
122141,-287.738710048027,4,2,1,30,0,0
122478,324.715738,6,2,1,30,1,8
122478,-298.027419750093,4,2,1,30,0,0
123127,325.828419,6,2,1,30,1,8
123127,-297.009677195736,4,2,1,30,0,0
123779,325.87266,6,2,1,30,1,8
123779,-296.969354681019,4,2,1,30,0,0
124105,310.294004,6,2,1,30,1,8
124105,-311.879031824241,4,2,1,30,0,0
124725,310.340547,6,2,1,30,1,8
124725,-311.832258091583,4,2,1,30,0,0
125036,309.886943,6,2,1,30,1,8
125036,-312.288709590411,4,2,1,30,0,0
125965,290.476721,6,2,1,30,1,0
125965,-333.156451281984,4,2,1,30,0,0
126546,290.499223,6,2,1,30,1,8
126546,-333.130645063333,4,2,1,30,0,0
126837,315.578534,6,2,1,30,1,8
126837,-306.656451951155,4,2,1,30,0,0
127468,315.623356,6,2,1,30,1,8
127468,-306.612903350496,4,2,1,30,0,0
127784,282.585659,6,2,1,30,1,0
127784,-342.459677150096,4,2,1,30,0,0
128349,282.630917,6,2,1,30,1,8
128349,-342.404838704844,4,2,1,30,0,0
128631,293.537766,6,2,1,30,1,8
128631,-329.682258154091,4,2,1,30,0,0
129512,300,6,2,1,30,1,0
129512,-322.58064516129,4,2,1,30,0,0
130412,295.4879,6,2,1,30,1,8
130412,-327.50645135854,4,2,1,30,0,0
131003,295.533018,6,2,1,30,1,8
131003,-327.456452085456,4,2,1,30,0,0
131298,280.135586,6,2,1,30,1,0
131298,-345.454838245317,4,2,1,30,0,0
131692,286.297787872426,4,2,1,15,1,8
131692,-333.333333333333,4,2,1,15,0,8
131859,280.135585623442,4,2,1,15,1,8
131859,-344.827586206897,4,2,1,15,0,8
132139,282.108668,6,2,1,30,1,8
132139,-343.038709992375,4,2,1,30,0,0
132421,328.549291,6,2,1,30,1,8
132421,-294.549999647959,4,2,1,30,0,0
132750,305.351281,6,2,1,30,1,8
132750,-316.927419565622,4,2,1,30,0,0
133055,367.482682,6,2,1,30,1,0
133055,-263.343548658402,4,2,1,30,0,0
133790,367.505191,6,2,1,30,1,8
133790,-263.327419362594,4,2,1,30,0,0
134157,397.098533,6,2,1,30,1,0
134157,-243.703226041349,4,2,1,30,0,0
134952,397.119559,6,2,1,30,1,8
134952,-243.690322864171,4,2,1,30,0,0
135349,330.81546,4,2,1,30,1,0
135349,-292.532258161052,4,2,1,30,0,0
135679,354.036607,4,2,1,30,1,8
135679,-273.345161587731,4,2,1,30,0,0
136034,377.301539,4,2,1,30,1,8
136034,-256.490322845959,4,2,1,30,0,0
136411,541.839002,4,2,1,30,1,8
136411,-178.603225665153,4,2,1,30,0,0
137494,553.469794,4,2,1,30,1,8
137494,-174.850000121935,4,2,1,30,0,0
138048,332.924576,6,2,1,30,1,0
138048,-290.679032203339,3,2,1,30,0,0
138381,344.534534,6,2,1,30,1,8
138381,-280.883870841194,4,2,1,30,0,0
138725,344.558276,6,2,1,30,1,8
138725,-280.864516365258,4,2,1,30,0,0
139070,329.093512,6,2,1,30,1,8
139070,-294.062903155584,4,2,1,30,0,0
139728,474.240819,6,2,1,30,1,8
139728,-204.061290532621,4,2,1,30,0,0
140202,314.308913,6,2,1,30,1,0
140202,-307.895161561604,4,2,1,30,0,0
140517,320.11268,6,2,1,30,1,8
140517,-302.312902907773,4,2,1,30,0,0
140837,320.158799,6,2,1,30,1,8
140837,-302.269354616073,4,2,1,30,0,0
141157,306.983883,6,2,1,30,1,8
141157,-315.241935839306,4,2,1,30,0,0
141464,399.864046,6,2,1,30,1,8
141464,-242.017742071232,4,2,1,30,0,0
141864,353.446397,6,2,1,30,1,8
141864,-273.801612832361,4,2,1,30,0,0
142217,345.443031,6,2,1,30,1,0
142217,-280.145161036371,4,2,1,30,0,0
143254,340.249857,6,2,1,30,1,8
143254,-284.42096758438,4,2,1,30,0,0
143934,340.294241,6,2,1,30,1,8
143934,-284.383871040554,4,2,1,30,0,0
144274,348.05005,6,2,1,30,1,0
144274,-278.046773871709,4,2,1,30,0,0
145319,333.718964,6,2,1,30,1,8
145319,-289.987096892663,4,2,1,30,0,0
145652,380.158273,6,2,1,30,1,8
145652,-254.562902931714,4,2,1,30,0,0
146032,461.449721,6,2,1,30,1,8
146032,-209.717742029769,4,2,1,30,0,0
146494,331.722636,6,2,1,30,1,0
146494,-291.732257753996,4,2,1,30,0,0
147157,331.768492,6,2,1,30,1,8
147157,-291.691935436675,4,2,1,30,0,0
147489,340.06858,6,2,1,30,1,8
147489,-284.572581061112,4,2,1,30,0,0
147829,351.677207,6,2,1,30,1,8
147829,-275.179032425571,4,2,1,30,0,0
148181,398.118228,6,2,1,30,1,8
148181,-243.079032162243,4,2,1,30,0,0
148579,345.962901,6,2,1,30,1,0
148579,-279.72419374639,4,2,1,30,0,0
149617,310.589551,6,2,1,30,1,8
149617,-311.582257795875,4,2,1,30,0,0
149927,403.469841,6,2,1,30,1,8
149927,-239.854838489371,4,2,1,30,0,0
150331,391.905838,6,2,1,30,1,8
150331,-246.932258121623,4,2,1,30,0,0
150723,342.812088,6,2,1,30,1,0
150723,-282.295160923226,4,2,1,30,0,0
151408,342.857143,6,2,1,30,1,8
151408,-282.258064398522,4,2,1,30,0,0
151751,372.812059,6,2,1,30,1,8
151751,-259.579032416403,4,2,1,30,0,0
152124,396.031762,6,2,1,30,1,8
152124,-244.359677263429,4,2,1,30,0,0
152520,430.882807,6,2,1,30,1,8
152520,-224.595161320482,4,2,1,30,0,0
152951,419.205187,6,2,1,30,1,0
152951,-230.851612884234,6,2,1,30,0,0
153370,442.425672,6,2,1,30,1,8
153370,-218.735484111752,6,2,1,30,0,0
153813,430.817836,6,2,1,30,1,8
153813,-224.629032184236,6,2,1,30,0,0
154243,555.735655,6,2,1,30,1,0
154243,-174.137096797194,6,2,1,30,0,0
154799,656.644089,6,2,1,30,1,8
154799,-147.376935496007,6,2,1,30,0,0
155456,656.666368,6,2,1,30,1,8
155456,-147.371935375845,6,2,1,30,0,0
156113,776.757349,4,2,1,30,1,0
156113,-124.587419318239,4,2,1,30,0,0
158443,776.825735,3,2,1,30,1,8
158443,-124.576451562057,4,2,1,30,0,0
159220,526.440473,3,2,1,30,1,0
159220,-183.827419265287,3,2,1,30,0,0
159746,526.463569,4,2,1,30,1,8
159746,-183.81935474131,4,2,1,30,0,0
160273,539.636285,4,2,1,30,1,8
160273,-179.332258112308,4,2,1,30,0,0
161352,523.309058,4,2,1,30,1,0
161352,-184.927419216174,4,2,1,30,0,0
162398,512.49637,4,2,1,30,1,8
162398,-188.829032190778,4,2,1,30,0,0
162911,512.518258,4,2,1,30,1,8
162911,-188.820967912498,4,2,1,30,0,0
163423,569.816804,4,2,1,30,1,0
163423,-169.833870937206,4,2,1,30,0,0
163993,569.843863,4,2,1,30,1,8
163993,-169.825806386524,4,2,1,30,0,0
164563,532.221582,4,2,1,30,1,8
164563,-181.830645019553,4,2,1,30,0,0
165095,532.245188,4,2,1,30,1,8
165095,-181.822580514128,4,2,1,30,0,0
165628,640.226726,4,2,1,30,1,0
165628,-151.156128943588,4,2,1,30,0,0
166268,784.813339,4,2,1,30,1,8
166268,-123.308548337998,4,2,1,30,0,0
166611,868.409855,4,2,1,30,1,8
166611,-111.438387060206,4,2,1,30,0,0
167100,969.047023,4,2,1,30,1,0
167100,-99.8653225813451,4,2,1,30,0,0
168069,887.755193,4,2,1,30,1,0
168069,-109.009999954331,4,2,1,30,0,0
168956,632.085947,4,2,1,30,1,0
168956,-153.102903185391,4,2,1,30,0,0
169588,562.450786,4,2,1,30,1,8
169588,-172.058064380387,4,2,1,30,0,0
170151,548.8424,4,2,1,30,1,8
170151,-176.324193517824,4,2,1,30,0,0
170700,572.087835,4,2,1,30,1,8
170700,-169.159677286945,4,2,1,30,0,0
171272,596.55193,4,2,1,30,1,0
171272,-162.222580603146,4,2,1,30,0,0
171868,550.1357,4,2,1,30,1,8
171868,-175.909677463919,4,2,1,30,0,0
172419,556.462383,4,2,1,30,1,8
172419,-173.909677464015,4,2,1,30,0,0
172975,579.682141,4,2,1,30,1,8
172975,-166.943548375397,4,2,1,30,0,0
173555,552.404802,4,2,1,30,1,0
173555,-175.187096850015,4,2,1,30,0,0
174660,554.785021,4,2,1,30,1,8
174660,-174.435483809479,4,2,1,30,0,0
175769,612.902204,4,2,1,30,1,0
175769,-157.895000078001,4,2,1,30,0,0
176382,520.043337,4,2,1,30,1,8
176382,-186.088709657647,4,2,1,30,0,0
176902,546.010483,4,2,1,30,1,8
176902,-177.238709807678,4,2,1,30,0,0
177448,569.227558,4,2,1,30,1,8
177448,-170.009677480139,4,2,1,30,0,0
178017,545.375218,4,2,1,30,1,0
178017,-177.445161339155,4,2,1,30,0,0
179108,540.204738,4,2,1,30,1,8
179108,-179.143548252972,4,2,1,30,0,0
179648,540.229057,4,2,1,30,1,8
179648,-179.135483910831,4,2,1,30,0,0
180188,563.968079,4,2,1,30,1,0
180188,-171.595161414068,4,2,1,30,0,0
181316,558.867362,4,2,1,30,1,8
181316,-173.161290367833,4,2,1,30,0,0
182434,540.384754,4,2,1,30,1,0
182434,-179.083870949451,4,2,1,30,0,0
182975,528.797427,4,2,1,30,1,8
182975,-183.008064349729,4,2,1,30,0,0
183503,519.570488,4,2,1,30,1,8
183503,-186.258064658182,4,2,1,30,0,0
184023,531.180283,4,2,1,30,1,8
184023,-182.187096632853,4,2,1,30,0,0
184554,548.320768,4,2,1,30,1,0
184554,-176.491935370916,4,2,1,30,0,0
185651,564.015792,4,2,1,30,1,8
185651,-171.58064529581,4,2,1,30,0,0
186215,674.63182,4,2,1,30,1,8
186215,-143.447419287734,4,2,1,30,0,0
186524,727.660813,4,2,1,30,1,8
186524,-132.993548394349,4,2,1,30,0,0
186918,545.985641,4,2,1,30,1,0
186918,-177.246774056439,4,2,1,30,0,0
188010,544.331244,4,2,1,30,1,8
188010,-177.785483774999,4,2,1,30,0,0
188554,544.355936,4,2,1,30,1,8
188554,-177.77741942064,4,2,1,30,0,0
189099,518.954825,4,2,1,30,1,0
189099,-186.479032251771,4,2,1,30,0,0
190137,508.276435,4,2,1,30,1,8
190137,-190.396774047546,4,2,1,30,0,0
190645,601.156625,4,2,1,30,1,8
190645,-160.980000092966,4,2,1,30,0,0
191246,534.668817,4,2,1,30,1,0
191246,-180.998387172422,4,2,1,30,0,0
191781,534.692641,4,2,1,30,1,8
191781,-180.99032252884,4,2,1,30,0,0
192315,501.882058,4,2,1,30,1,8
192315,-192.822580536217,4,2,1,30,0,0
192817,571.54288,4,2,1,30,1,8
192817,-169.32096774329,4,2,1,30,0,0
193389,524.966533,4,2,1,30,1,0
193389,-184.343548521763,4,2,1,30,0,0
193914,524.9895,4,2,1,30,1,8
193914,-184.335483944702,4,2,1,30,0,0
194439,583.17539,4,2,1,30,1,8
194439,-165.943548386682,4,2,1,30,0,0
195022,722.494629,4,2,1,30,1,8
195022,-133.94451621368,4,2,1,30,0,0
195744,566.032396,4,2,1,30,1,0
195744,-170.969354814785,4,2,1,30,0,0
196311,542.809582,4,2,1,30,1,8
196311,-178.283871098626,4,2,1,30,0,0
196853,529.548824,4,2,1,30,1,8
196853,-182.748387235371,4,2,1,30,0,0
197383,529.56752,4,2,1,30,1,8
197383,-182.74193543514,4,2,1,30,0,0
197912,515.375365,4,2,1,30,1,0
197912,-187.774193569355,4,2,1,30,0,0
198428,515.3975,4,2,1,30,1,8
198428,-187.766129149612,4,2,1,30,0,0
198943,545.419837,4,2,1,30,1,8
198943,-177.430645135093,4,2,1,30,0,0
199489,545.444628,4,2,1,30,1,8
199489,-177.422580736073,4,2,1,30,0,0
200034,542.314054,4,2,1,30,1,0
200034,-178.446774216158,4,2,1,30,0,0
200576,542.333662,4,2,1,30,1,8
200576,-178.440322497236,4,2,1,30,0,0
201119,544.331244,4,2,1,30,1,8
201119,-177.785483774999,4,2,1,30,0,0
201663,544.355936,4,2,1,30,1,8
201663,-177.77741942064,4,2,1,30,0,0
202207,588.298738,4,2,1,30,1,0
202207,-164.498387124514,4,2,1,30,0,0
202796,645.260508,4,2,1,30,1,8
202796,-149.976935437039,4,2,1,30,0,0
203118,717.143188,4,2,1,30,1,8
203118,-134.944032332337,4,2,1,30,0,0
203477,812.698688,4,2,1,30,1,8
203477,-119.077580630212,4,2,1,30,0,0
204290,794.013141,4,2,1,30,1,0
204290,-121.879838697011,4,2,1,30,0,0
205084,533.788833,4,2,1,30,1,0
205084,-181.296774240287,4,2,1,30,0,0
206151,506.461606,4,2,1,30,1,8
206151,-191.079032254198,4,2,1,30,0,0
206658,506.487258,4,2,1,30,1,8
206658,-191.069354697146,4,2,1,30,0,0
207164,512.697816,4,2,1,30,1,0
207164,-188.754838675551,4,2,1,30,0,0
207677,512.719722,4,2,1,30,1,8
207677,-188.746774106706,4,2,1,30,0,0
208190,544.12885,4,2,1,30,1,8
208190,-177.851612808964,4,2,1,30,0,0
208734,474.465831,4,2,1,30,1,8
208734,-203.964515936633,4,2,1,30,0,0
209208,501.588363,4,2,1,30,1,0
209208,-192.935483928655,4,2,1,30,0,0
209710,501.60933,4,2,1,30,1,8
209710,-192.927419329276,4,2,1,30,0,0
210211,513.289932,4,2,1,30,1,8
210211,-188.537096707338,4,2,1,30,0,0
210725,513.311888,4,2,1,30,1,8
210725,-188.529032369473,4,2,1,30,0,0
211238,562.471876,4,2,1,30,1,0
211238,-172.05161302747,4,2,1,30,0,0
211800,562.492969,4,2,1,30,1,8
211800,-172.045161240739,4,2,1,30,0,0
212363,684.625926,4,2,1,30,1,0
212363,-141.353387117255,4,2,1,30,0,0
213048,669.432912,4,2,1,30,1,0
213048,-144.561451661025,4,2,1,30,0,0
213717,573.060429,4,2,1,30,1,0
213717,-168.872580710659,4,2,1,30,0,0
214290,781.22457,4,2,1,30,1,8
214290,-123.874999922733,4,2,1,30,0,0
214811,783.673469,4,2,1,30,1,8
214811,-123.487903286907,4,2,1,30,0,0
215072,521.335662,4,2,1,30,1,0
215072,-185.627419342717,4,2,1,30,0,0
215593,521.358312,4,2,1,30,1,8
215593,-185.619354906127,4,2,1,30,0,0
216115,487.868341,4,2,1,30,1,0
216115,-198.361290158787,4,2,1,30,0,0
217091,496.89441,4,2,1,30,1,8
217091,-194.758064491784,4,2,1,30,0,0
217587,496.914986,4,2,1,30,1,8
217587,-194.750000050083,4,2,1,30,0,0
218084,501.676435,4,2,1,30,1,0
218084,-192.901613065376,4,2,1,30,0,0
218586,501.701605,4,2,1,30,1,8
218586,-192.891935333528,4,2,1,30,0,0
219088,499.795917,4,2,1,30,1,8
219088,-193.62741922597,4,2,1,30,0,0
219588,499.816734,4,2,1,30,1,8
219588,-193.619354786123,4,2,1,30,0,0
220087,558.706037,4,2,1,30,1,0
220087,-173.211290266382,4,2,1,30,0,0
220646,656.236158,4,2,1,30,1,8
220646,-147.468548278906,4,2,1,30,0,0
221302,662.01783,4,2,1,30,1,8
221302,-146.180645237889,4,2,1,30,0,0
221964,801.655686,4,2,1,30,1,8
221964,-120.717903257518,4,2,1,30,0,0
222766,572.786895,4,2,1,30,1,0
222766,-168.95322569904,4,2,1,30,0,0
223339,503.153093,4,2,1,30,1,8
223339,-192.335483761773,4,2,1,30,0,0
223842,490.86179,4,2,1,30,1,8
223842,-197.151612775537,4,2,1,30,0,0
224333,514.08155,4,2,1,30,1,8
224333,-188.246774365637,4,2,1,30,0,0
224847,444.4214,4,2,1,30,1,0
224847,-217.753225988638,4,2,1,30,0,0
225291,537.326265,4,2,1,30,1,8
225291,-180.103225641477,4,2,1,30,0,0
225829,499.6128,4,2,1,30,1,8
225829,-193.698387127766,4,2,1,30,0,0
226328,499.637763,4,2,1,30,1,8
226328,-193.688709530923,4,2,1,30,0,0
226828,485.217054,4,2,1,30,1,0
226828,-199.445161192515,4,2,1,30,0,0
227798,526.777875,4,2,1,30,1,8
227798,-183.709677534173,4,2,1,30,0,0
228325,526.801001,4,2,1,30,1,8
228325,-183.701612875992,4,2,1,30,0,0
228852,502.041636,4,2,1,30,1,0
228852,-192.761290317338,4,2,1,30,0,0
229354,502.062641,4,2,1,30,1,8
229354,-192.753225684416,4,2,1,30,0,0
229856,546.64225,4,2,1,30,1,8
229856,-177.033870961103,4,2,1,30,0,0
230403,669.886588,4,2,1,30,1,8
230403,-144.463548430361,4,2,1,30,0,0
231072,563.195194,4,2,1,30,1,0
231072,-171.830645181939,4,2,1,30,0,0
231636,470.341076,4,2,1,30,1,8
231636,-205.753225662109,4,2,1,30,0,0
232106,499.933342,4,2,1,30,1,8
232106,-193.574193633973,4,2,1,30,0,0
232606,523.153921,4,2,1,30,1,8
232606,-184.982257924025,4,2,1,30,0,0
233129,494.918833,4,2,1,30,1,0
233129,-195.535483993973,4,2,1,30,0,0
233624,494.943329,4,2,1,30,1,8
233624,-195.525806447201,4,2,1,30,0,0
234119,483.309705,4,2,1,30,1,8
234119,-200.232258006048,4,2,1,30,0,0
234602,506.530016,4,2,1,30,1,8
234602,-191.053225853425,4,2,1,30,0,0
235109,507.549803,4,2,1,30,1,0
235109,-190.669354960595,4,2,1,30,0,0
236124,516.484462,4,2,1,30,1,8
236124,-187.370967896392,4,2,1,30,0,0
236640,516.506693,4,2,1,30,1,8
236640,-187.362903249711,4,2,1,30,0,0
237157,494.352028,4,2,1,30,1,0
237157,-195.759677450716,4,2,1,30,0,0
238146,496.668184,4,2,1,30,1,8
238146,-194.846774297077,4,2,1,30,0,0
238642,496.688742,4,2,1,30,1,8
238642,-194.83870956831,4,2,1,30,0,0
239139,498.479637,4,2,1,30,1,0
239139,-194.138709719023,4,2,1,30,0,0
239637,498.504487,4,2,1,30,1,8
239637,-194.129032079078,4,2,1,30,0,0
240136,492.971054,4,2,1,30,1,8
240136,-196.308064668615,4,2,1,30,0,0
240629,492.991307,4,2,1,30,1,8
240629,-196.299999968127,4,2,1,30,0,0
241122,485.146433,4,2,1,30,1,0
241122,-199.474193698518,4,2,1,30,0,0
242092,518.072081,4,2,1,30,1,8
242092,-186.796774228,4,2,1,30,0,0
242610,518.094449,4,2,1,30,1,8
242610,-186.788709539691,4,2,1,30,0,0
243128,491.086775,4,2,1,30,1,0
243128,-197.061290335882,4,2,1,30,0,0
243619,491.110893,4,2,1,30,1,8
243619,-197.051612838869,4,2,1,30,0,0
244111,623.718778,4,2,1,30,1,8
244111,-155.156774113328,4,2,1,30,0,0
244734,742.244473,4,2,1,30,1,8
244734,-130.380483881875,4,2,1,30,0,0
245477,679.682588,4,2,1,30,1,0
245477,-142.381451661356,4,2,1,30,0,0
246156,679.704917,4,2,1,30,1,8
246156,-142.376774285402,4,2,1,30,0,0
246836,724.874929,4,2,1,30,1,0
246836,-133.504677395715,4,2,1,30,0,0
247561,724.897699,4,2,1,30,1,8
247561,-133.500483836392,4,2,1,30,0,0
248286,624.830124,4,2,1,30,1,0
248286,-154.880806528443,4,2,1,30,0,0
249535,602.879958,4,2,1,30,1,0
249535,-160.519838591793,4,2,1,30,0,0
250741,602.925394,4,2,1,30,1,8
250741,-160.507741938611,4,2,1,30,0,0
251344,756.236112,4,2,1,30,1,0
251344,-127.968225813034,4,2,1,30,0,0
252856,760.884452,4,2,1,30,1,8
252856,-127.186451627464,4,2,1,30,0,0
254378,991.814227,4,2,1,30,1,0
254378,-97.5729031848089,4,2,1,30,0,0
258346,530.522742,4,2,1,30,1,0
258346,-182.412903136935,4,2,1,30,0,0
259407,525.895995,4,2,1,30,1,8
259407,-184.017742041156,4,2,1,30,0,0
260458,499.704342,4,2,1,30,1,0
260458,-193.662903069966,4,2,1,30,0,0
261458,513.153844,4,2,1,30,1,8
261458,-188.587096598632,4,2,1,30,0,0
262484,507.777458,4,2,1,30,1,0
262484,-190.583870992531,4,2,1,30,0,0
263500,562.878184,4,2,1,30,1,8
263500,-171.927419287558,4,2,1,30,0,0
264063,562.904588,4,2,1,30,1,8
264063,-171.919354738653,4,2,1,30,0,0
264625,695.707831,4,2,1,30,1,0
264625,-139.101774101472,4,2,1,30,0,0
264944,726.489,4,2,1,30,1,8
264944,-133.208064469506,4,2,1,30,0,0
265338,890.438912,4,2,1,30,1,8
265338,-108.681451634929,4,2,1,30,0,0
265746,969.000073,4,2,1,30,1,8
265746,-99.8701612568269,4,2,1,30,0,0
266271,583.492983,4,2,1,30,1,0
266271,-165.853225947684,4,2,1,30,0,0
267438,521.335662,4,2,1,30,1,8
267438,-185.627419342717,4,2,1,30,0,0
268480,514.306287,4,2,1,30,1,8
268480,-188.164515959703,4,2,1,30,0,0
268995,514.332739,4,2,1,30,1,8
268995,-188.154838707219,4,2,1,30,0,0
269509,518.072081,4,2,1,30,1,8
269509,-186.796774228,4,2,1,30,0,0
270027,518.094449,4,2,1,30,1,8
270027,-186.788709539691,4,2,1,30,0,0
270545,534.535444,4,2,1,30,1,0
270545,-181.043548439394,4,2,1,30,0,0
271080,534.559256,4,2,1,30,1,8
271080,-181.035483834905,4,2,1,30,0,0
271614,537.461034,4,2,1,30,1,8
271614,-180.058064541265,4,2,1,30,0,0
272689,520.183104,4,2,1,30,1,0
272689,-186.038709839347,4,2,1,30,0,0
273209,566.641797,4,2,1,30,1,8
273209,-170.785483987845,4,2,1,30,0,0
273776,633.69616,4,2,1,30,1,8
273776,-152.713870868946,4,2,1,30,0,0
274410,853.310275,4,2,1,30,1,8
274410,-113.410322579776,4,2,1,30,0,0
275263,571.042438,4,2,1,30,1,0
275263,-169.469354829959,4,2,1,30,0,0
275834,478.186716,4,2,1,30,1,8
275834,-202.377419343425,4,2,1,30,0,0
276312,518.23317,4,2,1,30,1,8
276312,-186.738709813552,4,2,1,30,0,0
277349,510.160701,4,2,1,30,1,0
277349,-189.69354824606,4,2,1,30,0,0
277859,533.399712,4,2,1,30,1,8
277859,-181.429032245872,4,2,1,30,0,0
278392,511.177754,4,2,1,30,1,8
278392,-189.316128863439,4,2,1,30,0,0
278904,499.592,4,2,1,30,1,8
278904,-193.706451561248,4,2,1,30,0,0
279403,543.335537,4,2,1,30,1,0
279403,-178.111290276946,4,2,1,30,0,0
279946,508.526291,4,2,1,30,1,8
279946,-190.303225735063,4,2,1,30,0,0
280455,585.126095,4,2,1,30,1,8
280455,-165.39032248833,4,2,1,30,0,0
281040,701.446734,4,2,1,30,1,8
281040,-137.963709655518,4,2,1,30,0,0
281362,765.337361,4,2,1,30,1,8
281362,-126.446451564759,4,2,1,30,0,0
281776,694.036377,4,2,1,30,1,0
281776,-139.436774145323,4,2,1,30,0,0
282470,681.042722,4,2,1,30,1,8
282470,-142.097096734538,4,2,1,30,0,0
282811,707.074397,4,2,1,30,1,8
282811,-136.865645197993,4,2,1,30,0,0
283164,860.544466,4,2,1,30,1,0
283164,-112.456935547113,4,2,1,30,0,0
284025,860.566683,4,2,1,30,1,8
284025,-112.454032279085,4,2,1,30,0,0
284885,972.062912,4,2,1,30,1,0
284885,-99.5554838619201,4,2,1,30,0,0
285857,972.086535,4,2,1,30,1,8
285857,-99.5530645308106,4,2,1,30,0,0
286830,1244.98892,4,2,1,30,1,0
286830,-77.730967716875,4,2,1,30,0,0
290564,1245.05609,4,2,1,30,1,8
290564,-77.7267741796172,4,2,1,30,0,0
291810,527.416888,4,2,1,30,1,0
291810,-183.48709673549,4,2,1,30,0,0
292337,527.435433,4,2,1,30,1,8
292337,-183.48064520039,4,2,1,30,0,0
292864,531.203796,4,2,1,30,1,8
292864,-182.179032373457,4,2,1,30,0,0
293927,518.52428,4,2,1,30,1,8
293927,-186.633870931535,4,2,1,30,0,0
294964,516.689057,4,2,1,30,1,0
294964,-187.296774021647,4,2,1,30,0,0
295481,516.711305,4,2,1,30,1,8
295481,-187.288709598462,4,2,1,30,0,0
295997,550.590049,4,2,1,30,1,0
295997,-175.764516129835,4,2,1,30,0,0
296548,504.172023,4,2,1,30,1,8
296548,-191.946774381781,4,2,1,30,0,0
297052,524.489279,4,2,1,30,1,8
297052,-184.51129016955,4,2,1,30,0,0
298101,528.392278,4,2,1,30,1,0
298101,-183.148387244953,4,2,1,30,0,0
299158,519.25124,4,2,1,30,1,8
299158,-186.372580541911,4,2,1,30,0,0
299677,635.351598,4,2,1,30,1,8
299677,-152.315967809035,4,2,1,30,0,0
300312,544.331244,4,2,1,30,1,0
300312,-177.785483774999,4,2,1,30,0,0
300857,497.912915,4,2,1,30,1,8
300857,-194.359677431518,4,2,1,30,0,0
301355,489.184936,4,2,1,30,1,8
301355,-197.827419502523,4,2,1,30,0,0
301844,489.204879,4,2,1,30,1,8
301844,-197.819354840055,4,2,1,30,0,0
302333,505.829687,4,2,1,30,1,0
302333,-191.317741990076,4,2,1,30,0,0
303345,511.269226,4,2,1,30,1,8
303345,-189.282258010161,4,2,1,30,0,0
304367,520.837854,4,2,1,30,1,0
304367,-185.804838886359,4,2,1,30,0,0
304888,509.2514,4,2,1,30,1,8
304888,-190.032258229211,4,2,1,30,0,0
305397,514.442987,4,2,1,30,1,8
305397,-188.11451607637,4,2,1,30,0,0
305912,502.857909,4,2,1,30,1,8
305912,-192.44838714148,4,2,1,30,0,0
306415,507.416741,4,2,1,30,1,0
306415,-190.719354977661,4,2,1,30,0,0
306922,507.438198,4,2,1,30,1,8
306922,-190.711290418833,4,2,1,30,0,0
307429,507.052252,4,2,1,30,1,8
307429,-190.856451512983,4,2,1,30,0,0
307937,530.27424,4,2,1,30,1,8
307937,-182.498387152254,4,2,1,30,0,0
308467,531.585009,4,2,1,30,1,0
308467,-182.048387200451,4,2,1,30,0,0
308777,588.356426,4,2,1,30,1,8
308777,-164.482258154833,4,2,1,30,0,0
309022,508.797965,4,2,1,30,1,8
309022,-190.201612831504,4,2,1,30,0,0
309531,511.993446,4,2,1,30,1,8
309531,-189.01451630767,4,2,1,30,0,0
310555,542.314054,4,2,1,30,1,8
310555,-178.446774216158,4,2,1,30,0,0
311097,495.896457,4,2,1,30,1,0
311097,-195.149999929092,4,2,1,30,0,0
311593,492.041233,4,2,1,30,1,8
311593,-196.679032280181,4,2,1,30,0,0
312085,550.090306,4,2,1,30,1,8
312085,-175.924193705728,4,2,1,30,0,0
312635,559.524032,4,2,1,30,1,0
312635,-172.958064379238,4,2,1,30,0,0
313195,478.255325,4,2,1,30,1,8
313195,-202.348386917359,4,2,1,30,0,0
313673,561.676792,4,2,1,30,1,8
313673,-172.295161428687,4,2,1,30,0,0
314235,584.897935,4,2,1,30,1,8
314235,-165.454838797451,4,2,1,30,0,0
314819,530.522742,4,2,1,30,1,0
314819,-182.412903136935,4,2,1,30,0,0
315881,636.981895,4,2,1,30,1,8
315881,-151.926128996786,4,2,1,30,0,0
316172,677.760093,4,2,1,30,1,8
316172,-142.785322635375,4,2,1,30,0,0
316540,798.095213,4,2,1,30,1,8
316540,-121.25645157627,4,2,1,30,0,0
316939,914.014122,4,2,1,30,1,8
316939,-105.878225750638,4,2,1,30,0,0
317396,517.86639,4,2,1,30,1,0
317396,-186.870967911988,4,2,1,30,0,0
318431,528.457433,4,2,1,30,1,8
318431,-183.125806366295,4,2,1,30,0,0
318960,505.258903,4,2,1,30,1,8
318960,-191.533870999176,4,2,1,30,0,0
319465,506.893755,4,2,1,30,1,0
319465,-190.916129058223,4,2,1,30,0,0
319972,483.672038,4,2,1,30,1,8
319972,-200.082258111409,4,2,1,30,0,0
320456,504.286435,4,2,1,30,1,8
320456,-191.90322569035,4,2,1,30,0,0
320960,504.307628,4,2,1,30,1,8
320960,-191.895161158235,4,2,1,30,0,0
321464,514.376832,4,2,1,30,1,0
321464,-188.1387098484,4,2,1,30,0,0
321979,537.619956,4,2,1,30,1,8
321979,-180.004838861277,4,2,1,30,0,0
322516,587.803086,4,2,1,30,1,8
322516,-164.637096764727,4,2,1,30,0,0
323104,750.340467,4,2,1,30,1,8
323104,-128.973709675167,4,2,1,30,0,0
323854,550.701226,4,2,1,30,1,0
323854,-175.72903233084,4,2,1,30,0,0
324405,481.042901,4,2,1,30,1,8
324405,-201.175806455539,4,2,1,30,0,0
324886,497.52894,4,2,1,30,1,8
324886,-194.509677262969,4,2,1,30,0,0
325384,485.940132,4,2,1,30,1,8
325384,-199.148387168786,4,2,1,30,0,0
325870,491.948444,4,2,1,30,1,0
325870,-196.716128953519,4,2,1,30,0,0
326362,480.342004,4,2,1,30,1,8
326362,-201.46935463172,4,2,1,30,0,0
326842,491.018454,4,2,1,30,1,8
326842,-197.088709721666,4,2,1,30,0,0
327333,537.461034,4,2,1,30,1,8
327333,-180.058064541265,4,2,1,30,0,0
327870,575.214028,4,2,1,30,1,0
327870,-168.240322449833,4,2,1,30,0,0
329021,689.705117,4,2,1,30,1,8
329021,-140.312419268867,4,2,1,30,0,0
329711,778.934496,4,2,1,30,1,8
329711,-124.239193469212,4,2,1,30,0,0
330489,751.768535,4,2,1,30,1,0
330489,-128.728709759563,4,2,1,30,0,0
332745,751.791142,4,2,1,30,1,8
332745,-128.724838777612,4,2,1,30,0,0
333497,953.719187,3,2,1,30,1,0
333497,-101.47032257241,3,2,1,30,0,0
335404,835.510302,3,2,1,30,1,0
335404,-115.826451591003,4,2,1,30,0,0
336240,928.217822,3,2,1,30,1,0
336240,-104.258064491663,4,2,1,30,0,0
336433,895.209733,3,2,1,30,1,8
336433,-108.10225803073,4,2,1,30,0,0
337142,902.109131,3,2,1,30,1,8
337142,-107.275483888642,4,2,1,30,0,0
338044,1036.167424,3,2,1,30,1,0
338044,-93.3962903164837,4,2,1,30,0,0
339080,1142.702606,3,2,1,30,1,0
339080,-84.6888709627981,4,2,1,30,0,0
339247,1059.950818,3,2,1,30,1,8
339247,-91.3006451855836,4,2,1,30,0,0
340152,1072.041166,3,2,1,30,1,8
340152,-90.2709677739997,4,2,1,30,0,0
341224,1205.964701,3,2,1,30,1,0
341224,-80.2462903500748,4,2,1,30,0,0
342430,1386.350456,4,2,1,30,1,0
342430,-69.804999976418,3,2,1,30,0,0
346589,1374.740518,4,2,1,30,1,8
346589,-70.3945161150674,4,2,1,30,0,0
347964,347.097685,5,2,1,30,1,0
347964,-278.809677305647,5,2,1,30,0,0
348311,403.02267,5,2,1,30,1,8
348311,-240.120967756943,4,2,1,30,0,0
348554,437.722965,5,2,1,30,1,8
348554,-221.085483939338,4,2,1,30,0,0
348728,393.58199,5,2,1,30,1,8
348728,-245.880644966471,4,2,1,30,0,0
349121,375.260337,5,2,1,30,1,8
349121,-257.885483773861,4,2,1,30,0,0
349496,386.894591,5,2,1,30,1,8
349496,-250.130644882516,4,2,1,30,0,0
349883,357.09822,5,2,1,30,1,0
349883,-271.001612801058,4,2,1,30,0,0
350240,403.53768,5,2,1,30,1,8
350240,-239.81451632568,4,2,1,30,0,0
350644,380.317311,5,2,1,30,1,8
350644,-254.456451887322,4,2,1,30,0,0
351024,391.019584,5,2,1,30,1,8
351024,-247.491935208,4,2,1,30,0,0
351415,367.822857,5,2,1,30,1,8
351415,-263.099999651156,4,2,1,30,0,0
351783,368.276649,5,2,1,30,1,0
351783,-262.775806750612,4,2,1,30,0,0
352151,379.886287,5,2,1,30,1,8
352151,-254.745161539319,4,2,1,30,0,0
352911,367.006147,5,2,1,30,1,8
352911,-263.685484124567,4,2,1,30,0,0
353278,378.639674,5,2,1,30,1,8
353278,-255.583870876635,4,2,1,30,0,0
353657,362.198545,5,2,1,30,1,0
353657,-267.185483995766,4,2,1,30,0,0
354019,385.418339,5,2,1,30,1,8
354019,-251.088709996197,4,2,1,30,0,0
354404,373.831776,5,2,1,30,1,8
354404,-258.870967534839,4,2,1,30,0,0
354778,357.278963,5,2,1,30,1,8
354778,-270.86451644338,4,2,1,30,0,0
355136,380.498199,5,2,1,30,1,8
355136,-254.335483854385,4,2,1,30,0,0
355516,370.20355,5,2,1,30,1,0
355516,-261.408064694104,4,2,1,30,0,0
356256,370.226393,5,2,1,30,1,8
356256,-261.391935794235,4,2,1,30,0,0
356627,372.856078,5,2,1,30,1,8
356627,-259.548386786354,4,2,1,30,0,0
356999,372.879249,5,2,1,30,1,8
356999,-259.532258252288,4,2,1,30,0,0
357372,347.051508,5,2,1,30,1,8
357372,-278.846774376751,4,2,1,30,0,0
357719,370.272088,5,2,1,30,1,8
357719,-261.35967761196,4,2,1,30,0,0
358090,370.317794,5,2,1,30,1,8
358090,-261.327419628091,4,2,1,30,0,0
358460,362.879814,5,2,1,30,1,8
358460,-266.683871118792,4,2,1,30,0,0
358823,374.489758,5,2,1,30,1,8
358823,-258.416128828781,4,2,1,30,0,0
359197,357.572796,5,2,1,30,1,0
359197,-270.641935379187,4,2,1,30,0,0
359555,369.183059,5,2,1,30,1,8
359555,-262.130645459512,4,2,1,30,0,0
359924,357.572796,5,2,1,30,1,8
359924,-270.641935379187,4,2,1,30,0,0
360282,382.448178,5,2,1,30,1,8
360282,-253.038709857279,4,2,1,30,0,0
360664,370.862565,5,2,1,30,1,8
360664,-260.943548045587,4,2,1,30,0,0
361035,350.793085,6,2,1,30,1,0
361035,-275.87258040844,6,2,1,30,0,0
361386,362.404189,6,2,1,30,1,8
361386,-267.0338712569,4,2,1,30,0,0
361748,362.447974,6,2,1,30,1,8
361748,-267.001612618718,4,2,1,30,0,0
362111,355.895106,6,2,1,30,1,8
362111,-271.917741820218,4,2,1,30,0,0
362467,348.979236,6,2,1,30,1,8
362467,-277.306451402705,4,2,1,30,0,0
362816,378.594279,6,2,1,30,1,8
362816,-255.614516426401,4,2,1,30,0,0
363194,376.236879,5,2,1,30,1,0
363194,-257.216128853724,5,2,1,30,0,0
363947,376.28171,5,2,1,30,1,8
363947,-257.185483579277,4,2,1,30,0,0
364323,359.817932,5,2,1,30,1,8
364323,-268.95322590089,4,2,1,30,0,0
364683,383.061041,5,2,1,30,1,8
364683,-252.63387082057,4,2,1,30,0,0
365066,345.305855,5,2,1,30,1,0
365066,-280.256451337575,4,2,1,30,0,0
365411,403.355921,5,2,1,30,1,8
365411,-239.922580802742,4,2,1,30,0,0
365814,391.767656,5,2,1,30,1,8
365814,-247.019354625812,4,2,1,30,0,0
366206,369.977555,5,2,1,30,1,8
366206,-261.567741719865,4,2,1,30,0,0
366576,346.780719,5,2,1,30,1,8
366576,-279.064516122614,4,2,1,30,0,0
366923,361.474091,5,2,1,30,1,0
366923,-267.720967997087,4,2,1,30,0,0
367284,384.694296,5,2,1,30,1,8
367284,-251.56129049646,4,2,1,30,0,0
367669,373.129687,5,2,1,30,1,8
367669,-259.358064823148,4,2,1,30,0,0
368042,368.028166,5,2,1,30,1,8
368042,-262.953226108208,4,2,1,30,0,0
368778,354.377447,6,2,1,30,1,0
368778,-273.082258387586,6,2,1,30,0,0
369133,400.81499,6,2,1,30,1,8
369133,-241.443548676628,4,2,1,30,0,0
369534,377.619737,6,2,1,30,1,8
369534,-256.274193497431,4,2,1,30,0,0
369911,343.741048,6,2,1,30,1,8
369911,-281.532258400478,4,2,1,30,0,0
370255,340.4236,6,2,1,30,1,8
370255,-284.275806813591,4,2,1,30,0,0
370375,376.38793,6,2,1,30,1,8
370375,-257.112903563053,4,2,1,30,0,0
370619,370.770894,6,2,1,30,1,8
370619,-261.008064857397,4,2,1,30,0,0
370989,386.122748,6,2,1,30,1,0
370989,-250.630645435029,4,2,1,30,0,0
371375,386.530694,5,2,1,30,1,0
371375,-250.366128875621,5,2,1,30,0,0
372148,386.553106,5,2,1,30,1,8
372148,-250.351612873567,4,2,1,30,0,0
372535,376.350156,5,2,1,30,1,8
372535,-257.138709804034,4,2,1,30,0,0
373288,371.179174,6,2,1,30,1,0
373288,-260.72096800449,6,2,1,30,0,0
374401,359.455784,6,2,1,30,1,8
374401,-269.224193505778,4,2,1,30,0,0
375480,387.912642,5,2,1,30,1,0
375480,-249.474193595338,5,2,1,30,0,0
376255,387.960299,5,2,1,30,1,8
376255,-249.443548213131,4,2,1,30,0,0
376643,362.063035,5,2,1,30,1,8
376643,-267.285483999732,4,2,1,30,0,0
377005,362.08707,5,2,1,30,1,8
377005,-267.267741840069,4,2,1,30,0,0
377368,370.29494,6,2,1,30,1,0
377368,-261.343548330385,6,2,1,30,0,0
378478,371.360665,6,2,1,30,1,8
378478,-260.593548722741,4,2,1,30,0,0
378850,348.140927,6,2,1,30,1,8
378850,-277.97419390564,4,2,1,30,0,0
379198,394.604442,6,2,1,30,1,8
379198,-245.243548344007,4,2,1,30,0,0
379593,374.354239,5,2,1,30,1,0
379593,-258.509677376425,5,2,1,30,0,0
379967,385.963784,5,2,1,30,1,8
379967,-250.733870793398,5,2,1,30,0,0
380353,362.789854,5,2,1,30,1,8
380353,-266.74999998315,5,2,1,30,0,0
380716,362.404189,5,2,1,30,1,8
380716,-267.0338712569,5,2,1,30,0,0
381078,362.42608,5,2,1,30,1,8
381078,-267.017742068637,5,2,1,30,0,0
381440,360.135411,6,2,1,30,1,0
381440,-268.716128968465,6,2,1,30,0,0
382521,349.115284,6,2,1,30,1,8
382521,-277.198386846871,4,2,1,30,0,0
383568,381.995289,5,2,1,30,1,0
383568,-253.338709494889,5,2,1,30,0,0
384332,382.041502,5,2,1,30,1,8
384332,-253.308064809114,4,2,1,30,0,0
384714,375.351892,5,2,1,30,1,8
384714,-257.822580919313,4,2,1,30,0,0
385090,352.131275,5,2,1,30,1,8
385090,-274.824193188711,4,2,1,30,0,0
385442,380.838734,6,2,1,30,1,0
385442,-254.108064408142,6,2,1,30,0,0
386203,380.860491,6,2,1,30,1,8
386203,-254.093548255146,6,2,1,30,0,0
386584,341.74598,6,2,1,30,1,8
386584,-283.175806628031,6,2,1,30,0,0
387268,341.790756,6,2,1,30,1,8
387268,-283.138709428371,6,2,1,30,0,0
387610,481.089186,4,2,1,30,1,0
387610,-201.156451578164,4,2,1,30,0,0
388091,399.840064,4,2,1,30,1,8
388091,-242.032258049026,4,2,1,30,0,0
388491,401.942723,4,2,1,30,1,0
388491,-240.766129129267,4,2,1,30,0,0
388608,419.624436,4,2,1,30,1,8
388608,-230.620967813197,4,2,1,30,0,0
388905,449.29685,4,2,1,30,1,0
388905,-215.390322786343,4,2,1,30,0,0
389354,591.313603,4,2,1,30,1,0
389354,-163.659677466252,4,2,1,30,0,0
389946,591.336914,4,2,1,30,1,8
389946,-163.653225863703,4,2,1,30,0,0
390537,577.367206,4,2,1,30,1,0
390537,-167.612903093057,4,2,1,30,0,0
391692,577.417213,4,2,1,30,1,8
391692,-167.598387040788,4,2,1,30,0,0
392269,371.837061,5,2,1,30,1,0
392269,-260.259677419264,5,2,1,30,0,0
393013,371.883154,5,2,1,30,1,8
393013,-260.227419573803,4,2,1,30,0,0
393385,364.808172,5,2,1,30,1,8
393385,-265.274193332454,4,2,1,30,0,0
393749,388.028041,5,2,1,30,1,8
393749,-249.400000316954,4,2,1,30,0,0
394137,380.271514,6,2,1,30,1,0
394137,-254.487096681102,6,2,1,30,0,0
394898,380.317311,6,2,1,30,1,8
394898,-254.456451887322,4,2,1,30,0,0
395278,371.360665,6,2,1,30,1,8
395278,-260.593548722741,4,2,1,30,0,0
396392,373.220206,5,2,1,30,1,0
396392,-259.29516138895,5,2,1,30,0,0
397139,373.264321,5,2,1,30,1,8
397139,-259.264516064977,4,2,1,30,0,0
397512,353.35689,5,2,1,30,1,8
397512,-273.870968097968,4,2,1,30,0,0
397865,353.377702,5,2,1,30,1,8
397865,-273.854838606617,4,2,1,30,0,0
398219,370.475567,6,2,1,30,1,0
398219,-261.216129128394,6,2,1,30,0,0
398960,370.521324,6,2,1,30,1,8
398960,-261.183870616815,4,2,1,30,0,0
399330,369.817926,6,2,1,30,1,8
399330,-261.680645378956,4,2,1,30,0,0
400440,383.332694,5,2,1,30,1,0
400440,-252.45483900308,5,2,1,30,0,0
401206,383.357187,5,2,1,30,1,8
401206,-252.438709459716,4,2,1,30,0,0
401590,358.435786,5,2,1,30,1,8
401590,-269.990322753061,4,2,1,30,0,0
402307,356.099993,6,2,1,30,1,0
402307,-271.761290229475,6,2,1,30,0,0
403019,356.144381,6,2,1,30,1,8
403019,-271.72741930298,4,2,1,30,0,0
403375,370.452693,6,2,1,30,1,8
403375,-261.23225819926,4,2,1,30,0,0
403745,358.84309,6,2,1,30,1,8
403745,-269.683870876229,4,2,1,30,0,0
404104,382.063397,6,2,1,30,1,8
404104,-253.293548422245,4,2,1,30,0,0
404486,365.48817,5,2,1,30,1,0
404486,-264.7806454266,5,2,1,30,0,0
405217,365.532703,5,2,1,30,1,8
405217,-264.748387091338,4,2,1,30,0,0
405583,361.089045,5,2,1,30,1,8
405583,-268.006451285131,4,2,1,30,0,0
405944,361.110777,5,2,1,30,1,8
405944,-267.990322394579,4,2,1,30,0,0
406305,367.165604,6,2,1,30,1,0
406305,-263.570967688975,6,2,1,30,0,0
406672,355.555556,6,2,1,30,1,8
406672,-272.177419014617,4,2,1,30,0,0
407028,378.82136,6,2,1,30,1,8
407028,-255.461290642078,4,2,1,30,0,0
407407,362.585963,6,2,1,30,1,8
407407,-266.900000065328,4,2,1,30,0,0
408132,362.607876,6,2,1,30,1,8
408132,-266.883870852235,4,2,1,30,0,0
408494,383.447835,5,2,1,30,1,0
408494,-252.379032335356,5,2,1,30,0,0
409645,367.595253,5,2,1,30,1,8
409645,-263.262903311722,5,2,1,30,0,0
410380,364.285454,6,2,1,30,1,0
410380,-265.654838769343,6,2,1,30,0,0
411109,364.331906,6,2,1,30,1,8
411109,-265.620968009283,4,2,1,30,0,0
411473,334.580575,6,2,1,30,1,8
411473,-289.240322897966,4,2,1,30,0,0
411807,346.190462,6,2,1,30,1,8
411807,-279.540322946237,4,2,1,30,0,0
412154,392.675297,6,2,1,30,1,8
412154,-246.448386969418,4,2,1,30,0,0
412546,366.757133,5,2,1,30,1,0
412546,-263.864516435696,5,2,1,30,0,0
413280,366.779553,5,2,1,30,1,8
413280,-263.848387285611,4,2,1,30,0,0
413647,359.092215,5,2,1,30,1,8
413647,-269.496774104075,4,2,1,30,0,0
414365,369.86352,6,2,1,30,1,0
414365,-261.648387352143,6,2,1,30,0,0
415104,369.886322,6,2,1,30,1,8
415104,-261.632257784291,4,2,1,30,0,0
415474,365.261223,6,2,1,30,1,8
415474,-264.94516103722,4,2,1,30,0,0
416205,365.28346,6,2,1,30,1,8
416205,-264.929032232631,4,2,1,30,0,0
416570,369.886322,5,2,1,30,1,0
416570,-261.632257784291,5,2,1,30,0,0
417310,369.909126,5,2,1,30,1,8
417310,-261.616128790472,4,2,1,30,0,0
417680,357.756153,5,2,1,30,1,8
417680,-270.503226113311,4,2,1,30,0,0
418395,364.830354,6,2,1,30,1,0
418395,-265.258064432838,6,2,1,30,0,0
419490,362.857869,6,2,1,30,1,8
419490,-266.699999686067,6,2,1,30,0,0
420578,356.167636,3,2,1,30,1,0
420578,-271.709677597959,3,2,1,30,0,0
421647,340.363735,4,2,1,30,1,8
421647,-284.325806767831,4,2,1,30,0,0
422328,340.384975,4,2,1,30,1,8
422328,-284.308064856233,4,2,1,30,0,0
422668,361.768323565589,4,2,1,30,1,8
422668,-267.503225806451,4,2,1,30,0,0
422849,524.287624,4,2,1,30,1,0
422849,-184.58225813163,4,2,1,30,0,0
423373,524.310532,4,2,1,30,1,8
423373,-184.574193425485,4,2,1,30,0,0
423898,520.250761,4,2,1,30,1,0
423898,-186.014516081385,4,2,1,30,0,0
424418,871.29265,4,2,1,30,1,0
424418,-111.069677390699,4,2,1,30,0,0
430517,871.428053,4,2,1,30,1,8
430517,-111.052419319334,4,2,1,30,0,0

[HitObjects]
64,192,18321,5,0,0:0:0:0:
64,192,18683,1,0,0:0:0:0:
64,192,19046,1,0,0:0:0:0:
64,192,19611,1,0,0:0:0:0:
64,192,20257,1,0,0:0:0:0:
64,192,21198,1,0,0:0:0:0:
64,192,22048,1,0,0:0:0:0:
192,192,22467,1,0,0:0:0:0:
64,192,22468,128,0,22943:0:0:0:0:
320,192,22784,1,0,0:0:0:0:
320,192,23101,1,0,0:0:0:0:
320,192,23418,1,0,0:0:0:0:
320,192,23769,1,0,0:0:0:0:
320,192,24169,1,0,0:0:0:0:
320,192,24551,1,0,0:0:0:0:
320,192,24960,1,0,0:0:0:0:
320,192,25429,1,0,0:0:0:0:
320,192,25898,1,0,0:0:0:0:
192,192,28106,1,0,0:0:0:0:
64,192,28106,128,0,28597:0:0:0:0:
320,192,28325,1,0,0:0:0:0:
320,192,28597,1,0,0:0:0:0:
320,192,28960,1,0,0:0:0:0:
320,192,29357,1,0,0:0:0:0:
320,192,29753,1,0,0:0:0:0:
320,192,30255,1,0,0:0:0:0:
320,192,30757,1,0,0:0:0:0:
320,192,31314,1,0,0:0:0:0:
192,192,36647,5,0,0:0:0:0:
64,192,36647,128,0,38180:0:0:0:0:
64,192,38282,1,0,0:0:0:0:
192,192,38419,1,0,0:0:0:0:
320,192,38556,1,0,0:0:0:0:
192,192,38692,1,0,0:0:0:0:
448,192,38829,1,0,0:0:0:0:
320,192,38930,1,0,0:0:0:0:
192,192,39032,1,0,0:0:0:0:
320,192,39134,1,0,0:0:0:0:
64,192,39236,1,0,0:0:0:0:
192,192,39337,1,0,0:0:0:0:
320,192,39437,1,0,0:0:0:0:
192,192,39537,1,0,0:0:0:0:
448,192,39637,1,0,0:0:0:0:
320,192,39745,1,0,0:0:0:0:
192,192,39853,1,0,0:0:0:0:
320,192,39961,1,0,0:0:0:0:
448,192,39961,1,0,0:0:0:0:
64,192,40069,1,0,0:0:0:0:
192,192,40201,1,0,0:0:0:0:
320,192,40332,1,0,0:0:0:0:
448,192,40463,1,0,0:0:0:0:
64,192,40594,1,0,0:0:0:0:
192,192,40744,1,0,0:0:0:0:
320,192,40897,1,0,0:0:0:0:
64,192,41256,1,0,0:0:0:0:
192,192,41468,1,0,0:0:0:0:
64,192,43644,1,0,0:0:0:0:
192,192,43804,1,0,0:0:0:0:
64,192,43804,128,0,45611:0:0:0:0:
64,192,45827,1,0,0:0:0:0:
192,192,46017,1,0,0:0:0:0:
448,192,46112,1,0,0:0:0:0:
320,192,46206,1,0,0:0:0:0:
192,192,46300,1,0,0:0:0:0:
320,192,46394,1,0,0:0:0:0:
64,192,46488,1,0,0:0:0:0:
192,192,46571,1,0,0:0:0:0:
320,192,46655,1,0,0:0:0:0:
192,192,46738,1,0,0:0:0:0:
448,192,46822,1,0,0:0:0:0:
320,192,46931,1,0,0:0:0:0:
192,192,47040,1,0,0:0:0:0:
320,192,47149,1,0,0:0:0:0:
64,192,47258,1,0,0:0:0:0:
192,192,47375,1,0,0:0:0:0:
320,192,47491,1,0,0:0:0:0:
192,192,47608,1,0,0:0:0:0:
448,192,47724,1,0,0:0:0:0:
320,192,47878,1,0,0:0:0:0:
192,192,48032,1,0,0:0:0:0:
448,192,48341,1,0,0:0:0:0:
320,192,48533,1,0,0:0:0:0:
448,192,49107,1,0,0:0:0:0:
320,192,49411,1,0,0:0:0:0:
64,192,52351,1,0,0:0:0:0:
64,192,53226,128,0,53806:0:0:0:0:
448,192,53226,128,0,53420:0:0:0:0:
64,192,54771,128,0,55378:0:0:0:0:
448,192,54771,128,0,54974:0:0:0:0:
320,192,56388,128,0,56950:0:0:0:0:
64,192,56388,128,0,56576:0:0:0:0:
64,192,57803,1,0,0:0:0:0:
320,192,57887,128,0,60144:0:0:0:0:
192,192,57930,128,0,60231:0:0:0:0:
320,192,60231,128,0,60665:0:0:0:0:
448,192,60491,128,0,60665:0:0:0:0:
64,192,60665,128,0,61152:0:0:0:0:
192,192,60665,1,0,0:0:0:0:
192,192,61054,1,0,0:0:0:0:
320,192,61079,1,0,0:0:0:0:
64,192,61299,128,0,61765:0:0:0:0:
192,192,61299,1,0,0:0:0:0:
192,192,61662,1,0,0:0:0:0:
320,192,61688,1,0,0:0:0:0:
320,192,61868,128,0,62161:0:0:0:0:
448,192,62063,1,0,0:0:0:0:
320,192,62258,128,0,62524:0:0:0:0:
448,192,62435,1,0,0:0:0:0:
64,192,62612,128,0,63082:0:0:0:0:
192,192,62612,1,0,0:0:0:0:
192,192,62986,1,0,0:0:0:0:
320,192,63010,1,0,0:0:0:0:
64,192,63178,128,0,63668:0:0:0:0:
192,192,63178,1,0,0:0:0:0:
192,192,63569,1,0,0:0:0:0:
320,192,63593,1,0,0:0:0:0:
320,192,63767,128,0,64046:0:0:0:0:
448,192,63953,1,0,0:0:0:0:
320,192,64140,128,0,64411:0:0:0:0:
448,192,64320,1,0,0:0:0:0:
64,192,64501,128,0,64974:0:0:0:0:
192,192,64501,1,0,0:0:0:0:
192,192,64879,1,0,0:0:0:0:
320,192,64903,1,0,0:0:0:0:
64,192,65068,128,0,65542:0:0:0:0:
192,192,65068,1,0,0:0:0:0:
192,192,65448,1,0,0:0:0:0:
320,192,65471,1,0,0:0:0:0:
320,192,65637,128,0,65904:0:0:0:0:
448,192,65815,1,0,0:0:0:0:
320,192,65993,128,0,66261:0:0:0:0:
448,192,66172,1,0,0:0:0:0:
64,192,66350,128,0,66798:0:0:0:0:
192,192,66350,1,0,0:0:0:0:
192,192,66700,1,0,0:0:0:0:
320,192,66725,1,0,0:0:0:0:
64,192,66896,128,0,67374:0:0:0:0:
192,192,66896,1,0,0:0:0:0:
192,192,67280,1,0,0:0:0:0:
320,192,67303,1,0,0:0:0:0:
320,192,67469,128,0,67728:0:0:0:0:
448,192,67642,1,0,0:0:0:0:
64,192,67814,1,0,0:0:0:0:
448,192,67894,128,0,68015:0:0:0:0:
320,192,67934,128,0,68055:0:0:0:0:
192,192,67994,128,0,68135:0:0:0:0:
448,192,68135,1,0,0:0:0:0:
320,192,68209,1,0,0:0:0:0:
448,192,68331,1,0,0:0:0:0:
192,192,68405,1,0,0:0:0:0:
64,192,68527,128,0,68994:0:0:0:0:
320,192,68527,1,0,0:0:0:0:
192,192,68901,1,0,0:0:0:0:
320,192,68924,1,0,0:0:0:0:
192,192,69088,1,0,0:0:0:0:
64,192,69088,128,0,69556:0:0:0:0:
192,192,69462,1,0,0:0:0:0:
320,192,69485,1,0,0:0:0:0:
320,192,69649,128,0,69921:0:0:0:0:
448,192,69831,1,0,0:0:0:0:
320,192,70012,128,0,70283:0:0:0:0:
448,192,70193,1,0,0:0:0:0:
192,192,70374,1,0,0:0:0:0:
64,192,70374,128,0,70837:0:0:0:0:
192,192,70739,1,0,0:0:0:0:
320,192,70764,1,0,0:0:0:0:
64,192,70934,128,0,71410:0:0:0:0:
192,192,70934,1,0,0:0:0:0:
192,192,71316,1,0,0:0:0:0:
320,192,71339,1,0,0:0:0:0:
320,192,71504,128,0,71776:0:0:0:0:
448,192,71685,1,0,0:0:0:0:
320,192,71867,128,0,72140:0:0:0:0:
448,192,72049,1,0,0:0:0:0:
192,192,72231,1,0,0:0:0:0:
64,192,72231,128,0,72681:0:0:0:0:
192,192,72581,1,0,0:0:0:0:
320,192,72606,1,0,0:0:0:0:
64,192,72780,128,0,73259:0:0:0:0:
192,192,72780,1,0,0:0:0:0:
192,192,73165,1,0,0:0:0:0:
320,192,73189,1,0,0:0:0:0:
320,192,73352,128,0,73625:0:0:0:0:
448,192,73534,1,0,0:0:0:0:
320,192,73716,128,0,73963:0:0:0:0:
448,192,73881,1,0,0:0:0:0:
192,192,74046,1,0,0:0:0:0:
64,192,74046,128,0,74505:0:0:0:0:
192,192,74404,1,0,0:0:0:0:
320,192,74429,1,0,0:0:0:0:
64,192,74606,128,0,75095:0:0:0:0:
192,192,74606,1,0,0:0:0:0:
192,192,74999,1,0,0:0:0:0:
320,192,75023,1,0,0:0:0:0:
320,192,75190,128,0,75440:0:0:0:0:
448,192,75356,1,0,0:0:0:0:
64,192,75523,1,0,0:0:0:0:
448,192,75611,128,0,75741:0:0:0:0:
320,192,75654,128,0,75785:0:0:0:0:
192,192,75741,128,0,75872:0:0:0:0:
448,192,75872,1,0,0:0:0:0:
320,192,75940,1,0,0:0:0:0:
448,192,76009,1,0,0:0:0:0:
192,192,76077,1,0,0:0:0:0:
64,192,76214,1,0,0:0:0:0:
320,192,76237,1,0,0:0:0:0:
320,192,76595,1,0,0:0:0:0:
64,192,76595,128,0,77121:0:0:0:0:
192,192,76631,128,0,76808:0:0:0:0:
192,192,77021,1,0,0:0:0:0:
448,192,77046,1,0,0:0:0:0:
64,192,77222,128,0,77724:0:0:0:0:
320,192,77222,128,0,77523:0:0:0:0:
192,192,77624,1,0,0:0:0:0:
448,192,77649,1,0,0:0:0:0:
192,192,77825,128,0,78112:0:0:0:0:
320,192,77849,128,0,78112:0:0:0:0:
448,192,78017,1,0,0:0:0:0:
192,192,78208,128,0,78495:0:0:0:0:
320,192,78240,128,0,78399:0:0:0:0:
448,192,78399,1,0,0:0:0:0:
192,192,78590,1,0,0:0:0:0:
64,192,78590,128,0,79066:0:0:0:0:
320,192,78685,128,0,78780:0:0:0:0:
192,192,78971,1,0,0:0:0:0:
320,192,78995,1,0,0:0:0:0:
192,192,79162,1,0,0:0:0:0:
64,192,79162,128,0,79640:0:0:0:0:
192,192,79544,1,0,0:0:0:0:
320,192,79568,1,0,0:0:0:0:
320,192,79735,128,0,80010:0:0:0:0:
448,192,79918,1,0,0:0:0:0:
320,192,80102,128,0,80378:0:0:0:0:
448,192,80286,128,0,80470:0:0:0:0:
320,192,80470,128,0,80745:0:0:0:0:
192,192,80561,1,0,0:0:0:0:
448,192,80653,1,0,0:0:0:0:
64,192,80837,128,0,81327:0:0:0:0:
192,192,80837,128,0,81131:0:0:0:0:
448,192,81229,1,0,0:0:0:0:
192,192,81254,1,0,0:0:0:0:
64,192,81425,128,0,81915:0:0:0:0:
192,192,81425,128,0,81817:0:0:0:0:
448,192,81817,1,0,0:0:0:0:
320,192,81841,1,0,0:0:0:0:
320,192,82012,128,0,82299:0:0:0:0:
64,192,82012,128,0,82299:0:0:0:0:
448,192,82204,1,0,0:0:0:0:
192,192,82395,128,0,82490:0:0:0:0:
64,192,82586,128,0,82681:0:0:0:0:
64,192,82777,128,0,83257:0:0:0:0:
192,192,82777,1,0,0:0:0:0:
192,192,83161,1,0,0:0:0:0:
320,192,83185,1,0,0:0:0:0:
64,192,83353,128,0,83832:0:0:0:0:
192,192,83353,1,0,0:0:0:0:
192,192,83736,1,0,0:0:0:0:
320,192,83760,1,0,0:0:0:0:
320,192,83928,128,0,84202:0:0:0:0:
448,192,84111,1,0,0:0:0:0:
320,192,84294,128,0,84567:0:0:0:0:
448,192,84476,1,0,0:0:0:0:
64,192,84567,128,0,84841:0:0:0:0:
320,192,84659,128,0,84932:0:0:0:0:
448,192,84841,1,0,0:0:0:0:
64,192,85024,128,0,85503:0:0:0:0:
448,192,85024,128,0,85407:0:0:0:0:
192,192,85407,1,0,0:0:0:0:
320,192,85431,1,0,0:0:0:0:
64,192,85598,128,0,86078:0:0:0:0:
192,192,85598,128,0,86364:0:0:0:0:
448,192,85982,1,0,0:0:0:0:
320,192,86006,1,0,0:0:0:0:
320,192,86174,128,0,86460:0:0:0:0:
448,192,86364,1,0,0:0:0:0:
192,192,86555,128,0,86842:0:0:0:0:
448,192,86746,1,0,0:0:0:0:
320,192,86937,128,0,87033:0:0:0:0:
64,192,86937,128,0,87128:0:0:0:0:
320,192,87128,128,0,87512:0:0:0:0:
192,192,87319,1,0,0:0:0:0:
64,192,87319,128,0,87801:0:0:0:0:
192,192,87705,1,0,0:0:0:0:
320,192,87729,1,0,0:0:0:0:
192,192,87897,1,0,0:0:0:0:
64,192,87897,128,0,88380:0:0:0:0:
192,192,88283,1,0,0:0:0:0:
320,192,88307,1,0,0:0:0:0:
320,192,88476,128,0,88761:0:0:0:0:
448,192,88666,1,0,0:0:0:0:
64,192,88761,128,0,88952:0:0:0:0:
320,192,88856,128,0,89142:0:0:0:0:
448,192,89047,1,0,0:0:0:0:
64,192,89238,128,0,89740:0:0:0:0:
448,192,89238,128,0,89640:0:0:0:0:
192,192,89640,1,0,0:0:0:0:
320,192,89665,1,0,0:0:0:0:
320,192,89841,128,0,90244:0:0:0:0:
64,192,89841,128,0,90344:0:0:0:0:
192,192,90244,1,0,0:0:0:0:
448,192,90269,1,0,0:0:0:0:
192,192,90445,128,0,90819:0:0:0:0:
320,192,90445,128,0,90725:0:0:0:0:
448,192,90632,1,0,0:0:0:0:
320,192,90819,128,0,91291:0:0:0:0:
448,192,91007,1,0,0:0:0:0:
64,192,91194,128,0,91679:0:0:0:0:
192,192,91194,128,0,91582:0:0:0:0:
320,192,91582,1,0,0:0:0:0:
448,192,91607,1,0,0:0:0:0:
64,192,91777,128,0,92262:0:0:0:0:
320,192,91777,1,0,0:0:0:0:
192,192,92165,1,0,0:0:0:0:
448,192,92189,1,0,0:0:0:0:
320,192,92359,128,0,92612:0:0:0:0:
448,192,92528,1,0,0:0:0:0:
320,192,92696,128,0,92974:0:0:0:0:
448,192,92881,1,0,0:0:0:0:
320,192,93067,128,0,93372:0:0:0:0:
192,192,93067,128,0,93474:0:0:0:0:
448,192,93271,1,0,0:0:0:0:
64,192,93474,128,0,93921:0:0:0:0:
448,192,93474,128,0,94457:0:0:0:0:
320,192,93563,128,0,94368:0:0:0:0:
192,192,93965,1,0,0:0:0:0:
64,192,94010,128,0,94457:0:0:0:0:
192,192,94368,1,0,0:0:0:0:
448,192,94546,128,0,94786:0:0:0:0:
64,192,94546,1,0,0:0:0:0:
192,192,94706,128,0,95310:0:0:0:0:
448,192,94866,128,0,95133:0:0:0:0:
64,192,94866,1,0,0:0:0:0:
64,192,95044,1,0,0:0:0:0:
64,192,95221,128,0,95487:0:0:0:0:
448,192,95221,1,0,0:0:0:0:
448,192,95399,128,0,95576:0:0:0:0:
192,192,95443,1,0,0:0:0:0:
320,192,95576,1,0,0:0:0:0:
64,192,95576,128,0,96004:0:0:0:0:
320,192,95747,128,0,96605:0:0:0:0:
64,192,96090,128,0,96519:0:0:0:0:
192,192,96090,1,0,0:0:0:0:
192,192,96433,1,0,0:0:0:0:
448,192,96605,128,0,97690:0:0:0:0:
192,192,96605,128,0,96867:0:0:0:0:
320,192,96780,1,0,0:0:0:0:
320,192,96955,128,0,97226:0:0:0:0:
192,192,96955,1,0,0:0:0:0:
192,192,97135,1,0,0:0:0:0:
320,192,97316,128,0,97596:0:0:0:0:
64,192,97316,1,0,0:0:0:0:
64,192,97503,1,0,0:0:0:0:
192,192,97565,1,0,0:0:0:0:
64,192,97690,128,0,98148:0:0:0:0:
320,192,97690,1,0,0:0:0:0:
192,192,98056,1,0,0:0:0:0:
320,192,98079,1,0,0:0:0:0:
64,192,98239,128,0,98698:0:0:0:0:
192,192,98239,1,0,0:0:0:0:
192,192,98606,1,0,0:0:0:0:
320,192,98629,1,0,0:0:0:0:
320,192,98789,128,0,99054:0:0:0:0:
448,192,98966,1,0,0:0:0:0:
320,192,99142,128,0,99428:0:0:0:0:
448,192,99318,1,0,0:0:0:0:
192,192,99494,1,0,0:0:0:0:
64,192,99494,128,0,99962:0:0:0:0:
192,192,99868,1,0,0:0:0:0:
320,192,99892,1,0,0:0:0:0:
192,192,100055,1,0,0:0:0:0:
64,192,100055,128,0,100522:0:0:0:0:
192,192,100429,1,0,0:0:0:0:
320,192,100452,1,0,0:0:0:0:
320,192,100616,128,0,100883:0:0:0:0:
448,192,100794,1,0,0:0:0:0:
320,192,100972,128,0,101238:0:0:0:0:
448,192,101149,1,0,0:0:0:0:
64,192,101327,128,0,101785:0:0:0:0:
192,192,101327,1,0,0:0:0:0:
192,192,101693,1,0,0:0:0:0:
320,192,101716,1,0,0:0:0:0:
192,192,101877,1,0,0:0:0:0:
64,192,101877,128,0,102336:0:0:0:0:
192,192,102244,1,0,0:0:0:0:
320,192,102267,1,0,0:0:0:0:
320,192,102427,128,0,102700:0:0:0:0:
448,192,102609,1,0,0:0:0:0:
320,192,102791,128,0,103064:0:0:0:0:
448,192,102973,1,0,0:0:0:0:
64,192,103155,128,0,103608:0:0:0:0:
192,192,103155,1,0,0:0:0:0:
192,192,103518,1,0,0:0:0:0:
320,192,103540,1,0,0:0:0:0:
192,192,103699,1,0,0:0:0:0:
64,192,103699,128,0,104153:0:0:0:0:
192,192,104062,1,0,0:0:0:0:
320,192,104085,1,0,0:0:0:0:
320,192,104244,128,0,104512:0:0:0:0:
448,192,104422,1,0,0:0:0:0:
64,192,104601,1,0,0:0:0:0:
448,192,104702,128,0,104802:0:0:0:0:
320,192,104752,128,0,104852:0:0:0:0:
192,192,104835,128,0,104935:0:0:0:0:
448,192,104939,1,0,0:0:0:0:
320,192,105002,1,0,0:0:0:0:
448,192,105058,1,0,0:0:0:0:
192,192,105106,1,0,0:0:0:0:
320,192,105178,1,0,0:0:0:0:
192,192,105321,1,0,0:0:0:0:
64,192,105321,1,0,0:0:0:0:
192,192,105718,1,0,0:0:0:0:
64,192,105718,128,0,106199:0:0:0:0:
320,192,105743,128,0,105839:0:0:0:0:
192,192,106103,1,0,0:0:0:0:
448,192,106127,1,0,0:0:0:0:
320,192,106296,128,0,106680:0:0:0:0:
64,192,106296,128,0,106776:0:0:0:0:
192,192,106680,1,0,0:0:0:0:
448,192,106704,1,0,0:0:0:0:
320,192,106872,128,0,107161:0:0:0:0:
192,192,106969,128,0,107353:0:0:0:0:
448,192,107065,1,0,0:0:0:0:
320,192,107257,128,0,107545:0:0:0:0:
448,192,107449,1,0,0:0:0:0:
192,192,107641,128,0,107828:0:0:0:0:
64,192,107641,128,0,108108:0:0:0:0:
192,192,108015,1,0,0:0:0:0:
448,192,108038,1,0,0:0:0:0:
64,192,108201,128,0,108667:0:0:0:0:
192,192,108201,1,0,0:0:0:0:
192,192,108574,1,0,0:0:0:0:
448,192,108597,1,0,0:0:0:0:
320,192,108761,128,0,109040:0:0:0:0:
448,192,108947,1,0,0:0:0:0:
320,192,109133,128,0,109395:0:0:0:0:
448,192,109308,1,0,0:0:0:0:
320,192,109483,128,0,109753:0:0:0:0:
448,192,109663,1,0,0:0:0:0:
64,192,109843,128,0,110314:0:0:0:0:
448,192,109843,128,0,110314:0:0:0:0:
192,192,110244,1,0,0:0:0:0:
320,192,110267,1,0,0:0:0:0:
320,192,110432,128,0,110799:0:0:0:0:
64,192,110432,128,0,110887:0:0:0:0:
192,192,110799,1,0,0:0:0:0:
448,192,110821,1,0,0:0:0:0:
320,192,110976,128,0,111280:0:0:0:0:
448,192,111179,1,0,0:0:0:0:
320,192,111382,128,0,111651:0:0:0:0:
192,192,111561,128,0,111651:0:0:0:0:
192,192,111741,1,0,0:0:0:0:
64,192,111741,128,0,112198:0:0:0:0:
192,192,112106,1,0,0:0:0:0:
320,192,112129,1,0,0:0:0:0:
64,192,112289,128,0,112745:0:0:0:0:
192,192,112289,1,0,0:0:0:0:
192,192,112654,1,0,0:0:0:0:
320,192,112677,1,0,0:0:0:0:
320,192,112836,128,0,113106:0:0:0:0:
448,192,113016,1,0,0:0:0:0:
320,192,113196,128,0,113466:0:0:0:0:
448,192,113376,1,0,0:0:0:0:
192,192,113466,128,0,113735:0:0:0:0:
320,192,113556,128,0,113825:0:0:0:0:
448,192,113735,1,0,0:0:0:0:
320,192,113915,128,0,114476:0:0:0:0:
64,192,113915,128,0,114382:0:0:0:0:
192,192,114289,1,0,0:0:0:0:
448,192,114312,1,0,0:0:0:0:
192,192,114476,128,0,115038:0:0:0:0:
64,192,114476,128,0,114944:0:0:0:0:
320,192,114851,1,0,0:0:0:0:
448,192,114874,1,0,0:0:0:0:
448,192,115038,128,0,115416:0:0:0:0:
64,192,115085,1,0,0:0:0:0:
320,192,115227,1,0,0:0:0:0:
320,192,115416,128,0,115761:0:0:0:0:
448,192,115589,1,0,0:0:0:0:
448,192,115761,1,0,0:0:0:0:
64,192,115761,128,0,115849:0:0:0:0:
320,192,115938,128,0,116116:0:0:0:0:
192,192,116116,1,0,0:0:0:0:
64,192,116116,128,0,116610:0:0:0:0:
320,192,116215,128,0,116314:0:0:0:0:
192,192,116511,1,0,0:0:0:0:
320,192,116536,1,0,0:0:0:0:
64,192,116709,128,0,117202:0:0:0:0:
192,192,116709,1,0,0:0:0:0:
192,192,117104,1,0,0:0:0:0:
320,192,117128,1,0,0:0:0:0:
320,192,117301,128,0,117573:0:0:0:0:
448,192,117482,128,0,117664:0:0:0:0:
192,192,117573,128,0,117846:0:0:0:0:
320,192,117664,128,0,117937:0:0:0:0:
448,192,117846,1,0,0:0:0:0:
192,192,118028,128,0,118129:0:0:0:0:
64,192,118028,128,0,118526:0:0:0:0:
448,192,118129,128,0,118429:0:0:0:0:
192,192,118429,1,0,0:0:0:0:
64,192,118623,128,0,119109:0:0:0:0:
192,192,118623,128,0,118817:0:0:0:0:
192,192,119012,1,0,0:0:0:0:
320,192,119206,128,0,119475:0:0:0:0:
192,192,119206,128,0,119565:0:0:0:0:
448,192,119386,1,0,0:0:0:0:
320,192,119565,128,0,119833:0:0:0:0:
448,192,119744,1,0,0:0:0:0:
192,192,119923,1,0,0:0:0:0:
64,192,119923,128,0,120387:0:0:0:0:
192,192,120292,1,0,0:0:0:0:
320,192,120315,1,0,0:0:0:0:
64,192,120482,128,0,120949:0:0:0:0:
192,192,120482,1,0,0:0:0:0:
192,192,120857,1,0,0:0:0:0:
320,192,120880,1,0,0:0:0:0:
320,192,121042,128,0,121311:0:0:0:0:
448,192,121221,1,0,0:0:0:0:
320,192,121400,128,0,121678:0:0:0:0:
448,192,121586,1,0,0:0:0:0:
320,192,121771,128,0,122048:0:0:0:0:
192,192,121771,128,0,121956:0:0:0:0:
448,192,121956,1,0,0:0:0:0:
64,192,122141,128,0,122559:0:0:0:0:
192,192,122141,128,0,123127:0:0:0:0:
64,192,122640,128,0,123046:0:0:0:0:
320,192,122640,1,0,0:0:0:0:
448,192,122965,1,0,0:0:0:0:
320,192,123127,128,0,123371:0:0:0:0:
64,192,123127,128,0,123941:0:0:0:0:
448,192,123289,1,0,0:0:0:0:
320,192,123452,128,0,123697:0:0:0:0:
192,192,123452,1,0,0:0:0:0:
192,192,123615,1,0,0:0:0:0:
192,192,123778,128,0,124023:0:0:0:0:
448,192,123778,1,0,0:0:0:0:
448,192,123941,1,0,0:0:0:0:
64,192,124104,128,0,124492:0:0:0:0:
320,192,124104,128,0,125036:0:0:0:0:
64,192,124570,128,0,124957:0:0:0:0:
192,192,124570,1,0,0:0:0:0:
192,192,124880,1,0,0:0:0:0:
448,192,125035,128,0,125268:0:0:0:0:
192,192,125035,128,0,125345:0:0:0:0:
64,192,125190,1,0,0:0:0:0:
320,192,125345,128,0,125578:0:0:0:0:
64,192,125345,1,0,0:0:0:0:
192,192,125500,1,0,0:0:0:0:
192,192,125655,1,0,0:0:0:0:
320,192,125655,128,0,125759:0:0:0:0:
448,192,125759,128,0,125914:0:0:0:0:
320,192,125862,128,0,125965:0:0:0:0:
192,192,125965,128,0,126328:0:0:0:0:
64,192,125965,128,0,126618:0:0:0:0:
192,192,126400,128,0,126763:0:0:0:0:
320,192,126400,1,0,0:0:0:0:
64,192,126691,1,0,0:0:0:0:
192,192,126836,128,0,127625:0:0:0:0:
448,192,126836,128,0,127073:0:0:0:0:
320,192,126994,1,0,0:0:0:0:
320,192,127152,128,0,127389:0:0:0:0:
64,192,127152,1,0,0:0:0:0:
64,192,127310,1,0,0:0:0:0:
320,192,127468,128,0,127704:0:0:0:0:
448,192,127468,1,0,0:0:0:0:
192,192,127783,128,0,128137:0:0:0:0:
448,192,127783,128,0,128490:0:0:0:0:
192,192,128207,128,0,128560:0:0:0:0:
320,192,128207,1,0,0:0:0:0:
64,192,128490,1,0,0:0:0:0:
448,192,128631,128,0,128851:0:0:0:0:
64,192,128631,128,0,128924:0:0:0:0:
320,192,128777,1,0,0:0:0:0:
320,192,128924,128,0,129144:0:0:0:0:
192,192,128924,1,0,0:0:0:0:
64,192,129071,1,0,0:0:0:0:
320,192,129218,128,0,129438:0:0:0:0:
448,192,129218,1,0,0:0:0:0:
192,192,129291,128,0,129438:0:0:0:0:
64,192,129511,128,0,129887:0:0:0:0:
448,192,129511,1,0,0:0:0:0:
192,192,129587,128,0,130112:0:0:0:0:
64,192,129962,128,0,130337:0:0:0:0:
320,192,129962,1,0,0:0:0:0:
192,192,130262,1,0,0:0:0:0:
320,192,130412,128,0,130633:0:0:0:0:
448,192,130412,128,0,131002:0:0:0:0:
320,192,130707,128,0,130929:0:0:0:0:
192,192,130707,1,0,0:0:0:0:
192,192,130855,1,0,0:0:0:0:
320,192,131002,128,0,131692:0:0:0:0:
192,192,131002,128,0,131224:0:0:0:0:
448,192,131150,1,0,0:0:0:0:
64,192,131298,128,0,131578:0:0:0:0:
192,192,131298,1,0,0:0:0:0:
192,192,131692,1,0,0:0:0:0:
64,192,131692,128,0,132069:0:0:0:0:
192,192,131999,1,0,0:0:0:0:
320,192,132139,1,0,0:0:0:0:
448,192,132139,128,0,132350:0:0:0:0:
320,192,132421,128,0,132585:0:0:0:0:
64,192,132421,1,0,0:0:0:0:
192,192,132585,1,0,0:0:0:0:
320,192,132667,1,0,0:0:0:0:
448,192,132749,128,0,132902:0:0:0:0:
192,192,132826,1,0,0:0:0:0:
448,192,133055,128,0,133238:0:0:0:0:
64,192,133055,128,0,133238:0:0:0:0:
192,192,133698,1,0,0:0:0:0:
320,192,133789,128,0,133973:0:0:0:0:
192,192,134157,128,0,134355:0:0:0:0:
64,192,134157,128,0,134554:0:0:0:0:
64,192,134851,1,0,0:0:0:0:
192,192,134951,128,0,135150:0:0:0:0:
320,192,135349,128,0,136033:0:0:0:0:
192,192,135679,1,0,0:0:0:0:
448,192,136033,128,0,136222:0:0:0:0:
192,192,136222,128,0,136411:0:0:0:0:
64,192,136411,128,0,138048:0:0:0:0:
320,192,136501,128,0,137257:0:0:0:0:
192,192,137257,1,0,0:0:0:0:
192,192,137909,128,0,138047:0:0:0:0:
448,192,138001,1,0,0:0:0:0:
320,192,138047,1,0,0:0:0:0:
192,192,138110,128,0,138725:0:0:0:0:
320,192,138553,128,0,138725:0:0:0:0:
448,192,138725,128,0,138897:0:0:0:0:
448,192,139069,128,0,139234:0:0:0:0:
320,192,139399,128,0,139563:0:0:0:0:
192,192,139728,128,0,139965:0:0:0:0:
64,192,140054,128,0,140172:0:0:0:0:
192,192,140172,1,0,0:0:0:0:
320,192,140202,128,0,140837:0:0:0:0:
192,192,140637,128,0,140837:0:0:0:0:
448,192,140837,128,0,140997:0:0:0:0:
448,192,141157,128,0,141310:0:0:0:0:
320,192,141463,128,0,141563:0:0:0:0:
192,192,141563,1,0,0:0:0:0:
64,192,141863,128,0,142217:0:0:0:0:
320,192,142217,128,0,142562:0:0:0:0:
192,192,142217,128,0,142907:0:0:0:0:
448,192,142735,128,0,142907:0:0:0:0:
64,192,142907,1,0,0:0:0:0:
192,192,143253,128,0,143424:0:0:0:0:
64,192,143594,128,0,143764:0:0:0:0:
320,192,143934,128,0,144104:0:0:0:0:
192,192,144274,128,0,144448:0:0:0:0:
64,192,144274,128,0,144970:0:0:0:0:
320,192,144622,128,0,144796:0:0:0:0:
448,192,144970,128,0,145144:0:0:0:0:
448,192,145318,128,0,145485:0:0:0:0:
320,192,145652,128,0,145842:0:0:0:0:
64,192,146032,128,0,146262:0:0:0:0:
192,192,146378,128,0,146493:0:0:0:0:
448,192,146464,1,0,0:0:0:0:
320,192,146514,128,0,147157:0:0:0:0:
192,192,146991,128,0,147157:0:0:0:0:
448,192,147157,128,0,147322:0:0:0:0:
448,192,147488,128,0,147659:0:0:0:0:
320,192,147829,128,0,148004:0:0:0:0:
192,192,148180,128,0,148380:0:0:0:0:
64,192,148479,128,0,148579:0:0:0:0:
192,192,148579,1,0,0:0:0:0:
320,192,148607,128,0,149270:0:0:0:0:
192,192,149097,128,0,149270:0:0:0:0:
448,192,149270,128,0,149443:0:0:0:0:
448,192,149616,128,0,149772:0:0:0:0:
320,192,149927,128,0,150128:0:0:0:0:
192,192,150027,128,0,150128:0:0:0:0:
448,192,150128,1,0,0:0:0:0:
192,192,150330,128,0,150722:0:0:0:0:
64,192,150722,128,0,151408:0:0:0:0:
320,192,150722,128,0,151065:0:0:0:0:
448,192,151237,128,0,151408:0:0:0:0:
192,192,151408,128,0,151579:0:0:0:0:
320,192,151750,128,0,151937:0:0:0:0:
64,192,152123,128,0,152322:0:0:0:0:
192,192,152520,128,0,152735:0:0:0:0:
192,192,152950,128,0,158637:0:0:0:0:
64,192,152950,128,0,153160:0:0:0:0:
320,192,153370,128,0,153591:0:0:0:0:
448,192,153812,128,0,154028:0:0:0:0:
448,192,154243,128,0,154520:0:0:0:0:
320,192,154798,128,0,155455:0:0:0:0:
64,192,156112,128,0,158831:0:0:0:0:
192,192,159220,128,0,159614:0:0:0:0:
64,192,159483,1,0,0:0:0:0:
192,192,159746,1,0,0:0:0:0:
320,192,160009,1,0,0:0:0:0:
448,192,160272,128,0,160407:0:0:0:0:
64,192,160273,128,0,160677:0:0:0:0:
320,192,160542,1,0,0:0:0:0:
192,192,160812,1,0,0:0:0:0:
64,192,161082,1,0,0:0:0:0:
192,192,161352,128,0,161744:0:0:0:0:
64,192,161613,1,0,0:0:0:0:
192,192,161875,1,0,0:0:0:0:
320,192,162136,1,0,0:0:0:0:
64,192,162398,128,0,162782:0:0:0:0:
448,192,162398,128,0,162526:0:0:0:0:
320,192,162654,1,0,0:0:0:0:
192,192,162911,1,0,0:0:0:0:
64,192,163167,1,0,0:0:0:0:
192,192,163423,128,0,163850:0:0:0:0:
64,192,163707,1,0,0:0:0:0:
320,192,163993,1,0,0:0:0:0:
192,192,164277,1,0,0:0:0:0:
64,192,164562,128,0,164962:0:0:0:0:
448,192,164563,128,0,164696:0:0:0:0:
192,192,164829,1,0,0:0:0:0:
320,192,165095,1,0,0:0:0:0:
64,192,165361,1,0,0:0:0:0:
192,192,165628,128,0,166108:0:0:0:0:
64,192,165948,1,0,0:0:0:0:
320,192,166268,128,0,166611:0:0:0:0:
192,192,166611,128,0,167099:0:0:0:0:
448,192,167100,128,0,167746:0:0:0:0:
192,192,168069,128,0,168734:0:0:0:0:
192,192,168956,128,0,169430:0:0:0:0:
448,192,168956,128,0,169588:0:0:0:0:
320,192,169272,1,0,0:0:0:0:
64,192,169588,1,0,0:0:0:0:
320,192,169869,128,0,170009:0:0:0:0:
320,192,170056,1,0,0:0:0:0:
64,192,170150,128,0,170562:0:0:0:0:
192,192,170150,128,0,170699:0:0:0:0:
448,192,170425,1,0,0:0:0:0:
320,192,170699,1,0,0:0:0:0:
64,192,170986,128,0,171129:0:0:0:0:
320,192,171272,128,0,171868:0:0:0:0:
192,192,171272,128,0,171719:0:0:0:0:
448,192,171570,1,0,0:0:0:0:
64,192,171868,1,0,0:0:0:0:
320,192,172143,1,0,0:0:0:0:
64,192,172418,128,0,172836:0:0:0:0:
448,192,172418,128,0,172558:0:0:0:0:
192,192,172697,1,0,0:0:0:0:
320,192,172975,1,0,0:0:0:0:
64,192,173264,1,0,0:0:0:0:
320,192,173554,128,0,174383:0:0:0:0:
192,192,173554,128,0,173969:0:0:0:0:
64,192,173831,1,0,0:0:0:0:
448,192,174107,1,0,0:0:0:0:
64,192,174314,1,0,0:0:0:0:
192,192,174383,128,0,174521:0:0:0:0:
192,192,174659,128,0,175492:0:0:0:0:
64,192,174659,128,0,175076:0:0:0:0:
448,192,174937,1,0,0:0:0:0:
64,192,175214,1,0,0:0:0:0:
320,192,175492,128,0,175630:0:0:0:0:
192,192,175769,128,0,176228:0:0:0:0:
64,192,175769,128,0,176381:0:0:0:0:
320,192,176075,1,0,0:0:0:0:
448,192,176381,1,0,0:0:0:0:
192,192,176642,1,0,0:0:0:0:
64,192,176902,128,0,177311:0:0:0:0:
448,192,176902,128,0,177038:0:0:0:0:
320,192,177175,1,0,0:0:0:0:
192,192,177448,1,0,0:0:0:0:
64,192,177732,1,0,0:0:0:0:
192,192,178017,128,0,178426:0:0:0:0:
448,192,178017,128,0,178835:0:0:0:0:
64,192,178289,1,0,0:0:0:0:
320,192,178562,1,0,0:0:0:0:
320,192,178835,128,0,178971:0:0:0:0:
64,192,179107,128,0,179648:0:0:0:0:
192,192,179107,128,0,179513:0:0:0:0:
448,192,179378,1,0,0:0:0:0:
320,192,179648,1,0,0:0:0:0:
192,192,179918,128,0,180188:0:0:0:0:
320,192,180188,128,0,180892:0:0:0:0:
64,192,180188,128,0,180610:0:0:0:0:
448,192,180469,1,0,0:0:0:0:
192,192,180751,1,0,0:0:0:0:
320,192,181033,1,0,0:0:0:0:
448,192,181315,128,0,181455:0:0:0:0:
64,192,181315,128,0,181735:0:0:0:0:
320,192,181595,1,0,0:0:0:0:
192,192,181874,1,0,0:0:0:0:
64,192,182154,128,0,182433:0:0:0:0:
448,192,182433,128,0,183239:0:0:0:0:
192,192,182433,128,0,182839:0:0:0:0:
320,192,182704,1,0,0:0:0:0:
64,192,182974,1,0,0:0:0:0:
192,192,183239,128,0,183371:0:0:0:0:
64,192,183503,128,0,183892:0:0:0:0:
320,192,183503,128,0,184288:0:0:0:0:
448,192,183762,1,0,0:0:0:0:
192,192,184022,1,0,0:0:0:0:
192,192,184200,1,0,0:0:0:0:
64,192,184288,128,0,184554:0:0:0:0:
192,192,184554,128,0,185376:0:0:0:0:
320,192,184554,128,0,184965:0:0:0:0:
64,192,184828,1,0,0:0:0:0:
320,192,185102,1,0,0:0:0:0:
448,192,185376,1,0,0:0:0:0:
64,192,185650,128,0,186074:0:0:0:0:
320,192,185650,128,0,185792:0:0:0:0:
192,192,185933,1,0,0:0:0:0:
448,192,186215,1,0,0:0:0:0:
64,192,186524,1,0,0:0:0:0:
192,192,186918,128,0,187327:0:0:0:0:
448,192,186918,128,0,187463:0:0:0:0:
320,192,187190,1,0,0:0:0:0:
64,192,187463,1,0,0:0:0:0:
320,192,187736,128,0,187873:0:0:0:0:
64,192,188009,128,0,188418:0:0:0:0:
192,192,188009,128,0,188554:0:0:0:0:
448,192,188282,1,0,0:0:0:0:
320,192,188554,1,0,0:0:0:0:
64,192,188826,128,0,189099:0:0:0:0:
192,192,189098,128,0,189488:0:0:0:0:
320,192,189098,128,0,189877:0:0:0:0:
448,192,189358,1,0,0:0:0:0:
64,192,189617,1,0,0:0:0:0:
192,192,189877,1,0,0:0:0:0:
448,192,190136,128,0,190264:0:0:0:0:
64,192,190136,128,0,190518:0:0:0:0:
320,192,190391,1,0,0:0:0:0:
192,192,190645,1,0,0:0:0:0:
64,192,190945,1,0,0:0:0:0:
192,192,191246,128,0,191647:0:0:0:0:
448,192,191246,128,0,192315:0:0:0:0:
64,192,191513,1,0,0:0:0:0:
320,192,191780,1,0,0:0:0:0:
320,192,192048,128,0,192182:0:0:0:0:
192,192,192315,128,0,193102:0:0:0:0:
64,192,192315,128,0,192691:0:0:0:0:
448,192,192565,1,0,0:0:0:0:
64,192,192816,1,0,0:0:0:0:
320,192,193102,128,0,193245:0:0:0:0:
192,192,193388,128,0,193782:0:0:0:0:
64,192,193388,128,0,194045:0:0:0:0:
320,192,193651,1,0,0:0:0:0:
448,192,193913,1,0,0:0:0:0:
64,192,194176,1,0,0:0:0:0:
448,192,194438,128,0,194584:0:0:0:0:
64,192,194438,128,0,194876:0:0:0:0:
320,192,194730,1,0,0:0:0:0:
192,192,195022,1,0,0:0:0:0:
320,192,195262,128,0,195383:0:0:0:0:
64,192,195383,128,0,195744:0:0:0:0:
320,192,195744,128,0,195932:0:0:0:0:
192,192,195744,128,0,196168:0:0:0:0:
448,192,195932,128,0,196582:0:0:0:0:
64,192,196027,1,0,0:0:0:0:
192,192,196310,1,0,0:0:0:0:
320,192,196582,128,0,196718:0:0:0:0:
64,192,196853,128,0,197250:0:0:0:0:
192,192,196853,128,0,197515:0:0:0:0:
448,192,197117,1,0,0:0:0:0:
320,192,197382,1,0,0:0:0:0:
64,192,197647,128,0,197780:0:0:0:0:
192,192,197912,128,0,198298:0:0:0:0:
320,192,197912,128,0,198685:0:0:0:0:
448,192,198169,1,0,0:0:0:0:
192,192,198427,1,0,0:0:0:0:
64,192,198685,1,0,0:0:0:0:
64,192,198943,128,0,199352:0:0:0:0:
448,192,198943,128,0,199079:0:0:0:0:
320,192,199215,1,0,0:0:0:0:
192,192,199488,1,0,0:0:0:0:
64,192,199761,1,0,0:0:0:0:
192,192,200034,128,0,200440:0:0:0:0:
448,192,200034,128,0,200576:0:0:0:0:
320,192,200305,128,0,200576:0:0:0:0:
64,192,200576,128,0,200711:0:0:0:0:
320,192,200847,128,0,200982:0:0:0:0:
64,192,201118,128,0,201527:0:0:0:0:
320,192,201118,128,0,201935:0:0:0:0:
448,192,201391,1,0,0:0:0:0:
192,192,201663,1,0,0:0:0:0:
64,192,201935,128,0,202207:0:0:0:0:
192,192,202207,128,0,202648:0:0:0:0:
320,192,202207,128,0,202957:0:0:0:0:
64,192,202501,1,0,0:0:0:0:
192,192,202795,128,0,205084:0:0:0:0:
320,192,203118,1,0,0:0:0:0:
448,192,203476,128,0,203883:0:0:0:0:
320,192,204289,128,0,205084:0:0:0:0:
64,192,205084,128,0,205884:0:0:0:0:
192,192,205350,128,0,205617:0:0:0:0:
320,192,205617,128,0,206151:0:0:0:0:
64,192,206151,128,0,206784:0:0:0:0:
192,192,206404,128,0,206657:0:0:0:0:
320,192,206657,128,0,206911:0:0:0:0:
448,192,206784,1,0,0:0:0:0:
192,192,206911,128,0,207164:0:0:0:0:
320,192,207164,128,0,207933:0:0:0:0:
448,192,207420,128,0,207676:0:0:0:0:
64,192,207676,128,0,208189:0:0:0:0:
320,192,208189,128,0,208971:0:0:0:0:
448,192,208462,128,0,208734:0:0:0:0:
64,192,208734,128,0,208971:0:0:0:0:
192,192,208971,128,0,209208:0:0:0:0:
448,192,209208,128,0,209960:0:0:0:0:
320,192,209458,128,0,209709:0:0:0:0:
192,192,209709,128,0,210211:0:0:0:0:
448,192,210211,128,0,210981:0:0:0:0:
64,192,210467,128,0,210724:0:0:0:0:
320,192,210724,1,0,0:0:0:0:
64,192,210981,128,0,211238:0:0:0:0:
320,192,211238,128,0,212081:0:0:0:0:
192,192,211519,128,0,211800:0:0:0:0:
448,192,211800,128,0,212362:0:0:0:0:
320,192,212362,128,0,213326:0:0:0:0:
192,192,212705,128,0,213047:0:0:0:0:
64,192,213047,128,0,213438:0:0:0:0:
192,192,213326,1,0,0:0:0:0:
448,192,213438,128,0,213717:0:0:0:0:
64,192,213717,128,0,214550:0:0:0:0:
448,192,214003,128,0,214182:0:0:0:0:
192,192,214290,128,0,214550:0:0:0:0:
320,192,214550,128,0,214810:0:0:0:0:
192,192,214811,128,0,215072:0:0:0:0:
64,192,215072,128,0,215853:0:0:0:0:
448,192,215072,128,0,215202:0:0:0:0:
192,192,215332,128,0,215593:0:0:0:0:
320,192,215593,128,0,215853:0:0:0:0:
192,192,215853,128,0,215984:0:0:0:0:
448,192,215853,128,0,215984:0:0:0:0:
320,192,216114,128,0,216846:0:0:0:0:
192,192,216114,128,0,216358:0:0:0:0:
64,192,216358,128,0,216602:0:0:0:0:
192,192,216602,128,0,216846:0:0:0:0:
448,192,216846,128,0,217090:0:0:0:0:
320,192,217090,128,0,217835:0:0:0:0:
192,192,217090,128,0,217339:0:0:0:0:
64,192,217339,128,0,217587:0:0:0:0:
192,192,217587,128,0,217835:0:0:0:0:
448,192,217835,128,0,217959:0:0:0:0:
448,192,218083,128,0,218836:0:0:0:0:
320,192,218083,128,0,218209:0:0:0:0:
64,192,218334,128,0,218585:0:0:0:0:
192,192,218585,128,0,218836:0:0:0:0:
320,192,218836,128,0,218962:0:0:0:0:
448,192,219087,128,0,219837:0:0:0:0:
320,192,219087,128,0,219337:0:0:0:0:
64,192,219337,128,0,219587:0:0:0:0:
192,192,219587,128,0,219837:0:0:0:0:
64,192,219837,128,0,219962:0:0:0:0:
320,192,220087,128,0,220974:0:0:0:0:
64,192,220087,128,0,220226:0:0:0:0:
192,192,220366,128,0,220645:0:0:0:0:
64,192,220645,128,0,220974:0:0:0:0:
448,192,220974,128,0,221302:0:0:0:0:
64,192,221302,128,0,221467:0:0:0:0:
320,192,221302,1,0,0:0:0:0:
192,192,221467,1,0,0:0:0:0:
192,192,221633,128,0,221798:0:0:0:0:
320,192,221798,1,0,0:0:0:0:
320,192,221964,128,0,222164:0:0:0:0:
448,192,222164,1,0,0:0:0:0:
448,192,222364,128,0,222765:0:0:0:0:
320,192,222765,128,0,223052:0:0:0:0:
64,192,222765,128,0,222909:0:0:0:0:
192,192,222909,128,0,223195:0:0:0:0:
64,192,223052,128,0,223195:0:0:0:0:
320,192,223195,128,0,223338:0:0:0:0:
64,192,223338,128,0,223464:0:0:0:0:
192,192,223464,128,0,223590:0:0:0:0:
320,192,223590,128,0,223716:0:0:0:0:
64,192,223716,128,0,223842:0:0:0:0:
320,192,223842,128,0,224087:0:0:0:0:
448,192,223842,128,0,223964:0:0:0:0:
192,192,223964,128,0,224210:0:0:0:0:
64,192,224087,128,0,224210:0:0:0:0:
320,192,224210,128,0,224332:0:0:0:0:
64,192,224332,128,0,224461:0:0:0:0:
192,192,224461,128,0,224590:0:0:0:0:
448,192,224590,128,0,224718:0:0:0:0:
320,192,224590,128,0,224675:0:0:0:0:
448,192,224847,128,0,225069:0:0:0:0:
320,192,224847,128,0,224958:0:0:0:0:
192,192,224958,128,0,225180:0:0:0:0:
64,192,225069,128,0,225180:0:0:0:0:
448,192,225291,128,0,225425:0:0:0:0:
64,192,225425,128,0,225828:0:0:0:0:
192,192,225559,128,0,225761:0:0:0:0:
192,192,225828,128,0,226078:0:0:0:0:
320,192,225828,128,0,225953:0:0:0:0:
448,192,225953,128,0,226203:0:0:0:0:
64,192,226078,128,0,226203:0:0:0:0:
192,192,226203,128,0,226328:0:0:0:0:
448,192,226328,128,0,226452:0:0:0:0:
192,192,226452,128,0,226577:0:0:0:0:
320,192,226577,128,0,226827:0:0:0:0:
448,192,226661,128,0,226908:0:0:0:0:
192,192,226827,128,0,227070:0:0:0:0:
64,192,226827,128,0,226949:0:0:0:0:
320,192,226949,128,0,227191:0:0:0:0:
64,192,227070,128,0,227313:0:0:0:0:
192,192,227313,128,0,227555:0:0:0:0:
320,192,227555,128,0,227677:0:0:0:0:
64,192,227555,1,0,0:0:0:0:
448,192,227798,128,0,227929:0:0:0:0:
320,192,227798,128,0,228061:0:0:0:0:
192,192,227929,128,0,228193:0:0:0:0:
448,192,228061,128,0,228193:0:0:0:0:
320,192,228193,128,0,228324:0:0:0:0:
192,192,228324,128,0,228456:0:0:0:0:
320,192,228456,128,0,228588:0:0:0:0:
192,192,228588,128,0,228851:0:0:0:0:
448,192,228621,1,0,0:0:0:0:
64,192,228720,128,0,228977:0:0:0:0:
320,192,228851,128,0,229103:0:0:0:0:
448,192,228851,128,0,228977:0:0:0:0:
192,192,228977,128,0,229103:0:0:0:0:
64,192,229103,128,0,229354:0:0:0:0:
192,192,229354,128,0,229605:0:0:0:0:
320,192,229605,128,0,229856:0:0:0:0:
64,192,229856,128,0,229992:0:0:0:0:
448,192,229856,1,0,0:0:0:0:
192,192,229992,1,0,0:0:0:0:
192,192,230129,128,0,230265:0:0:0:0:
320,192,230265,1,0,0:0:0:0:
320,192,230402,128,0,230570:0:0:0:0:
448,192,230570,1,0,0:0:0:0:
448,192,230737,128,0,231072:0:0:0:0:
192,192,231072,128,0,231353:0:0:0:0:
320,192,231072,128,0,231212:0:0:0:0:
448,192,231212,128,0,231494:0:0:0:0:
320,192,231353,128,0,231494:0:0:0:0:
192,192,231494,128,0,231635:0:0:0:0:
448,192,231635,128,0,231753:0:0:0:0:
192,192,231753,128,0,231871:0:0:0:0:
320,192,231871,128,0,231988:0:0:0:0:
448,192,231988,128,0,232106:0:0:0:0:
192,192,232106,128,0,232355:0:0:0:0:
64,192,232106,128,0,232230:0:0:0:0:
448,192,232230,128,0,232480:0:0:0:0:
320,192,232355,128,0,232480:0:0:0:0:
192,192,232480,128,0,232605:0:0:0:0:
448,192,232605,128,0,232736:0:0:0:0:
192,192,232736,128,0,232867:0:0:0:0:
320,192,232867,128,0,232998:0:0:0:0:
64,192,232867,128,0,233129:0:0:0:0:
192,192,233129,128,0,233376:0:0:0:0:
320,192,233129,128,0,233252:0:0:0:0:
64,192,233252,128,0,233500:0:0:0:0:
448,192,233376,128,0,233623:0:0:0:0:
192,192,233623,128,0,233871:0:0:0:0:
320,192,233871,128,0,233995:0:0:0:0:
320,192,234118,128,0,234360:0:0:0:0:
64,192,234118,128,0,234239:0:0:0:0:
192,192,234239,128,0,234481:0:0:0:0:
64,192,234360,128,0,234481:0:0:0:0:
320,192,234481,128,0,234602:0:0:0:0:
192,192,234602,128,0,234728:0:0:0:0:
448,192,234728,128,0,234855:0:0:0:0:
320,192,234855,128,0,235108:0:0:0:0:
448,192,234939,128,0,235193:0:0:0:0:
64,192,235108,128,0,235362:0:0:0:0:
192,192,235108,128,0,235235:0:0:0:0:
320,192,235235,128,0,235489:0:0:0:0:
192,192,235362,128,0,235616:0:0:0:0:
320,192,235616,128,0,235870:0:0:0:0:
448,192,235870,128,0,236124:0:0:0:0:
192,192,236124,128,0,236382:0:0:0:0:
320,192,236124,128,0,236253:0:0:0:0:
64,192,236253,128,0,236511:0:0:0:0:
320,192,236382,128,0,236511:0:0:0:0:
192,192,236511,128,0,236640:0:0:0:0:
64,192,236640,128,0,236769:0:0:0:0:
320,192,236769,128,0,236898:0:0:0:0:
192,192,236898,128,0,237187:0:0:0:0:
448,192,236930,1,0,0:0:0:0:
448,192,237156,128,0,237280:0:0:0:0:
64,192,237156,128,0,237404:0:0:0:0:
192,192,237404,128,0,237651:0:0:0:0:
320,192,237651,128,0,237898:0:0:0:0:
448,192,237898,128,0,238145:0:0:0:0:
192,192,238145,128,0,238394:0:0:0:0:
320,192,238145,128,0,238270:0:0:0:0:
64,192,238270,128,0,238518:0:0:0:0:
320,192,238394,128,0,238518:0:0:0:0:
192,192,238518,128,0,238642:0:0:0:0:
64,192,238642,128,0,238766:0:0:0:0:
320,192,238766,128,0,238890:0:0:0:0:
192,192,238890,128,0,239138:0:0:0:0:
64,192,238931,1,0,0:0:0:0:
320,192,239014,128,0,239138:0:0:0:0:
448,192,239138,128,0,239388:0:0:0:0:
64,192,239138,128,0,239263:0:0:0:0:
192,192,239263,128,0,239512:0:0:0:0:
320,192,239388,128,0,239637:0:0:0:0:
192,192,239637,128,0,239886:0:0:0:0:
448,192,239886,128,0,240135:0:0:0:0:
64,192,240135,128,0,240382:0:0:0:0:
320,192,240135,128,0,240259:0:0:0:0:
192,192,240259,128,0,240505:0:0:0:0:
320,192,240382,128,0,240505:0:0:0:0:
64,192,240505,128,0,240628:0:0:0:0:
192,192,240628,128,0,240752:0:0:0:0:
320,192,240752,128,0,240875:0:0:0:0:
448,192,240875,1,0,0:0:0:0:
64,192,240875,128,0,241121:0:0:0:0:
192,192,240998,128,0,241121:0:0:0:0:
448,192,241121,128,0,241364:0:0:0:0:
320,192,241121,128,0,241243:0:0:0:0:
64,192,241243,128,0,241485:0:0:0:0:
320,192,241364,128,0,241607:0:0:0:0:
192,192,241607,128,0,241849:0:0:0:0:
448,192,241849,128,0,241971:0:0:0:0:
192,192,242092,128,0,242351:0:0:0:0:
448,192,242092,128,0,242221:0:0:0:0:
320,192,242221,128,0,242480:0:0:0:0:
64,192,242351,128,0,242480:0:0:0:0:
192,192,242480,128,0,242610:0:0:0:0:
320,192,242610,128,0,242739:0:0:0:0:
64,192,242739,128,0,242869:0:0:0:0:
192,192,242869,128,0,243128:0:0:0:0:
448,192,242912,128,0,243128:0:0:0:0:
64,192,243128,1,0,0:0:0:0:
320,192,243128,128,0,243373:0:0:0:0:
192,192,243250,128,0,243496:0:0:0:0:
64,192,243373,128,0,243496:0:0:0:0:
320,192,243496,128,0,243619:0:0:0:0:
192,192,243619,128,0,243741:0:0:0:0:
448,192,243741,128,0,243864:0:0:0:0:
320,192,243864,128,0,243987:0:0:0:0:
448,192,243987,128,0,244110:0:0:0:0:
192,192,244110,1,0,0:0:0:0:
64,192,244110,128,0,244422:0:0:0:0:
320,192,244266,128,0,244578:0:0:0:0:
192,192,244422,128,0,244578:0:0:0:0:
448,192,244578,128,0,244734:0:0:0:0:
64,192,244734,128,0,244919:0:0:0:0:
320,192,244919,128,0,245058:0:0:0:0:
64,192,245105,128,0,245383:0:0:0:0:
192,192,245290,128,0,245476:0:0:0:0:
64,192,245476,128,0,245703:0:0:0:0:
448,192,245476,128,0,245703:0:0:0:0:
448,192,246835,128,0,247017:0:0:0:0:
64,192,246858,128,0,247017:0:0:0:0:
448,192,248285,128,0,248442:0:0:0:0:
320,192,248285,128,0,248442:0:0:0:0:
64,192,249535,128,0,249685:0:0:0:0:
320,192,249685,128,0,249836:0:0:0:0:
448,192,249836,128,0,251155:0:0:0:0:
64,192,251155,1,0,0:0:0:0:
448,192,251343,128,0,251533:0:0:0:0:
64,192,251367,128,0,251533:0:0:0:0:
64,192,252856,128,0,253046:0:0:0:0:
448,192,252856,128,0,253046:0:0:0:0:
448,192,254377,128,0,254501:0:0:0:0:
320,192,254377,128,0,254501:0:0:0:0:
192,192,254501,1,0,0:0:0:0:
64,192,258345,128,0,259274:0:0:0:0:
320,192,258611,1,0,0:0:0:0:
192,192,258876,1,0,0:0:0:0:
320,192,259141,1,0,0:0:0:0:
64,192,259407,128,0,260327:0:0:0:0:
320,192,259669,1,0,0:0:0:0:
192,192,259932,1,0,0:0:0:0:
320,192,260195,1,0,0:0:0:0:
64,192,260458,128,0,261332:0:0:0:0:
320,192,260707,1,0,0:0:0:0:
192,192,260957,1,0,0:0:0:0:
320,192,261207,1,0,0:0:0:0:
64,192,261457,128,0,262356:0:0:0:0:
320,192,261714,1,0,0:0:0:0:
192,192,261971,1,0,0:0:0:0:
320,192,262227,1,0,0:0:0:0:
64,192,262484,128,0,263372:0:0:0:0:
320,192,262737,1,0,0:0:0:0:
192,192,262991,1,0,0:0:0:0:
320,192,263245,1,0,0:0:0:0:
64,192,263499,128,0,264485:0:0:0:0:
320,192,263781,1,0,0:0:0:0:
192,192,264062,1,0,0:0:0:0:
320,192,264344,1,0,0:0:0:0:
64,192,264625,128,0,265988:0:0:0:0:
320,192,264944,128,0,265338:0:0:0:0:
192,192,265338,128,0,265746:0:0:0:0:
320,192,265746,128,0,266109:0:0:0:0:
64,192,266271,128,0,267292:0:0:0:0:
192,192,266368,128,0,267146:0:0:0:0:
320,192,266562,1,0,0:0:0:0:
448,192,266854,1,0,0:0:0:0:
320,192,267146,128,0,267437:0:0:0:0:
64,192,267437,128,0,268350:0:0:0:0:
320,192,267503,128,0,268220:0:0:0:0:
448,192,267698,1,0,0:0:0:0:
192,192,267959,1,0,0:0:0:0:
448,192,268220,128,0,268480:0:0:0:0:
64,192,268480,128,0,269380:0:0:0:0:
320,192,268737,1,0,0:0:0:0:
192,192,268994,1,0,0:0:0:0:
320,192,269252,1,0,0:0:0:0:
64,192,269509,128,0,270415:0:0:0:0:
448,192,269509,128,0,269768:0:0:0:0:
320,192,269768,128,0,270545:0:0:0:0:
192,192,270027,1,0,0:0:0:0:
448,192,270286,1,0,0:0:0:0:
64,192,270545,128,0,271480:0:0:0:0:
192,192,270812,128,0,272017:0:0:0:0:
320,192,271079,1,0,0:0:0:0:
448,192,271347,1,0,0:0:0:0:
64,192,271614,128,0,272554:0:0:0:0:
320,192,271882,1,0,0:0:0:0:
192,192,272151,1,0,0:0:0:0:
320,192,272420,1,0,0:0:0:0:
64,192,272688,128,0,273633:0:0:0:0:
192,192,272949,1,0,0:0:0:0:
320,192,273209,1,0,0:0:0:0:
192,192,273492,1,0,0:0:0:0:
64,192,273775,128,0,275049:0:0:0:0:
448,192,273934,128,0,274409:0:0:0:0:
192,192,274092,1,0,0:0:0:0:
320,192,274409,1,0,0:0:0:0:
192,192,274836,128,0,275263:0:0:0:0:
64,192,275263,128,0,276192:0:0:0:0:
320,192,275548,1,0,0:0:0:0:
192,192,275834,1,0,0:0:0:0:
320,192,276073,1,0,0:0:0:0:
64,192,276312,128,0,277218:0:0:0:0:
192,192,276398,128,0,277089:0:0:0:0:
320,192,276571,1,0,0:0:0:0:
448,192,276830,1,0,0:0:0:0:
320,192,277089,128,0,277348:0:0:0:0:
64,192,277348,128,0,278259:0:0:0:0:
448,192,277348,128,0,278125:0:0:0:0:
192,192,277604,1,0,0:0:0:0:
320,192,277859,1,0,0:0:0:0:
192,192,278125,128,0,278325:0:0:0:0:
64,192,278392,128,0,279278:0:0:0:0:
320,192,278392,128,0,278647:0:0:0:0:
448,192,278647,1,0,0:0:0:0:
192,192,278903,1,0,0:0:0:0:
448,192,279153,128,0,279278:0:0:0:0:
64,192,279403,128,0,280327:0:0:0:0:
448,192,279403,128,0,280200:0:0:0:0:
192,192,279674,1,0,0:0:0:0:
320,192,279946,1,0,0:0:0:0:
320,192,280200,128,0,280454:0:0:0:0:
64,192,280454,128,0,281601:0:0:0:0:
192,192,280552,128,0,280747:0:0:0:0:
448,192,280747,1,0,0:0:0:0:
320,192,281040,1,0,0:0:0:0:
192,192,281362,128,0,281776:0:0:0:0:
64,192,281776,128,0,282123:0:0:0:0:
448,192,281776,128,0,282123:0:0:0:0:
320,192,282811,128,0,283164:0:0:0:0:
448,192,283164,128,0,283594:0:0:0:0:
64,192,283164,128,0,283594:0:0:0:0:
192,192,283486,128,0,283809:0:0:0:0:
192,192,284455,128,0,284885:0:0:0:0:
448,192,284885,128,0,285371:0:0:0:0:
64,192,284885,128,0,285371:0:0:0:0:
320,192,285128,128,0,285492:0:0:0:0:
320,192,286343,128,0,286829:0:0:0:0:
192,192,286707,128,0,288074:0:0:0:0:
448,192,286829,128,0,288697:0:0:0:0:
64,192,286829,128,0,288697:0:0:0:0:
64,192,290564,128,0,291186:0:0:0:0:
64,192,291809,128,0,292732:0:0:0:0:
192,192,292073,128,0,292600:0:0:0:0:
448,192,292337,1,0,0:0:0:0:
320,192,292600,128,0,292864:0:0:0:0:
64,192,292864,128,0,293793:0:0:0:0:
320,192,292930,128,0,293129:0:0:0:0:
448,192,293129,1,0,0:0:0:0:
192,192,293395,1,0,0:0:0:0:
448,192,293660,128,0,293926:0:0:0:0:
64,192,293926,128,0,294834:0:0:0:0:
320,192,293926,128,0,294704:0:0:0:0:
448,192,294186,1,0,0:0:0:0:
192,192,294445,1,0,0:0:0:0:
448,192,294704,128,0,294964:0:0:0:0:
64,192,294964,128,0,295868:0:0:0:0:
192,192,294964,128,0,295739:0:0:0:0:
320,192,295222,1,0,0:0:0:0:
448,192,295480,1,0,0:0:0:0:
320,192,295739,128,0,295997:0:0:0:0:
64,192,295997,128,0,296926:0:0:0:0:
320,192,296134,128,0,296800:0:0:0:0:
448,192,296272,1,0,0:0:0:0:
192,192,296547,1,0,0:0:0:0:
448,192,296800,128,0,297052:0:0:0:0:
64,192,297052,128,0,297969:0:0:0:0:
192,192,297052,128,0,297314:0:0:0:0:
448,192,297314,1,0,0:0:0:0:
192,192,297576,1,0,0:0:0:0:
320,192,297838,128,0,298100:0:0:0:0:
64,192,298100,128,0,299025:0:0:0:0:
448,192,298100,128,0,299157:0:0:0:0:
192,192,298365,1,0,0:0:0:0:
320,192,298629,1,0,0:0:0:0:
192,192,298893,1,0,0:0:0:0:
64,192,299157,128,0,300153:0:0:0:0:
192,192,299417,1,0,0:0:0:0:
320,192,299677,1,0,0:0:0:0:
192,192,299994,1,0,0:0:0:0:
64,192,300312,128,0,301230:0:0:0:0:
192,192,300402,128,0,301022:0:0:0:0:
448,192,300584,1,0,0:0:0:0:
320,192,300856,1,0,0:0:0:0:
192,192,301105,128,0,301354:0:0:0:0:
64,192,301354,128,0,302210:0:0:0:0:
320,192,301416,128,0,301599:0:0:0:0:
448,192,301599,1,0,0:0:0:0:
192,192,301844,1,0,0:0:0:0:
448,192,302088,128,0,302333:0:0:0:0:
64,192,302333,128,0,303218:0:0:0:0:
320,192,302417,128,0,303091:0:0:0:0:
448,192,302585,1,0,0:0:0:0:
192,192,302838,1,0,0:0:0:0:
448,192,303091,1,0,0:0:0:0:
64,192,303344,128,0,304239:0:0:0:0:
192,192,303344,128,0,303600:0:0:0:0:
320,192,303600,1,0,0:0:0:0:
448,192,303856,1,0,0:0:0:0:
192,192,304111,128,0,304367:0:0:0:0:
64,192,304367,128,0,305269:0:0:0:0:
320,192,304367,128,0,305142:0:0:0:0:
448,192,304627,1,0,0:0:0:0:
192,192,304887,1,0,0:0:0:0:
448,192,305142,128,0,305397:0:0:0:0:
64,192,305397,128,0,306289:0:0:0:0:
192,192,305397,128,0,306037:0:0:0:0:
320,192,305654,1,0,0:0:0:0:
448,192,305911,1,0,0:0:0:0:
192,192,306163,128,0,306414:0:0:0:0:
64,192,306414,128,0,307302:0:0:0:0:
320,192,306414,128,0,307175:0:0:0:0:
448,192,306668,1,0,0:0:0:0:
192,192,306922,1,0,0:0:0:0:
448,192,307175,1,0,0:0:0:0:
64,192,307429,128,0,308334:0:0:0:0:
320,192,307682,1,0,0:0:0:0:
192,192,307936,1,0,0:0:0:0:
320,192,308202,1,0,0:0:0:0:
64,192,308467,128,0,309403:0:0:0:0:
320,192,308777,1,0,0:0:0:0:
192,192,309022,1,0,0:0:0:0:
320,192,309276,1,0,0:0:0:0:
64,192,309530,128,0,310426:0:0:0:0:
192,192,309530,128,0,309914:0:0:0:0:
448,192,309786,1,0,0:0:0:0:
320,192,310042,128,0,310426:0:0:0:0:
192,192,310298,1,0,0:0:0:0:
448,192,310384,128,0,310690:0:0:0:0:
64,192,310554,128,0,311468:0:0:0:0:
320,192,310826,128,0,311220:0:0:0:0:
192,192,311097,1,0,0:0:0:0:
320,192,311344,1,0,0:0:0:0:
64,192,311592,128,0,312497:0:0:0:0:
320,192,311839,1,0,0:0:0:0:
192,192,312085,1,0,0:0:0:0:
448,192,312360,128,0,312635:0:0:0:0:
64,192,312635,128,0,313553:0:0:0:0:
320,192,312774,128,0,313434:0:0:0:0:
448,192,312914,1,0,0:0:0:0:
192,192,313194,1,0,0:0:0:0:
448,192,313434,1,0,0:0:0:0:
64,192,313673,128,0,314673:0:0:0:0:
192,192,313953,1,0,0:0:0:0:
320,192,314234,1,0,0:0:0:0:
192,192,314527,1,0,0:0:0:0:
320,192,314624,128,0,314951:0:0:0:0:
64,192,314819,128,0,315747:0:0:0:0:
192,192,314951,128,0,316214:0:0:0:0:
448,192,315084,1,0,0:0:0:0:
320,192,315349,1,0,0:0:0:0:
448,192,315614,1,0,0:0:0:0:
64,192,315880,128,0,317167:0:0:0:0:
448,192,316172,128,0,317396:0:0:0:0:
192,192,316540,1,0,0:0:0:0:
320,192,316939,1,0,0:0:0:0:
64,192,317396,128,0,318302:0:0:0:0:
192,192,317525,128,0,317654:0:0:0:0:
320,192,317654,1,0,0:0:0:0:
192,192,317913,1,0,0:0:0:0:
320,192,318172,1,0,0:0:0:0:
320,192,318431,128,0,318695:0:0:0:0:
192,192,318563,128,0,318695:0:0:0:0:
64,192,318695,128,0,318827:0:0:0:0:
320,192,318827,128,0,318991:0:0:0:0:
192,192,318960,128,0,319086:0:0:0:0:
64,192,319086,128,0,319212:0:0:0:0:
320,192,319212,128,0,319465:0:0:0:0:
64,192,319338,128,0,319465:0:0:0:0:
192,192,319465,128,0,319718:0:0:0:0:
448,192,319591,128,0,319718:0:0:0:0:
64,192,319718,128,0,319845:0:0:0:0:
192,192,319845,128,0,319972:0:0:0:0:
448,192,319972,128,0,320092:0:0:0:0:
64,192,320092,128,0,320213:0:0:0:0:
192,192,320213,128,0,320334:0:0:0:0:
448,192,320334,128,0,320456:0:0:0:0:
64,192,320456,128,0,320708:0:0:0:0:
320,192,320582,128,0,320708:0:0:0:0:
448,192,320708,128,0,320834:0:0:0:0:
64,192,320834,128,0,320960:0:0:0:0:
320,192,320960,128,0,321086:0:0:0:0:
448,192,321086,128,0,321212:0:0:0:0:
64,192,321212,128,0,321338:0:0:0:0:
320,192,321338,128,0,321464:0:0:0:0:
192,192,321464,128,0,321721:0:0:0:0:
320,192,321592,128,0,321721:0:0:0:0:
448,192,321721,128,0,321849:0:0:0:0:
192,192,321849,128,0,321979:0:0:0:0:
320,192,321979,128,0,322113:0:0:0:0:
448,192,322113,128,0,322247:0:0:0:0:
320,192,322247,128,0,322516:0:0:0:0:
448,192,322382,128,0,322516:0:0:0:0:
192,192,322516,128,0,322809:0:0:0:0:
320,192,322662,128,0,322809:0:0:0:0:
448,192,322809,128,0,322956:0:0:0:0:
192,192,322956,128,0,323103:0:0:0:0:
320,192,323104,128,0,323291:0:0:0:0:
448,192,323291,128,0,323479:0:0:0:0:
192,192,323479,128,0,323666:0:0:0:0:
320,192,323666,128,0,323854:0:0:0:0:
64,192,323854,128,0,323991:0:0:0:0:
320,192,324129,1,0,0:0:0:0:
192,192,324404,1,0,0:0:0:0:
320,192,324645,1,0,0:0:0:0:
320,192,324886,128,0,325134:0:0:0:0:
192,192,325010,128,0,325134:0:0:0:0:
64,192,325134,128,0,325259:0:0:0:0:
320,192,325259,128,0,325384:0:0:0:0:
192,192,325384,128,0,325505:0:0:0:0:
64,192,325505,128,0,325626:0:0:0:0:
320,192,325626,128,0,325869:0:0:0:0:
64,192,325748,128,0,325869:0:0:0:0:
192,192,325870,128,0,326115:0:0:0:0:
448,192,325992,128,0,326115:0:0:0:0:
64,192,326115,128,0,326238:0:0:0:0:
192,192,326238,128,0,326361:0:0:0:0:
448,192,326361,128,0,326482:0:0:0:0:
64,192,326482,128,0,326602:0:0:0:0:
192,192,326602,128,0,326722:0:0:0:0:
448,192,326722,128,0,326842:0:0:0:0:
64,192,326842,128,0,327087:0:0:0:0:
320,192,326964,128,0,327087:0:0:0:0:
448,192,327087,128,0,327210:0:0:0:0:
64,192,327210,128,0,327333:0:0:0:0:
320,192,327333,128,0,327467:0:0:0:0:
448,192,327467,128,0,327601:0:0:0:0:
64,192,327601,128,0,327736:0:0:0:0:
320,192,327736,128,0,327870:0:0:0:0:
192,192,327870,128,0,328157:0:0:0:0:
320,192,328013,128,0,328157:0:0:0:0:
448,192,328157,128,0,328301:0:0:0:0:
192,192,328301,128,0,328445:0:0:0:0:
320,192,328445,128,0,328589:0:0:0:0:
448,192,328589,128,0,328732:0:0:0:0:
320,192,328732,128,0,329020:0:0:0:0:
448,192,328876,128,0,329021:0:0:0:0:
192,192,329021,128,0,329365:0:0:0:0:
320,192,329193,128,0,329365:0:0:0:0:
448,192,329365,128,0,329538:0:0:0:0:
192,192,329538,128,0,329710:0:0:0:0:
320,192,329710,128,0,329905:0:0:0:0:
448,192,329905,128,0,330100:0:0:0:0:
64,192,330100,128,0,330489:0:0:0:0:
320,192,330295,128,0,330489:0:0:0:0:
192,192,330489,128,0,332745:0:0:0:0:
320,192,330582,128,0,331052:0:0:0:0:
448,192,330723,1,0,0:0:0:0:
192,192,333496,128,0,335404:0:0:0:0:
320,192,333576,128,0,334132:0:0:0:0:
448,192,333655,1,0,0:0:0:0:
448,192,335404,128,0,335612:0:0:0:0:
448,192,336240,128,0,337142:0:0:0:0:
320,192,336317,128,0,338044:0:0:0:0:
192,192,336433,1,0,0:0:0:0:
448,192,338044,128,0,338303:0:0:0:0:
320,192,339080,128,0,340152:0:0:0:0:
192,192,339151,1,0,0:0:0:0:
64,192,339247,128,0,341224:0:0:0:0:
448,192,341224,128,0,341525:0:0:0:0:
320,192,342430,128,0,344509:0:0:0:0:
192,192,342545,128,0,345202:0:0:0:0:
64,192,342738,1,0,0:0:0:0:
320,192,347505,128,0,347620:0:0:0:0:
64,192,347620,128,0,347849:0:0:0:0:
64,192,347963,128,0,348311:0:0:0:0:
192,192,348311,1,0,0:0:0:0:
320,192,348336,1,0,0:0:0:0:
64,192,348554,128,0,349023:0:0:0:0:
64,192,349121,128,0,349308:0:0:0:0:
320,192,349308,128,0,349402:0:0:0:0:
320,192,349496,128,0,349882:0:0:0:0:
64,192,349882,128,0,350240:0:0:0:0:
192,192,350240,1,0,0:0:0:0:
320,192,350240,1,0,0:0:0:0:
64,192,350441,128,0,351024:0:0:0:0:
192,192,351024,128,0,351219:0:0:0:0:
448,192,351219,128,0,351415:0:0:0:0:
320,192,351415,128,0,351598:0:0:0:0:
192,192,351598,128,0,351782:0:0:0:0:
64,192,351782,128,0,352151:0:0:0:0:
192,192,352151,1,0,0:0:0:0:
320,192,352174,1,0,0:0:0:0:
64,192,352340,128,0,352815:0:0:0:0:
64,192,352910,128,0,353094:0:0:0:0:
320,192,353094,128,0,353186:0:0:0:0:
320,192,353278,128,0,353656:0:0:0:0:
64,192,353656,128,0,354019:0:0:0:0:
320,192,354019,1,0,0:0:0:0:
192,192,354019,1,0,0:0:0:0:
64,192,354211,128,0,354590:0:0:0:0:
192,192,354590,128,0,354777:0:0:0:0:
320,192,354777,128,0,354956:0:0:0:0:
64,192,354956,128,0,355135:0:0:0:0:
320,192,355136,128,0,355326:0:0:0:0:
448,192,355326,128,0,355516:0:0:0:0:
64,192,355516,128,0,355978:0:0:0:0:
192,192,355516,1,0,0:0:0:0:
192,192,355886,1,0,0:0:0:0:
320,192,355909,1,0,0:0:0:0:
64,192,356071,128,0,356533:0:0:0:0:
192,192,356071,1,0,0:0:0:0:
192,192,356441,1,0,0:0:0:0:
320,192,356464,1,0,0:0:0:0:
320,192,356626,128,0,356906:0:0:0:0:
448,192,356813,1,0,0:0:0:0:
320,192,356999,128,0,357278:0:0:0:0:
448,192,357185,1,0,0:0:0:0:
64,192,357371,128,0,357811:0:0:0:0:
192,192,357371,1,0,0:0:0:0:
192,192,357719,1,0,0:0:0:0:
320,192,357742,1,0,0:0:0:0:
64,192,357904,128,0,358367:0:0:0:0:
192,192,357904,1,0,0:0:0:0:
192,192,358275,1,0,0:0:0:0:
320,192,358298,1,0,0:0:0:0:
320,192,358460,128,0,358732:0:0:0:0:
448,192,358641,1,0,0:0:0:0:
320,192,358822,128,0,359103:0:0:0:0:
448,192,359010,1,0,0:0:0:0:
64,192,359197,128,0,359647:0:0:0:0:
192,192,359197,1,0,0:0:0:0:
192,192,359554,1,0,0:0:0:0:
320,192,359578,1,0,0:0:0:0:
64,192,359739,128,0,360192:0:0:0:0:
192,192,359739,1,0,0:0:0:0:
192,192,360102,1,0,0:0:0:0:
320,192,360125,1,0,0:0:0:0:
320,192,360281,128,0,360568:0:0:0:0:
448,192,360473,1,0,0:0:0:0:
320,192,360664,128,0,360942:0:0:0:0:
448,192,360849,1,0,0:0:0:0:
64,192,361034,128,0,361476:0:0:0:0:
192,192,361034,1,0,0:0:0:0:
192,192,361385,1,0,0:0:0:0:
320,192,361408,1,0,0:0:0:0:
64,192,361567,128,0,362019:0:0:0:0:
192,192,361567,1,0,0:0:0:0:
192,192,361929,1,0,0:0:0:0:
320,192,361951,1,0,0:0:0:0:
320,192,362110,128,0,362377:0:0:0:0:
448,192,362288,1,0,0:0:0:0:
64,192,362466,1,0,0:0:0:0:
448,192,362554,128,0,362685:0:0:0:0:
320,192,362619,128,0,362750:0:0:0:0:
192,192,362685,128,0,362816:0:0:0:0:
448,192,362815,1,0,0:0:0:0:
320,192,362886,1,0,0:0:0:0:
448,192,362981,1,0,0:0:0:0:
192,192,363052,1,0,0:0:0:0:
320,192,363194,1,0,0:0:0:0:
64,192,363194,128,0,363664:0:0:0:0:
192,192,363570,1,0,0:0:0:0:
320,192,363593,1,0,0:0:0:0:
64,192,363758,128,0,364229:0:0:0:0:
192,192,363758,1,0,0:0:0:0:
192,192,364135,1,0,0:0:0:0:
320,192,364158,1,0,0:0:0:0:
320,192,364323,128,0,364592:0:0:0:0:
448,192,364502,1,0,0:0:0:0:
320,192,364682,128,0,364970:0:0:0:0:
448,192,364874,1,0,0:0:0:0:
192,192,365066,1,0,0:0:0:0:
64,192,365066,128,0,365511:0:0:0:0:
192,192,365411,1,0,0:0:0:0:
320,192,365436,1,0,0:0:0:0:
64,192,365612,128,0,366107:0:0:0:0:
192,192,365612,1,0,0:0:0:0:
192,192,366009,1,0,0:0:0:0:
320,192,366034,1,0,0:0:0:0:
320,192,366205,128,0,366483:0:0:0:0:
448,192,366390,1,0,0:0:0:0:
320,192,366575,128,0,366836:0:0:0:0:
448,192,366749,1,0,0:0:0:0:
192,192,366922,1,0,0:0:0:0:
64,192,366922,128,0,367380:0:0:0:0:
192,192,367284,1,0,0:0:0:0:
320,192,367308,1,0,0:0:0:0:
64,192,367476,128,0,367948:0:0:0:0:
192,192,367476,1,0,0:0:0:0:
192,192,367855,1,0,0:0:0:0:
320,192,367878,1,0,0:0:0:0:
320,192,368042,128,0,368318:0:0:0:0:
448,192,368226,1,0,0:0:0:0:
320,192,368410,128,0,368686:0:0:0:0:
448,192,368594,1,0,0:0:0:0:
192,192,368778,1,0,0:0:0:0:
64,192,368778,128,0,369233:0:0:0:0:
192,192,369132,1,0,0:0:0:0:
320,192,369158,1,0,0:0:0:0:
64,192,369333,128,0,369817:0:0:0:0:
192,192,369333,1,0,0:0:0:0:
192,192,369722,1,0,0:0:0:0:
320,192,369746,1,0,0:0:0:0:
320,192,369911,128,0,370168:0:0:0:0:
448,192,370082,1,0,0:0:0:0:
64,192,370254,1,0,0:0:0:0:
448,192,370375,128,0,370500:0:0:0:0:
320,192,370422,128,0,370539:0:0:0:0:
192,192,370482,128,0,370619:0:0:0:0:
448,192,370619,1,0,0:0:0:0:
320,192,370665,1,0,0:0:0:0:
448,192,370724,1,0,0:0:0:0:
192,192,370777,1,0,0:0:0:0:
320,192,370850,1,0,0:0:0:0:
64,192,370989,1,0,0:0:0:0:
448,192,370989,1,0,0:0:0:0:
64,192,371375,128,0,371664:0:0:0:0:
192,192,371423,128,0,371761:0:0:0:0:
448,192,371761,1,0,0:0:0:0:
64,192,371785,1,0,0:0:0:0:
320,192,371954,128,0,372341:0:0:0:0:
64,192,371954,128,0,372437:0:0:0:0:
448,192,372341,128,0,372534:0:0:0:0:
192,192,372365,1,0,0:0:0:0:
192,192,372534,128,0,372817:0:0:0:0:
448,192,372723,1,0,0:0:0:0:
192,192,372911,128,0,373193:0:0:0:0:
320,192,373099,128,0,373287:0:0:0:0:
192,192,373287,128,0,374401:0:0:0:0:
64,192,373287,128,0,373751:0:0:0:0:
448,192,373659,1,0,0:0:0:0:
320,192,373682,1,0,0:0:0:0:
64,192,373844,128,0,374308:0:0:0:0:
320,192,373844,1,0,0:0:0:0:
320,192,374215,1,0,0:0:0:0:
320,192,374401,128,0,374670:0:0:0:0:
448,192,374580,1,0,0:0:0:0:
320,192,374760,128,0,375030:0:0:0:0:
448,192,374940,1,0,0:0:0:0:
320,192,375119,128,0,375389:0:0:0:0:
448,192,375299,1,0,0:0:0:0:
64,192,375479,128,0,375964:0:0:0:0:
192,192,375479,1,0,0:0:0:0:
448,192,375544,128,0,375964:0:0:0:0:
192,192,375867,1,0,0:0:0:0:
320,192,375892,1,0,0:0:0:0:
64,192,376061,128,0,376545:0:0:0:0:
192,192,376061,1,0,0:0:0:0:
320,192,376158,128,0,376351:0:0:0:0:
448,192,376448,128,0,376824:0:0:0:0:
192,192,376473,1,0,0:0:0:0:
320,192,376642,128,0,376914:0:0:0:0:
192,192,376824,1,0,0:0:0:0:
320,192,377005,128,0,377276:0:0:0:0:
192,192,377186,128,0,377553:0:0:0:0:
64,192,377367,128,0,378108:0:0:0:0:
448,192,377367,1,0,0:0:0:0:
192,192,377738,1,0,0:0:0:0:
320,192,377761,1,0,0:0:0:0:
448,192,377923,1,0,0:0:0:0:
192,192,377923,128,0,378386:0:0:0:0:
320,192,378293,1,0,0:0:0:0:
448,192,378316,1,0,0:0:0:0:
320,192,378478,128,0,378756:0:0:0:0:
448,192,378663,1,0,0:0:0:0:
64,192,378849,128,0,379024:0:0:0:0:
192,192,379024,128,0,379198:0:0:0:0:
320,192,379198,128,0,379592:0:0:0:0:
192,192,379395,128,0,379780:0:0:0:0:
448,192,379592,128,0,382870:0:0:0:0:
64,192,379592,128,0,380063:0:0:0:0:
192,192,379967,1,0,0:0:0:0:
320,192,379991,1,0,0:0:0:0:
64,192,380159,128,0,380625:0:0:0:0:
192,192,380159,1,0,0:0:0:0:
192,192,380534,1,0,0:0:0:0:
320,192,380557,1,0,0:0:0:0:
320,192,380715,128,0,380987:0:0:0:0:
64,192,380897,1,0,0:0:0:0:
320,192,381078,128,0,381349:0:0:0:0:
64,192,381259,1,0,0:0:0:0:
64,192,381440,128,0,381890:0:0:0:0:
192,192,381440,1,0,0:0:0:0:
192,192,381800,1,0,0:0:0:0:
320,192,381822,1,0,0:0:0:0:
64,192,381980,128,0,382520:0:0:0:0:
192,192,381980,1,0,0:0:0:0:
192,192,382340,1,0,0:0:0:0:
320,192,382362,1,0,0:0:0:0:
320,192,382520,128,0,382782:0:0:0:0:
192,192,382695,1,0,0:0:0:0:
320,192,382870,128,0,383131:0:0:0:0:
64,192,382957,128,0,383393:0:0:0:0:
448,192,383044,1,0,0:0:0:0:
320,192,383219,128,0,383481:0:0:0:0:
448,192,383393,1,0,0:0:0:0:
64,192,383568,128,0,383854:0:0:0:0:
320,192,383568,1,0,0:0:0:0:
192,192,383687,128,0,383878:0:0:0:0:
64,192,383949,1,0,0:0:0:0:
320,192,383949,1,0,0:0:0:0:
192,192,384140,1,0,0:0:0:0:
64,192,384140,128,0,384714:0:0:0:0:
320,192,384204,128,0,384395:0:0:0:0:
192,192,384523,1,0,0:0:0:0:
448,192,384586,128,0,385442:0:0:0:0:
192,192,384714,128,0,384995:0:0:0:0:
320,192,384901,1,0,0:0:0:0:
192,192,385089,128,0,385354:0:0:0:0:
320,192,385266,1,0,0:0:0:0:
64,192,385442,128,0,385918:0:0:0:0:
192,192,385442,1,0,0:0:0:0:
448,192,385632,128,0,385822:0:0:0:0:
320,192,385822,128,0,387267:0:0:0:0:
192,192,385846,1,0,0:0:0:0:
64,192,386013,128,0,386488:0:0:0:0:
192,192,386013,1,0,0:0:0:0:
192,192,386393,1,0,0:0:0:0:
448,192,386417,1,0,0:0:0:0:
64,192,386583,128,0,386754:0:0:0:0:
448,192,386754,128,0,386925:0:0:0:0:
192,192,386925,128,0,387182:0:0:0:0:
64,192,386925,128,0,387096:0:0:0:0:
448,192,387096,128,0,387353:0:0:0:0:
192,192,387267,128,0,387609:0:0:0:0:
64,192,387267,128,0,387438:0:0:0:0:
320,192,387438,128,0,387609:0:0:0:0:
448,192,387438,128,0,387524:0:0:0:0:
448,192,387609,128,0,387690:0:0:0:0:
64,192,387609,128,0,387690:0:0:0:0:
64,192,388490,128,0,388712:0:0:0:0:
192,192,388608,128,0,388817:0:0:0:0:
192,192,388905,128,0,389129:0:0:0:0:
320,192,389354,128,0,389649:0:0:0:0:
320,192,390537,128,0,394327:0:0:0:0:
64,192,390825,128,0,392125:0:0:0:0:
64,192,392269,128,0,392733:0:0:0:0:
192,192,392640,1,0,0:0:0:0:
64,192,392826,128,0,393291:0:0:0:0:
192,192,393198,1,0,0:0:0:0:
64,192,393384,128,0,393658:0:0:0:0:
448,192,393567,1,0,0:0:0:0:
64,192,393749,128,0,394040:0:0:0:0:
448,192,393943,1,0,0:0:0:0:
64,192,394137,128,0,394612:0:0:0:0:
192,192,394517,1,0,0:0:0:0:
64,192,394707,128,0,395183:0:0:0:0:
192,192,395088,1,0,0:0:0:0:
64,192,395278,128,0,395556:0:0:0:0:
320,192,395463,1,0,0:0:0:0:
64,192,395649,128,0,395927:0:0:0:0:
320,192,395835,1,0,0:0:0:0:
64,192,396020,128,0,396299:0:0:0:0:
320,192,396206,1,0,0:0:0:0:
192,192,396299,1,0,0:0:0:0:
64,192,396392,128,0,396858:0:0:0:0:
192,192,396765,1,0,0:0:0:0:
64,192,396951,128,0,397418:0:0:0:0:
192,192,397325,1,0,0:0:0:0:
64,192,397512,128,0,397777:0:0:0:0:
320,192,397688,1,0,0:0:0:0:
64,192,397865,128,0,398130:0:0:0:0:
320,192,398041,1,0,0:0:0:0:
448,192,398174,1,0,0:0:0:0:
64,192,398218,128,0,398682:0:0:0:0:
320,192,398589,1,0,0:0:0:0:
64,192,398774,128,0,399237:0:0:0:0:
320,192,399145,1,0,0:0:0:0:
448,192,399237,1,0,0:0:0:0:
64,192,399330,128,0,399607:0:0:0:0:
448,192,399514,1,0,0:0:0:0:
64,192,399699,128,0,399977:0:0:0:0:
448,192,399884,1,0,0:0:0:0:
64,192,400069,128,0,400346:0:0:0:0:
448,192,400254,1,0,0:0:0:0:
320,192,400439,1,0,0:0:0:0:
192,192,400439,128,0,400631:0:0:0:0:
64,192,400535,128,0,400727:0:0:0:0:
320,192,400631,128,0,400727:0:0:0:0:
448,192,400727,128,0,400823:0:0:0:0:
64,192,400823,128,0,400919:0:0:0:0:
448,192,401014,128,0,401301:0:0:0:0:
64,192,401014,1,0,0:0:0:0:
320,192,401110,128,0,401397:0:0:0:0:
192,192,401206,128,0,401301:0:0:0:0:
64,192,401301,128,0,401397:0:0:0:0:
192,192,401397,128,0,401493:0:0:0:0:
64,192,401589,128,0,401858:0:0:0:0:
192,192,401589,1,0,0:0:0:0:
320,192,401679,128,0,401948:0:0:0:0:
448,192,401769,128,0,401858:0:0:0:0:
192,192,401858,128,0,401948:0:0:0:0:
64,192,401948,128,0,402038:0:0:0:0:
320,192,402038,128,0,402217:0:0:0:0:
192,192,402127,128,0,402306:0:0:0:0:
448,192,402217,128,0,402306:0:0:0:0:
64,192,402306,128,0,402752:0:0:0:0:
320,192,402396,128,0,402485:0:0:0:0:
448,192,402485,128,0,402574:0:0:0:0:
192,192,402574,128,0,402663:0:0:0:0:
320,192,402663,128,0,402752:0:0:0:0:
448,192,402752,128,0,402841:0:0:0:0:
64,192,402841,128,0,403286:0:0:0:0:
192,192,402930,128,0,403019:0:0:0:0:
320,192,403019,128,0,403108:0:0:0:0:
448,192,403108,128,0,403197:0:0:0:0:
192,192,403197,128,0,403286:0:0:0:0:
320,192,403286,128,0,403560:0:0:0:0:
64,192,403375,128,0,403652:0:0:0:0:
448,192,403560,1,0,0:0:0:0:
64,192,403745,128,0,404014:0:0:0:0:
448,192,403924,1,0,0:0:0:0:
64,192,404103,128,0,404390:0:0:0:0:
448,192,404295,1,0,0:0:0:0:
320,192,404326,1,0,0:0:0:0:
448,192,404486,1,0,0:0:0:0:
192,192,404486,128,0,404668:0:0:0:0:
320,192,404577,128,0,404760:0:0:0:0:
448,192,404668,128,0,404760:0:0:0:0:
192,192,404760,128,0,404851:0:0:0:0:
320,192,404851,128,0,404942:0:0:0:0:
64,192,404897,1,0,0:0:0:0:
192,192,405034,1,0,0:0:0:0:
448,192,405034,128,0,405216:0:0:0:0:
320,192,405125,128,0,405308:0:0:0:0:
64,192,405216,128,0,405308:0:0:0:0:
448,192,405308,128,0,405399:0:0:0:0:
320,192,405399,128,0,405491:0:0:0:0:
192,192,405491,128,0,405582:0:0:0:0:
64,192,405582,128,0,405763:0:0:0:0:
448,192,405673,128,0,405763:0:0:0:0:
192,192,405763,128,0,405853:0:0:0:0:
64,192,405853,128,0,405944:0:0:0:0:
320,192,405944,128,0,406124:0:0:0:0:
448,192,406034,128,0,406124:0:0:0:0:
192,192,406124,128,0,406214:0:0:0:0:
64,192,406214,128,0,406305:0:0:0:0:
448,192,406305,128,0,406580:0:0:0:0:
64,192,406396,128,0,406488:0:0:0:0:
192,192,406488,128,0,406580:0:0:0:0:
320,192,406580,128,0,406672:0:0:0:0:
448,192,406672,128,0,406760:0:0:0:0:
192,192,406760,128,0,406849:0:0:0:0:
320,192,406849,128,0,407312:0:0:0:0:
448,192,406938,128,0,407027:0:0:0:0:
64,192,407027,128,0,407122:0:0:0:0:
192,192,407122,128,0,407217:0:0:0:0:
448,192,407217,128,0,407312:0:0:0:0:
192,192,407383,1,0,0:0:0:0:
64,192,407406,128,0,407678:0:0:0:0:
448,192,407588,1,0,0:0:0:0:
64,192,407769,128,0,408041:0:0:0:0:
448,192,407950,1,0,0:0:0:0:
64,192,408132,128,0,408403:0:0:0:0:
448,192,408313,1,0,0:0:0:0:
320,192,408494,1,0,0:0:0:0:
192,192,408494,128,0,408685:0:0:0:0:
448,192,408589,128,0,408781:0:0:0:0:
64,192,408685,128,0,408781:0:0:0:0:
192,192,408781,128,0,408877:0:0:0:0:
448,192,408877,128,0,408973:0:0:0:0:
320,192,408973,128,0,409069:0:0:0:0:
192,192,409069,128,0,409260:0:0:0:0:
448,192,409069,1,0,0:0:0:0:
64,192,409165,128,0,409356:0:0:0:0:
320,192,409260,128,0,409356:0:0:0:0:
192,192,409356,128,0,409452:0:0:0:0:
64,192,409452,128,0,409548:0:0:0:0:
320,192,409548,128,0,409644:0:0:0:0:
192,192,409644,128,0,409828:0:0:0:0:
448,192,409644,1,0,0:0:0:0:
320,192,409736,128,0,409920:0:0:0:0:
64,192,409828,128,0,409920:0:0:0:0:
320,192,410012,128,0,410196:0:0:0:0:
448,192,410012,1,0,0:0:0:0:
192,192,410104,128,0,410288:0:0:0:0:
64,192,410196,128,0,410288:0:0:0:0:
320,192,410288,128,0,410380:0:0:0:0:
64,192,410380,128,0,410835:0:0:0:0:
192,192,410471,128,0,410562:0:0:0:0:
320,192,410744,1,0,0:0:0:0:
64,192,410926,128,0,411382:0:0:0:0:
320,192,411291,1,0,0:0:0:0:
64,192,411473,128,0,411723:0:0:0:0:
448,192,411640,1,0,0:0:0:0:
64,192,411807,128,0,412066:0:0:0:0:
448,192,411980,1,0,0:0:0:0:
64,192,412153,128,0,412448:0:0:0:0:
448,192,412350,1,0,0:0:0:0:
192,192,412546,128,0,412729:0:0:0:0:
320,192,412546,1,0,0:0:0:0:
448,192,412637,128,0,412821:0:0:0:0:
64,192,412729,128,0,412821:0:0:0:0:
192,192,412821,128,0,412912:0:0:0:0:
448,192,412912,128,0,413004:0:0:0:0:
320,192,413096,128,0,413279:0:0:0:0:
64,192,413096,1,0,0:0:0:0:
192,192,413187,128,0,413371:0:0:0:0:
64,192,413279,128,0,413371:0:0:0:0:
320,192,413371,128,0,413463:0:0:0:0:
192,192,413463,128,0,413555:0:0:0:0:
320,192,413646,128,0,413826:0:0:0:0:
192,192,413646,1,0,0:0:0:0:
64,192,413736,128,0,413916:0:0:0:0:
448,192,413826,128,0,413916:0:0:0:0:
320,192,413916,128,0,414006:0:0:0:0:
192,192,414006,128,0,414185:0:0:0:0:
64,192,414095,128,0,414275:0:0:0:0:
320,192,414185,128,0,414275:0:0:0:0:
192,192,414275,128,0,414365:0:0:0:0:
64,192,414365,128,0,414827:0:0:0:0:
448,192,414365,1,0,0:0:0:0:
320,192,414457,128,0,414549:0:0:0:0:
192,192,414734,1,0,0:0:0:0:
320,192,414757,1,0,0:0:0:0:
64,192,414919,128,0,415381:0:0:0:0:
192,192,414919,1,0,0:0:0:0:
192,192,415288,1,0,0:0:0:0:
320,192,415312,1,0,0:0:0:0:
192,192,415473,1,0,0:0:0:0:
64,192,415473,128,0,415747:0:0:0:0:
448,192,415656,1,0,0:0:0:0:
64,192,415839,1,0,0:0:0:0:
320,192,415839,128,0,416021:0:0:0:0:
64,192,416021,1,0,0:0:0:0:
192,192,416021,128,0,416204:0:0:0:0:
320,192,416113,128,0,416296:0:0:0:0:
448,192,416204,128,0,416296:0:0:0:0:
192,192,416296,128,0,416387:0:0:0:0:
320,192,416387,128,0,416478:0:0:0:0:
64,192,416478,128,0,416570:0:0:0:0:
192,192,416570,128,0,416662:0:0:0:0:
192,192,416754,1,0,0:0:0:0:
448,192,416754,128,0,416939:0:0:0:0:
320,192,416847,128,0,417032:0:0:0:0:
64,192,416939,128,0,417032:0:0:0:0:
448,192,417032,128,0,417124:0:0:0:0:
320,192,417124,128,0,417217:0:0:0:0:
64,192,417217,128,0,417309:0:0:0:0:
448,192,417309,128,0,417402:0:0:0:0:
192,192,417402,128,0,417494:0:0:0:0:
64,192,417494,128,0,417587:0:0:0:0:
320,192,417587,128,0,417679:0:0:0:0:
192,192,417679,128,0,417948:0:0:0:0:
448,192,417769,128,0,417858:0:0:0:0:
320,192,417858,128,0,417948:0:0:0:0:
64,192,417948,128,0,418037:0:0:0:0:
192,192,418037,128,0,418306:0:0:0:0:
448,192,418127,128,0,418216:0:0:0:0:
320,192,418216,128,0,418306:0:0:0:0:
448,192,418306,1,0,0:0:0:0:
64,192,418395,128,0,418668:0:0:0:0:
192,192,418395,1,0,0:0:0:0:
448,192,418486,128,0,418577:0:0:0:0:
320,192,418577,128,0,418668:0:0:0:0:
192,192,418668,128,0,418759:0:0:0:0:
448,192,418759,128,0,418851:0:0:0:0:
320,192,418851,128,0,418942:0:0:0:0:
192,192,418942,1,0,0:0:0:0:
64,192,418942,128,0,419124:0:0:0:0:
320,192,419033,128,0,419124:0:0:0:0:
192,192,419124,128,0,419215:0:0:0:0:
64,192,419215,128,0,419307:0:0:0:0:
320,192,419307,1,0,0:0:0:0:
192,192,419489,1,0,0:0:0:0:
64,192,419489,128,0,419762:0:0:0:0:
448,192,419671,1,0,0:0:0:0:
192,192,419852,1,0,0:0:0:0:
64,192,419852,128,0,420125:0:0:0:0:
448,192,420034,1,0,0:0:0:0:
192,192,420215,1,0,0:0:0:0:
64,192,420215,128,0,420487:0:0:0:0:
448,192,420397,1,0,0:0:0:0:
192,192,420578,1,0,0:0:0:0:
64,192,420578,128,0,421023:0:0:0:0:
192,192,420934,1,0,0:0:0:0:
320,192,420934,1,0,0:0:0:0:
192,192,421112,1,0,0:0:0:0:
64,192,421112,128,0,421557:0:0:0:0:
192,192,421468,1,0,0:0:0:0:
320,192,421490,1,0,0:0:0:0:
192,192,421646,1,0,0:0:0:0:
64,192,421646,128,0,421902:0:0:0:0:
448,192,421817,1,0,0:0:0:0:
192,192,421987,1,0,0:0:0:0:
64,192,421987,128,0,422242:0:0:0:0:
448,192,422157,1,0,0:0:0:0:
64,192,422327,128,0,422583:0:0:0:0:
192,192,422327,1,0,0:0:0:0:
448,192,422498,1,0,0:0:0:0:
192,192,422668,1,0,0:0:0:0:
64,192,422668,128,0,422848:0:0:0:0:
448,192,422848,128,0,422980:0:0:0:0:
192,192,422848,128,0,422980:0:0:0:0:
192,192,423898,128,0,431388:0:0:0:0:
320,192,424158,128,0,424418:0:0:0:0:
448,192,424418,128,0,425289:0:0:0:0:
320,192,431388,1,0,0:0:0:0:
192,192,431461,1,0,0:0:0:0:
