osu file format v14

[General]
AudioFilename: audio.mp3
AudioLeadIn: 1500
PreviewTime: 626
Countdown: 0
SampleSet: Soft
StackLeniency: 0.7
Mode: 0
LetterboxInBreaks: 0
WidescreenStoryboard: 1

[Editor]
DistanceSpacing: 1.2
BeatDivisor: 4
GridSize: 4
TimelineZoom: 2.1

[Metadata]
Title:Hanamaru Shirushi no Hi no Moto de
TitleUnicode:花丸印の日のもとで
Artist:Ichiki Mitsuhiro, Masuda Toshiki
ArtistUnicode:市来光弘、増田俊樹
Creator:tutuhaha
Version:Hard
Source:続『刀剣乱舞-花丸-』
Tags:HabiHolic Amamiya Kanade kanor Lobelia sandrew 大和守安定 加州清光 yamatonokami yasusada kashuu kiyomitsu Touken Ranbu 刀剣乱舞 opening tv size
BeatmapID:1515627
BeatmapSetID:716976

[Difficulty]
HPDrainRate:6
CircleSize:4
OverallDifficulty:6
ApproachRate:8
SliderMultiplier:1.5
SliderTickRate:1

[Events]
//Background and Video events
0,0,"BG.png",0,0
Video,0,"video.flv"
//Break Periods
//Storyboard Layer 0 (Background)
//Storyboard Layer 1 (Fail)
//Storyboard Layer 2 (Pass)
//Storyboard Layer 3 (Foreground)
//Storyboard Sound Samples

[TimingPoints]
1376,326.086956521739,4,2,1,60,1,0
24854,-100,4,2,10,50,0,0
33984,-100,4,2,1,60,0,0
56158,-100,4,2,10,50,0,0
56240,-100,4,2,1,60,0,0
87870,-100,4,2,1,10,0,0

[Colours]
Combo1 : 160,186,114
Combo2 : 255,55,55
Combo3 : 85,162,255
Combo4 : 205,129,224

[HitObjects]
352,312,723,5,2,0:0:0:0:
176,352,1049,1,2,0:0:0:0:
244,184,1376,6,0,P|236:120|156:76,1,150,4|0,0:0|0:0,0:0:0:0:
11,167,2028,2,0,B|71:191|71:191|167:167,1,150,2|2,0:0|0:0,0:0:0:0:
260,28,2680,1,4,0:0:0:0:
154,171,3006,1,0,0:0:0:0:
332,156,3332,2,0,B|424:160|424:160|456:184,1,112.5,2|0,0:0|0:0,0:0:0:0:
472,140,3658,2,0,P|456:220|484:268,1,112.5,2|0,0:0|0:0,0:0:0:0:
436,280,3984,6,0,B|344:272|344:272|312:292|256:300,1,150,4|2,0:0|0:0,0:0:0:0:
124,360,4636,1,2,0:0:0:0:
48,196,4962,1,2,0:0:0:0:
188,76,5289,2,0,P|152:44|104:36,1,75,2|2,0:1|0:0,0:0:0:0:
52,84,5615,2,0,L|60:158,1,75,0|0,0:0|0:0,0:0:0:0:
156,246,5941,2,0,L|148:172,1,75,2|2,0:0|0:0,0:0:0:0:
236,168,6267,2,0,P|268:124|304:108,1,75,0|2,0:0|0:0,0:0:0:0:
291,9,6593,6,0,P|350:54|424:68,1,150,6|10,0:0|0:0,0:0:0:0:
384,160,7082,1,0,0:0:0:0:
320,224,7245,2,0,L|304:316,1,75,2|0,0:0|0:0,0:0:0:0:
396,320,7571,2,0,L|409:241,1,75,10|0,0:0|0:0,0:0:0:0:
384,160,7897,6,0,P|296:132|236:184,1,150,2|10,0:1|0:0,0:0:0:0:
164,184,8386,1,2,0:0:0:0:
92,128,8549,2,0,L|-12:116,1,75,2|0,0:0|0:0,0:0:0:0:
56,40,8875,6,0,P|128:48|204:-4,1,150,10|4,0:0|0:0,0:0:0:0:
192,10,9691,1,2,0:0:0:0:
248,80,9854,2,0,P|216:120|208:164,1,75,2|0,0:0|0:0,0:0:0:0:
296,168,10180,1,0,0:0:0:0:
336,88,10343,1,0,0:0:0:0:
248,80,10506,6,0,L|160:64,1,75,2|0,0:1|0:0,0:0:0:0:
144,152,10832,2,0,L|56:136,1,75,10|10,0:0|0:0,0:0:0:0:
36,56,11158,1,2,0:0:0:0:
124,64,11321,1,2,0:0:0:0:
144,152,11484,1,10,0:0:0:0:
212,208,11647,1,2,0:0:0:0:
300,200,11810,1,6,0:0:0:0:
256,192,11892,12,0,14093,0:0:0:0:
200,276,14419,6,0,B|260:264|260:264|280:272,1,75,4|0,0:0|0:0,0:0:0:0:
316,284,14664,1,0,0:0:0:0:
356,300,14745,2,0,B|416:312|416:312|456:304,1,75,2|0,0:0|0:0,0:0:0:0:
424,220,15071,1,0,0:0:0:0:
488,156,15234,1,0,0:0:0:0:
408,116,15397,1,2,0:0:0:0:
344,180,15560,6,0,P|280:148|192:160,1,150,0|0,0:0|0:0,0:0:0:0:
160,160,15968,1,0,0:0:0:0:
116,156,16049,2,0,P|64:132|40:100,1,75,2|0,0:0|0:0,0:0:0:0:
100,44,16375,2,0,L|200:36,1,75,0|0,0:0|0:0,0:0:0:0:
264,28,16702,1,2,0:0:0:0:
276,116,16865,1,0,0:0:0:0:
188,132,17028,5,2,0:1:0:0:
184,220,17191,2,0,L|184:280,2,37.5,0|0|2,0:0|0:0|0:0,0:0:0:0:
188,132,17517,1,0,0:0:0:0:
276,116,17680,2,0,L|376:108,1,75,0|0,0:0|0:0,0:0:0:0:
408,40,18006,1,2,0:0:0:0:
452,116,18169,6,0,P|480:184|448:280,1,150,0|8,0:0|0:0,0:0:0:0:
444,296,18577,1,0,0:0:0:0:
404,312,18658,2,0,P|380:276|376:228,1,75,10|0,0:0|0:0,0:0:0:0:
316,176,18984,1,0,0:0:0:0:
260,244,19147,1,10,0:0:0:0:
228,160,19310,2,0,P|224:112|196:72,1,75,10|0,0:0|0:0,0:0:0:0:
124,104,19636,5,4,0:0:0:0:
68,36,19799,2,0,L|12:32,2,37.5,0|0|2,0:0|0:0|0:0,0:0:0:0:
124,104,20125,1,0,0:0:0:0:
60,168,20289,2,0,L|52:252,1,75,0|0,0:0|0:0,0:0:0:0:
44,332,20615,1,2,0:0:0:0:
124,288,20778,6,0,P|196:292|272:260,1,150
308,244,21185,1,0,0:0:0:0:
352,232,21267,2,0,P|376:208|432:196,1,75,2|0,0:0|0:0,0:0:0:0:
424,288,21593,1,0,0:0:0:0:
360,352,21756,1,0,0:0:0:0:
272,348,21919,2,0,L|184:360,1,75,2|0,0:0|0:0,0:0:0:0:
132,296,22245,5,2,0:1:0:0:
152,208,22408,2,0,L|200:188,2,37.5,0|0|2,0:0|0:0|0:0,0:0:0:0:
76,160,22734,1,0,0:0:0:0:
40,76,22897,2,0,P|36:24|52:-12,1,75,0|0,0:0|0:0,0:0:0:0:
124,44,23223,1,2,0:0:0:0:
76,160,23386,6,0,P|44:220|84:304,1,150,10|8,0:0|0:0,0:0:0:0:
144,348,23875,1,10,0:0:0:0:
144,348,24202,1,10,0:0:0:0:
152,260,24365,1,10,0:0:0:0:
152,260,24854,6,0,L|64:256,1,75,4|0,0:0|0:0,0:0:0:0:
44,172,25180,2,0,P|116:136|124:56,2,150,0|0|0,0:0|0:0|0:0,0:0:0:0:
44,172,26158,6,0,L|224:180,1,150,4|0,0:0|0:0,0:0:0:0:
264,120,26647,1,0,0:0:0:0:
276,208,26810,2,0,P|268:276|332:336,1,150,0|0,0:0|0:0,0:0:0:0:
320,332,27462,6,0,L|170:325,1,150,4|0,0:0|0:0,0:0:0:0:
92,280,27952,1,0,0:0:0:0:
28,216,28115,2,0,P|96:192|176:252,1,150,0|0,0:0|0:0,0:0:0:0:
161,226,28767,6,0,P|164:168|244:120,1,150,4|0,0:0|0:0,0:0:0:0:
324,108,29256,1,0,0:0:0:0:
336,196,29419,2,0,L|352:360,1,150,0|0,0:0|0:0,0:0:0:0:
350,345,30071,6,0,P|392:344|436:356,1,75,4|0,0:0|0:0,0:0:0:0:
496,296,30397,2,0,P|456:276|424:248,1,75,0|0,0:0|0:0,0:0:0:0:
396,176,30723,1,0,0:0:0:0:
396,176,31049,1,0,0:0:0:0:
216,160,31375,6,0,P|192:92|248:8,1,150,4|0,0:0|0:0,0:0:0:0:
312,32,31865,1,0,0:0:0:0:
296,120,32028,2,0,P|320:188|264:272,1,150,0|0,0:0|0:0,0:0:0:0:
288,255,32680,6,0,P|244:264|212:288,1,75,4|0,0:0|0:0,0:0:0:0:
136,248,33006,2,0,P|112:288|112:332,1,75,0|0,0:0|0:0,0:0:0:0:
44,224,33332,2,0,P|28:184|40:120,1,75,0|0,0:0|0:0,0:0:0:0:
116,140,33658,2,0,P|132:100|120:36,1,75,0|0,0:0|0:0,0:0:0:0:
36,28,33984,5,2,0:1:0:0:
140,36,34147,1,2,0:0:0:0:
140,36,34636,5,2,0:1:0:0:
244,44,34799,1,2,0:0:0:0:
244,44,35125,6,0,L|228:108,2,37.5,0|0|6,0:0|0:0|0:0,0:0:0:0:
424,32,35615,1,2,0:0:0:0:
336,192,35941,2,0,L|328:272,1,75,0|0,0:0|0:0,0:0:0:0:
420,272,36267,2,0,L|427:197,1,75,2|0,0:0|0:0,0:0:0:0:
336,192,36593,6,0,P|288:176|248:72,1,150,2|2,0:0|0:0,0:0:0:0:
180,28,37082,1,0,0:0:0:0:
136,108,37245,2,0,L|44:96,1,75,0|0,0:0|0:0,0:0:0:0:
40,184,37571,2,0,L|114:193,1,75,2|2,0:0|0:0,0:0:0:0:
164,268,37897,5,2,0:1:0:0:
288,140,38223,1,2,0:0:0:0:
376,296,38549,2,0,L|450:305,1,75,2|0,0:0|0:0,0:0:0:0:
468,216,38875,2,0,L|393:206,1,75,2|0,0:0|0:0,0:0:0:0:
376,296,39202,6,0,P|316:280|220:328,1,150,2|2,0:0|0:0,0:0:0:0:
96,196,39854,2,0,P|72:160|72:116,1,75,2|0,0:0|0:0,0:0:0:0:
160,132,40180,2,0,L|256:144,1,75,2|0,0:0|0:0,0:0:0:0:
364,76,40506,6,0,B|276:68|276:68|244:52|204:56,2,150,2|2|0,0:1|0:0|0:0,0:0:0:0:
376,164,41321,1,0,0:0:0:0:
464,180,41484,2,0,B|456:268|456:268|440:300|444:340,2,150,2|2|2,0:0|0:1|0:0,0:0:0:0:
352,40,42462,1,2,0:0:0:0:
288,104,42625,1,0,0:0:0:0:
228,36,42789,2,0,L|144:24,1,75,2|0,0:0|0:0,0:0:0:0:
26,47,43115,6,0,P|60:62|88:88,1,75,10|2,0:1|0:0,0:0:0:0:
64,176,43441,2,0,P|101:178|135:193,1,75,10|2,0:0|0:0,0:0:0:0:
144,284,43767,2,0,P|179:273|217:275,1,75,0|2,0:0|0:0,0:0:0:0:
264,352,44093,2,0,P|294:330|329:318,1,75,10|2,0:0|0:0,0:0:0:0:
360,232,44419,6,0,L|388:388,2,150,0|10|0,0:0|0:0|0:0,0:0:0:0:
340,144,45234,1,0,0:0:0:0:
428,136,45397,2,0,L|444:216,1,75
340,144,45723,6,0,P|304:124|280:80,1,75,4|0,0:0|0:0,0:0:0:0:
220,36,46049,1,10,0:0:0:0:
36,168,46375,2,0,P|80:164|132:184,1,75,2|0,0:0|0:0,0:0:0:0:
180,232,46702,1,10,0:0:0:0:
368,352,47028,6,0,B|248:344|248:344|188:356,1,150,2|10,0:1|0:0,0:0:0:0:
128,356,47517,1,0,0:0:0:0:
60,300,47680,2,0,P|100:276|156:276,1,75,10|0,0:0|0:0,0:0:0:0:
211,203,48006,2,0,P|174:198|140:184,1,75,10|0,0:0|0:0,0:0:0:0:
68,132,48332,6,0,L|80:48,1,75,4|0,0:0|0:0,0:0:0:0:
160,20,48658,1,10,0:0:0:0:
256,224,48984,2,0,L|268:140,1,75,2|0,0:0|0:0,0:0:0:0:
348,112,49310,1,10,0:0:0:0:
280,56,49473,1,0,0:0:0:0:
364,24,49636,6,0,P|404:40|428:68,1,75,0|0,0:0|0:0,0:0:0:0:
436,152,49962,2,0,P|408:188|400:228,1,75,10|0,0:0|0:0,0:0:0:0:
396,260,50207,1,0,0:0:0:0:
396,304,50289,2,0,L|300:328,1,75,10|2,0:0|0:0,0:0:0:0:
211,258,50615,2,0,L|284:240,1,75,10|0,0:0|0:0,0:0:0:0:
240,352,50941,6,0,P|196:352|152:368,1,75,4|0,0:0|0:0,0:0:0:0:
80,336,51267,1,10,0:0:0:0:
24,116,51593,2,0,P|68:116|112:132,1,75,0|0,0:0|0:0,0:0:0:0:
184,100,51919,1,10,0:0:0:0:
348,252,52245,6,0,P|280:224|252:156,1,150,2|2,0:0|0:0,0:0:0:0:
304,84,52734,1,0,0:0:0:0:
384,124,52897,2,0,P|432:144|472:136,1,75,0|0,0:0|0:0,0:0:0:0:
448,52,53223,2,0,P|400:32|360:40,1,75,2|0,0:0|0:0,0:0:0:0:
304,84,53549,6,0,L|204:72,1,75,6|0,0:1|0:0,0:0:0:0:
140,88,53875,1,2,0:0:0:0:
60,44,54039,1,0,0:0:0:0:
60,132,54202,2,0,P|84:168|80:224,1,75,10|0,0:0|0:0,0:0:0:0:
24,264,54528,1,0,0:0:0:0:
112,284,54691,1,2,0:0:0:0:
180,224,54854,6,0,P|196:272|232:300,1,75,2|0,0:0|0:0,0:0:0:0:
293,354,55180,2,0,L|304:280,1,75,2|0,0:0|0:0,0:0:0:0:
381,213,55506,2,0,L|392:288,1,75,10|0,0:0|0:0,0:0:0:0:
472,222,55832,2,0,P|495:193|504:157,1,75,2|0,0:0|0:0,0:0:0:0:
372,74,56158,6,0,P|392:108|420:128,1,75,6|0,0:0|0:0,0:0:0:0:
298,165,56484,2,0,P|284:132|284:88,1,75,2|0,0:0|0:0,0:0:0:0:
196,88,56810,2,0,P|176:120|172:160,1,75,10|0,0:0|0:0,0:0:0:0:
78,68,57136,2,0,P|100:40|136:16,1,75,2|0,0:0|0:0,0:0:0:0:
232,88,57462,6,0,L|320:76,1,75,10|0,0:0|0:0,0:0:0:0:
398,178,57789,2,0,L|324:168,1,75,2|0,0:0|0:0,0:0:0:0:
210,219,58115,2,0,L|280:248,1,75,10|0,0:0|0:0,0:0:0:0:
308,380,58442,2,0,L|248:334,1,75,2|0,0:0|0:0,0:0:0:0:
164,304,58767,1,2,0:1:0:0:
256,192,58848,12,2,61049,0:0:0:0:
236,206,61375,5,2,0:1:0:0:
236,311,61702,1,2,0:0:0:0:
336,344,62028,1,2,0:0:0:0:
397,259,62354,1,2,0:0:0:0:
336,174,62680,1,2,0:0:0:0:
336,174,63006,6,0,P|300:112|320:64,1,112.5,10|0,0:0|0:0,0:0:0:0:
304,48,63332,2,0,L|212:32,1,75,2|0,0:0|0:0,0:0:0:0:
176,108,63658,2,0,L|84:92,1,75,2|0,0:0|0:0,0:0:0:0:
20,36,63984,6,0,P|60:100|32:192,1,150,4|10,0:0|0:0,0:0:0:0:
172,340,64636,2,0,L|268:360,1,75,0|0,0:0|0:0,0:0:0:0:
341,283,64962,2,0,L|267:267,1,75,10|0,0:0|0:0,0:0:0:0:
372,364,65289,6,0,P|364:312|428:220,1,150,0|10,0:0|0:0,0:0:0:0:
256,144,65941,2,0,P|208:132|176:100,1,75,0|0,0:0|0:0,0:0:0:0:
100,116,66267,2,0,P|90:66|105:24,1,75,10|0,0:0|0:0,0:0:0:0:
232,36,66593,6,0,L|324:24,1,75,0|0,0:0|0:0,0:0:0:0:
422,90,66919,2,0,L|347:99,1,75,10|0,0:0|0:0,0:0:0:0:
269,193,67245,2,0,L|343:183,1,75,0|0,0:0|0:0,0:0:0:0:
459,247,67571,2,0,L|384:256,1,75,10|0,0:0|0:0,0:0:0:0:
328,383,67897,6,0,P|327:334|287:268,1,112.5,2|0,0:1|0:0,0:0:0:0:
260,298,68223,2,0,P|223:266|198:193,1,112.5,10|0,0:0|0:0,0:0:0:0:
222,174,68549,2,0,P|197:132|129:94,1,112.5,8|0,0:0|0:0,0:0:0:0:
120,134,68875,2,0,P|72:125|14:74,1,112.5,2|0,0:0|0:0,0:0:0:0:
28,40,69202,6,0,L|116:20,1,75,4|0,0:0|0:0,0:0:0:0:
192,24,69528,2,0,L|266:34,1,75,10|0,0:0|0:0,0:0:0:0:
368,144,69854,2,0,L|280:124,1,75,0|0,0:0|0:0,0:0:0:0:
204,128,70180,2,0,L|129:138,1,75,10|0,0:0|0:0,0:0:0:0:
144,228,70506,6,0,P|160:272|152:324,1,75,0|0,0:0|0:0,0:0:0:0:
72,316,70832,2,0,P|56:272|64:220,1,75,10|0,0:0|0:0,0:0:0:0:
129,138,71158,2,0,P|145:94|137:42,1,75,0|0,0:0|0:0,0:0:0:0:
57,50,71484,2,0,P|41:94|49:146,1,75,10|0,0:0|0:0,0:0:0:0:
144,228,71810,6,0,B|248:236|248:236|312:212,1,150,6|10,0:0|0:0,0:0:0:0:
244,48,72462,1,0,0:0:0:0:
420,88,72789,1,10,0:0:0:0:
290,219,73115,2,0,L|286:311,1,75,4|0,0:0|0:0,0:0:0:0:
376,292,73441,2,0,L|372:384,1,75,10|0,0:0|0:0,0:0:0:0:
440,228,73767,6,0,L|492:248,3,37.5,0|0|0|0,0:0|0:0|0:0|0:0,0:0:0:0:
432,184,74093,2,0,L|484:204,3,37.5,10|0|0|0,0:0|0:0|0:0|0:0,0:0:0:0:
428,136,74419,6,0,P|452:96|412:0,1,150,4|10,0:0|0:0,0:0:0:0:
244,120,75071,2,0,P|204:144|156:144,1,75,0|0,0:0|0:0,0:0:0:0:
100,39,75397,2,0,P|137:41|172:56,1,75,10|0,0:0|0:0,0:0:0:0:
128,168,75723,6,0,P|176:200|200:304,1,150,4|10,0:0|0:0,0:0:0:0:
24,180,76375,2,0,L|36:96,1,75,0|0,0:0|0:0,0:0:0:0:
128,168,76702,2,0,L|140:84,1,75,10|0,0:0|0:0,0:0:0:0:
228,24,77028,6,0,L|240:108,1,75,4|0,0:0|0:0,0:0:0:0:
342,110,77355,2,0,L|332:36,1,75,10|0,0:0|0:0,0:0:0:0:
424,132,77680,2,0,P|404:172|364:192,1,75,0|0,0:0|0:0,0:0:0:0:
259,180,78006,2,0,P|274:214|304:236,1,75,10|0,0:0|0:0,0:0:0:0:
384,276,78332,5,2,0:1:0:0:
320,340,78495,1,2,0:0:0:0:
232,324,78658,1,8,0:0:0:0:
148,356,78821,1,2,0:0:0:0:
96,284,78984,2,0,P|64:268|16:264,1,75,10|0,0:0|0:0,0:0:0:0:
128,204,79310,2,0,L|220:200,1,75,2|2,0:0|0:0,0:0:0:0:
260,280,79636,6,0,P|244:216|280:112,1,150,6|10,0:0|0:0,0:0:0:0:
452,43,80289,2,0,P|471:115|455:188,1,150,2|10,0:0|0:0,0:0:0:0:
227,239,80941,6,0,P|196:172|133:135,1,150,2|2,0:1|0:0,0:0:0:0:
52,96,81430,1,2,0:0:0:0:
52,96,81511,1,0,0:0:0:0:
52,96,81593,2,0,B|40:8,1,75,10|0,0:0|0:0,0:0:0:0:
133,135,81919,2,0,B|143:209,1,75,10|0,0:0|0:0,0:0:0:0:
192,56,82245,6,0,P|264:68|336:20,1,150,6|10,0:0|0:0,0:0:0:0:
416,24,82734,1,2,0:0:0:0:
440,112,82897,2,0,L|456:196,1,75,2|0,0:0|0:0,0:0:0:0:
384,244,83223,2,0,L|400:328,1,75,8|0,0:0|0:0,0:0:0:0:
296,236,83549,6,0,P|232:192|140:200,1,150,2|2,0:1|0:0,0:0:0:0:
88,244,84039,1,0,0:0:0:0:
56,160,84202,2,0,P|88:132|116:76,1,75,2|2,0:0|0:0,0:0:0:0:
160,28,84528,1,10,0:0:0:0:
72,20,84691,1,2,0:0:0:0:
128,136,84854,6,0,P|160:176|164:276,1,150,4|0,0:0|0:0,0:0:0:0:
252,292,85343,2,0,P|304:328|420:312,1,150,2|0,0:0|0:0,0:0:0:0:
452,264,85832,6,0,P|400:228|284:244,1,150,2|0,0:0|0:0,0:0:0:0:
244,176,86321,2,0,P|240:104|304:28,1,150,2|0,0:0|0:0,0:0:0:0:
344,108,86810,2,0,L|508:108,1,150,2|0,0:0|0:0,0:0:0:0:
496,196,87299,1,0,0:0:0:0:
256,68,87789,5,4,0:0:0:0:
256,192,87870,12,0,90071,0:0:0:0:
