osu file format v14

[General]
AudioFilename: audio.mp3
AudioLeadIn: 1500
PreviewTime: 63332
Countdown: 0
SampleSet: Soft
StackLeniency: 0.7
Mode: 0
LetterboxInBreaks: 0
WidescreenStoryboard: 0

[Editor]
Bookmarks: 6593,11810,14419,24854,35125,35289,45723,53549,60071,61375,63332
DistanceSpacing: 2.9
BeatDivisor: 12
GridSize: 4
TimelineZoom: 4.699997

[Metadata]
Title:Hanamaru Shirushi no Hi no Moto de
TitleUnicode:花丸印の日のもとで
Artist:Ichiki Mitsuhiro, Masuda Toshiki
ArtistUnicode:市来光弘、増田俊樹
Creator:HonKAn
Version:KAn
Source:続『刀剣乱舞-花丸-』
Tags:
BeatmapID:1659415
BeatmapSetID:790890

[Difficulty]
HPDrainRate:7
CircleSize:4
OverallDifficulty:8
ApproachRate:9.4
SliderMultiplier:0.999999999999999
SliderTickRate:1

[Events]
//Background and Video events
0,0,"BG11.png",0,0
//Break Periods
//Storyboard Layer 0 (Background)
//Storyboard Layer 1 (Fail)
//Storyboard Layer 2 (Pass)
//Storyboard Layer 3 (Foreground)
//Storyboard Sound Samples

[TimingPoints]
723,326.086956521739,4,2,1,50,1,0
723,-55.5555555555556,4,2,1,50,0,0
1021,-55.5555555555556,4,2,1,5,0,0
1049,-71.4285714285714,4,2,1,50,0,0
1320,-71.4285714285714,4,2,1,5,0,0
1376,326.086956521739,4,2,1,50,1,0
1376,-52.6315789473684,4,2,1,50,0,0
1647,-52.6315789473684,4,2,1,5,0,0
1702,-58.8235294117647,4,2,1,50,0,0
1946,-58.8235294117647,4,2,1,5,0,0
2028,-58.8235294117647,4,2,1,50,0,0
2354,-45.4545454545455,4,2,1,50,0,0
2625,-45.4545454545455,4,2,1,5,0,0
2680,-52.6315789473684,4,2,1,50,0,0
2952,-52.6315789473684,4,2,1,5,0,0
3006,-58.8235294117647,4,2,1,50,0,0
3250,-58.8235294117647,4,2,1,5,0,0
3332,-58.8235294117647,4,2,1,50,0,0
3658,-45.4545454545455,4,2,1,50,0,0
3930,-45.4545454545455,4,2,1,5,0,0
3984,-35.7142857142857,4,2,1,50,0,0
4256,-35.7142857142857,4,2,1,5,0,0
4310,-37.037037037037,4,2,1,50,0,0
4582,-37.037037037037,4,2,1,5,0,0
4636,-40,4,2,1,50,0,0
4908,-41.6666666666667,4,2,1,5,0,0
4962,-45.4545454545455,4,2,1,50,0,0
5207,-45.4545454545455,4,2,1,5,0,0
5289,-125,4,2,1,50,0,0
5370,-125,4,2,1,30,0,0
5452,-125,4,2,1,50,0,0
5533,-125,4,2,1,30,0,0
5615,-58.8235294117647,4,2,1,50,0,0
5696,-58.8235294117647,4,2,1,30,0,0
5778,-58.8235294117647,4,2,1,50,0,0
5859,-58.8235294117647,4,2,1,30,0,0
5941,-55.5555555555556,4,2,1,50,0,0
6104,-76.9230769230769,4,2,1,50,0,0
6267,-55.5555555555556,4,2,1,50,0,0
6430,-76.9230769230769,4,2,1,50,0,0
6593,-45.4545454545455,4,2,1,50,0,0
6865,-45.4545454545455,4,2,1,5,0,0
6919,-45.4545454545455,4,2,1,50,0,0
7191,-45.4545454545455,4,2,1,5,0,0
7245,-55.5555555555556,4,2,1,50,0,0
7490,-55.5555555555556,4,2,1,5,0,0
7571,-55.5555555555556,4,2,1,50,0,0
7816,-55.5555555555556,4,2,1,5,0,0
7897,-62.5,4,2,1,50,0,0
8142,-62.5,4,2,1,5,0,0
8223,-62.5,4,2,1,50,0,0
8549,-55.5555555555556,4,2,1,50,0,0
8875,-71.4285714285714,4,2,1,50,0,0
9147,-71.4285714285714,4,2,1,5,0,0
9202,-62.5,4,2,1,50,0,0
9609,-62.5,4,2,1,5,0,0
9691,-76.9230769230769,4,2,1,50,0,0
9772,-76.9230769230769,4,2,1,5,0,0
9854,-52.6315789473684,4,2,1,50,0,0
10506,-55.5555555555556,4,2,1,50,0,0
11158,-62.5,4,2,1,50,0,0
11321,-83.3333333333333,4,2,1,50,0,0
11484,-62.5,4,2,1,50,0,0
11647,-83.3333333333333,4,2,1,50,0,0
11810,-62.5,4,2,1,50,0,0
12136,-55.5555555555556,4,2,1,50,0,0
12218,-55.5555555555556,4,2,1,5,0,0
12299,-100,4,2,1,50,0,0
12625,-55.5555555555556,4,2,1,50,0,0
12707,-55.5555555555556,4,2,1,5,0,0
12789,-100,4,2,1,50,0,0
13115,-55.5555555555556,4,2,1,50,0,0
13196,-55.5555555555556,4,2,1,5,0,0
13278,-100,4,2,1,50,0,0
13604,-55.5555555555556,4,2,1,50,0,0
13685,-100,4,2,1,5,0,0
13767,-100,4,2,1,50,0,0
14093,-43.4782608695652,4,2,1,50,0,0
14337,-43.4782608695652,4,2,1,5,0,0
14419,-41.6666666666667,4,2,1,50,0,0
14745,-50,4,2,1,50,0,0
15560,-41.6666666666667,4,2,1,50,0,0
16049,-55.5555555555556,4,2,1,50,0,0
16375,-71.4285714285714,4,2,1,50,0,0
17028,-41.6666666666667,4,2,1,50,0,0
17354,-50,4,2,1,50,0,0
18169,-45.4545454545455,4,2,1,50,0,0
18658,-55.5555555555556,4,2,1,50,0,0
18984,-71.4285714285714,4,2,1,50,0,0
19636,-41.6666666666667,4,2,1,50,0,0
19962,-50,4,2,1,50,0,0
20778,-41.6666666666667,4,2,1,50,0,0
21267,-55.5555555555556,4,2,1,50,0,0
21593,-71.4285714285714,4,2,1,50,0,0
22245,-41.6666666666667,4,2,1,50,0,0
22571,-50,4,2,1,50,0,0
23386,-45.4545454545455,4,2,1,50,0,0
24202,-38.4615384615385,4,2,1,50,0,0
24256,-38.4615384615385,4,2,1,5,0,0
24365,-38.4615384615385,4,2,1,50,0,0
24419,-38.4615384615385,4,2,1,5,0,0
24854,-32.258064516129,4,2,1,50,0,0
24962,-32.258064516129,4,2,1,5,0,0
25017,-40,4,2,1,50,0,0
25125,-40,4,2,1,5,0,0
25180,-47.6190476190476,4,2,1,50,0,0
25289,-47.6190476190476,4,2,1,5,0,0
25343,-58.8235294117647,4,2,1,50,0,0
25452,-58.8235294117647,4,2,1,5,0,0
25506,-76.9230769230769,4,2,1,50,0,0
25669,-76.9230769230769,4,2,1,20,0,0
26158,-32.258064516129,4,2,1,50,0,0
26267,-32.258064516129,4,2,1,5,0,0
26321,-40,4,2,1,50,0,0
26430,-40,4,2,1,5,0,0
26484,-47.6190476190476,4,2,1,50,0,0
26593,-47.6190476190476,4,2,1,5,0,0
26647,-58.8235294117647,4,2,1,50,0,0
26756,-58.8235294117647,4,2,1,5,0,0
26810,-76.9230769230769,4,2,1,50,0,0
26973,-76.9230769230769,4,2,1,20,0,0
27462,-32.258064516129,4,2,1,50,0,0
27571,-32.258064516129,4,2,1,5,0,0
27625,-40,4,2,1,50,0,0
27734,-40,4,2,1,5,0,0
27789,-47.6190476190476,4,2,1,50,0,0
27897,-47.6190476190476,4,2,1,5,0,0
27952,-58.8235294117647,4,2,1,50,0,0
28060,-58.8235294117647,4,2,1,5,0,0
28115,-76.9230769230769,4,2,1,50,0,0
28278,-76.9230769230769,4,2,1,20,0,0
28767,-32.258064516129,4,2,1,50,0,0
28875,-32.258064516129,4,2,1,5,0,0
28930,-40,4,2,1,50,0,0
29039,-40,4,2,1,5,0,0
29093,-47.6190476190476,4,2,1,50,0,0
29202,-47.6190476190476,4,2,1,5,0,0
29256,-58.8235294117647,4,2,1,50,0,0
29365,-58.8235294117647,4,2,1,5,0,0
29419,-76.9230769230769,4,2,1,50,0,0
29582,-76.9230769230769,4,2,1,20,0,0
30071,-32.258064516129,4,2,1,50,0,0
30180,-32.258064516129,4,2,1,5,0,0
30234,-40,4,2,1,50,0,0
30343,-40,4,2,1,5,0,0
30397,-47.6190476190476,4,2,1,50,0,0
30506,-47.6190476190476,4,2,1,5,0,0
30560,-58.8235294117647,4,2,1,50,0,0
30669,-58.8235294117647,4,2,1,5,0,0
30723,-76.9230769230769,4,2,1,50,0,0
30886,-76.9230769230769,4,2,1,20,0,0
31375,-32.258064516129,4,2,1,50,0,0
31484,-32.258064516129,4,2,1,5,0,0
31539,-40,4,2,1,50,0,0
31647,-40,4,2,1,5,0,0
31702,-47.6190476190476,4,2,1,50,0,0
31810,-47.6190476190476,4,2,1,5,0,0
31865,-58.8235294117647,4,2,1,50,0,0
31973,-58.8235294117647,4,2,1,5,0,0
32028,-76.9230769230769,4,2,1,50,0,0
32191,-76.9230769230769,4,2,1,20,0,0
32680,-28.5714285714286,4,2,1,50,0,0
32789,-28.5714285714286,4,2,1,5,0,0
32843,-28.5714285714286,4,2,1,50,0,0
32952,-28.5714285714286,4,2,1,5,0,0
33006,-28.5714285714286,4,2,1,50,0,0
33115,-28.5714285714286,4,2,1,5,0,0
33169,-28.5714285714286,4,2,1,50,0,0
33278,-28.5714285714286,4,2,1,5,0,0
33332,-25,4,2,1,50,0,0
33441,-25,4,2,1,5,0,0
33495,-25,4,2,1,50,0,0
33604,-25,4,2,1,5,0,0
33658,-25,4,2,1,50,0,0
33767,-25,4,2,1,5,0,0
33821,-25,4,2,1,50,0,0
33930,-25,4,2,1,5,0,0
33984,-62.5,4,2,1,50,0,0
34066,-62.5,4,2,1,5,0,0
34147,-62.5,4,2,1,50,0,0
34229,-62.5,4,2,1,5,0,0
34636,-47.6190476190476,4,2,1,50,0,0
34718,-47.6190476190476,4,2,1,5,0,0
34799,-47.6190476190476,4,2,1,50,0,0
34881,-47.6190476190476,4,2,1,5,0,0
35125,-47.6190476190476,4,2,1,50,0,0
35289,-55.5555555555556,4,2,1,50,0,0
35615,-58.8235294117647,4,2,1,50,0,0
36267,-50,4,2,1,50,0,0
36566,-50,4,2,1,5,0,0
36593,-43.4782608695652,4,2,1,50,0,0
36837,-50,4,2,1,50,0,0
36919,-71.4285714285714,4,2,1,50,0,0
37000,-71.4285714285714,4,2,1,5,0,0
37082,-62.5,4,2,1,50,0,0
37164,-62.5,4,2,1,30,0,0
37245,-83.3333333333333,4,2,1,50,0,0
37327,-83.3333333333333,4,2,1,30,0,0
37408,-50,4,2,1,50,0,0
37490,-50,4,2,1,30,0,0
37571,-71.4285714285714,4,2,1,50,0,0
37653,-71.4285714285714,4,2,1,30,0,0
37734,-55.5555555555556,4,2,1,50,0,0
37816,-55.5555555555556,4,2,1,30,0,0
37897,-43.4782608695652,4,2,1,50,0,0
38196,-43.4782608695652,4,2,1,5,0,0
38223,-50,4,2,1,50,0,0
38359,-50,4,2,1,30,0,0
38495,-50,4,2,1,40,0,0
38549,-52.6315789473684,4,2,1,50,0,0
38685,-52.6315789473684,4,2,1,30,0,0
38821,-52.6315789473684,4,2,1,40,0,0
38875,-43.4782608695652,4,2,1,50,0,0
39174,-43.4782608695652,4,2,1,5,0,0
39202,-35.7142857142857,4,2,1,50,0,0
39473,-35.7142857142857,4,2,1,5,0,0
39528,-35.7142857142857,4,2,1,50,0,0
39799,-35.7142857142857,4,2,1,5,0,0
39854,-43.4782608695652,4,2,1,50,0,0
40506,-47.6190476190476,4,2,1,50,0,0
41158,-41.6666666666667,4,2,1,50,0,0
42462,-45.4545454545455,4,2,1,50,0,0
42707,-45.4545454545455,4,2,1,5,0,0
42789,-45.4545454545455,4,2,1,50,0,0
43115,-38.4615384615385,4,2,1,50,0,0
43250,-38.4615384615385,4,2,1,5,0,0
43278,-47.6190476190476,4,2,1,50,0,0
43386,-47.6190476190476,4,2,1,5,0,0
43441,-38.4615384615385,4,2,1,50,0,0
43577,-38.4615384615385,4,2,1,5,0,0
43604,-47.6190476190476,4,2,1,50,0,0
43712,-47.6190476190476,4,2,1,5,0,0
43767,-38.4615384615385,4,2,1,50,0,0
43903,-38.4615384615385,4,2,1,5,0,0
43930,-47.6190476190476,4,2,1,50,0,0
44039,-47.6190476190476,4,2,1,5,0,0
44093,-38.4615384615385,4,2,1,50,0,0
44229,-38.4615384615385,4,2,1,5,0,0
44256,-47.6190476190476,4,2,1,50,0,0
44365,-47.6190476190476,4,2,1,5,0,0
44419,-37.037037037037,4,2,1,50,0,0
44718,-37.037037037037,4,2,1,5,0,0
44745,-45.4545454545455,4,2,1,50,0,0
44990,-45.4545454545455,4,2,1,5,0,0
45071,-52.6315789473684,4,2,1,50,0,0
45153,-52.6315789473684,4,2,1,40,0,0
45234,-58.8235294117647,4,2,1,50,0,0
45316,-58.8235294117647,4,2,1,40,0,0
45397,-58.8235294117647,4,2,1,50,0,0
45479,-58.8235294117647,4,2,1,40,0,0
45560,-76.9230769230769,4,2,1,50,0,0
45642,-76.9230769230769,4,2,1,40,0,0
45723,-43.4782608695652,4,2,1,50,0,0

[HitObjects]
244,328,723,6,0,B|287:321|287:321|292:314|292:314|296:321|296:321|308:319|318:324|328:333|328:333|335:342|335:342|339:334|339:334|394:324,1,164.9999949646
406,318,1049,2,0,P|435:267|406:214,1,116.666663106283
281,172,1376,6,0,B|263:178|245:189|245:189|257:180|260:170|264:164|266:145|265:138|262:129|262:129|261:120|268:114|274:105|274:105|283:68,1,158.333329105377
187,143,1702,2,0,B|178:124|185:98|186:90|195:84|198:79|200:69|207:67|207:67|209:64|209:64|216:20,1,127.500002431869
3,171,2028,1,0,0:0:0:0:
21,181,2354,2,0,B|45:188|56:188|72:184|91:168|91:168|93:155|93:155|99:163|99:163|109:153|120:149|128:144|141:144|154:139|173:148|185:165,1,183.333338928223
278,218,2680,6,0,B|295:223|313:235|313:235|302:225|298:216|294:209|292:190|293:183|297:174|297:174|297:165|291:159|284:150|284:150|275:113,1,158.333329105377
371,188,3006,2,0,B|380:168|373:143|371:135|363:128|360:124|358:114|350:112|350:112|349:108|349:108|342:64,1,127.500002431869
511,229,3332,1,0,0:0:0:0:
492,246,3658,2,0,B|479:261|462:272|447:267|436:268|424:260|414:255|402:231|408:206|408:206|423:144,1,183.333338928223
460,62,3984,6,0,B|467:46|455:28|438:12|421:8|394:10|394:10|369:37|370:65|375:84|400:116|435:112,1,233.333326212565
481,117,4310,2,0,B|499:115|517:99|517:66|499:39|499:39|479:36|461:33|434:49|430:73|424:92|443:131,1,225.000000858307
472,163,4636,2,0,B|496:167|512:160|520:146|526:117|526:117|512:99|500:84|473:81|455:96|432:104|431:146,1,208.333333333333
426,182,4962,2,0,B|423:186|432:202|452:212|470:212|479:205|493:194|493:194|493:175|490:160|482:147|465:141|444:145,1,165.0000050354
355,127,5289,6,0,P|339:131|334:136,1,20
458,106,5452,2,0,P|474:105|480:108,1,20
350,116,5615,2,0,P|329:111|307:123,1,42.5000008106231
458,95,5778,2,0,P|475:84|500:89,1,42.5000008106231
354,100,5941,6,0,P|334:87|309:87,1,44.999998626709
250,33,6104,2,0,L|254:-8,1,32.4999985122681
0,138,6267,2,0,P|20:125|45:125,1,44.999998626709
104,71,6430,2,0,L|100:30,1,32.4999985122681
266,134,6593,6,0,P|313:196|285:295,1,183.333338928223
95,297,6919,2,0,P|68:213|118:140,1,183.333338928223
259,155,7245,2,0,P|296:206|281:273,1,134.999995880127
101,276,7571,2,0,P|85:212|123:158,1,134.999995880127
196,109,7897,6,0,P|135:130|84:102,1,120
14,50,8223,1,0,0:0:0:0:
75,161,8386,1,0,0:0:0:0:
12,281,8549,2,0,B|6:318|6:318|-2:323|-2:323|4:332|4:332|-1:367,1,89.999997253418
117,248,8875,6,0,B|113:278|113:278|119:286|119:286|105:286|105:286|99:347,1,116.666663106283
121,372,9202,6,0,P|199:366|184:259,1,200
123,245,9691,2,0,P|105:246|93:263,1,32.4999985122681
9,262,9854,2,0,P|38:266|70:321,1,94.9999974632263
151,160,10180,1,0,0:0:0:0:
285,306,10343,1,0,0:0:0:0:
464,224,10506,6,0,P|493:187|492:138,1,89.999997253418
253,136,10832,2,0,P|237:88|257:48,1,89.999997253418
329,219,11158,2,0,L|322:268,1,40
356,327,11321,2,0,L|351:363,1,29.9999990844727
473,216,11484,2,0,L|467:166,1,40
418,118,11647,2,0,L|413:81,1,29.9999990844727
337,26,11810,5,0,0:0:0:0:
292,20,11892,1,0,0:0:0:0:
249,30,11973,1,0,0:0:0:0:
209,55,12055,1,0,0:0:0:0:
186,90,12136,2,0,P|193:70|181:45,1,44.999998626709
0,113,12299,5,0,0:0:0:0:
45,111,12381,1,0,0:0:0:0:
87,126,12462,1,0,0:0:0:0:
124,155,12544,1,0,0:0:0:0:
143,192,12625,2,0,P|137:172|151:147,1,44.999998626709
366,193,12789,5,0,0:0:0:0:
320,194,12871,1,0,0:0:0:0:
279,210,12952,1,0,0:0:0:0:
244,241,13034,1,0,0:0:0:0:
226,279,13115,2,0,P|229:258|214:235,1,44.999998626709
0,262,13278,5,0,0:0:0:0:
43,269,13360,1,0,0:0:0:0:
81,292,13441,1,0,0:0:0:0:
111,327,13523,1,0,0:0:0:0:
122,368,13604,2,0,P|120:347|139:325,1,44.999998626709
277,237,13767,6,0,L|298:232,5,16.6666666666667
232,243,14093,2,0,B|187:232|152:255|152:255|134:269|121:289|93:293|75:290|48:286|27:259,1,210.83333735466
32,262,14419,6,0,P|111:272|136:319,1,119.999996337891
180,361,14664,1,0,0:0:0:0:
180,361,14745,2,0,B|174:327|174:327|182:299|182:299|175:255,1,99.9999999999999
261,276,15071,1,0,0:0:0:0:
96,203,15234,1,0,0:0:0:0:
180,361,15397,1,0,0:0:0:0:
243,201,15560,6,0,B|268:192|291:197|306:210|306:210|318:205|318:205|314:215|314:215|329:231|333:238|338:250|339:269|339:269|350:279|350:279|339:285|339:285|336:305|324:325|301:337,1,239.999992675781
284,361,15968,1,0,0:0:0:0:
284,361,16049,2,0,P|322:334|390:355,1,89.999997253418
455,359,16294,1,0,0:0:0:0:
455,359,16375,6,0,L|497:350,1,34.9999989318848
480,204,16539,2,0,L|521:194,1,34.9999989318848
421,339,16701,2,0,L|456:331,1,34.9999989318848
386,164,16865,2,0,L|420:155,1,34.9999989318848
331,54,17028,6,0,P|274:39|205:103,1,119.999996337891
158,109,17272,1,0,0:0:0:0:
158,109,17354,2,0,B|123:109|123:109|97:97|97:97|52:97,1,99.9999999999999,0|0,3:0|3:0,3:0:0:0:
149,32,17680,1,0,3:0:0:0:
64,188,17843,1,0,3:0:0:0:
233,130,18006,1,0,3:0:0:0:
73,99,18169,2,0,B|89:86|110:88|110:88|114:83|114:83|131:68|154:63|154:63|161:64|161:64|162:59|162:59|183:43|210:46|226:59|234:78|230:89|213:99|198:91|187:81,1,220.000006713867
71,24,18577,1,0,0:0:0:0:
71,24,18658,2,0,P|116:35|174:1,1,89.999997253418
238,26,18903,1,0,0:0:0:0:
238,26,18984,6,0,L|292:35,1,34.9999989318848
420,22,19147,2,0,L|463:30,1,34.9999989318848
255,62,19310,2,0,L|304:73,1,34.9999989318848
417,168,19473,2,0,L|466:179,1,34.9999989318848
400,314,19636,6,0,P|343:360|276:318,1,119.999996337891
245,297,19881,1,0,0:0:0:0:
269,220,19962,2,0,P|311:185|366:207,1,99.9999999999999
441,362,20289,1,0,0:0:0:0:
285,276,20452,1,0,0:0:0:0:
417,217,20615,1,0,0:0:0:0:
348,325,20778,6,0,B|327:336|304:331|289:318|289:318|277:323|277:323|281:313|281:313|266:297|262:290|257:278|256:259|256:259|245:249|245:249|256:243|256:243|259:228|263:214|270:204|298:191,1,239.999992675781
417,217,21185,1,0,0:0:0:0:
417,217,21267,2,0,P|458:187|465:139,1,89.999997253418
459,56,21511,1,0,0:0:0:0:
459,56,21593,6,0,L|466:16,1,34.9999989318848
351,130,21756,2,0,L|356:164,1,34.9999989318848
433,68,21919,2,0,L|440:25,1,34.9999989318848
284,83,22082,2,0,L|276:117,1,34.9999989318848
120,127,22245,6,0,P|92:195|152:246,1,119.999996337891
182,270,22490,1,0,0:0:0:0:
252,227,22571,2,0,P|274:176|245:126,1,99.9999999999999
144,104,22897,1,0,0:0:0:0:
72,264,23060,1,0,0:0:0:0:
245,220,23223,1,0,0:0:0:0:
77,172,23386,6,0,B|76:191|77:209|102:226|102:226|110:224|110:224|107:238|107:238|122:259|133:285|128:301|117:315|102:319|82:322|68:292|78:273|95:267|109:273,1,220.000006713867
186,227,23794,1,0,0:0:0:0:
186,227,23875,1,0,0:0:0:0:
64,208,24202,6,0,L|116:204,1,43.3333313496908
176,223,24365,2,0,L|128:220,1,43.3333313496908
210,76,24854,6,0,B|215:70|217:63|211:51|207:45|197:41|185:41|185:41|178:49|175:58|178:68|183:75|188:79|193:84|205:87,1,103.333334121704
180,107,25017,2,0,B|168:100|159:104|152:110|146:120|146:120|155:133|167:138|179:131|185:122|187:118|189:109,1,83.3333333333332
209,136,25180,2,0,B|198:145|199:152|203:160|212:165|212:165|218:164|222:159|226:155|228:148|227:141|218:132,1,69.9999978637695
245,119,25343,2,0,B|246:127|252:131|260:132|269:126|269:126|266:117|261:110|252:110,1,56.6666677474975
246,83,25506,2,0,B|252:78|253:73|251:66|251:66|243:65|237:67|230:73|227:82|226:102,1,64.9999970245362
129,259,26158,6,0,B|124:253|122:246|128:234|132:228|142:224|154:224|154:224|161:232|164:241|161:251|156:258|151:262|146:267|134:270,1,103.333334121704
159,290,26321,2,0,B|171:283|180:287|187:293|193:303|193:303|184:316|172:321|160:314|154:305|152:301|150:292,1,83.3333333333332
130,319,26484,2,0,B|141:328|140:335|136:343|127:348|127:348|121:347|117:342|113:338|111:331|112:324|121:315,1,69.9999978637695
94,302,26647,2,0,B|93:310|87:314|79:315|70:309|70:309|73:300|78:293|87:293,1,56.6666677474975
93,266,26810,2,0,B|87:261|86:256|88:249|88:249|96:248|102:250|109:256|112:265|113:285,1,64.9999970245362
361,187,27462,6,0,B|354:191|347:193|335:186|330:182|326:172|327:160|327:160|335:153|344:151|354:154|361:159|365:165|369:170|372:182,1,103.333334121704
393,160,27625,2,0,B|386:147|391:138|397:132|407:126|407:126|420:136|424:148|417:160|407:165|403:167|394:169,1,83.3333333333332
419,189,27789,2,0,B|428:178|435:179|443:184|447:193|447:193|446:199|441:203|437:206|429:208|423:207|414:197,1,69.9999978637695
401,224,27952,2,0,B|408:225|412:231|413:239|406:248|406:248|397:244|391:239|391:230,1,56.6666677474975
365,224,28115,2,0,B|359:229|354:230|347:228|347:228|347:220|349:214|355:207|364:204|385:205,1,64.9999970245362
128,104,28767,6,0,B|135:107|142:108|153:100|158:95|161:85|158:73|158:73|150:67|141:66|131:70|125:76|121:82|118:87|116:100,1,103.333334121704
93,80,28930,2,0,B|98:66|92:57|86:52|75:47|75:47|63:58|60:71|69:82|79:86|83:88|92:89,1,83.3333333333332
70,112,29093,2,0,B|59:102|53:103|45:109|42:118|42:118|44:124|49:128|53:130|62:131|67:130|75:119,1,69.9999978637695
92,144,29256,2,0,B|85:145|81:152|81:160|89:168|89:168|98:163|103:157|102:148,1,56.6666677474975
127,141,29419,2,0,B|133:145|138:145|145:143|145:143|144:135|141:129|135:123|125:121|105:124,1,64.9999970245362
300,72,30071,6,0,B|295:66|293:59|299:47|303:41|313:37|325:37|325:37|332:45|335:54|332:64|327:71|322:75|317:80|305:83,1,103.333334121704
330,103,30234,2,0,B|342:96|351:100|358:106|364:116|364:116|355:129|343:134|331:127|325:118|323:114|321:105,1,83.3333333333332
301,132,30397,2,0,B|312:141|311:148|307:156|298:161|298:161|292:160|288:155|284:151|282:144|283:137|292:128,1,69.9999978637695
265,115,30560,2,0,B|264:123|258:127|250:128|241:122|241:122|244:113|249:106|258:106,1,56.6666677474975
264,79,30723,2,0,B|258:74|257:69|259:62|259:62|267:61|273:63|280:69|283:78|284:98,1,64.9999970245362
380,308,31375,6,0,B|375:314|373:321|379:333|383:339|393:343|405:343|405:343|412:335|415:326|412:316|407:309|402:305|397:300|385:297,1,103.333334121704
410,277,31539,2,0,B|422:284|431:280|438:274|444:264|444:264|435:251|423:246|411:253|405:262|403:266|401:275,1,83.3333333333332
381,248,31702,2,0,B|392:239|391:232|387:224|378:219|378:219|372:220|368:225|364:229|362:236|363:243|372:252,1,69.9999978637695
345,265,31865,2,0,B|344:257|338:253|330:252|321:258|321:258|324:267|329:274|338:274,1,56.6666677474975
344,301,32028,2,0,B|338:306|337:311|339:318|339:318|347:319|353:317|360:311|363:302|364:282,1,64.9999970245362
159,74,32680,6,0,B|143:68|137:55|143:36|158:25|158:25|170:27|182:32|193:48|190:56|174:77,1,116.666667779287
249,97,32843,2,0,B|252:83|265:76|283:80|295:95|295:95|295:107|290:120|275:132|266:129|258:122,1,116.666667779287
217,189,33006,2,0,B|229:194|235:197|235:217|227:229|218:236|218:236|199:236|185:222|182:209|192:198,1,116.666667779287
121,167,33169,2,0,B|117:178|112:185|93:184|81:176|75:168|75:168|74:148|87:134|102:131|114:141,1,116.666667779287
242,68,33332,6,0,B|261:62|270:62|277:44|275:31|270:20|270:20|251:13|232:19|225:30|225:51,1,133.333333333333
144,199,33495,2,0,B|145:220|138:232|119:240|101:234|101:234|94:223|93:211|99:191|107:190|126:184,1,133.333333333333
260,165,33658,2,0,B|281:165|289:165|300:182|299:195|295:206|295:206|279:216|260:213|250:203|247:181,1,133.333333333333
114,71,33821,2,0,B|111:54|101:43|81:39|66:50|66:50|62:62|62:74|72:91|80:92|103:94,1,133.333333333333
201,113,33984,6,0,L|241:106,1,40
93,169,34147,2,0,L|53:162,1,40
212,127,34636,6,0,L|277:116,1,52.4999983978272
85,185,34799,2,0,L|28:174,1,52.4999983978272
208,364,35125,5,0,0:0:0:0:
208,364,35207,1,0,0:0:0:0:
208,364,35289,2,0,P|232:320|216:272,1,89.999997253418
112,136,35615,2,0,B|116:112|116:112|104:104|104:104|112:96|112:96|120:52,1,85.0000016212463
4,184,35941,1,0,0:0:0:0:
216,248,36104,1,0,0:0:0:0:
132,52,36267,2,0,B|140:36|116:28|116:28|48:52|48:52|28:52|16:44|20:16|44:8|56:32,1,183.333333333333
55,31,36593,6,0,B|72:64|60:92|52:104|48:112|48:112|40:127|32:144|28:172|44:196,1,172.500003290176
68,220,36919,2,0,L|108:216,1,34.9999989318848
204,152,37082,2,0,L|208:108,1,40
288,180,37245,2,0,L|292:144,1,29.9999990844727
332,88,37408,6,0,P|316:120|320:144,1,50
404,248,37571,2,0,L|400:208,1,34.9999989318848
484,220,37734,2,0,L|476:168,1,44.999998626709
364,100,37897,6,0,B|352:92|332:92|328:112|332:132|340:140|352:140|376:136|376:136|384:144|384:144|388:132|388:132|408:120|428:120|428:120|488:132,1,210.83333735466
496,132,38223,2,0,P|520:92|504:48,2,83.3333333333333
344,188,38549,2,0,P|320:158|324:113,2,79.1666645526886
476,232,38875,2,0,B|500:204|485:181|485:181|452:192|452:224|452:224|462:329,1,210.83333735466
462,330,39202,6,0,B|478:350|494:358|494:358|458:354|426:358|426:358|414:350|394:350|394:350|386:346|378:346|378:346|366:342|366:342|361:337|361:337|354:342|354:342|303:348,1,233.333326212565
231,323,39528,2,0,B|243:300|258:290|258:290|223:299|191:300|191:300|180:310|160:313|160:313|153:319|145:320|145:320|134:325|134:325|130:331|130:331|122:328|122:328|71:330,1,233.333326212565
14,240,39854,6,0,B|57:250|57:250|63:244|63:244|67:253|67:253|81:259|101:268|101:268|106:274|106:274|111:269|111:269|144:264|144:264|154:252|154:252|165:264|165:264|231:280,1,230.000004386902
296,359,40343,1,0,0:0:0:0:
477,213,40506,2,0,P|489:171|452:116,1,104.999996795654
339,129,40832,1,0,0:0:0:0:
334,269,40995,1,0,0:0:0:0:
485,206,41158,6,0,B|488:222|502:224|512:222|519:209|516:189|509:183|480:180|480:180|436:172,1,119.999996337891
338,216,41484,1,0,0:0:0:0:
336,208,41810,5,0,0:0:0:0:
355,58,41973,1,0,0:0:0:0:
266,272,42136,1,0,0:0:0:0:
221,123,42299,1,0,0:0:0:0:
222,351,42462,2,0,B|180:347|180:347|173:340|173:340|170:347|170:347|124:357|124:357|114:364|114:364|108:359|108:359|67:348,1,165.0000050354
43,339,42789,1,0,0:0:0:0:
43,339,42952,1,0,0:0:0:0:
159,206,43115,6,0,B|160:218|152:226|146:230|139:224|130:219|133:205|140:196|140:196|176:157,1,108.333328374227
175,154,43278,2,0,P|188:116|186:87,1,69.9999978637695
251,16,43441,2,0,B|241:6|243:-3|244:-9|254:-10|264:-12|271:0|271:11|271:11|267:64,1,108.333328374227
268,68,43604,2,0,P|280:105|301:127,1,69.9999978637695
343,199,43767,2,0,B|344:211|336:219|330:223|323:217|314:212|317:198|324:189|324:189|360:150,1,108.333328374227
359,147,43930,2,0,P|372:109|370:80,1,69.9999978637695
384,7,44093,2,0,B|374:-3|376:-13|377:-19|387:-20|397:-22|404:-9|404:2|404:2|400:55,1,108.333328374227
401,59,44256,2,0,P|413:96|434:118,1,69.9999978637695
512,175,44419,6,0,B|441:149|400:183|377:205|373:239|381:262|411:278|434:284|461:253,1,247.500000944137
457,253,44745,2,0,B|454:237|436:231|411:232|393:243|388:259|365:269|354:282|334:279|318:272|307:267|295:258,1,165.0000050354
253,218,45071,6,0,P|235:203|207:200,1,47.4999987316131
188,271,45234,2,0,P|203:285|224:287,1,42.5000008106231
343,260,45397,2,0,P|371:248|392:253,1,42.5000008106231
393,325,45560,2,0,P|378:335|360:329,1,32.4999985122681
304,283,45723,6,0,P|317:348|281:384,1,115.000002193451
188,361,46049,1,0,0:0:0:0:
188,361,46212,1,0,0:0:0:0:
