osu file format v14

[General]
AudioFilename: audio.mp3
AudioLeadIn: 1500
PreviewTime: 48036
Countdown: 0
SampleSet: Soft
StackLeniency: 0.7
Mode: 0
LetterboxInBreaks: 0
WidescreenStoryboard: 0

[Editor]
DistanceSpacing: 1.5
BeatDivisor: 4
GridSize: 4
TimelineZoom: 2.699999

[Metadata]
Title:Akekure Nikki
TitleUnicode:明け暮れ日記
Artist:Ichiki Mitsuhiro, Masuda Toshiki
ArtistUnicode:市来光弘、増田俊樹
Creator:tutuhaha
Version:Insane
Source:刀剣乱舞-花丸-
Tags:大和守安定 加州清光 Yamatonokami Yasusada Kashuu Kiyomitsu Touken Ranbu 刀剣乱舞 ending tv size cmn_891127
BeatmapID:1111586
BeatmapSetID:523619

[Difficulty]
HPDrainRate:7
CircleSize:4
OverallDifficulty:8
ApproachRate:9
SliderMultiplier:1.8
SliderTickRate:1

[Events]
//Background and Video events
0,0,"bg.jpg",0,0
Video,0,"optc.flv"
//Break Periods
//Storyboard Layer 0 (Background)
//Storyboard Layer 1 (Fail)
//Storyboard Layer 2 (Pass)
//Storyboard Layer 3 (Foreground)
//Storyboard Sound Samples

[TimingPoints]
79,422.535211267606,4,2,1,80,1,0
924,-200,4,2,2,80,0,0
1769,-100,4,2,2,80,0,0
7895,-100,4,2,2,55,0,0
8529,-100,4,2,1,30,0,0
8635,-100,4,2,1,80,0,0
21417,-100,4,2,2,55,0,0
22050,-100,4,2,1,50,0,0
22156,-100,4,2,1,80,0,0
24797,-100,4,2,2,60,0,0
25219,-100,4,2,1,80,0,0
27332,-100,4,2,2,55,0,0
28388,-100,4,2,1,80,0,0
28811,-100,4,2,1,50,0,0
28917,-100,4,2,1,80,0,0
31557,-100,4,2,2,55,0,0
31980,-100,4,2,1,80,0,0
34726,-100,4,2,2,80,0,0
35571,-100,4,3,1,60,0,0
42332,-100,4,2,1,60,0,0
42438,-100,4,2,1,80,0,0
45712,-100,4,2,1,40,0,0
47402,-100,4,2,2,40,0,0
49093,-100,4,2,1,50,0,1
49198,-100,4,2,1,80,0,1
52473,-100,4,2,2,40,0,1
52579,-100,4,2,1,80,0,1
55853,-100,4,2,1,50,0,1
55959,-100,4,2,1,80,0,1
59233,-100,4,2,2,40,0,1
59339,-100,4,2,1,80,0,1
61769,-100,4,2,1,80,0,0
62614,-100,4,2,1,50,0,1
62719,-100,4,2,1,80,0,1
65994,-100,4,2,2,40,0,1
66100,-100,4,2,1,80,0,1
69374,-100,4,2,1,50,0,1
69480,-100,4,2,1,80,0,1
72755,-100,4,2,2,40,0,1
72860,-100,4,2,1,80,0,1
75924,-100,4,2,1,50,0,1
76135,-100,4,2,1,40,0,0
76240,-100,4,2,1,10,0,0
78670,-100,4,2,2,80,0,0
85853,-100,4,2,2,50,0,0
86276,-100,4,2,2,80,0,0

[Colours]
Combo1 : 160,186,114
Combo2 : 255,55,55
Combo3 : 85,162,255
Combo4 : 205,129,224

[HitObjects]
112,40,924,6,0,L|98:34,11,15,2|0|0|0|0|0|0|0|0|0|0|0,0:0|0:0|0:0|0:0|0:0|0:0|0:0|0:0|0:0|0:0|0:0|0:0,0:0:0:0:
130,52,1769,6,0,P|126:125|140:155,1,90,6|0,0:0|0:0,0:0:0:0:
234,229,2191,1,2,0:0:0:0:
231,96,2402,1,2,0:0:0:0:
139,197,2614,1,2,0:0:0:0:
16,142,2825,1,2,0:0:0:0:
19,161,2895,1,2,0:0:0:0:
23,181,2966,1,2,0:0:0:0:
26,201,3036,2,0,L|53:309,1,90,2|2,0:0|0:0,0:0:0:0:
160,360,3459,5,2,0:0:0:0:
272,256,3670,1,2,0:0:0:0:
256,380,3881,1,2,0:0:0:0:
180,236,4093,1,2,0:0:0:0:
340,320,4304,2,0,P|380:344|412:384,1,90,2|0,0:0|0:0,0:0:0:0:
344,216,4726,2,0,P|328:168|328:112,1,90,2|0,0:0|0:0,0:0:0:0:
448,0,5149,6,0,L|432:112,1,90,2|0,0:0|0:0,0:0:0:0:
213,136,5571,2,0,L|200:48,1,90,2|0,0:0|0:0,0:0:0:0:
332,92,5994,1,2,0:0:0:0:
220,228,6205,2,0,L|212:268,3,30,2|2|2|2,0:0|0:0|0:0|0:0,0:0:0:0:
168,92,6628,1,2,0:0:0:0:
308,168,6839,5,2,0:0:0:0:
180,336,7050,1,2,0:0:0:0:
392,200,7262,1,2,0:0:0:0:
208,240,7473,1,2,0:0:0:0:
392,336,7684,5,2,0:0:0:0:
308,168,7895,1,10,0:0:0:0:
424,100,8107,2,0,B|432:84|432:84|428:76|428:76|440:64|440:8,1,90,8|0,0:0|0:0,0:0:0:0:
312,124,8529,5,4,0:1:0:0:
340,236,8740,1,0,0:0:0:0:
388,344,8952,2,0,P|444:368|480:396,1,90,8|0,0:0|0:0,0:0:0:0:
428,248,9374,1,0,0:0:0:0:
320,204,9586,1,0,0:0:0:0:
320,204,9691,1,0,0:0:0:0:
320,204,9797,1,8,0:0:0:0:
252,300,10008,1,0,0:0:0:0:
144,252,10219,6,0,P|128:196|96:156,1,90
196,4,10642,2,0,P|212:52|200:112,1,90,8|0,0:0|0:0,0:0:0:0:
112,60,11064,1,0,0:0:0:0:
296,56,11276,1,0,0:0:0:0:
184,200,11487,1,8,0:0:0:0:
208,90,11698,1,0,0:0:0:0:
272,216,11909,6,0,L|252:304,2,90,0|0|8,0:0|0:0|0:0,0:0:0:0:
300,104,12543,1,0,0:0:0:0:
384,188,12755,1,0,0:0:0:0:
480,96,12966,1,0,0:0:0:0:
480,96,13071,1,0,0:0:0:0:
480,96,13177,2,0,P|420:108|380:88,1,90,8|0,0:0|0:0,0:0:0:0:
272,36,13600,5,0,0:0:0:0:
380,48,13811,1,0,0:0:0:0:
232,136,14022,1,8,0:0:0:0:
329,184,14233,1,0,0:0:0:0:
156,216,14445,1,0,0:0:0:0:
232,295,14656,1,0,0:0:0:0:
105,366,14867,5,10,0:0:0:0:
176,200,15079,1,2,0:0:0:0:
68,56,15290,6,0,L|64:164,1,90,2|0,0:0|0:0,0:0:0:0:
216,360,15712,2,0,L|219:270,1,90,10|2,0:0|0:0,0:0:0:0:
260,84,16135,1,2,0:0:0:0:
344,176,16346,1,0,0:0:0:0:
456,44,16557,1,10,0:0:0:0:
316,136,16769,1,2,0:0:0:0:
232,20,16980,5,2,0:0:0:0:
232,20,17191,1,2,0:0:0:0:
180,124,17402,2,0,P|172:188|172:232,1,90,10|2,0:0|0:0,0:0:0:0:
172,332,17825,1,2,0:0:0:0:
96,236,18036,1,0,0:0:0:0:
244,184,18248,2,0,P|280:236|296:284,1,90,10|2,0:0|0:0,0:0:0:0:
416,348,18670,6,0,P|352:344|288:352,1,90,2|0,0:0|0:0,0:0:0:0:
180,348,19093,1,10,0:0:0:0:
268,272,19304,1,2,0:0:0:0:
156,172,19515,2,0,P|148:224|128:268,1,90,2|2,0:0|0:0,0:0:0:0:
72,304,19832,1,2,0:0:0:0:
72,304,19938,2,0,P|116:272|176:252,1,90,10|2,0:0|0:0,0:0:0:0:
252,284,20360,5,2,0:0:0:0:
200,88,20571,1,0,0:0:0:0:
216,84,20677,1,0,0:0:0:0:
232,80,20783,2,0,L|296:72,1,45,8|0,0:0|0:0,0:0:0:0:
316,152,20994,2,0,L|256:144,1,45
336,224,21205,2,0,L|436:208,2,90,0|8|8,0:0|0:0|0:0,0:0:0:0:
244,296,21839,1,0,0:0:0:0:
360,72,22050,5,4,0:1:0:0:
244,56,22262,1,0,0:0:0:0:
336,168,22473,2,0,P|412:160|448:136,1,90,8|0,0:0|0:0,0:0:0:0:
308,24,22895,1,0,0:0:0:0:
244,140,23107,1,0,0:0:0:0:
244,164,23212,1,0,0:0:0:0:
244,188,23318,1,8,0:0:0:0:
200,296,23529,1,0,0:0:0:0:
48,204,23740,6,0,P|120:200|180:208,1,90
288,148,24163,2,0,P|212:120|200:112,1,90,8|0,0:0|0:0,0:0:0:0:
320,56,24586,1,0,0:0:0:0:
380,180,24797,1,8,0:0:0:0:
432,20,25008,1,8,0:0:0:0:
380,180,25219,1,0,0:0:0:0:
416,292,25431,6,0,P|464:308|504:352,2,90,0|0|8,0:0|0:0|0:0,0:0:0:0:
300,284,26064,1,0,0:0:0:0:
216,200,26276,2,0,P|184:160|176:116,1,90
216,56,26593,1,0,0:0:0:0:
216,56,26698,2,0,P|156:72|116:60,1,90,8|0,0:0|0:0,0:0:0:0:
32,20,27121,5,0,0:0:0:0:
204,28,27332,1,8,0:0:0:0:
376,32,27543,2,0,P|360:112|372:184,1,135,8|8,0:0|0:0,0:0:0:0:
424,208,27966,2,0,L|312:240,1,90,8|0,0:0|0:0,0:0:0:0:
184,144,28388,2,0,P|248:160|284:184,1,90,8|0,0:0|0:0,0:0:0:0:
440,328,28811,6,0,L|332:328,1,90,4|0,0:1|0:0,0:0:0:0:
212,288,29233,2,0,L|104:288,1,90,8|0,0:0|0:0,0:0:0:0:
32,84,29656,2,0,L|122:84,1,90
244,164,30079,1,8,0:0:0:0:
316,40,30290,1,0,0:0:0:0:
432,200,30501,6,0,P|348:188|304:196,1,90
296,252,30818,1,0,0:0:0:0:
296,252,30924,2,0,L|184:264,1,90,8|0,0:0|0:0,0:0:0:0:
100,268,31346,1,0,0:0:0:0:
248,352,31557,1,8,0:0:0:0:
156,192,31769,1,8,0:0:0:0:
336,296,31980,1,0,0:0:0:0:
336,296,32191,6,0,P|340:352|348:388,1,90
444,240,32614,2,0,P|452:192|452:136,1,90,8|0,0:0|0:0,0:0:0:0:
392,52,33036,1,0,0:0:0:0:
316,140,33248,1,0,0:0:0:0:
316,140,33353,1,0,0:0:0:0:
316,140,33459,1,8,0:0:0:0:
312,8,33670,1,0,0:0:0:0:
464,64,33881,5,0,0:0:0:0:
404,248,34093,2,0,L|400:308,1,45
332,320,34304,2,0,L|323:275,1,45,8|0,0:0|0:0,0:0:0:0:
251,275,34515,2,0,L|247:335,1,45
175,303,34726,5,4,0:0:0:0:
171,279,34832,1,0,0:0:0:0:
167,255,34938,1,0,0:0:0:0:
163,231,35043,1,0,0:0:0:0:
159,207,35149,1,8,0:0:0:0:
32,64,35571,6,0,P|80:104|132:112,1,90,0|0,0:1|0:0,0:0:0:0:
264,36,35994,2,0,P|197:34|160:56,1,90
40,188,36417,2,0,L|136:184,1,90
240,96,36839,1,0,0:0:0:0:
280,264,37050,1,0,0:0:0:0:
476,152,37262,6,0,L|386:155,2,90,0|0|0,0:0|0:0|0:0,0:0:0:0:
280,264,37895,1,0,0:0:0:0:
212,128,38107,2,0,L|209:38,1,90
304,180,38529,2,0,L|288:252,1,45
173,248,38740,2,0,L|168:204,1,45,0|0,0:0|0:0,0:0:0:0:
244,280,38952,6,0,P|308:312|324:392,1,135,0|0,0:1|0:0,0:0:0:0:
400,336,39374,2,0,P|400:284|440:228,1,90
472,64,39797,2,0,L|368:64,1,90
192,172,40219,2,0,L|282:172,1,90,0|0,0:0|0:0,0:0:0:0:
380,296,40642,5,0,0:0:0:0:
260,352,40853,1,0,0:0:0:0:
272,196,41064,1,0,0:0:0:0:
132,256,41276,1,0,0:0:0:0:
116,96,41487,2,0,P|104:44|116:0,1,90
256,136,41909,1,0,0:0:0:0:
260,160,42015,1,0,0:0:0:0:
260,184,42121,1,0,0:0:0:0:
256,204,42226,1,0,0:0:0:0:
236,236,42332,6,0,P|236:280|248:336,1,90,4|0,0:1|0:0,0:0:0:0:
344,236,42755,1,8,0:0:0:0:
168,176,42966,1,0,0:0:0:0:
328,120,43177,2,0,P|336:75|336:30,1,90
228,180,43600,1,8,0:0:0:0:
436,112,43811,1,0,0:0:0:0:
208,56,44022,6,0,L|118:50,1,90
272,184,44445,2,0,L|361:189,1,90,8|0,0:0|0:0,0:0:0:0:
144,256,44867,2,0,P|110:285|70:306,1,90,0|0,0:0|0:0,0:0:0:0:
116,100,45290,1,8,0:0:0:0:
208,200,45501,1,0,0:0:0:0:
400,336,45712,6,0,L|310:330,1,90,4|0,1:0|3:3,0:0:0:0:
200,164,46135,2,0,L|289:169,1,90,4|0,1:0|3:3,0:0:0:0:
488,32,46557,2,0,L|399:38,1,90,4|0,1:0|3:3,0:0:0:0:
246,209,46980,2,0,L|336:204,1,90,4|0,1:0|3:3,0:0:0:0:
52,48,47402,5,0,1:0:0:0:
184,168,47614,1,0,1:0:0:0:
256,16,47825,1,0,1:0:0:0:
88,124,48036,1,0,1:0:0:0:
216,220,48248,2,0,L|250:43,1,180,2|2,0:0|0:0,0:0:0:0:
296,292,49093,6,0,P|312:340|348:376,1,90,6|0,0:0|0:0,0:0:0:0:
352,224,49515,1,10,0:0:0:0:
212,248,49726,1,2,0:0:0:0:
88,184,49938,2,0,P|61:148|20:130,1,90,2|0,0:0|0:0,0:0:0:0:
12,298,50360,2,0,P|39:334|80:352,1,90,10|0,0:0|0:0,0:0:0:0:
131,197,50783,5,2,0:0:0:0:
246,234,50994,1,2,0:0:0:0:
131,75,51205,1,10,0:0:0:0:
317,136,51417,1,2,0:0:0:0:
246,37,51628,1,2,0:0:0:0:
246,37,52050,2,0,L|232:140,1,90,10|2,0:0|0:0,0:0:0:0:
290,328,52473,5,6,0:0:0:0:
416,280,52684,1,0,0:0:0:0:
342,148,52895,2,0,P|316:208|314:252,1,90,10|0,0:0|0:0,0:0:0:0:
206,172,53318,1,2,0:0:0:0:
206,172,53529,1,2,0:0:0:0:
158,44,53740,1,10,0:0:0:0:
290,72,53952,1,2,0:0:0:0:
316,269,54163,5,2,0:0:0:0:
245,368,54374,1,2,0:0:0:0:
130,208,54586,1,10,0:0:0:0:
130,330,54797,1,2,0:0:0:0:
245,171,55008,1,2,0:0:0:0:
245,171,55431,2,0,P|168:168|140:152,1,90,10|2,0:0|0:0,0:0:0:0:
44,64,55853,5,6,0:0:0:0:
112,184,56064,1,0,0:0:0:0:
240,128,56276,2,0,P|296:144|332:196,1,90,10|2,0:0|0:0,0:0:0:0:
328,312,56698,1,2,0:0:0:0:
200,240,56909,1,0,0:0:0:0:
262,40,57121,2,0,L|234:148,1,90,10|0,0:0|0:0,0:0:0:0:
104,344,57543,5,2,0:0:0:0:
104,344,57755,1,2,0:0:0:0:
256,280,57966,1,10,0:0:0:0:
256,280,58177,1,2,0:0:0:0:
408,344,58388,2,0,P|456:336|496:312,1,90,2|0,0:0|0:0,0:0:0:0:
360,248,58811,1,10,0:0:0:0:
308,356,59022,1,2,0:0:0:0:
248,200,59233,6,0,P|224:156|220:100,1,90,6|0,0:0|0:0,0:0:0:0:
352,12,59656,2,0,P|400:26|442:62,1,90,10|0,0:0|0:0,0:0:0:0:
412,192,60079,1,2,0:0:0:0:
320,320,60290,1,2,0:0:0:0:
320,320,60395,1,2,0:0:0:0:
320,320,60501,1,10,0:0:0:0:
216,188,60712,1,2,0:0:0:0:
416,252,60924,6,0,P|440:312|436:360,1,90,2|0,0:0|0:0,0:0:0:0:
212,368,61346,2,0,P|216:323|236:283,1,90,8|0,0:0|0:0,0:0:0:0:
344,144,61769,1,2,0:0:0:0:
212,172,61980,1,2,0:0:0:0:
112,80,62191,1,8,0:0:0:0:
224,204,62402,1,2,0:0:0:0:
364,96,62614,6,0,P|416:80|464:40,1,90,4|0,0:0|0:0,0:0:0:0:
292,52,63036,1,10,0:0:0:0:
416,164,63248,1,2,0:0:0:0:
384,280,63459,2,0,P|348:296|312:332,1,90,2|0,0:0|0:0,0:0:0:0:
132,348,63881,2,0,L|24:336,1,90,10|0,0:0|0:0,0:0:0:0:
44,148,64304,5,2,0:0:0:0:
144,248,64515,1,2,0:0:0:0:
252,104,64726,1,10,0:0:0:0:
140,160,64938,1,2,0:0:0:0:
240,280,65149,2,0,L|248:380,1,90,2|0,0:0|0:0,0:0:0:0:
344,204,65571,2,0,L|336:114,1,90,10|2,0:0|0:0,0:0:0:0:
400,16,65994,5,6,0:0:0:0:
248,76,66205,1,0,0:0:0:0:
424,120,66417,1,10,0:0:0:0:
312,16,66628,1,0,0:0:0:0:
224,156,66839,1,2,0:0:0:0:
224,156,67050,1,2,0:0:0:0:
88,84,67262,1,10,0:0:0:0:
88,84,67473,1,2,0:0:0:0:
200,232,67684,5,2,0:0:0:0:
252,44,67895,1,2,0:0:0:0:
424,132,68107,1,10,0:0:0:0:
228,16,68318,1,2,0:0:0:0:
182,206,68529,2,0,P|143:227|100:240,1,90,2|0,0:0|0:0,0:0:0:0:
48,104,68952,1,10,0:0:0:0:
64,248,69163,1,2,0:0:0:0:
252,148,69374,6,0,L|372:152,1,90,6|0,0:0|0:0,0:0:0:0:
420,280,69797,2,0,L|540:284,1,90,10|2,0:0|0:0,0:0:0:0:
360,104,70219,2,0,L|270:106,1,90,2|0,0:0|0:0,0:0:0:0:
192,236,70642,2,0,L|102:238,1,90,10|0,0:0|0:0,0:0:0:0:
244,160,71064,5,2,0:0:0:0:
352,300,71276,1,2,0:0:0:0:
376,88,71487,1,10,0:0:0:0:
296,224,71698,1,2,0:0:0:0:
252,24,71909,1,2,0:0:0:0:
252,24,72332,2,0,L|268:128,1,90,10|2,0:0|0:0,0:0:0:0:
425,348,72755,6,0,P|408:306|376:274,1,90,6|0,0:0|0:0,0:0:0:0:
160,320,73177,2,0,P|199:342|242:350,1,90,10|0,0:0|0:0,0:0:0:0:
244,190,73600,2,0,P|256:147|284:112,1,90,2|2,0:0|0:0,0:0:0:0:
331,47,73917,1,2,0:0:0:0:
308,28,74022,2,0,P|265:43|221:49,1,90,10|2,0:0|0:0,0:0:0:0:
80,176,74445,6,0,L|64:272,1,90,2|0,0:0|0:0,0:0:0:0:
248,376,74867,2,0,L|262:287,1,90,8|0,0:0|0:0,0:0:0:0:
392,160,75290,1,0,0:0:0:0:
188,188,75501,1,0,0:0:0:0:
380,276,75712,1,10,0:0:0:0:
272,112,75924,1,2,0:0:0:0:
376,12,76135,5,2,0:0:0:0:
256,192,76240,12,4,78670,0:0:0:0:
336,312,79093,5,2,0:0:0:0:
432,228,79304,1,2,0:0:0:0:
336,128,79515,6,0,P|336:192|348:224,1,90,6|0,0:0|0:0,0:0:0:0:
224,352,79938,2,0,L|108:364,1,90,2|2,0:0|0:0,0:0:0:0:
28,212,80360,1,2,0:0:0:0:
160,256,80571,1,2,0:0:0:0:
168,240,80642,1,2,0:0:0:0:
176,224,80712,1,2,0:0:0:0:
184,208,80783,1,2,0:0:0:0:
120,84,80994,1,2,0:0:0:0:
268,248,81205,6,0,P|288:296|288:352,1,90,2|2,0:0|0:0,0:0:0:0:
348,140,81628,2,0,P|356:84|380:44,1,90,2|2,0:0|0:0,0:0:0:0:
488,268,82050,2,0,L|388:252,1,90,2|0,0:0|0:0,0:0:0:0:
312,116,82473,2,0,L|212:100,1,90,2|0,0:0|0:0,0:0:0:0:
104,244,82895,6,0,P|164:236|212:204,1,90,2|0,0:0|0:0,0:0:0:0:
104,32,83318,2,0,P|44:40|-4:72,1,90,2|0,0:0|0:0,0:0:0:0:
104,244,83740,1,2,0:0:0:0:
180,92,83952,1,2,0:0:0:0:
164,88,84022,1,2,0:0:0:0:
148,84,84093,1,2,0:0:0:0:
132,80,84163,1,2,0:0:0:0:
189,222,84374,1,2,0:0:0:0:
392,192,84586,5,2,0:0:0:0:
206,131,84797,1,2,0:0:0:0:
392,70,85008,1,2,0:0:0:0:
277,229,85219,1,2,0:0:0:0:
277,32,85431,1,2,0:0:0:0:
80,320,85853,1,2,0:0:0:0:
48,148,86276,5,4,0:0:0:0:
