osu file format v14

[General]
AudioFilename: audio.mp3
AudioLeadIn: 1500
PreviewTime: 48036
Countdown: 0
SampleSet: Soft
StackLeniency: 0.7
Mode: 0
LetterboxInBreaks: 0
WidescreenStoryboard: 0

[Editor]
DistanceSpacing: 1.3
BeatDivisor: 4
GridSize: 4
TimelineZoom: 4.099998

[Metadata]
Title:Akekure Nikki
TitleUnicode:明け暮れ日記
Artist:Ichiki Mitsuhiro, Masuda Toshiki
ArtistUnicode:市来光弘、増田俊樹
Creator:tutuhaha
Version:Hard
Source:刀剣乱舞-花丸-
Tags:大和守安定 加州清光 Yamatonokami Yasusada Kashuu Kiyomitsu Touken Ranbu 刀剣乱舞 ending tv size cmn_891127
BeatmapID:1111741
BeatmapSetID:523619

[Difficulty]
HPDrainRate:5
CircleSize:3.5
OverallDifficulty:6
ApproachRate:7.5
SliderMultiplier:1.6
SliderTickRate:1

[Events]
//Background and Video events
0,0,"bg.jpg",0,0
Video,0,"optc.flv"
//Break Periods
//Storyboard Layer 0 (Background)
//Storyboard Layer 1 (Fail)
//Storyboard Layer 2 (Pass)
//Storyboard Layer 3 (Foreground)
//Storyboard Sound Samples

[TimingPoints]
79,422.535211267606,4,2,1,80,1,0
924,-100,4,2,2,80,0,0
1769,-100,4,2,2,80,0,0
7895,-100,4,2,2,55,0,0
8529,-100,4,2,1,30,0,0
8635,-100,4,2,1,80,0,0
21417,-100,4,2,2,55,0,0
22050,-100,4,2,1,50,0,0
22156,-100,4,2,1,80,0,0
24797,-100,4,2,2,60,0,0
25219,-100,4,2,1,80,0,0
27332,-100,4,2,2,55,0,0
28388,-100,4,2,1,80,0,0
28811,-100,4,2,1,50,0,0
28917,-100,4,2,1,80,0,0
31557,-100,4,2,2,55,0,0
31980,-100,4,2,1,80,0,0
34726,-100,4,2,2,80,0,0
35571,-100,4,3,1,60,0,0
42332,-100,4,2,1,60,0,0
42438,-100,4,2,1,80,0,0
45712,-100,4,2,1,40,0,0
47402,-100,4,2,2,40,0,0
49093,-100,4,2,1,50,0,1
49198,-100,4,2,1,80,0,1
52473,-100,4,2,2,40,0,1
52579,-100,4,2,1,80,0,1
55853,-100,4,2,1,50,0,1
55959,-100,4,2,1,80,0,1
59233,-100,4,2,2,40,0,1
59339,-100,4,2,1,80,0,1
61769,-100,4,2,1,80,0,0
62614,-100,4,2,1,50,0,1
62719,-100,4,2,1,80,0,1
65994,-100,4,2,2,40,0,1
66100,-100,4,2,1,80,0,1
69374,-100,4,2,1,50,0,1
69480,-100,4,2,1,80,0,1
72755,-100,4,2,2,40,0,1
72860,-100,4,2,1,80,0,1
75924,-100,4,2,1,50,0,1
76135,-100,4,2,1,40,0,0
76240,-100,4,2,1,10,0,0
78670,-100,4,2,2,80,0,0
85853,-100,4,2,2,50,0,0
86276,-100,4,2,2,80,0,0

[Colours]
Combo1 : 160,186,114
Combo2 : 255,55,55
Combo3 : 85,162,255
Combo4 : 205,129,224

[HitObjects]
512,128,924,6,0,P|504:72|404:40,1,160,4|2,0:0|0:0,0:0:0:0:
324,80,1557,1,2,0:0:0:0:
276,172,1769,6,0,L|312:272,1,80,6|0,0:0|0:0,0:0:0:0:
332,348,2191,1,2,0:0:0:0:
232,316,2402,1,2,0:0:0:0:
276,172,2614,1,2,0:0:0:0:
372,208,2825,2,0,L|404:204,3,26.6666666666667,2|2|2|2,0:0|0:0|0:0|0:0,0:0:0:0:
300,280,3248,1,2,0:0:0:0:
204,240,3459,6,0,L|112:264,1,80,2|2,0:0|0:0,0:0:0:0:
2,190,3881,2,0,L|79:169,1,80,2|2,0:0|0:0,0:0:0:0:
232,232,4304,2,0,P|156:224|104:140,1,160,2|2,0:0|0:0,0:0:0:0:
264,32,5149,5,2,0:0:0:0:
232,232,5571,1,2,0:0:0:0:
384,88,5994,1,2,0:0:0:0:
424,184,6205,2,0,L|464:196,3,26.6666666666667,2|2|2|2,0:0|0:0|0:0|0:0,0:0:0:0:
324,160,6628,1,2,0:0:0:0:
324,160,6839,5,2,0:0:0:0:
244,224,7050,1,2,0:0:0:0:
160,160,7262,1,2,0:0:0:0:
72,216,7473,1,2,0:0:0:0:
0,140,7684,5,2,0:0:0:0:
72,216,7895,1,10,0:0:0:0:
132,128,8107,1,8,0:0:0:0:
132,128,8529,6,0,L|216:108,1,80,4|0,0:1|0:0,0:0:0:0:
357,157,8952,2,0,L|280:176,1,80,8|0,0:0|0:0,0:0:0:0:
244,272,9374,1,0,0:0:0:0:
324,340,9586,1,0,0:0:0:0:
324,340,9691,1,0,0:0:0:0:
324,340,9797,1,8,0:0:0:0:
372,248,10008,1,0,0:0:0:0:
348,148,10219,6,0,P|344:104|364:60,1,80
459,87,10642,2,0,P|463:127|451:165,1,80,8|0,0:0|0:0,0:0:0:0:
312,184,11064,2,0,L|220:192,1,80
144,136,11487,2,0,L|52:144,1,80,8|0,0:0|0:0,0:0:0:0:
104,300,11909,6,0,L|183:293,1,80
268,356,12332,1,8,0:0:0:0:
332,276,12543,1,0,0:0:0:0:
432,304,12755,2,0,P|432:252|408:204,1,80
420,188,13071,1,0,0:0:0:0:
423,149,13177,2,0,P|435:111|432:72,1,80,8|0,0:0|0:0,0:0:0:0:
328,96,13600,5,0,0:0:0:0:
248,28,13811,1,0,0:0:0:0:
152,72,14022,1,8,0:0:0:0:
60,20,14233,1,0,0:0:0:0:
72,124,14445,2,0,L|84:212,1,80
60,304,14867,1,10,0:0:0:0:
160,268,15079,1,2,0:0:0:0:
232,364,15290,6,0,P|252:308|280:268,1,80,2|0,0:0|0:0,0:0:0:0:
368,284,15712,1,10,0:0:0:0:
304,200,15924,1,2,0:0:0:0:
432,204,16135,2,0,P|472:168|496:120,1,80,2|0,0:0|0:0,0:0:0:0:
484,44,16557,1,10,0:0:0:0:
396,108,16769,1,2,0:0:0:0:
328,28,16980,6,0,L|236:8,1,80,2|2,0:0|0:0,0:0:0:0:
101,71,17402,2,0,L|180:88,1,80,10|2,0:0|0:0,0:0:0:0:
260,156,17825,1,2,0:0:0:0:
260,156,18248,1,10,0:0:0:0:
352,208,18459,1,2,0:0:0:0:
204,228,18670,6,0,P|172:184|164:144,1,80,2|0,0:0|0:0,0:0:0:0:
132,60,19093,1,10,0:0:0:0:
232,36,19304,1,2,0:0:0:0:
165,159,19515,2,0,P|109:155|57:171,1,80,2|2,0:0|0:0,0:0:0:0:
52,180,19832,1,2,0:0:0:0:
28,212,19938,2,0,L|52:308,1,80,10|2,0:0|0:0,0:0:0:0:
132,348,20360,5,2,0:0:0:0:
200,268,20571,2,0,L|264:232,1,40
264,276,20783,2,0,L|336:264,3,40,8|0|0|0,0:0|0:0|0:0|0:0,0:0:0:0:
336,296,21205,1,0,0:0:0:0:
428,372,21417,1,8,0:0:0:0:
452,256,21628,1,8,0:0:0:0:
492,48,22050,6,0,L|476:126,1,80,4|0,0:1|0:0,0:0:0:0:
360,146,22473,2,0,L|376:68,1,80,8|0,0:0|0:0,0:0:0:0:
264,192,22895,1,0,0:0:0:0:
176,136,23107,1,0,0:0:0:0:
176,136,23212,1,0,0:0:0:0:
176,136,23318,1,8,0:0:0:0:
92,196,23529,1,0,0:0:0:0:
16,128,23740,6,0,P|52:100|96:92,1,80
160,20,24163,2,0,L|239:23,1,80,8|0,0:0|0:0,0:0:0:0:
312,100,24586,1,0,0:0:0:0:
416,92,24797,1,8,0:0:0:0:
332,200,25008,1,8,0:0:0:0:
195,375,25431,6,0,L|204:296,1,80
92,240,25853,2,0,L|104:348,1,80,8|0,0:0|0:0,0:0:0:0:
252,276,26276,2,0,P|244:232|216:200,1,80
188,184,26593,1,0,0:0:0:0:
156,164,26698,2,0,P|148:112|160:72,1,80,8|0,0:0|0:0,0:0:0:0:
244,36,27121,5,0,0:0:0:0:
308,120,27332,1,8,0:0:0:0:
360,0,27543,2,0,P|396:44|476:60,1,120,8|8,0:0|0:0,0:0:0:0:
472,68,27966,2,0,P|448:116|456:160,1,80,8|0,0:0|0:0,0:0:0:0:
368,204,28388,1,8,0:0:0:0:
464,240,28600,1,0,0:0:0:0:
312,280,28811,6,0,L|224:312,1,80,4|0,0:1|0:0,0:0:0:0:
104,248,29233,2,0,L|180:221,1,80,8|0,0:0|0:0,0:0:0:0:
320,308,29656,2,0,P|376:320|408:348,1,80
320,196,30079,2,0,P|284:168|268:124,1,80,8|0,0:0|0:0,0:0:0:0:
312,40,30501,5,0,0:0:0:0:
388,112,30712,1,0,0:0:0:0:
388,112,30818,1,0,0:0:0:0:
388,112,30924,1,8,0:0:0:0:
468,44,31135,1,0,0:0:0:0:
444,196,31346,1,0,0:0:0:0:
348,132,31557,1,8,0:0:0:0:
444,196,31769,2,0,P|436:148|448:104,1,80,8|0,0:0|0:0,0:0:0:0:
492,284,32191,6,0,L|476:376,1,80
389,277,32614,2,0,L|376:356,1,80,8|0,0:0|0:0,0:0:0:0:
284,276,33036,2,0,P|240:264|192:268,1,80
168,280,33353,1,0,0:0:0:0:
136,304,33459,2,0,P|92:316|44:312,1,80,8|0,0:0|0:0,0:0:0:0:
44,212,33881,5,0,0:0:0:0:
84,116,34093,2,0,L|80:56,1,40
120,68,34304,2,0,L|116:8,3,40,8|0|0|0,0:0|0:0|0:0|0:0,0:0:0:0:
168,72,34726,6,0,L|224:68,4,40,4|0|0|0|8,0:0|0:0|0:0|0:0|0:0,0:0:0:0:
512,280,35571,6,0,L|420:272,1,80,0|0,0:1|0:0,0:0:0:0:
296,344,35994,2,0,L|375:350,1,80
272,232,36417,1,0,0:0:0:0:
272,232,36628,1,0,0:0:0:0:
164,332,36839,1,0,0:0:0:0:
164,332,37050,1,0,0:0:0:0:
148,228,37262,5,0,0:0:0:0:
209,143,37473,1,0,0:0:0:0:
148,59,37684,1,0,0:0:0:0:
49,91,37895,1,0,0:0:0:0:
49,195,38107,1,0,0:0:0:0:
240,280,38529,1,0,0:0:0:0:
464,124,38952,6,0,P|408:104|352:36,1,120,0|0,0:1|0:0,0:0:0:0:
316,48,39374,2,0,P|280:64|248:92,1,80
332,160,39797,1,0,0:0:0:0:
332,160,40008,1,0,0:0:0:0:
328,264,40219,1,0,0:0:0:0:
328,264,40431,1,0,0:0:0:0:
408,328,40642,5,0,0:0:0:0:
508,292,40853,1,0,0:0:0:0:
432,224,41064,1,0,0:0:0:0:
388,128,41276,1,0,0:0:0:0:
376,24,41487,1,0,0:0:0:0:
104,40,41909,1,0,0:0:0:0:
104,40,42015,1,0,0:0:0:0:
104,40,42121,1,0,0:0:0:0:
168,124,42332,6,0,P|132:144|76:144,1,80,4|0,0:1|0:0,0:0:0:0:
228,60,42755,2,0,P|252:104|252:144,1,80,8|0,0:0|0:0,0:0:0:0:
244,268,43177,2,0,P|300:208|400:212,1,160,0|8,0:0|0:0,0:0:0:0:
464,148,43811,1,0,0:0:0:0:
476,44,44022,6,0,P|428:40|392:16,1,80
272,80,44445,2,0,P|296:36|336:12,1,80,8|0,0:0|0:0,0:0:0:0:
332,152,44867,2,0,P|284:116|176:132,1,160,0|8,0:0|0:0,0:0:0:0:
108,192,45501,1,0,0:0:0:0:
56,284,45712,6,0,L|128:340,1,80,4|0,1:0|3:3,0:0:0:0:
212,280,46135,2,0,L|284:336,1,80,0|0,1:0|3:3,0:0:0:0:
348,189,46557,2,0,L|412:140,1,80,0|0,1:0|3:3,0:0:0:0:
256,136,46980,2,0,L|192:185,1,80,0|0,1:0|3:3,0:0:0:0:
88,44,47402,5,0,1:0:0:0:
192,40,47614,1,0,1:0:0:0:
296,36,47825,1,0,1:0:0:0:
400,32,48036,1,0,1:0:0:0:
344,120,48248,2,0,P|300:80|180:80,1,160,2|2,0:0|0:0,0:0:0:0:
348,252,49093,6,0,P|376:232|396:184,1,80,6|0,0:0|0:0,0:0:0:0:
460,112,49515,1,10,0:0:0:0:
368,64,49726,1,2,0:0:0:0:
396,192,49938,2,0,L|420:276,1,80,2|0,0:0|0:0,0:0:0:0:
352,384,50360,2,0,L|330:307,1,80,10|0,0:0|0:0,0:0:0:0:
276,220,50783,5,2,0:0:0:0:
168,252,50994,1,2,0:0:0:0:
196,144,51205,1,10,0:0:0:0:
160,280,51417,1,2,0:0:0:0:
264,232,51628,1,2,0:0:0:0:
264,232,52050,2,0,L|260:324,1,80,10|2,0:0|0:0,0:0:0:0:
168,232,52473,6,0,P|124:204|80:196,1,80,6|0,0:0|0:0,0:0:0:0:
228,144,52895,2,0,P|268:124|296:92,1,80,10|0,0:0|0:0,0:0:0:0:
196,36,53318,1,2,0:0:0:0:
196,36,53529,1,2,0:0:0:0:
120,104,53740,1,10,0:0:0:0:
120,104,53952,1,2,0:0:0:0:
128,208,54163,5,2,0:0:0:0:
184,296,54374,1,2,0:0:0:0:
264,204,54586,1,10,0:0:0:0:
176,312,54797,1,2,0:0:0:0:
112,184,55008,1,2,0:0:0:0:
104,172,55431,2,0,P|96:124|68:92,1,80,10|2,0:0|0:0,0:0:0:0:
188,180,55853,6,0,L|280:176,1,80,6|0,0:0|0:0,0:0:0:0:
356,120,56276,1,10,0:0:0:0:
384,220,56487,1,2,0:0:0:0:
456,144,56698,2,0,P|476:88|508:60,1,80,2|0,0:0|0:0,0:0:0:0:
356,120,57121,2,0,P|320:152|276:168,1,80,10|0,0:0|0:0,0:0:0:0:
216,92,57543,5,2,0:0:0:0:
216,92,57755,1,2,0:0:0:0:
164,220,57966,1,10,0:0:0:0:
164,220,58177,1,2,0:0:0:0:
96,128,58388,1,2,0:0:0:0:
96,128,58811,2,0,L|68:40,1,80,10|2,0:0|0:0,0:0:0:0:
200,148,59233,6,0,L|224:224,1,80,6|0,0:0|0:0,0:0:0:0:
328,232,59656,2,0,L|352:308,1,80,10|0,0:0|0:0,0:0:0:0:
440,368,60079,1,2,0:0:0:0:
444,264,60290,1,2,0:0:0:0:
444,264,60395,1,2,0:0:0:0:
444,264,60501,1,10,0:0:0:0:
344,328,60712,1,2,0:0:0:0:
244,364,60924,6,0,L|144:368,1,80,2|0,0:0|0:0,0:0:0:0:
16,295,61346,2,0,L|96:292,1,80,8|0,0:0|0:0,0:0:0:0:
196,268,61769,1,2,0:0:0:0:
124,180,61980,1,2,0:0:0:0:
284,208,62191,2,0,P|360:204|372:104,1,160,8|6,0:0|0:0,0:0:0:0:
456,56,62825,5,0,0:0:0:0:
356,32,63036,2,0,L|252:24,1,80,10|2,0:0|0:0,0:0:0:0:
144,64,63459,2,0,P|184:80|212:120,1,80,2|0,0:0|0:0,0:0:0:0:
116,156,63881,2,0,P|76:140|48:100,1,80,10|0,0:0|0:0,0:0:0:0:
120,28,64304,5,2,0:0:0:0:
120,28,64515,1,2,0:0:0:0:
196,168,64726,1,10,0:0:0:0:
224,52,64938,1,2,0:0:0:0:
88,144,65149,2,0,P|84:196|60:244,1,80,2|0,0:0|0:0,0:0:0:0:
64,324,65571,1,10,0:0:0:0:
160,280,65783,1,2,0:0:0:0:
28,320,65994,6,0,L|16:228,1,80,6|0,0:0|0:0,0:0:0:0:
96,116,66417,2,0,L|106:195,1,80,10|0,0:0|0:0,0:0:0:0:
196,248,66839,1,2,0:0:0:0:
268,172,67050,1,2,0:0:0:0:
364,216,67262,1,10,0:0:0:0:
412,124,67473,1,2,0:0:0:0:
288,76,67684,5,2,0:0:0:0:
400,152,67895,1,2,0:0:0:0:
268,172,68107,1,10,0:0:0:0:
388,60,68318,1,2,0:0:0:0:
272,16,68529,1,2,0:0:0:0:
272,16,68952,2,0,L|292:96,1,80,10|2,0:0|0:0,0:0:0:0:
344,228,69374,6,0,P|296:188|248:180,1,80,6|0,0:0|0:0,0:0:0:0:
176,180,69797,1,10,0:0:0:0:
196,284,70008,1,2,0:0:0:0:
88,260,70219,2,0,P|52:280|-8:284,1,80,2|0,0:0|0:0,0:0:0:0:
44,164,70642,2,0,P|80:144|140:140,1,80,10|0,0:0|0:0,0:0:0:0:
180,220,71064,5,2,0:0:0:0:
240,116,71276,1,2,0:0:0:0:
284,264,71487,1,10,0:0:0:0:
180,192,71698,1,2,0:0:0:0:
328,184,71909,2,0,P|416:160|440:92,1,160,2|10,0:0|0:0,0:0:0:0:
372,24,72543,1,2,0:0:0:0:
268,24,72755,6,0,L|280:132,1,80,6|0,0:0|0:0,0:0:0:0:
167,159,73177,2,0,L|176:80,1,80,10|0,0:0|0:0,0:0:0:0:
88,24,73600,1,2,0:0:0:0:
36,112,73811,1,2,0:0:0:0:
36,112,73917,1,2,0:0:0:0:
36,112,74022,1,10,0:0:0:0:
76,208,74233,1,2,0:0:0:0:
101,350,74445,6,0,L|36:304,1,80,2|0,0:0|0:0,0:0:0:0:
188,292,74867,2,0,L|253:338,1,80,8|0,0:0|0:0,0:0:0:0:
348,296,75290,1,0,0:0:0:0:
396,144,75501,1,0,0:0:0:0:
392,276,75712,1,10,0:0:0:0:
324,192,75924,1,2,0:0:0:0:
364,312,76135,5,2,0:0:0:0:
256,192,76240,12,4,78670,0:0:0:0:
412,180,79515,6,0,P|472:132|464:36,1,160,6|2,0:0|0:0,0:0:0:0:
376,24,80149,1,2,0:0:0:0:
312,104,80360,1,2,0:0:0:0:
224,48,80571,2,0,L|232:8,3,26.6666666666667,2|2|2|2,0:0|0:0|0:0|0:0,0:0:0:0:
148,120,80994,1,2,0:0:0:0:
76,196,81205,6,0,P|28:180|-4:140,1,80,2|2,0:0|0:0,0:0:0:0:
40,60,81628,2,0,P|88:76|120:116,1,80,2|2,0:0|0:0,0:0:0:0:
192,232,82050,2,0,P|128:224|32:284,1,160,2|2,0:0|0:0,0:0:0:0:
240,344,82895,5,2,0:0:0:0:
320,152,83318,1,2,0:0:0:0:
376,352,83740,1,2,0:0:0:0:
344,252,83952,2,0,L|380:220,3,26.6666666666667,2|2|2|2,0:0|0:0|0:0|0:0,0:0:0:0:
264,324,84374,1,2,0:0:0:0:
188,252,84586,6,0,P|164:212|160:160,1,80,2|2,0:0|0:0,0:0:0:0:
11,78,85008,2,0,P|45:100|84:108,1,80,2|2,0:0|0:0,0:0:0:0:
184,80,85431,1,2,0:0:0:0:
424,24,85853,1,2,0:0:0:0:
304,232,86276,5,4,0:0:0:0:
