osu file format v14

[General]
AudioFilename: audio.mp3
AudioLeadIn: 1500
PreviewTime: 48036
Countdown: 0
SampleSet: Soft
StackLeniency: 0.7
Mode: 0
LetterboxInBreaks: 0
WidescreenStoryboard: 0

[Editor]
DistanceSpacing: 1
BeatDivisor: 4
GridSize: 4
TimelineZoom: 1.7

[Metadata]
Title:Akekure Nikki
TitleUnicode:明け暮れ日記
Artist:Ichiki Mitsuhiro, Masuda Toshiki
ArtistUnicode:市来光弘、増田俊樹
Creator:tutuhaha
Version:Easy
Source:刀剣乱舞-花丸-
Tags:大和守安定 加州清光 Yamatonokami Yasusada Kashuu Kiyomitsu Touken Ranbu 刀剣乱舞 ending tv size cmn_891127
BeatmapID:1115068
BeatmapSetID:523619

[Difficulty]
HPDrainRate:3
CircleSize:2.5
OverallDifficulty:3
ApproachRate:4
SliderMultiplier:1
SliderTickRate:1

[Events]
//Background and Video events
0,0,"bg.jpg",0,0
Video,0,"optc.flv"
//Break Periods
//Storyboard Layer 0 (Background)
//Storyboard Layer 1 (Fail)
//Storyboard Layer 2 (Pass)
//Storyboard Layer 3 (Foreground)
//Storyboard Sound Samples

[TimingPoints]
79,422.535211267606,4,2,1,80,1,0
924,-100,4,2,2,80,0,0
1769,-100,4,2,2,80,0,0
7895,-100,4,2,2,55,0,0
8529,-100,4,2,1,30,0,0
8635,-100,4,2,1,80,0,0
21417,-100,4,2,2,55,0,0
22050,-100,4,2,1,50,0,0
22156,-100,4,2,1,80,0,0
24797,-100,4,2,2,60,0,0
25219,-100,4,2,1,80,0,0
27332,-100,4,2,2,55,0,0
28388,-100,4,2,1,80,0,0
28811,-100,4,2,1,50,0,0
28917,-100,4,2,1,80,0,0
31557,-100,4,2,2,55,0,0
31980,-100,4,2,1,80,0,0
34726,-100,4,2,2,80,0,0
35571,-100,4,3,1,60,0,0
42332,-100,4,2,1,60,0,0
42438,-100,4,2,1,80,0,0
45712,-100,4,2,1,40,0,0
47402,-100,4,2,2,40,0,0
49093,-100,4,2,1,50,0,1
49198,-100,4,2,1,80,0,1
52473,-100,4,2,2,40,0,1
52579,-100,4,2,1,80,0,1
55853,-100,4,2,1,50,0,1
55959,-100,4,2,1,80,0,1
59233,-100,4,2,2,40,0,1
59339,-100,4,2,1,80,0,1
61769,-100,4,2,1,80,0,0
62614,-100,4,2,1,50,0,1
62719,-100,4,2,1,80,0,1
65994,-100,4,2,2,40,0,1
66100,-100,4,2,1,80,0,1
69374,-100,4,2,1,50,0,1
69480,-100,4,2,1,80,0,1
72755,-100,4,2,2,40,0,1
72860,-100,4,2,1,80,0,1
76135,-100,4,2,1,40,0,0
79515,-100,4,2,2,80,0,0
85853,-100,4,2,2,50,0,0
86276,-100,4,2,2,80,0,0

[Colours]
Combo1 : 160,186,114
Combo2 : 255,55,55
Combo3 : 85,162,255
Combo4 : 205,129,224

[HitObjects]
64,128,924,6,0,P|100:80|240:84,1,200,2|6,0:0|0:0,0:0:0:0:
272,168,2191,5,2,0:0:0:0:
344,240,2614,2,0,L|456:216,1,100,2|2,0:0|0:0,0:0:0:0:
476,312,3459,2,0,L|378:333,1,100,2|2,0:0|0:0,0:0:0:0:
280,324,4304,1,2,0:0:0:0:
228,240,4726,1,2,0:0:0:0:
140,192,5149,6,0,P|128:244|152:312,1,100,2|2,0:0|0:0,0:0:0:0:
212,356,5994,2,0,L|332:360,1,100,2|2,0:0|0:0,0:0:0:0:
404,324,6839,1,2,0:0:0:0:
424,228,7262,1,2,0:0:0:0:
456,132,7684,2,0,P|480:124|500:100,2,50,2|10|8,0:0|0:0|0:0,0:0:0:0:
384,64,8529,6,0,L|272:48,1,100,4|8,0:1|0:0,0:0:0:0:
196,100,9374,2,0,L|84:84,1,100,0|8,0:0|0:0,0:0:0:0:
32,164,10219,2,0,P|16:208|24:268,2,100,0|8|0,0:0|0:0|0:0,0:0:0:0:
116,220,11487,1,8,0:0:0:0:
192,284,11909,6,0,L|304:272,1,100,0|8,0:0|0:0,0:0:0:0:
352,196,12755,2,0,L|464:184,1,100,0|8,0:0|0:0,0:0:0:0:
484,280,13600,2,0,L|384:291,1,100,0|8,0:0|0:0,0:0:0:0:
312,360,14445,1,0,0:0:0:0:
232,300,14867,1,10,0:0:0:0:
144,252,15290,6,0,P|104:220|52:216,1,100,2|10,0:0|0:0,0:0:0:0:
60,316,16135,2,0,P|100:348|152:352,1,100,2|10,0:0|0:0,0:0:0:0:
232,300,16980,2,0,L|352:292,2,100,2|10|2,0:0|0:0|0:0,0:0:0:0:
144,248,18248,1,10,0:0:0:0:
172,152,18670,6,0,P|148:96|156:40,1,100,2|10,0:0|0:0,0:0:0:0:
240,12,19515,2,0,P|264:68|256:124,1,100,2|10,0:0|0:0,0:0:0:0:
296,200,20360,2,0,L|404:192,1,100,2|8,0:0|0:0,0:0:0:0:
440,284,21205,2,0,P|476:284|508:300,2,50,0|8|8,0:0|0:0|0:0,0:0:0:0:
364,348,22050,5,4,0:1:0:0:
280,292,22473,1,8,0:0:0:0:
196,344,22895,2,0,L|76:352,1,100,0|8,0:0|0:0,0:0:0:0:
56,260,23740,2,0,L|155:254,1,100,0|8,0:0|0:0,0:0:0:0:
176,156,24586,2,0,P|164:128|164:104,2,50,0|8|8,0:0|0:0|0:0,0:0:0:0:
252,220,25431,5,0,0:0:0:0:
324,152,25853,1,8,0:0:0:0:
344,252,26276,2,0,P|364:300|404:344,1,100,0|8,0:0|0:0,0:0:0:0:
460,260,27121,2,0,L|476:204,2,50,0|8|8,0:0|0:0|0:0,0:0:0:0:
492,356,27966,1,8,0:0:0:0:
392,376,28388,1,8,0:0:0:0:
316,312,28811,6,0,P|240:288|188:296,1,100,4|8,0:1|0:0,0:0:0:0:
144,352,29656,1,0,0:0:0:0:
60,300,30079,1,8,0:0:0:0:
36,204,30501,2,0,L|56:88,1,100,0|8,0:0|0:0,0:0:0:0:
144,68,31346,2,0,P|124:36|120:8,2,50,0|8|8,0:0|0:0|0:0,0:0:0:0:
160,168,32191,5,0,0:0:0:0:
256,144,32614,1,8,0:0:0:0:
228,240,33036,2,0,P|216:292|232:356,1,100,0|8,0:0|0:0,0:0:0:0:
312,380,33881,2,0,P|323:332|316:283,1,100,0|8,0:0|0:0,0:0:0:0:
376,200,34726,2,0,L|492:224,1,100,4|8,0:0|0:0,0:0:0:0:
476,120,35571,6,0,B|364:100|364:100|284:40,1,200,0|0,0:1|0:0,0:0:0:0:
200,20,36839,1,0,0:0:0:0:
116,72,37262,2,0,P|60:76|12:92,2,100,0|0|0,0:0|0:0|0:0,0:0:0:0:
204,124,38529,1,0,0:0:0:0:
260,40,38952,6,0,P|316:80|460:100,1,200,0|0,0:1|0:0,0:0:0:0:
504,184,40219,1,0,0:0:0:0:
404,200,40642,2,0,P|352:212|308:244,2,100
464,280,41909,1,0,0:0:0:0:
400,356,42332,6,0,L|288:360,1,100,4|8,0:1|0:0,0:0:0:0:
228,292,43177,2,0,P|212:240|228:180,1,100,0|8,0:0|0:0,0:0:0:0:
276,116,44022,2,0,P|320:116|404:88,2,100,0|8|0,0:0|0:0|0:0,0:0:0:0:
220,32,45290,1,8,0:0:0:0:
152,104,45712,6,0,P|170:191|74:254,1,200,4|4,1:0|1:0,0:0:0:0:
48,344,46980,1,4,1:0:0:0:
148,344,47402,2,0,L|368:344,1,200,0|2,1:0|0:0,0:0:0:0:
400,152,49093,6,0,P|448:124|524:124,2,100,6|10|2,0:0|0:0|0:0,0:0:0:0:
304,180,50360,1,10,0:0:0:0:
240,256,50783,2,0,L|260:364,1,100,2|10,0:0|0:0,0:0:0:0:
160,360,51628,2,0,L|141:261,1,100,2|10,0:0|0:0,0:0:0:0:
88,180,52473,6,0,P|43:158|12:100,2,100,6|10|2,0:0|0:0|0:0,0:0:0:0:
112,84,53740,1,10,0:0:0:0:
200,36,54163,2,0,L|316:20,1,100,2|10,0:0|0:0,0:0:0:0:
376,84,55008,2,0,L|492:68,1,100,2|10,0:0|0:0,0:0:0:0:
476,172,55853,5,6,0:0:0:0:
408,244,56276,1,10,0:0:0:0:
336,316,56698,2,0,L|232:332,1,100,2|10,0:0|0:0,0:0:0:0:
140,304,57543,2,0,P|92:332|36:332,1,100,2|10,0:0|0:0,0:0:0:0:
64,236,58388,1,2,0:0:0:0:
156,200,58811,6,0,P|212:224|244:264,2,100,10|6|10,0:0|0:0|0:0,0:0:0:0:
80,132,60079,2,0,P|68:80|96:16,1,100,2|10,0:0|0:0,0:0:0:0:
168,84,60924,2,0,L|284:72,1,100,2|8,0:0|0:0,0:0:0:0:
368,60,61769,1,2,0:0:0:0:
456,12,62191,1,8,0:0:0:0:
456,112,62614,6,0,L|492:220,1,100,4|10,0:0|0:0,0:0:0:0:
408,268,63459,2,0,L|376:173,1,100,2|10,0:0|0:0,0:0:0:0:
276,156,64304,2,0,P|226:163|185:190,2,100,2|10|2,0:0|0:0|0:0,0:0:0:0:
264,256,65571,1,10,0:0:0:0:
328,332,65994,6,0,P|376:360|432:360,1,100,6|10,0:0|0:0,0:0:0:0:
452,268,66839,2,0,P|404:240|348:240,1,100,2|10,0:0|0:0,0:0:0:0:
264,256,67684,1,2,0:0:0:0:
188,320,68107,1,10,0:0:0:0:
108,260,68529,1,2,0:0:0:0:
140,164,68952,6,0,P|136:112|100:52,1,100,10|6,0:0|0:0,0:0:0:0:
16,48,69797,2,0,P|20:100|56:160,1,100,10|2,0:0|0:0,0:0:0:0:
140,164,70642,1,10,0:0:0:0:
232,124,71064,2,0,P|276:92|336:88,2,100,2|10|2,0:0|0:0|0:0,0:0:0:0:
220,224,72332,1,10,0:0:0:0:
280,304,72755,6,0,L|388:360,1,100,6|10,0:0|0:0,0:0:0:0:
432,272,73600,2,0,L|343:225,1,100,2|10,0:0|0:0,0:0:0:0:
256,180,74445,1,2,0:0:0:0:
340,124,74867,1,8,0:0:0:0:
248,84,75290,2,0,P|220:68|200:32,2,50,0|0|10,0:0|0:0|0:0,0:0:0:0:
324,20,76135,5,2,0:0:0:0:
256,192,76240,12,0,77825,0:0:0:0:
384,160,79515,6,0,P|448:144|480:112,1,100,6|2,0:0|0:0,0:0:0:0:
392,64,80360,2,0,P|328:80|296:112,1,100,2|2,0:0|0:0,0:0:0:0:
296,200,81205,1,2,0:0:0:0:
372,264,81628,1,2,0:0:0:0:
280,300,82050,2,0,P|236:328|180:328,1,100,2|2,0:0|0:0,0:0:0:0:
92,352,82895,6,0,L|76:240,1,100,2|2,0:0|0:0,0:0:0:0:
60,156,83740,1,2,0:0:0:0:
44,56,84163,1,2,0:0:0:0:
140,88,84586,2,0,P|184:52|240:32,1,100,2|2,0:0|0:0,0:0:0:0:
288,112,85431,2,0,L|408:108,2,100,2|2|4,0:0|0:0|0:0,0:0:0:0:
