osu file format v14

[General]
AudioFilename: audio.mp3
AudioLeadIn: 1500
PreviewTime: 48036
Countdown: 0
SampleSet: Soft
StackLeniency: 0.7
Mode: 0
LetterboxInBreaks: 0
WidescreenStoryboard: 0

[Editor]
DistanceSpacing: 1.2
BeatDivisor: 4
GridSize: 4
TimelineZoom: 1.7

[Metadata]
Title:Akekure Nikki
TitleUnicode:明け暮れ日記
Artist:Ichiki Mitsuhiro, Masuda Toshiki
ArtistUnicode:市来光弘、増田俊樹
Creator:tutuhaha
Version:Advanced
Source:刀剣乱舞-花丸-
Tags:大和守安定 加州清光 Yamatonokami Yasusada Kashuu Kiyomitsu Touken Ranbu 刀剣乱舞 ending tv size cmn_891127
BeatmapID:1112434
BeatmapSetID:523619

[Difficulty]
HPDrainRate:4
CircleSize:3.5
OverallDifficulty:5
ApproachRate:7
SliderMultiplier:1.4
SliderTickRate:1

[Events]
//Background and Video events
0,0,"bg.jpg",0,0
Video,0,"optc.flv"
//Break Periods
//Storyboard Layer 0 (Background)
//Storyboard Layer 1 (Fail)
//Storyboard Layer 2 (Pass)
//Storyboard Layer 3 (Foreground)
//Storyboard Sound Samples

[TimingPoints]
79,422.535211267606,4,2,1,80,1,0
924,-100,4,2,2,80,0,0
1769,-100,4,2,2,80,0,0
7895,-100,4,2,2,55,0,0
8529,-100,4,2,1,30,0,0
8635,-100,4,2,1,80,0,0
21417,-100,4,2,2,55,0,0
22050,-100,4,2,1,50,0,0
22156,-100,4,2,1,80,0,0
24797,-100,4,2,2,60,0,0
25219,-100,4,2,1,80,0,0
27332,-100,4,2,2,55,0,0
28388,-100,4,2,1,80,0,0
28811,-100,4,2,1,50,0,0
28917,-100,4,2,1,80,0,0
31557,-100,4,2,2,55,0,0
31980,-100,4,2,1,80,0,0
34726,-100,4,2,2,80,0,0
35571,-100,4,3,1,60,0,0
42332,-100,4,2,1,60,0,0
42438,-100,4,2,1,80,0,0
45712,-100,4,2,1,40,0,0
47402,-100,4,2,2,40,0,0
49093,-100,4,2,1,50,0,1
49198,-100,4,2,1,80,0,1
52473,-100,4,2,2,40,0,1
52579,-100,4,2,1,80,0,1
55853,-100,4,2,1,50,0,1
55959,-100,4,2,1,80,0,1
59233,-100,4,2,2,40,0,1
59339,-100,4,2,1,80,0,1
61769,-100,4,2,1,80,0,0
62614,-100,4,2,1,50,0,1
62719,-100,4,2,1,80,0,1
65994,-100,4,2,2,40,0,1
66100,-100,4,2,1,80,0,1
69374,-100,4,2,1,50,0,1
69480,-100,4,2,1,80,0,1
72755,-100,4,2,2,40,0,1
72860,-100,4,2,1,80,0,1
75924,-100,4,2,1,50,0,1
76135,-100,4,2,1,40,0,0
76240,-100,4,2,1,10,0,0
78670,-100,4,2,2,80,0,0
85853,-100,4,2,2,50,0,0
86276,-100,4,2,2,80,0,0

[Colours]
Combo1 : 160,186,114
Combo2 : 255,55,55
Combo3 : 85,162,255
Combo4 : 205,129,224

[HitObjects]
100,356,924,6,0,P|112:276|76:224,1,140,4|2,0:0|0:0,0:0:0:0:
44,152,1557,1,2,0:0:0:0:
76,72,1769,6,0,L|160:48,1,70,6|0,0:0|0:0,0:0:0:0:
180,128,2191,2,0,P|180:180|200:212,1,70,2|2,0:0|0:0,0:0:0:0:
260,156,2614,1,2,0:0:0:0:
296,232,2825,2,2,L|320:240,3,23.3333333333333
272,312,3248,1,2,0:0:0:0:
348,348,3459,6,0,L|420:364,1,70,2|2,0:0|0:0,0:0:0:0:
500,368,3881,1,2,0:0:0:0:
464,292,4093,1,2,0:0:0:0:
500,216,4304,2,0,P|500:144|464:68,1,140,2|2,0:0|0:0,0:0:0:0:
312,44,5149,6,0,L|164:44,1,140,2|2,0:0|0:0,0:0:0:0:
12,108,5994,1,2,0:0:0:0:
64,176,6205,2,2,L|92:168,3,23.3333333333333
92,252,6628,1,2,0:0:0:0:
164,292,6839,6,0,P|208:296|240:316,1,70,2|2,0:0|0:0,0:0:0:0:
308,276,7262,2,0,L|336:184,1,70,2|2,0:0|0:0,0:0:0:0:
412,208,7684,1,2,0:0:0:0:
420,292,7895,1,8,0:0:0:0:
492,244,8107,1,8,0:0:0:0:
456,80,8529,5,4,0:1:0:0:
300,144,8952,1,8,0:0:0:0:
184,24,9374,2,0,P|116:20|44:72,1,140,0|8,0:0|0:0,0:0:0:0:
52,140,10008,1,0,0:0:0:0:
100,208,10219,6,0,L|92:296,1,70
176,272,10642,2,0,L|168:360,1,70,8|0,0:0|0:0,0:0:0:0:
252,352,11064,2,0,L|321:358,1,70,0|0,0:0|0:0,0:0:0:0:
372,292,11487,2,0,L|441:298,1,70,8|0,0:0|0:0,0:0:0:0:
496,232,11909,5,0,0:0:0:0:
336,180,12332,1,8,0:0:0:0:
460,68,12755,1,0,0:0:0:0:
300,16,13177,1,8,0:0:0:0:
160,108,13600,6,0,L|76:76,1,70
64,160,14022,2,0,L|129:184,1,70,8|0,0:0|0:0,0:0:0:0:
108,268,14445,2,0,L|24:236,1,70,0|0,0:0|0:0,0:0:0:0:
8,320,14867,2,0,P|44:344|68:372,1,70,10|2,0:0|0:0,0:0:0:0:
144,352,15290,6,0,P|200:324|288:332,1,140,2|10,0:0|0:0,0:0:0:0:
356,356,15924,1,2,0:0:0:0:
424,308,16135,2,0,P|392:236|404:156,1,140,2|10,0:0|0:0,0:0:0:0:
460,120,16769,1,2,0:0:0:0:
420,48,16980,6,0,P|384:64|336:64,1,70,2|2,0:0|0:0,0:0:0:0:
272,72,17402,2,0,L|264:156,1,70,10|2,0:0|0:0,0:0:0:0:
260,224,17825,1,2,0:0:0:0:
120,316,18248,2,0,L|128:232,1,70,10|2,0:0|0:0,0:0:0:0:
132,164,18670,6,0,P|76:172|4:136,1,140,2|10,0:0|0:0,0:0:0:0:
40,60,19304,1,2,0:0:0:0:
124,76,19515,2,0,P|164:56|200:52,1,70,2|2,0:0|0:0,0:0:0:0:
240,120,19938,2,0,P|264:156|296:176,1,70,10|2,0:0|0:0,0:0:0:0:
320,96,20360,6,0,P|388:48|460:56,2,140,2|8|0,0:0|0:0|0:0,0:0:0:0:
364,168,21417,1,8,0:0:0:0:
364,168,21628,1,8,0:0:0:0:
444,336,22050,6,0,L|344:336,1,70,4|0,0:1|0:0,0:0:0:0:
300,296,22473,2,0,L|232:312,1,70,8|0,0:0|0:0,0:0:0:0:
148,328,22895,2,0,P|96:272|20:260,1,140,0|8,0:0|0:0,0:0:0:0:
32,92,23740,6,0,P|72:108|96:132,1,70,0|0,0:0|0:0,0:0:0:0:
168,156,24163,2,0,P|184:204|212:240,1,70,8|0,0:0|0:0,0:0:0:0:
264,264,24586,2,0,L|248:360,2,70,0|8|8,0:0|0:0|0:0,0:0:0:0:
328,108,25431,6,0,L|339:38,2,70,0|0|8,0:0|0:0|0:0,0:0:0:0:
384,172,26064,1,0,0:0:0:0:
440,236,26276,2,0,P|400:268|300:272,1,140,0|8,0:0|0:0,0:0:0:0:
232,272,26909,1,0,0:0:0:0:
208,192,27121,6,0,L|228:120,1,70,0|8,0:0|0:0,0:0:0:0:
160,72,27543,2,0,L|120:208,1,140,8|8,0:0|0:0,0:0:0:0:
84,372,28388,2,0,P|80:336|60:288,1,70,8|0,0:0|0:0,0:0:0:0:
24,232,28811,6,0,P|20:176|32:80,1,140,4|8,0:1|0:0,0:0:0:0:
184,32,29656,2,0,P|188:88|176:184,1,140,0|8,0:0|0:0,0:0:0:0:
216,248,30290,1,0,0:0:0:0:
268,316,30501,6,0,L|336:360,1,70,0|0,0:0|0:0,0:0:0:0:
376,284,30924,2,0,L|317:245,1,70,8|0,0:0|0:0,0:0:0:0:
364,176,31346,2,0,L|422:214,2,70,0|8|8,0:0|0:0|0:0,0:0:0:0:
248,56,32191,5,0,0:0:0:0:
132,176,32614,1,8,0:0:0:0:
32,40,33036,2,0,L|44:128,1,70,0|0,0:0|0:0,0:0:0:0:
124,88,33459,2,0,L|114:18,1,70,8|0,0:0|0:0,0:0:0:0:
200,24,33881,6,0,P|264:56|356:40,1,140,0|8,0:0|0:0,0:0:0:0:
412,36,34515,1,0,0:0:0:0:
472,96,34726,2,0,L|492:176,2,70,4|0|8,0:0|0:0|0:0,0:0:0:0:
324,12,35571,5,4,0:1:0:0:
200,124,35994,1,0,0:0:0:0:
52,40,36417,1,0,0:0:0:0:
124,192,36839,1,0,0:0:0:0:
236,64,37262,6,0,L|316:52,1,70,0|0,0:0|0:0,0:0:0:0:
348,128,37684,2,0,L|428:116,2,70,0|0|0,0:0|0:0|0:0,0:0:0:0:
212,228,38529,1,0,0:0:0:0:
80,336,38952,5,0,0:1:0:0:
136,176,39374,1,0,0:0:0:0:
248,300,39797,1,0,0:0:0:0:
292,136,40219,1,0,0:0:0:0:
452,192,40642,6,0,L|476:92,1,70,0|0,0:0|0:0,0:0:0:0:
388,104,41064,2,0,L|412:4,2,70,0|0|0,0:0|0:0|0:0,0:0:0:0:
244,192,41909,1,0,0:0:0:0:
140,64,42332,6,0,P|80:64|4:20,1,140,4|8,0:1|0:0,0:0:0:0:
68,184,43177,2,0,L|92:328,1,140,0|8,0:0|0:0,0:0:0:0:
172,340,43811,1,0,0:0:0:0:
256,324,44022,6,0,P|308:304|400:320,2,140,0|8|0,0:0|0:0|0:0,0:0:0:0:
112,240,45290,2,0,P|56:252|28:244,1,70,8|0,0:0|0:0,0:0:0:0:
68,168,45712,6,0,L|56:72,1,70,4|0,1:0|3:3,0:0:0:0:
140,72,46135,2,0,L|148:141,1,70,0|0,1:0|3:3,0:0:0:0:
232,152,46557,2,0,L|240:82,1,70,0|0,1:0|3:3,0:0:0:0:
321,109,46980,2,0,L|312:178,1,70,0|0,1:0|3:3,0:0:0:0:
344,256,47402,6,0,P|416:272|464:320,1,140,0|0,1:0|1:0,0:0:0:0:
304,372,48248,1,2,0:0:0:0:
212,232,48670,1,2,0:0:0:0:
60,300,49093,5,6,0:0:0:0:
48,132,49515,2,0,L|36:52,1,70,10|2,0:0|0:0,0:0:0:0:
116,36,49938,2,0,P|192:72|272:48,1,140,2|10,0:0|0:0,0:0:0:0:
412,64,50783,6,0,P|456:48|500:52,1,70,2|2,0:0|0:0,0:0:0:0:
496,128,51205,2,0,P|464:141|429:144,1,70,10|2,0:0|0:0,0:0:0:0:
348,116,51628,1,2,0:0:0:0:
196,188,52050,2,0,L|112:220,1,70,10|2,0:0|0:0,0:0:0:0:
128,296,52473,6,0,P|64:336|-4:332,2,140,6|10|2,0:0|0:0|0:0,0:0:0:0:
204,332,53529,1,2,0:0:0:0:
284,304,53740,2,0,P|308:332|352:348,1,70,10|2,0:0|0:0,0:0:0:0:
408,300,54163,5,2,0:0:0:0:
492,284,54374,1,2,0:0:0:0:
456,208,54586,2,0,L|386:218,1,70,10|2,0:0|0:0,0:0:0:0:
368,136,55008,1,2,0:0:0:0:
224,48,55431,2,0,L|140:40,1,70,10|2,0:0|0:0,0:0:0:0:
132,120,55853,6,0,P|40:128|-16:176,1,140,6|10,0:0|0:0,0:0:0:0:
12,236,56487,1,2,0:0:0:0:
40,316,56698,2,0,P|132:308|188:260,1,140,2|10,0:0|0:0,0:0:0:0:
272,148,57543,6,0,L|348:180,1,70,2|2,0:0|0:0,0:0:0:0:
308,256,57966,2,0,L|243:228,1,70,10|2,0:0|0:0,0:0:0:0:
168,196,58388,1,2,0:0:0:0:
248,48,58811,2,0,P|288:32|340:32,1,70,10|2,0:0|0:0,0:0:0:0:
400,28,59233,6,0,L|424:184,1,140,6|10,0:0|0:0,0:0:0:0:
372,328,60079,2,0,L|364:252,1,70,2|2,0:0|0:0,0:0:0:0:
280,260,60501,2,0,L|272:329,1,70,10|2,0:0|0:0,0:0:0:0:
188,332,60924,6,0,P|128:320|32:360,1,140,2|8,0:0|0:0,0:0:0:0:
20,180,61769,1,2,0:0:0:0:
188,196,62191,1,8,0:0:0:0:
108,48,62614,5,6,0:0:0:0:
276,44,63036,2,0,P|320:40|368:28,1,70,10|2,0:0|0:0,0:0:0:0:
356,120,63459,2,0,P|296:144|240:204,1,140,2|10,0:0|0:0,0:0:0:0:
128,320,64304,6,0,L|208:348,1,70,2|2,0:0|0:0,0:0:0:0:
268,304,64726,2,0,L|334:327,1,70,10|2,0:0|0:0,0:0:0:0:
412,356,65149,1,2,0:0:0:0:
460,196,65571,6,0,P|472:156|496:128,2,70,10|2|6,0:0|0:0|0:0,0:0:0:0:
304,264,66417,1,10,0:0:0:0:
176,156,66839,2,0,L|84:172,1,70,2|2,0:0|0:0,0:0:0:0:
80,88,67262,2,0,L|148:76,1,70,10|2,0:0|0:0,0:0:0:0:
228,44,67684,6,0,P|272:72|316:80,1,70,2|2,0:0|0:0,0:0:0:0:
372,64,68107,1,10,0:0:0:0:
448,28,68318,1,2,0:0:0:0:
504,92,68529,1,2,0:0:0:0:
480,260,68952,6,0,L|468:344,2,70,10|2|6,0:0|0:0|0:0,0:0:0:0:
312,248,69797,2,0,L|321:178,2,70,10|2|2,0:0|0:0|0:0,0:0:0:0:
156,316,70642,1,10,0:0:0:0:
32,200,71064,6,0,P|20:168|20:120,1,70,2|2,0:0|0:0,0:0:0:0:
92,96,71487,2,0,P|104:128|104:176,1,70,10|2,0:0|0:0,0:0:0:0:
104,248,71909,1,2,0:0:0:0:
232,356,72332,2,0,L|304:340,1,70,10|2,0:0|0:0,0:0:0:0:
356,276,72755,6,0,P|416:320|496:340,1,140,6|10,0:0|0:0,0:0:0:0:
488,172,73600,2,0,P|460:148|424:128,1,70,2|2,0:0|0:0,0:0:0:0:
352,100,74022,1,10,0:0:0:0:
268,100,74233,1,2,0:0:0:0:
184,116,74445,6,0,P|120:140|48:212,1,140,2|10,0:0|0:0,0:0:0:0:
128,344,75290,2,0,P|192:320|264:248,1,140,0|10,0:0|0:0,0:0:0:0:
308,216,75924,1,2,0:0:0:0:
352,144,76135,5,2,0:0:0:0:
256,192,76240,12,0,77825,0:0:0:0:
436,316,79515,6,0,L|272:324,1,140,6|2,0:0|0:0,0:0:0:0:
232,272,80149,1,2,0:0:0:0:
160,316,80360,1,2,0:0:0:0:
100,260,80571,2,2,L|116:240,3,23.3333333333333
48,192,80994,1,2,0:0:0:0:
28,112,81205,6,0,L|84:60,1,70,2|2,0:0|0:0,0:0:0:0:
148,116,81628,2,0,L|199:68,1,70,2|2,0:0|0:0,0:0:0:0:
268,20,82050,1,2,0:0:0:0:
264,188,82473,1,2,0:0:0:0:
428,156,82895,5,2,0:0:0:0:
344,12,83318,1,2,0:0:0:0:
240,144,83740,1,2,0:0:0:0:
184,80,83952,2,2,L|191:57,3,23.3333333333333
112,36,84374,1,2,0:0:0:0:
48,88,84586,6,0,L|56:164,1,70,2|2,0:0|0:0,0:0:0:0:
132,192,85008,2,0,L|140:268,1,70,2|2,0:0|0:0,0:0:0:0:
156,344,85431,1,2,0:0:0:0:
280,232,85853,1,2,0:0:0:0:
416,328,86276,5,4,0:0:0:0:
