osu file format v14

[General]
AudioFilename: Tsundere.mp3
AudioLeadIn: 0
PreviewTime: 49191
Countdown: 0
SampleSet: Soft
StackLeniency: 0.7
Mode: 3
LetterboxInBreaks: 0
SpecialStyle: 0
WidescreenStoryboard: 1

[Editor]
DistanceSpacing: 0.8
BeatDivisor: 4
GridSize: 4
TimelineZoom: 1.099999

[Metadata]
Title:Su-Suki Nanka Janai!
TitleUnicode:す、好きなんかじゃない!
Artist:Ichigaya Arisa (CV: Itou Ayasa)
ArtistUnicode:市ヶ谷有咲 (CV: 伊藤彩沙)
Creator:KonGuuuu
Version:DH's Easy
Source:バンドリ!ガールズバンドパーティ!
Tags:Slowless Onii_ue Dudehacker Drum-Hitnormal BanG Dream! Girls Band Party! I-I Never Said Love! poppin'party popipa ppp Garupa Bandori! ガルパ! Japanese Video Game pop jpop j-pop
BeatmapID:2336129
BeatmapSetID:1118461

[Difficulty]
HPDrainRate:7
CircleSize:4
OverallDifficulty:7
ApproachRate:5
SliderMultiplier:1.4
SliderTickRate:1

[Events]
//Background and Video events
0,0,"Arisa Maji Tenshi.jpg",0,0
//Break Periods
//Storyboard Layer 0 (Background)
//Storyboard Layer 1 (Fail)
//Storyboard Layer 2 (Pass)
//Storyboard Layer 3 (Foreground)
//Storyboard Layer 4 (Overlay)
//Storyboard Sound Samples
Sample,8348,0,"HHOpen.wav",70
Sample,10336,0,"HHOpen.wav",70
Sample,22444,0,"Tom1.wav",70
Sample,27504,0,"HHOpen.wav",70
Sample,27866,0,"HHOpen.wav",70
Sample,28227,0,"HHOpen.wav",70
Sample,28589,0,"HHOpen.wav",70
Sample,41239,0,"HHOpen.wav",70
Sample,42143,0,"HHOpen.wav",70
Sample,43047,0,"HHOpen.wav",70
Sample,46661,0,"Tom1.wav",70
Sample,47022,0,"Tom2.wav",70
Sample,47203,0,"Tom2.wav",70
Sample,47384,0,"Tom3.wav",70
Sample,47565,0,"Tom3.wav",70
Sample,54432,0,"HHOpen.wav",70
Sample,65275,0,"HHOpen.wav",70
Sample,65637,0,"HHOpen.wav",70
Sample,66902,0,"HHOpen.wav",70
Sample,68348,0,"HHOpen.wav",70
Sample,69071,0,"HHOpen.wav",70
Sample,74131,0,"Tom1.wav",70
Sample,74312,0,"Tom1.wav",70
Sample,74673,0,"Tom1.wav",70
Sample,74854,0,"Tom1.wav",70

[TimingPoints]
35,361.44578313253,4,2,1,70,1,0
49191,-100,4,2,1,70,0,1
78107,-100,4,2,1,70,0,0

[HitObjects]
64,192,35,5,2,0:0:0:0:
448,192,35,1,4,0:0:0:0:
64,192,757,1,0,0:0:0:0:
192,192,938,1,0,0:0:0:0:
320,192,1119,1,0,0:0:0:70:HHOpen.wav
448,192,1300,1,0,0:0:0:0:
64,192,1480,1,2,0:0:0:0:
192,192,1480,1,4,0:0:0:0:
192,192,1842,1,0,0:0:0:70:HHOpen.wav
448,192,2022,1,0,0:0:0:0:
320,192,2384,1,0,0:0:0:0:
448,192,2745,1,0,0:0:0:0:
64,192,2926,1,2,0:0:0:0:
192,192,2926,1,4,0:0:0:0:
448,192,3649,1,0,0:0:0:0:
320,192,3830,1,0,0:0:0:0:
192,192,4010,1,0,0:0:0:70:HHOpen.wav
64,192,4191,1,0,0:0:0:0:
320,192,4372,1,4,0:0:0:0:
448,192,4372,1,2,0:0:0:0:
192,192,4733,1,0,0:0:0:70:Tom3.wav
64,192,4914,128,6,5275:0:0:0:0:
448,192,5275,1,2,0:0:0:0:
192,192,5456,1,8,0:0:0:0:
320,192,5637,1,2,0:0:0:0:
64,192,5818,1,2,0:0:0:0:
448,192,5818,1,4,0:0:0:0:
192,192,6179,1,0,0:0:0:70:HHOpen.wav
64,192,6541,1,2,0:0:0:0:
448,192,6541,1,4,0:0:0:0:
192,192,6902,1,0,0:0:0:70:HHOpen.wav
320,192,7263,1,8,0:0:0:0:
64,192,7444,1,2,0:0:0:0:
448,192,7806,128,6,8167:0:0:0:0:
192,192,8167,1,2,0:0:0:0:
320,192,8348,1,8,0:0:0:0:
192,192,8528,1,8,0:0:0:0:
64,192,8709,1,2,0:0:0:0:
448,192,8709,1,4,0:0:0:0:
192,192,9071,1,8,0:0:0:0:
448,192,9432,1,2,0:0:0:0:
192,192,9794,1,8,0:0:0:0:
64,192,10155,1,8,0:0:0:0:
448,192,10336,1,2,0:0:0:0:
192,192,10697,1,6,0:0:0:0:
64,192,11059,128,6,11601:0:0:0:0:
192,192,11601,1,4,0:0:0:0:
448,192,11601,1,2,0:0:0:0:
320,192,13047,1,0,0:0:0:0:
192,192,14492,1,0,0:0:0:0:
448,192,14854,1,0,0:0:0:0:
64,192,15034,1,0,0:0:0:0:
192,192,15396,1,0,0:0:0:0:
320,192,15577,1,0,0:0:0:0:
64,192,15938,1,0,0:0:0:0:
320,192,16300,1,0,0:0:0:0:
448,192,16661,1,0,0:0:0:0:
192,192,17022,1,0,0:0:0:0:
448,192,17384,1,0,0:0:0:70:Ride.wav
64,192,17745,1,0,0:0:0:0:
320,192,17926,1,0,0:0:0:0:
448,192,18288,1,0,0:0:0:0:
192,192,18830,1,0,0:0:0:70:Ride.wav
448,192,19191,1,0,0:0:0:0:
64,192,19372,1,0,0:0:0:0:
320,192,19733,1,0,0:0:0:0:
192,192,20095,1,0,0:0:0:30:HHOpen.wav
448,192,20275,1,0,0:0:0:70:soft-hitfinish.wav
320,192,20637,1,0,0:0:0:0:
192,192,20818,1,0,0:0:0:0:
64,192,21179,1,0,0:0:0:0:
448,192,21721,1,0,0:0:0:0:
320,192,22263,1,0,0:0:0:0:
64,192,22444,128,8,22806:0:0:0:0:
448,192,22806,1,12,0:0:0:0:
192,192,23167,1,6,0:0:0:0:
448,192,23528,1,2,0:0:0:0:
192,192,23890,1,2,0:0:0:0:
448,192,24251,1,2,0:0:0:0:
64,192,24613,1,2,0:0:0:0:
320,192,24974,1,2,0:0:0:0:
64,192,25336,1,2,0:0:0:0:
448,192,25516,1,0,0:0:0:70:HHOpen.wav
192,192,25697,1,2,0:0:0:0:
448,192,25878,1,0,0:0:0:70:HHOpen.wav
64,192,26059,1,2,0:0:0:0:
320,192,26420,1,2,0:0:0:0:
64,192,26781,1,2,0:0:0:0:
320,192,27143,1,2,0:0:0:0:
192,192,27504,1,2,0:0:0:0:
448,192,27866,1,2,0:0:0:0:
192,192,28227,1,2,0:0:0:0:
448,192,28589,1,2,0:0:0:0:
64,192,28950,1,6,0:0:0:0:
448,192,29312,1,8,0:0:0:0:
192,192,29673,1,2,0:0:0:0:
320,192,29854,1,2,0:0:0:0:
448,192,30034,1,8,0:0:0:0:
64,192,30396,1,2,0:0:0:0:
192,192,30577,1,2,0:0:0:0:
320,192,30757,1,8,0:0:0:0:
64,192,30938,1,4,0:0:0:0:
448,192,30938,1,2,0:0:0:0:
192,192,31300,1,2,0:0:0:0:
320,192,31480,1,8,0:0:0:0:
64,192,31842,1,6,0:0:0:0:
320,192,32022,1,2,0:0:0:0:
192,192,32203,1,8,0:0:0:0:
64,192,32384,1,4,0:0:0:0:
448,192,32384,1,2,0:0:0:0:
192,192,32745,1,2,0:0:0:0:
320,192,32926,1,8,0:0:0:0:
64,192,33107,1,4,0:0:0:0:
448,192,33107,1,2,0:0:0:0:
192,192,33468,1,2,0:0:0:0:
320,192,33649,1,8,0:0:0:0:
448,192,34010,1,8,0:0:0:0:
320,192,34191,1,0,0:0:0:70:Tom1.wav
192,192,34372,1,0,0:0:0:70:Tom2.wav
64,192,34553,1,0,0:0:0:70:Tom3.wav
320,192,34733,1,4,0:0:0:0:
448,192,34733,1,2,0:0:0:0:
448,192,35275,1,2,0:0:0:0:
192,192,35456,1,12,0:0:0:0:
64,192,35998,1,0,0:0:0:0:
448,192,36179,1,2,0:0:0:0:
320,192,36360,1,8,0:0:0:0:
64,192,36721,1,2,0:0:0:0:
320,192,36902,1,8,0:0:0:0:
192,192,37263,1,0,0:0:0:0:
448,192,37625,1,2,0:0:0:0:
64,192,38167,1,2,0:0:0:0:
320,192,38348,1,8,0:0:0:0:
448,192,38890,1,2,0:0:0:0:
192,192,39071,1,2,0:0:0:0:
64,192,39251,1,8,0:0:0:0:
192,192,39613,1,2,0:0:0:0:
448,192,39794,1,8,0:0:0:0:
192,192,40155,1,0,0:0:0:70:Tom3.wav
320,192,40336,1,2,0:0:0:0:
64,192,40516,1,4,0:0:0:0:
448,192,40516,1,2,0:0:0:0:
320,192,41059,1,2,0:0:0:0:
192,192,41239,1,8,0:0:0:0:
448,192,41601,1,0,0:0:0:70:HHOpen.wav
320,192,41781,1,2,0:0:0:0:
64,192,41962,1,8,0:0:0:0:
192,192,42143,1,2,0:0:0:0:
192,192,42504,1,6,0:0:0:0:
448,192,42866,1,2,0:0:0:0:
64,192,43047,1,8,0:0:0:0:
192,192,43227,1,8,0:0:0:0:
320,192,43408,1,2,0:0:0:0:
448,192,43408,1,4,0:0:0:0:
192,192,43769,1,8,0:0:0:0:
64,192,43950,1,2,0:0:0:0:
448,192,43950,1,0,0:0:0:0:
192,192,44312,1,2,0:0:0:0:
320,192,44492,1,8,0:0:0:0:
64,192,44673,1,2,0:0:0:0:
448,192,44673,1,4,0:0:0:0:
320,192,45034,1,2,0:0:0:0:
64,192,45215,1,8,0:0:0:0:
192,192,45215,1,0,0:0:0:0:
448,192,45577,1,2,0:0:0:0:
320,192,45757,1,8,0:0:0:0:
64,192,45938,1,0,0:0:0:70:Tom1.wav
192,192,45938,1,0,0:0:0:0:
320,192,46300,1,2,0:0:0:0:
448,192,46300,1,4,0:0:0:0:
192,192,46661,128,8,47022:0:0:0:0:
448,192,47022,1,8,0:0:0:0:
320,192,47203,1,8,0:0:0:0:
64,192,47384,1,8,0:0:0:0:
192,192,47565,1,8,0:0:0:0:
320,192,47745,1,2,0:0:0:0:
448,192,47745,1,4,0:0:0:0:
192,192,48107,1,8,0:0:0:0:
64,192,48288,1,2,0:0:0:0:
448,192,48288,1,4,0:0:0:0:
320,192,48830,1,8,0:0:0:0:
448,192,48830,1,4,0:0:0:0:
64,192,49191,1,2,0:0:0:0:
192,192,49191,1,4,0:0:0:0:
320,192,49553,1,8,0:0:0:0:
64,192,49914,1,2,0:0:0:0:
320,192,50275,1,8,0:0:0:0:
192,192,50637,1,2,0:0:0:0:
448,192,50998,1,8,0:0:0:0:
192,192,51360,1,2,0:0:0:0:
320,192,51541,1,0,0:0:0:70:HHOpen.wav
448,192,51721,1,8,0:0:0:0:
64,192,52083,1,2,0:0:0:0:
320,192,52444,1,8,0:0:0:0:
64,192,52806,1,2,0:0:0:0:
320,192,53167,1,8,0:0:0:0:
192,192,53528,1,2,0:0:0:0:
448,192,53890,1,8,0:0:0:0:
192,192,54251,1,2,0:0:0:0:
320,192,54432,1,2,0:0:0:0:
448,192,54613,1,8,0:0:0:0:
64,192,54794,1,2,0:0:0:0:
192,192,54794,1,4,0:0:0:0:
320,192,55155,1,2,0:0:0:0:
192,192,55336,1,8,0:0:0:0:
448,192,55516,128,0,56059:0:0:0:0:
320,192,56059,1,8,0:0:0:0:
64,192,56239,1,2,0:0:0:0:
192,192,56239,1,4,0:0:0:0:
320,192,56601,1,2,0:0:0:0:
192,192,56781,1,8,0:0:0:0:
64,192,56962,128,0,57504:0:0:0:0:
192,192,57504,1,8,0:0:0:0:
320,192,57685,1,2,0:0:0:0:
448,192,57685,1,4,0:0:0:0:
64,192,58047,1,2,0:0:0:0:
192,192,58227,1,8,0:0:0:0:
448,192,58589,1,2,0:0:0:0:
320,192,58769,1,2,0:0:0:0:
64,192,58950,1,8,0:0:0:0:
192,192,59131,1,8,0:0:0:0:
320,192,59312,1,2,0:0:0:0:
448,192,59312,1,4,0:0:0:0:
192,192,59673,1,8,0:0:0:0:
64,192,59854,1,2,0:0:0:0:
448,192,59854,1,4,0:0:0:0:
320,192,60215,1,2,0:0:0:0:
448,192,60396,128,8,60757:0:0:0:0:
64,192,60757,1,4,0:0:0:0:
192,192,60757,1,2,0:0:0:0:
320,192,61119,1,8,0:0:0:0:
64,192,61480,1,2,0:0:0:0:
320,192,61842,1,8,0:0:0:0:
192,192,62203,1,2,0:0:0:0:
448,192,62565,1,8,0:0:0:0:
192,192,62926,1,2,0:0:0:0:
320,192,63107,1,0,0:0:0:70:HHOpen.wav
448,192,63288,1,8,0:0:0:0:
64,192,63649,1,2,0:0:0:0:
320,192,64010,1,8,0:0:0:0:
64,192,64372,1,2,0:0:0:0:
320,192,64733,1,8,0:0:0:0:
192,192,65095,1,2,0:0:0:0:
320,192,65275,1,2,0:0:0:0:
448,192,65456,1,8,0:0:0:0:
64,192,65637,128,8,65998:0:0:0:0:
192,192,65998,1,0,0:0:0:70:Tom1.wav
320,192,66179,1,0,0:0:0:70:Tom2.wav
64,192,66360,1,2,0:0:0:0:
448,192,66360,1,4,0:0:0:0:
192,192,66721,1,2,0:0:0:0:
320,192,66902,1,8,0:0:0:0:
448,192,67083,1,2,0:0:0:0:
320,192,67444,1,2,0:0:0:0:
192,192,67625,1,8,0:0:0:0:
64,192,67806,1,2,0:0:0:0:
448,192,67806,1,4,0:0:0:0:
320,192,68167,1,2,0:0:0:0:
192,192,68348,1,8,0:0:0:0:
64,192,68528,1,2,0:0:0:0:
448,192,68890,1,2,0:0:0:0:
64,192,69071,1,8,0:0:0:0:
448,192,69432,1,6,0:0:0:0:
192,192,69613,1,2,0:0:0:0:
320,192,69794,1,8,0:0:0:0:
64,192,69974,1,2,0:0:0:0:
448,192,69974,1,4,0:0:0:0:
320,192,70336,1,0,0:0:0:70:Tom1.wav
192,192,70516,1,0,0:0:0:70:Tom2.wav
64,192,70697,1,2,0:0:0:0:
448,192,70697,1,4,0:0:0:0:
320,192,71059,1,2,0:0:0:0:
448,192,71239,1,8,0:0:0:0:
64,192,71420,1,2,0:0:0:0:
192,192,71420,1,4,0:0:0:0:
320,192,71781,1,2,0:0:0:0:
192,192,71962,1,8,0:0:0:0:
320,192,72143,1,8,0:0:0:0:
64,192,72324,1,2,0:0:0:0:
448,192,72324,1,4,0:0:0:0:
320,192,72685,1,8,0:0:0:0:
64,192,72866,1,4,0:0:0:0:
192,192,72866,1,2,0:0:0:0:
448,192,73227,1,8,0:0:0:0:
192,192,73408,1,4,0:0:0:0:
320,192,73408,128,2,73769:0:0:0:0:
64,192,73769,1,0,0:0:0:0:
448,192,74131,1,8,0:0:0:0:
320,192,74312,1,8,0:0:0:0:
64,192,74673,1,8,0:0:0:0:
192,192,74854,128,8,75215:0:0:0:0:
64,192,75215,1,4,0:0:0:0:
448,192,75215,1,2,0:0:0:0:
192,192,75577,1,8,0:0:0:0:
320,192,75757,1,4,0:0:0:0:
448,192,75757,1,2,0:0:0:0:
192,192,76119,1,8,0:0:0:0:
64,192,76300,128,4,76661:0:0:0:0:
448,192,76300,1,2,0:0:0:0:
64,192,78107,1,2,0:0:0:0:
448,192,78107,1,4,0:0:0:0:
64,192,78830,1,0,0:0:0:0:
192,192,79010,1,0,0:0:0:0:
320,192,79191,1,0,0:0:0:70:HHOpen.wav
448,192,79372,1,0,0:0:0:0:
64,192,79553,1,2,0:0:0:0:
192,192,79553,1,4,0:0:0:0:
192,192,79914,1,0,0:0:0:70:HHOpen.wav
448,192,80095,1,0,0:0:0:0:
320,192,80456,1,0,0:0:0:0:
448,192,80818,1,0,0:0:0:0:
64,192,80998,1,2,0:0:0:0:
192,192,80998,1,4,0:0:0:0:
448,192,81721,1,0,0:0:0:0:
320,192,81902,1,0,0:0:0:0:
192,192,82083,1,0,0:0:0:70:HHOpen.wav
64,192,82263,1,0,0:0:0:0:
320,192,82444,1,4,0:0:0:0:
448,192,82444,1,2,0:0:0:0:
192,192,82806,1,8,0:0:0:0:
64,192,82986,128,6,83348:0:0:0:0:
448,192,83348,1,2,0:0:0:0:
192,192,83528,1,8,0:0:0:0:
320,192,83709,1,8,0:0:0:0:
64,192,83890,1,2,0:0:0:0:
448,192,83890,1,4,0:0:0:0:
192,192,84251,1,0,0:0:0:70:HHOpen.wav
64,192,84613,1,2,0:0:0:0:
448,192,84613,1,4,0:0:0:0:
192,192,84974,1,0,0:0:0:70:HHOpen.wav
320,192,85336,1,8,0:0:0:0:
64,192,85516,1,2,0:0:0:0:
448,192,85878,128,6,86239:0:0:0:0:
192,192,86239,1,2,0:0:0:0:
320,192,86420,1,8,0:0:0:0:
192,192,86601,1,8,0:0:0:0:
64,192,86781,1,2,0:0:0:0:
448,192,86781,1,4,0:0:0:0:
192,192,87143,1,8,0:0:0:0:
448,192,87504,1,2,0:0:0:0:
192,192,87866,1,8,0:0:0:0:
64,192,88227,1,2,0:0:0:0:
448,192,88408,1,0,0:0:0:70:Tom2.wav
192,192,88769,1,6,0:0:0:0:
64,192,89131,128,6,89673:0:0:0:0:
320,192,89673,1,4,0:0:0:0:
448,192,89673,128,2,92565:0:0:0:0:
