osu file format v14

[General]
AudioFilename: Tsundere.mp3
AudioLeadIn: 0
PreviewTime: 49191
Countdown: 0
SampleSet: Soft
StackLeniency: 0.7
Mode: 3
LetterboxInBreaks: 0
SpecialStyle: 0
WidescreenStoryboard: 0

[Editor]
DistanceSpacing: 0.8
BeatDivisor: 4
GridSize: 4
TimelineZoom: 2.899998

[Metadata]
Title:Su-Suki Nanka Janai!
TitleUnicode:す、好きなんかじゃない!
Artist:Ichigaya Arisa (CV: Itou Ayasa)
ArtistUnicode:市ヶ谷有咲 (CV: 伊藤彩沙)
Creator:KonGuuuu
Version:Chomama
Source:バンドリ!ガールズバンドパーティ!
Tags:Slowless Onii_ue Dudehacker Drum-Hitnormal BanG Dream! Girls Band Party! I-I Never Said Love! poppin'party popipa ppp Garupa Bandori! ガルパ! Japanese Video Game pop jpop j-pop
BeatmapID:2336128
BeatmapSetID:1118461

[Difficulty]
HPDrainRate:8
CircleSize:4
OverallDifficulty:8
ApproachRate:5
SliderMultiplier:1.4
SliderTickRate:1

[Events]
//Background and Video events
0,0,"Arisa Maji Tenshi.jpg",0,0
//Break Periods
//Storyboard Layer 0 (Background)
//Storyboard Layer 1 (Fail)
//Storyboard Layer 2 (Pass)
//Storyboard Layer 3 (Foreground)
//Storyboard Layer 4 (Overlay)
//Storyboard Sound Samples

[TimingPoints]
35,361.44578313253,4,2,1,70,1,0
49191,-100,4,2,1,70,0,1
78107,-100,4,2,1,70,0,0

[HitObjects]
64,192,35,128,2,1119:0:0:0:0:
192,192,35,128,4,938:0:0:0:0:
320,192,35,128,0,757:0:0:0:0:
448,192,35,1,0,0:0:0:0:
448,192,396,1,0,0:0:0:70:HHOpen.wav
448,192,757,128,0,938:0:0:0:0:
320,192,938,128,0,1119:0:0:0:0:
192,192,1119,128,0,1300:0:0:0:70:HHOpen.wav
64,192,1300,128,0,1480:0:0:0:0:
192,192,1480,128,2,1842:0:0:0:0:
320,192,1480,128,4,2022:0:0:0:0:
448,192,1480,128,0,2384:0:0:0:0:
64,192,1842,128,0,2022:0:0:0:70:HHOpen.wav
192,192,2022,128,0,2203:0:0:0:0:
320,192,2384,128,0,2565:0:0:0:0:
64,192,2565,1,0,0:0:0:70:HHOpen.wav
448,192,2745,128,0,2926:0:0:0:0:
64,192,2926,128,2,4010:0:0:0:0:
192,192,2926,128,4,3830:0:0:0:0:
320,192,2926,128,0,3649:0:0:0:0:
448,192,3288,1,0,0:0:0:70:HHOpen.wav
448,192,3649,128,0,4281:0:0:0:0:
320,192,3830,128,0,4281:0:0:0:0:
192,192,4010,128,0,4281:0:0:0:70:HHOpen.wav
64,192,4191,128,0,4372:0:0:0:0:
192,192,4372,128,4,4462:0:0:0:0:
320,192,4372,128,2,4553:0:0:0:0:
448,192,4372,128,0,4643:0:0:0:0:
64,192,4553,1,0,0:0:0:70:Tom2.wav
192,192,4553,1,0,0:0:0:0:
64,192,4733,128,0,4914:0:0:0:70:Tom3.wav
448,192,4733,128,0,4824:0:0:0:0:
192,192,4914,1,4,0:0:0:0:
320,192,4914,128,2,5275:0:0:0:0:
448,192,4914,128,0,5275:0:0:0:0:
64,192,5275,1,2,0:0:0:0:
192,192,5275,1,0,0:0:0:0:
64,192,5456,128,8,5727:0:0:0:0:
320,192,5456,1,0,0:0:0:0:
448,192,5456,128,0,5727:0:0:0:0:
192,192,5547,128,0,5727:0:0:0:0:
320,192,5637,128,2,5727:0:0:0:0:
192,192,5818,1,2,0:0:0:0:
320,192,5818,1,4,0:0:0:0:
448,192,5818,128,0,6541:0:0:0:0:
64,192,6179,1,0,0:0:0:70:HHOpen.wav
320,192,6360,128,0,6541:0:0:0:0:
64,192,6541,128,2,6902:0:0:0:0:
192,192,6541,1,4,0:0:0:0:
320,192,6721,128,0,6902:0:0:0:0:
192,192,6902,128,0,7173:0:0:0:70:HHOpen.wav
448,192,7083,128,0,7173:0:0:0:0:
64,192,7263,128,8,7625:0:0:0:0:
192,192,7263,1,0,0:0:0:0:
448,192,7263,128,0,7625:0:0:0:0:
192,192,7444,128,2,7625:0:0:0:0:
320,192,7444,128,0,7625:0:0:0:0:
64,192,7806,128,2,8167:0:0:0:0:
192,192,7806,128,4,8167:0:0:0:0:
320,192,7806,1,0,0:0:0:0:
320,192,8167,1,2,0:0:0:0:
448,192,8167,1,0,0:0:0:0:
64,192,8348,1,8,0:0:0:0:
192,192,8348,1,0,0:0:0:70:HHOpen.wav
448,192,8348,1,0,0:0:0:0:
64,192,8528,1,8,0:0:0:0:
192,192,8528,128,0,8890:0:0:0:0:
320,192,8619,1,8,0:0:0:0:
64,192,8709,128,2,8890:0:0:0:0:
448,192,8709,1,4,0:0:0:0:
320,192,8890,128,0,9251:0:0:0:70:HHOpen.wav
64,192,9071,1,8,0:0:0:0:
192,192,9071,128,0,9251:0:0:0:0:
448,192,9071,1,0,0:0:0:0:
448,192,9251,128,0,9703:0:0:0:70:HHOpen.wav
192,192,9432,1,2,0:0:0:0:
320,192,9432,128,0,9613:0:0:0:0:
64,192,9613,1,0,0:0:0:70:HHOpen.wav
192,192,9673,128,0,9974:0:0:0:0:
320,192,9733,128,0,9974:0:0:0:0:
64,192,9794,1,8,0:0:0:0:
448,192,9794,1,0,0:0:0:0:
64,192,9974,128,0,10245:0:0:0:70:HHOpen.wav
192,192,10155,128,8,10245:0:0:0:0:
320,192,10155,128,0,10516:0:0:0:0:
448,192,10155,128,0,10516:0:0:0:0:
64,192,10336,128,2,10516:0:0:0:0:
192,192,10336,128,0,10516:0:0:0:70:HHOpen.wav
192,192,10697,128,2,10878:0:0:0:0:
320,192,10697,128,4,10878:0:0:0:0:
448,192,10697,128,0,10878:0:0:0:0:
64,192,11059,128,2,11510:0:0:0:0:
192,192,11059,128,4,11510:0:0:0:0:
320,192,11059,128,0,11510:0:0:0:0:
64,192,11601,128,4,14492:0:0:0:0:
192,192,11601,128,2,12595:0:0:0:0:
320,192,11601,128,0,12414:0:0:0:0:
448,192,11601,128,0,12233:0:0:0:0:
448,192,12324,1,0,0:0:0:0:
320,192,12504,1,0,0:0:0:0:
192,192,12685,1,0,0:0:0:0:
320,192,12866,1,0,0:0:0:0:
192,192,13047,1,0,0:0:0:0:
448,192,13047,1,0,0:0:0:0:
320,192,13408,1,0,0:0:0:0:
448,192,13589,1,0,0:0:0:0:
192,192,13950,1,0,0:0:0:0:
192,192,14402,1,0,0:0:0:0:
320,192,14447,1,0,0:0:0:0:
448,192,14492,1,0,0:0:0:0:
192,192,14854,1,0,0:0:0:0:
320,192,15034,1,0,0:0:0:0:
64,192,15396,1,0,0:0:0:0:
192,192,15577,1,0,0:0:0:0:
320,192,15757,1,0,0:0:0:0:
64,192,15938,1,0,0:0:0:0:
448,192,15938,1,0,0:0:0:0:
192,192,16119,1,0,0:0:0:0:
320,192,16300,1,0,0:0:0:0:
192,192,16480,1,0,0:0:0:0:
64,192,16661,1,0,0:0:0:0:
448,192,16661,1,0,0:0:0:0:
64,192,17022,1,0,0:0:0:0:
320,192,17022,1,0,0:0:0:0:
64,192,17384,1,0,0:0:0:70:Ride.wav
192,192,17384,1,0,0:0:0:0:
320,192,17745,1,0,0:0:0:0:
192,192,17926,1,0,0:0:0:0:
448,192,18288,1,0,0:0:0:0:
192,192,18649,1,0,0:0:0:0:
64,192,18830,1,0,0:0:0:70:Ride.wav
448,192,18830,1,0,0:0:0:0:
192,192,19191,1,0,0:0:0:0:
320,192,19372,1,0,0:0:0:0:
64,192,19553,1,0,0:0:0:0:
448,192,19733,1,0,0:0:0:0:
320,192,19914,1,0,0:0:0:30:HHOpen.wav
64,192,20095,1,0,0:0:0:30:HHOpen.wav
192,192,20185,1,0,0:0:0:0:
320,192,20230,1,0,0:0:0:0:
64,192,20275,1,0,0:0:0:70:soft-hitfinish.wav
448,192,20275,1,0,0:0:0:0:
320,192,20637,1,0,0:0:0:0:
192,192,20818,1,0,0:0:0:0:
448,192,21179,1,0,0:0:0:0:
320,192,21360,1,0,0:0:0:0:
64,192,21721,1,0,0:0:0:0:
448,192,21721,1,0,0:0:0:0:
320,192,22263,1,0,0:0:0:0:
64,192,22444,1,8,0:0:0:0:
192,192,22444,1,0,0:0:0:70:Tom1.wav
448,192,22444,1,0,0:0:0:0:
320,192,22534,1,2,0:0:0:0:
192,192,22625,1,2,0:0:0:0:
64,192,22715,1,2,0:0:0:0:
192,192,22806,1,8,0:0:0:0:
320,192,22806,1,4,0:0:0:0:
448,192,22806,1,0,0:0:0:0:
64,192,23167,128,2,23528:0:0:0:0:
192,192,23167,1,4,0:0:0:0:
448,192,23167,1,0,0:0:0:0:
192,192,23528,1,2,0:0:0:0:
320,192,23528,1,0,0:0:0:0:
192,192,23709,1,0,0:0:0:0:
320,192,23890,1,2,0:0:0:0:
448,192,23890,1,0,0:0:0:0:
320,192,24071,1,0,0:0:0:0:
64,192,24251,1,2,0:0:0:0:
448,192,24251,1,0,0:0:0:0:
448,192,24432,1,0,0:0:0:0:
64,192,24613,1,2,0:0:0:0:
320,192,24613,1,0,0:0:0:0:
64,192,24794,1,0,0:0:0:0:
192,192,24974,1,2,0:0:0:0:
448,192,24974,1,0,0:0:0:0:
192,192,25155,1,0,0:0:0:0:
64,192,25336,1,2,0:0:0:0:
320,192,25336,1,0,0:0:0:0:
192,192,25516,1,0,0:0:0:70:HHOpen.wav
320,192,25516,1,0,0:0:0:0:
64,192,25697,1,2,0:0:0:0:
448,192,25697,1,0,0:0:0:0:
320,192,25878,1,0,0:0:0:70:HHOpen.wav
448,192,25878,1,0,0:0:0:0:
64,192,26059,1,2,0:0:0:0:
192,192,26059,128,0,26420:0:0:0:0:
64,192,26420,1,2,0:0:0:0:
448,192,26420,1,0,0:0:0:0:
448,192,26601,1,0,0:0:0:0:
64,192,26781,1,2,0:0:0:0:
320,192,26781,1,0,0:0:0:0:
320,192,26962,1,0,0:0:0:0:
192,192,27143,1,2,0:0:0:0:
448,192,27143,1,0,0:0:0:0:
192,192,27324,1,0,0:0:0:0:
64,192,27504,1,2,0:0:0:0:
448,192,27504,1,0,0:0:0:70:HHOpen.wav
64,192,27685,1,0,0:0:0:0:
192,192,27866,1,2,0:0:0:0:
448,192,27866,1,0,0:0:0:70:HHOpen.wav
448,192,28047,1,0,0:0:0:0:
64,192,28227,1,2,0:0:0:0:
320,192,28227,128,0,28589:0:0:0:70:HHOpen.wav
192,192,28589,128,2,28950:0:0:0:0:
448,192,28589,1,0,0:0:0:70:HHOpen.wav
64,192,28950,128,4,29312:0:0:0:0:
320,192,28950,1,2,0:0:0:0:
448,192,28950,1,0,0:0:0:0:
192,192,29312,1,8,0:0:0:0:
320,192,29312,1,0,0:0:0:0:
448,192,29312,1,0,0:0:0:0:
320,192,29583,1,8,0:0:0:0:
64,192,29673,1,2,0:0:0:0:
192,192,29673,1,0,0:0:0:0:
192,192,29854,1,2,0:0:0:0:
448,192,29854,1,0,0:0:0:0:
64,192,30034,1,8,0:0:0:0:
320,192,30034,1,0,0:0:0:0:
448,192,30034,1,0,0:0:0:0:
192,192,30306,1,8,0:0:0:0:
320,192,30396,1,2,0:0:0:0:
448,192,30396,1,0,0:0:0:0:
64,192,30577,1,2,0:0:0:0:
320,192,30577,1,0,0:0:0:0:
64,192,30757,1,8,0:0:0:0:
192,192,30757,1,0,0:0:0:0:
448,192,30757,1,0,0:0:0:0:
64,192,30938,1,4,0:0:0:0:
320,192,30938,128,2,31480:0:0:0:0:
448,192,30938,1,0,0:0:0:0:
64,192,31300,1,2,0:0:0:0:
192,192,31300,1,0,0:0:0:0:
64,192,31480,1,8,0:0:0:0:
192,192,31480,1,0,0:0:0:0:
448,192,31480,1,0,0:0:0:0:
64,192,31842,128,4,32203:0:0:0:0:
192,192,31842,1,2,0:0:0:0:
320,192,32022,1,2,0:0:0:0:
448,192,32022,1,0,0:0:0:0:
192,192,32203,1,8,0:0:0:0:
320,192,32203,1,0,0:0:0:0:
448,192,32203,1,0,0:0:0:0:
64,192,32384,1,4,0:0:0:0:
192,192,32384,1,2,0:0:0:0:
448,192,32384,128,0,32926:0:0:0:0:
192,192,32745,1,2,0:0:0:0:
320,192,32745,1,0,0:0:0:0:
64,192,32926,1,8,0:0:0:0:
192,192,32926,1,0,0:0:0:0:
320,192,32926,1,0,0:0:0:0:
64,192,33107,128,4,33649:0:0:0:0:
320,192,33107,1,2,0:0:0:0:
448,192,33107,1,0,0:0:0:0:
320,192,33468,1,2,0:0:0:0:
448,192,33468,1,0,0:0:0:0:
192,192,33649,1,8,0:0:0:0:
320,192,33649,1,0,0:0:0:0:
448,192,33649,1,0,0:0:0:0:
64,192,33830,1,2,0:0:0:0:
192,192,33830,1,0,0:0:0:0:
64,192,34010,1,8,0:0:0:0:
320,192,34010,1,0,0:0:0:0:
448,192,34010,1,0,0:0:0:0:
192,192,34191,1,0,0:0:0:70:Tom1.wav
448,192,34191,1,0,0:0:0:0:
320,192,34372,1,0,0:0:0:70:Tom2.wav
448,192,34372,1,0,0:0:0:0:
64,192,34553,1,0,0:0:0:70:Tom3.wav
320,192,34553,1,0,0:0:0:0:
64,192,34733,1,4,0:0:0:0:
192,192,34733,1,2,0:0:0:0:
448,192,34733,128,0,34914:0:0:0:0:
320,192,34914,128,0,35095:0:0:0:0:
64,192,35095,128,0,35275:0:0:0:0:
192,192,35275,128,2,35456:0:0:0:0:
320,192,35275,1,0,0:0:0:0:
64,192,35456,1,8,0:0:0:0:
320,192,35456,1,4,0:0:0:0:
448,192,35456,128,0,35637:0:0:0:0:
192,192,35637,128,0,35818:0:0:0:0:
64,192,35818,128,0,35998:0:0:0:0:
320,192,35998,128,0,36179:0:0:0:0:
448,192,35998,1,0,0:0:0:0:
192,192,36089,1,0,0:0:0:0:
64,192,36179,1,2,0:0:0:0:
448,192,36179,128,0,36360:0:0:0:0:
64,192,36360,1,8,0:0:0:0:
192,192,36360,1,0,0:0:0:0:
320,192,36360,1,0,0:0:0:0:
448,192,36541,1,0,0:0:0:0:
192,192,36721,1,2,0:0:0:0:
320,192,36721,1,0,0:0:0:0:
64,192,36902,1,8,0:0:0:0:
320,192,36902,1,0,0:0:0:0:
448,192,36902,1,0,0:0:0:0:
192,192,37083,1,0,0:0:0:0:
320,192,37263,1,0,0:0:0:0:
64,192,37444,1,0,0:0:0:0:
448,192,37444,1,0,0:0:0:0:
320,192,37534,1,0,0:0:0:0:
64,192,37625,1,2,0:0:0:0:
192,192,37625,128,0,37806:0:0:0:0:
448,192,37806,128,0,37986:0:0:0:0:
320,192,37986,128,0,38167:0:0:0:0:
64,192,38167,128,2,38348:0:0:0:0:
192,192,38167,1,0,0:0:0:0:
192,192,38348,128,8,38528:0:0:0:0:
320,192,38348,1,0,0:0:0:0:
448,192,38348,1,0,0:0:0:0:
320,192,38528,1,0,0:0:0:0:
192,192,38709,1,0,0:0:0:0:
64,192,38890,1,2,0:0:0:0:
448,192,38890,1,0,0:0:0:0:
192,192,39071,1,2,0:0:0:0:
320,192,39071,1,0,0:0:0:0:
64,192,39251,1,8,0:0:0:0:
320,192,39251,1,0,0:0:0:0:
448,192,39251,1,0,0:0:0:0:
192,192,39432,1,0,0:0:0:0:
320,192,39613,1,2,0:0:0:0:
448,192,39613,1,0,0:0:0:0:
64,192,39794,1,8,0:0:0:0:
192,192,39794,1,0,0:0:0:0:
448,192,39794,1,0,0:0:0:0:
320,192,39974,1,0,0:0:0:0:
64,192,40155,1,0,0:0:0:70:Tom3.wav
448,192,40155,1,0,0:0:0:0:
192,192,40336,1,2,0:0:0:0:
320,192,40336,1,0,0:0:0:0:
64,192,40516,1,4,0:0:0:0:
192,192,40516,1,2,0:0:0:0:
448,192,40516,128,0,40697:0:0:0:0:
320,192,40697,128,0,40878:0:0:0:0:
64,192,40878,128,0,41059:0:0:0:0:
192,192,41059,128,2,41239:0:0:0:0:
64,192,41239,1,8,0:0:0:0:
320,192,41239,1,0,0:0:0:70:HHOpen.wav
448,192,41239,128,0,41420:0:0:0:0:
192,192,41420,128,0,41601:0:0:0:0:
320,192,41601,128,0,41781:0:0:0:70:HHOpen.wav
64,192,41781,128,2,41962:0:0:0:0:
448,192,41781,1,0,0:0:0:0:
192,192,41962,1,8,0:0:0:0:
320,192,41962,128,0,42053:0:0:0:0:
448,192,41962,128,0,42053:0:0:0:0:
64,192,42143,1,2,0:0:0:0:
192,192,42143,128,0,42324:0:0:0:70:HHOpen.wav
320,192,42143,128,0,42324:0:0:0:0:
64,192,42504,128,2,42866:0:0:0:0:
192,192,42504,128,4,42866:0:0:0:0:
320,192,42504,1,0,0:0:0:0:
320,192,42866,1,2,0:0:0:0:
448,192,42866,1,0,0:0:0:0:
64,192,43047,1,8,0:0:0:0:
320,192,43047,1,0,0:0:0:70:HHOpen.wav
448,192,43047,1,0,0:0:0:0:
64,192,43227,1,8,0:0:0:0:
192,192,43227,1,0,0:0:0:0:
320,192,43318,1,8,0:0:0:0:
64,192,43408,1,2,0:0:0:0:
192,192,43408,128,4,43769:0:0:0:0:
448,192,43408,1,0,0:0:0:0:
64,192,43769,1,8,0:0:0:0:
320,192,43769,1,0,0:0:0:0:
448,192,43769,1,0,0:0:0:0:
64,192,43950,1,2,0:0:0:0:
192,192,43950,1,0,0:0:0:0:
448,192,43950,128,0,44492:0:0:0:0:
192,192,44312,1,2,0:0:0:0:
320,192,44312,1,0,0:0:0:0:
64,192,44492,1,8,0:0:0:0:
192,192,44492,1,0,0:0:0:0:
320,192,44492,1,0,0:0:0:0:
64,192,44673,1,2,0:0:0:0:
320,192,44673,128,4,45034:0:0:0:0:
448,192,44673,1,0,0:0:0:0:
64,192,45034,1,2,0:0:0:0:
192,192,45034,1,0,0:0:0:0:
64,192,45215,128,8,45938:0:0:0:0:
320,192,45215,1,0,0:0:0:0:
448,192,45215,1,0,0:0:0:0:
192,192,45486,1,8,0:0:0:0:
320,192,45577,1,2,0:0:0:0:
448,192,45577,1,0,0:0:0:0:
192,192,45757,1,8,0:0:0:0:
320,192,45757,1,0,0:0:0:0:
448,192,45757,1,0,0:0:0:0:
320,192,45938,1,0,0:0:0:70:Tom1.wav
448,192,45938,1,0,0:0:0:0:
192,192,46028,1,0,0:0:0:70:Tom2.wav
64,192,46119,1,0,0:0:0:70:Tom3.wav
448,192,46119,1,0,0:0:0:0:
320,192,46209,1,0,0:0:0:70:Tom3.wav
64,192,46300,1,2,0:0:0:0:
192,192,46300,1,4,0:0:0:0:
448,192,46300,1,0,0:0:0:0:
64,192,46661,1,8,0:0:0:0:
448,192,46661,1,0,0:0:0:70:Tom1.wav
192,192,46842,1,8,0:0:0:0:
320,192,46842,1,0,0:0:0:70:Tom1.wav
448,192,46842,1,0,0:0:0:0:
64,192,47022,1,8,0:0:0:0:
192,192,47022,1,0,0:0:0:70:Tom2.wav
320,192,47022,1,0,0:0:0:0:
64,192,47203,1,8,0:0:0:0:
192,192,47203,1,0,0:0:0:70:Tom2.wav
448,192,47203,1,0,0:0:0:0:
64,192,47384,1,8,0:0:0:0:
320,192,47384,1,0,0:0:0:70:Tom3.wav
448,192,47384,1,0,0:0:0:0:
192,192,47565,1,8,0:0:0:0:
320,192,47565,1,0,0:0:0:70:Tom3.wav
448,192,47565,1,0,0:0:0:0:
64,192,47745,1,2,0:0:0:0:
192,192,47745,1,4,0:0:0:0:
320,192,47745,1,0,0:0:0:0:
320,192,48016,1,8,0:0:0:0:
448,192,48016,1,0,0:0:0:0:
64,192,48107,1,8,0:0:0:0:
192,192,48107,1,0,0:0:0:0:
64,192,48288,1,2,0:0:0:0:
320,192,48288,1,4,0:0:0:0:
448,192,48288,1,0,0:0:0:0:
64,192,48649,1,2,0:0:0:0:
192,192,48649,1,0,0:0:0:0:
320,192,48739,1,2,0:0:0:0:
64,192,48830,1,8,0:0:0:0:
192,192,48830,1,4,0:0:0:0:
448,192,48830,1,0,0:0:0:0:
64,192,49191,1,2,0:0:0:0:
192,192,49191,1,4,0:0:0:0:
448,192,49191,1,0,0:0:0:0:
320,192,49372,128,0,49733:0:0:0:70:HHOpen.wav
64,192,49553,1,8,0:0:0:0:
192,192,49553,128,0,49914:0:0:0:0:
448,192,49553,1,0,0:0:0:0:
64,192,49733,128,0,49914:0:0:0:70:HHOpen.wav
320,192,49914,1,2,0:0:0:0:
448,192,49914,128,0,50185:0:0:0:0:
64,192,50095,128,0,50456:0:0:0:70:HHOpen.wav
192,192,50275,128,8,50637:0:0:0:0:
320,192,50275,1,0,0:0:0:0:
448,192,50275,1,0,0:0:0:0:
320,192,50456,128,0,50637:0:0:0:70:HHOpen.wav
64,192,50637,1,2,0:0:0:0:
448,192,50637,128,0,50818:0:0:0:0:
192,192,50818,128,0,51179:0:0:0:70:HHOpen.wav
64,192,50998,128,8,51360:0:0:0:0:
320,192,50998,1,0,0:0:0:0:
448,192,50998,1,0,0:0:0:0:
448,192,51179,128,0,51631:0:0:0:70:HHOpen.wav
192,192,51360,1,2,0:0:0:0:
320,192,51360,128,0,51631:0:0:0:0:
64,192,51541,128,0,51721:0:0:0:70:HHOpen.wav
192,192,51721,1,8,0:0:0:0:
320,192,51721,1,0,0:0:0:0:
448,192,51721,1,0,0:0:0:0:
320,192,51902,128,0,52263:0:0:0:70:HHOpen.wav
64,192,52083,1,2,0:0:0:0:
448,192,52083,128,0,52263:0:0:0:0:
192,192,52263,128,0,52354:0:0:0:70:HHOpen.wav
64,192,52354,128,0,52444:0:0:0:0:
192,192,52444,1,8,0:0:0:0:
320,192,52444,1,0,0:0:0:0:
448,192,52444,128,0,52625:0:0:0:0:
320,192,52625,128,0,52715:0:0:0:70:HHOpen.wav
192,192,52715,128,0,52806:0:0:0:0:
64,192,52806,128,2,52986:0:0:0:0:
448,192,52806,1,0,0:0:0:0:
320,192,52986,128,0,53077:0:0:0:70:HHOpen.wav
192,192,53077,128,0,53167:0:0:0:0:
64,192,53167,128,8,53348:0:0:0:0:
320,192,53167,1,0,0:0:0:0:
448,192,53167,1,0,0:0:0:0:
448,192,53348,128,0,53438:0:0:0:70:HHOpen.wav
320,192,53438,128,8,53528:0:0:0:0:
64,192,53528,1,2,0:0:0:0:
192,192,53528,128,0,53709:0:0:0:0:
320,192,53709,128,0,54071:0:0:0:70:HHOpen.wav
64,192,53890,1,8,0:0:0:0:
192,192,53890,1,0,0:0:0:0:
448,192,53890,128,0,54071:0:0:0:0:
192,192,54071,128,0,54522:0:0:0:70:HHOpen.wav
320,192,54161,1,8,0:0:0:0:
64,192,54251,128,2,54522:0:0:0:0:
448,192,54251,1,0,0:0:0:0:
320,192,54432,1,2,0:0:0:0:
448,192,54432,128,0,54613:0:0:0:70:HHOpen.wav
64,192,54613,1,8,0:0:0:0:
192,192,54613,1,0,0:0:0:0:
320,192,54613,1,0,0:0:0:0:
64,192,54794,128,2,55155:0:0:0:0:
192,192,54794,1,4,0:0:0:0:
448,192,54794,1,0,0:0:0:0:
192,192,55155,128,2,55336:0:0:0:0:
320,192,55155,1,0,0:0:0:0:
64,192,55336,1,8,0:0:0:0:
320,192,55336,128,0,55516:0:0:0:0:
448,192,55336,1,0,0:0:0:0:
448,192,55516,128,0,55697:0:0:0:0:
320,192,55607,1,8,0:0:0:0:
64,192,55697,1,2,0:0:0:0:
192,192,55697,128,0,55968:0:0:0:0:
320,192,55878,128,2,56149:0:0:0:0:
448,192,55878,1,0,0:0:0:0:
64,192,56059,1,8,0:0:0:0:
192,192,56059,1,0,0:0:0:0:
448,192,56059,128,0,56420:0:0:0:0:
64,192,56239,1,2,0:0:0:0:
192,192,56239,128,4,56601:0:0:0:0:
320,192,56239,1,0,0:0:0:0:
64,192,56601,128,2,56781:0:0:0:0:
448,192,56601,1,0,0:0:0:0:
192,192,56781,1,8,0:0:0:0:
320,192,56781,1,0,0:0:0:0:
448,192,56781,128,0,56962:0:0:0:0:
320,192,56962,128,0,57233:0:0:0:0:
448,192,57053,128,8,57143:0:0:0:0:
64,192,57143,1,2,0:0:0:0:
192,192,57143,128,0,57414:0:0:0:0:
448,192,57233,1,8,0:0:0:0:
64,192,57324,128,2,57685:0:0:0:0:
320,192,57324,128,0,57414:0:0:0:0:
192,192,57504,1,8,0:0:0:0:
320,192,57504,1,0,0:0:0:0:
448,192,57504,1,0,0:0:0:0:
192,192,57685,1,2,0:0:0:0:
320,192,57685,128,4,57956:0:0:0:0:
448,192,57685,128,0,57956:0:0:0:0:
320,192,58047,128,2,58137:0:0:0:0:
448,192,58047,128,0,58137:0:0:0:0:
64,192,58227,1,8,0:0:0:0:
192,192,58227,128,0,58318:0:0:0:0:
448,192,58227,128,0,58318:0:0:0:0:
64,192,58408,128,0,58498:0:0:0:0:
448,192,58408,128,0,58860:0:0:0:0:
192,192,58498,1,8,0:0:0:0:
64,192,58589,128,2,58679:0:0:0:0:
320,192,58589,128,0,58860:0:0:0:0:
64,192,58769,1,2,0:0:0:0:
192,192,58769,128,0,58860:0:0:0:0:
64,192,58950,128,8,59131:0:0:0:0:
320,192,58950,128,0,59041:0:0:0:0:
448,192,58950,1,0,0:0:0:0:
192,192,59131,1,8,0:0:0:0:
448,192,59131,128,0,59221:0:0:0:0:
320,192,59221,1,8,0:0:0:0:
64,192,59312,128,2,59583:0:0:0:0:
192,192,59312,128,4,59402:0:0:0:0:
448,192,59312,1,0,0:0:0:0:
192,192,59492,128,0,59763:0:0:0:70:Tom2.wav
320,192,59492,128,0,59583:0:0:0:0:
64,192,59673,1,8,0:0:0:0:
320,192,59673,128,0,60396:0:0:0:0:
448,192,59673,128,0,59763:0:0:0:0:
64,192,59854,1,2,0:0:0:0:
192,192,59854,1,4,0:0:0:0:
448,192,59854,128,0,60396:0:0:0:0:
64,192,60215,1,2,0:0:0:0:
192,192,60215,1,0,0:0:0:0:
64,192,60396,1,8,0:0:0:0:
192,192,60396,1,0,0:0:0:0:
320,192,60486,1,8,0:0:0:0:
448,192,60486,1,0,0:0:0:0:
64,192,60577,1,8,0:0:0:0:
192,192,60577,1,0,0:0:0:0:
320,192,60667,1,8,0:0:0:0:
64,192,60757,1,4,0:0:0:0:
192,192,60757,1,2,0:0:0:0:
448,192,60757,1,0,0:0:0:0:
320,192,60938,128,0,61300:0:0:0:70:HHOpen.wav
64,192,61119,1,8,0:0:0:0:
192,192,61119,1,0,0:0:0:0:
448,192,61119,128,0,61480:0:0:0:0:
64,192,61300,128,0,61661:0:0:0:70:HHOpen.wav
192,192,61480,128,2,61661:0:0:0:0:
320,192,61480,1,0,0:0:0:0:
448,192,61571,128,8,61661:0:0:0:0:
320,192,61661,1,0,0:0:0:70:HHOpen.wav
64,192,61842,1,8,0:0:0:0:
192,192,61842,128,0,62113:0:0:0:0:
320,192,61842,1,0,0:0:0:0:
64,192,62022,128,0,62384:0:0:0:70:HHOpen.wav
320,192,62113,1,8,0:0:0:0:
192,192,62203,1,2,0:0:0:0:
448,192,62203,128,0,62474:0:0:0:0:
320,192,62384,128,0,62745:0:0:0:70:HHOpen.wav
64,192,62565,1,8,0:0:0:0:
192,192,62565,128,0,62745:0:0:0:0:
448,192,62565,1,0,0:0:0:0:
448,192,62745,128,0,63197:0:0:0:70:HHOpen.wav
192,192,62836,1,8,0:0:0:0:
64,192,62926,1,2,0:0:0:0:
320,192,62926,128,0,63197:0:0:0:0:
192,192,63016,1,8,0:0:0:0:
64,192,63107,128,0,63288:0:0:0:70:HHOpen.wav
192,192,63288,1,8,0:0:0:0:
320,192,63288,1,0,0:0:0:0:
448,192,63288,1,0,0:0:0:0:
192,192,63468,128,0,63830:0:0:0:70:HHOpen.wav
64,192,63649,128,2,63830:0:0:0:0:
448,192,63649,1,0,0:0:0:0:
320,192,63830,128,0,63920:0:0:0:70:HHOpen.wav
448,192,63920,128,0,64010:0:0:0:0:
64,192,64010,128,8,64191:0:0:0:0:
192,192,64010,1,0,0:0:0:0:
320,192,64010,1,0,0:0:0:0:
192,192,64191,128,0,64281:0:0:0:70:HHOpen.wav
320,192,64281,128,0,64372:0:0:0:0:
64,192,64372,1,2,0:0:0:0:
448,192,64372,128,0,64553:0:0:0:0:
192,192,64553,128,0,64914:0:0:0:70:HHOpen.wav
64,192,64733,1,8,0:0:0:0:
320,192,64733,128,0,64914:0:0:0:0:
448,192,64733,1,0,0:0:0:0:
64,192,64914,128,0,65275:0:0:0:70:HHOpen.wav
192,192,65004,1,8,0:0:0:0:
320,192,65095,1,2,0:0:0:0:
448,192,65095,1,0,0:0:0:0:
192,192,65275,1,2,0:0:0:0:
320,192,65275,128,0,65637:0:0:0:70:HHOpen.wav
64,192,65456,1,8,0:0:0:0:
192,192,65456,128,0,65637:0:0:0:0:
448,192,65456,1,0,0:0:0:0:
64,192,65637,1,8,0:0:0:0:
448,192,65637,1,0,0:0:0:70:HHOpen.wav
192,192,65727,1,8,0:0:0:0:
320,192,65727,1,0,0:0:0:0:
64,192,65818,1,2,0:0:0:0:
448,192,65818,1,0,0:0:0:0:
192,192,65998,1,0,0:0:0:70:Tom1.wav
320,192,65998,1,0,0:0:0:0:
448,192,66089,1,0,0:0:0:70:Tom1.wav
64,192,66179,128,0,66269:0:0:0:70:Tom2.wav
192,192,66179,128,0,66269:0:0:0:0:
320,192,66269,1,0,0:0:0:70:Tom2.wav
64,192,66360,128,2,66812:0:0:0:0:
192,192,66360,1,4,0:0:0:0:
448,192,66360,128,0,66450:0:0:0:0:
192,192,66721,128,2,66992:0:0:0:0:
320,192,66721,128,0,66812:0:0:0:0:
64,192,66902,1,8,0:0:0:0:
320,192,66902,128,0,67173:0:0:0:70:HHOpen.wav
448,192,66902,1,0,0:0:0:0:
192,192,67083,128,2,67173:0:0:0:0:
448,192,67083,128,0,67534:0:0:0:0:
64,192,67263,1,0,0:0:0:70:HHOpen.wav
192,192,67444,128,2,67534:0:0:0:0:
320,192,67444,128,0,67715:0:0:0:0:
64,192,67625,1,8,0:0:0:0:
192,192,67625,128,0,67896:0:0:0:0:
448,192,67625,1,0,0:0:0:0:
64,192,67806,128,2,68167:0:0:0:0:
320,192,67806,128,4,67896:0:0:0:0:
448,192,67806,1,0,0:0:0:0:
320,192,68167,1,2,0:0:0:0:
448,192,68167,128,0,68438:0:0:0:0:
64,192,68348,1,8,0:0:0:0:
192,192,68348,1,0,0:0:0:70:HHOpen.wav
320,192,68348,128,0,68619:0:0:0:0:
192,192,68528,128,2,68890:0:0:0:0:
448,192,68528,1,0,0:0:0:0:
320,192,68709,1,0,0:0:0:70:HHOpen.wav
64,192,68890,1,2,0:0:0:0:
448,192,68890,1,0,0:0:0:0:
64,192,69071,1,8,0:0:0:0:
192,192,69071,1,0,0:0:0:70:HHOpen.wav
320,192,69071,1,0,0:0:0:0:
320,192,69251,1,8,0:0:0:0:
448,192,69251,1,0,0:0:0:0:
192,192,69342,1,8,0:0:0:0:
64,192,69432,1,2,0:0:0:0:
320,192,69432,1,4,0:0:0:0:
448,192,69432,128,0,69884:0:0:0:0:
64,192,69613,1,2,0:0:0:0:
192,192,69613,1,0,0:0:0:0:
64,192,69794,1,8,0:0:0:0:
192,192,69794,128,0,69884:0:0:0:0:
320,192,69794,128,0,69884:0:0:0:0:
64,192,69974,128,2,70426:0:0:0:0:
320,192,69974,1,4,0:0:0:0:
448,192,69974,1,0,0:0:0:0:
192,192,70336,1,0,0:0:0:70:Tom1.wav
320,192,70336,128,0,70607:0:0:0:0:
448,192,70336,1,0,0:0:0:0:
64,192,70516,1,0,0:0:0:70:Tom2.wav
192,192,70516,128,0,70788:0:0:0:0:
64,192,70697,128,2,71149:0:0:0:0:
320,192,70697,1,4,0:0:0:0:
448,192,70697,1,0,0:0:0:0:
320,192,71059,128,2,71149:0:0:0:0:
448,192,71059,128,0,71149:0:0:0:0:
64,192,71239,1,8,0:0:0:0:
192,192,71239,128,0,71330:0:0:0:0:
448,192,71239,128,0,71330:0:0:0:0:
64,192,71420,128,2,71510:0:0:0:0:
192,192,71420,1,4,0:0:0:0:
448,192,71420,128,0,71872:0:0:0:0:
64,192,71601,128,0,71691:0:0:0:0:
192,192,71781,128,2,71872:0:0:0:0:
320,192,71781,1,0,0:0:0:0:
64,192,71962,1,8,0:0:0:0:
320,192,71962,128,0,72053:0:0:0:0:
448,192,71962,1,0,0:0:0:0:
64,192,72143,1,8,0:0:0:0:
192,192,72143,1,0,0:0:0:0:
320,192,72233,1,8,0:0:0:0:
64,192,72324,128,2,72775:0:0:0:0:
192,192,72324,128,4,72414:0:0:0:0:
448,192,72324,128,0,72414:0:0:0:0:
192,192,72685,128,8,72775:0:0:0:0:
320,192,72685,128,0,72775:0:0:0:0:
448,192,72685,128,0,72775:0:0:0:0:
64,192,72866,128,4,72956:0:0:0:0:
192,192,72866,128,2,72956:0:0:0:0:
448,192,72866,128,0,73318:0:0:0:0:
64,192,73227,128,8,73318:0:0:0:0:
192,192,73227,128,0,73318:0:0:0:0:
320,192,73227,128,0,73318:0:0:0:0:
64,192,73408,128,4,73769:0:0:0:0:
320,192,73408,128,2,73498:0:0:0:0:
448,192,73408,128,0,73498:0:0:0:0:
448,192,73769,128,0,74131:0:0:0:0:
192,192,73950,1,8,0:0:0:0:
320,192,73950,1,0,0:0:0:70:Tom1.wav
64,192,74131,1,8,0:0:0:0:
192,192,74131,1,0,0:0:0:70:Tom1.wav
320,192,74131,128,0,74312:0:0:0:0:
64,192,74312,1,8,0:0:0:0:
192,192,74312,128,0,74673:0:0:0:70:Tom1.wav
448,192,74312,1,0,0:0:0:0:
64,192,74492,1,8,0:0:0:0:
320,192,74492,1,0,0:0:0:70:Tom1.wav
448,192,74492,1,0,0:0:0:0:
64,192,74673,128,8,74854:0:0:0:0:
320,192,74673,1,0,0:0:0:70:Tom1.wav
448,192,74673,1,0,0:0:0:0:
192,192,74854,1,8,0:0:0:0:
320,192,74854,1,0,0:0:0:70:Tom1.wav
448,192,74854,128,0,75306:0:0:0:0:
64,192,75034,1,8,0:0:0:0:
192,192,75034,1,0,0:0:0:70:Tom1.wav
320,192,75034,1,0,0:0:0:0:
64,192,75215,128,4,75667:0:0:0:0:
192,192,75215,128,2,75306:0:0:0:0:
320,192,75215,128,0,75306:0:0:0:0:
192,192,75577,128,8,75667:0:0:0:0:
320,192,75577,128,0,75667:0:0:0:0:
448,192,75577,128,0,75667:0:0:0:0:
64,192,75757,128,4,75848:0:0:0:0:
192,192,75757,128,2,75848:0:0:0:0:
448,192,75757,128,0,76209:0:0:0:0:
64,192,76119,128,8,76209:0:0:0:0:
192,192,76119,128,0,76209:0:0:0:0:
320,192,76119,128,0,76209:0:0:0:0:
64,192,76300,128,4,76661:0:0:0:0:
192,192,76300,128,2,76571:0:0:0:0:
320,192,76300,128,0,76480:0:0:0:0:
448,192,76300,128,0,76390:0:0:0:0:
64,192,78107,1,2,0:0:0:0:
192,192,78107,128,4,78830:0:0:0:0:
320,192,78107,128,0,79010:0:0:0:0:
448,192,78107,128,0,79191:0:0:0:0:
64,192,78468,1,0,0:0:0:70:HHOpen.wav
64,192,78830,128,0,79010:0:0:0:0:
192,192,79010,128,0,79191:0:0:0:0:
320,192,79191,128,0,79372:0:0:0:70:HHOpen.wav
448,192,79372,128,0,79553:0:0:0:0:
64,192,79553,128,2,80275:0:0:0:0:
192,192,79553,128,4,80095:0:0:0:0:
320,192,79553,128,0,79914:0:0:0:0:
448,192,79914,128,0,80095:0:0:0:70:HHOpen.wav
320,192,80095,128,0,80275:0:0:0:0:
192,192,80456,128,0,80637:0:0:0:0:
448,192,80637,1,0,0:0:0:70:HHOpen.wav
64,192,80818,128,0,80998:0:0:0:0:
192,192,80998,128,2,81721:0:0:0:0:
320,192,80998,128,4,81902:0:0:0:0:
448,192,80998,128,0,82083:0:0:0:0:
64,192,81360,1,0,0:0:0:70:HHOpen.wav
64,192,81721,128,0,82354:0:0:0:0:
192,192,81902,128,0,82354:0:0:0:0:
320,192,82083,128,0,82354:0:0:0:70:HHOpen.wav
448,192,82263,128,0,82444:0:0:0:0:
64,192,82444,128,4,82715:0:0:0:0:
192,192,82444,128,2,82625:0:0:0:0:
320,192,82444,128,0,82534:0:0:0:0:
320,192,82625,1,0,0:0:0:70:Tom2.wav
448,192,82625,1,0,0:0:0:0:
64,192,82806,128,8,82896:0:0:0:0:
320,192,82806,1,0,0:0:0:0:
448,192,82806,128,0,82986:0:0:0:0:
64,192,82986,128,4,83348:0:0:0:0:
192,192,82986,128,2,83348:0:0:0:0:
320,192,82986,1,0,0:0:0:0:
320,192,83348,1,2,0:0:0:0:
448,192,83348,1,0,0:0:0:0:
64,192,83528,1,8,0:0:0:0:
192,192,83528,1,0,0:0:0:0:
448,192,83528,128,0,83709:0:0:0:0:
64,192,83709,128,8,83890:0:0:0:0:
320,192,83709,1,0,0:0:0:0:
192,192,83800,1,8,0:0:0:0:
320,192,83890,1,2,0:0:0:0:
448,192,83890,128,4,84613:0:0:0:0:
64,192,84251,1,0,0:0:0:70:HHOpen.wav
320,192,84432,128,0,84613:0:0:0:0:
64,192,84613,128,2,84974:0:0:0:0:
192,192,84613,1,4,0:0:0:0:
192,192,84794,128,0,84974:0:0:0:0:
448,192,84974,128,0,85245:0:0:0:70:HHOpen.wav
64,192,85155,128,0,85245:0:0:0:0:
64,192,85336,128,8,85697:0:0:0:0:
192,192,85336,1,0,0:0:0:0:
448,192,85336,128,0,85697:0:0:0:0:
192,192,85516,128,2,85697:0:0:0:0:
320,192,85516,128,0,85697:0:0:0:0:
64,192,85878,128,2,86239:0:0:0:0:
192,192,85878,128,4,86239:0:0:0:0:
320,192,85878,1,0,0:0:0:0:
320,192,86239,1,2,0:0:0:0:
448,192,86239,1,0,0:0:0:0:
192,192,86420,1,8,0:0:0:0:
320,192,86420,1,0,0:0:0:0:
448,192,86420,1,0,0:0:0:0:
64,192,86601,1,8,0:0:0:0:
192,192,86601,128,0,86962:0:0:0:0:
320,192,86691,1,8,0:0:0:0:
64,192,86781,128,2,86962:0:0:0:0:
448,192,86781,1,4,0:0:0:0:
320,192,86962,128,0,87324:0:0:0:70:HHOpen.wav
64,192,87143,1,8,0:0:0:0:
192,192,87143,128,0,87324:0:0:0:0:
448,192,87143,1,0,0:0:0:0:
448,192,87324,128,0,87775:0:0:0:70:HHOpen.wav
192,192,87504,1,2,0:0:0:0:
320,192,87504,128,0,87685:0:0:0:0:
64,192,87685,1,0,0:0:0:70:HHOpen.wav
192,192,87745,128,0,88047:0:0:0:0:
320,192,87806,128,0,88047:0:0:0:0:
64,192,87866,1,8,0:0:0:0:
448,192,87866,1,0,0:0:0:0:
64,192,88047,128,0,88318:0:0:0:70:HHOpen.wav
192,192,88227,128,2,88318:0:0:0:0:
320,192,88227,128,0,88498:0:0:0:0:
448,192,88227,128,0,88498:0:0:0:0:
64,192,88408,128,0,88498:0:0:0:70:Tom2.wav
192,192,88408,128,0,88498:0:0:0:0:
64,192,88589,1,8,0:0:0:0:
320,192,88589,1,0,0:0:0:0:
448,192,88589,1,0,0:0:0:0:
64,192,88769,128,4,88950:0:0:0:0:
192,192,88769,128,2,88950:0:0:0:0:
320,192,88769,128,0,88950:0:0:0:0:
192,192,89131,128,2,89583:0:0:0:0:
320,192,89131,128,4,89583:0:0:0:0:
448,192,89131,128,0,89583:0:0:0:0:
64,192,89673,128,4,92474:0:0:0:0:
192,192,89673,128,2,92474:0:0:0:0:
320,192,89673,128,0,92565:0:0:0:0:
448,192,89673,128,0,92565:0:0:0:0:
64,192,92565,1,0,0:0:0:0:
192,192,92625,1,0,0:0:0:0:
320,192,92685,1,0,0:0:0:0:
64,192,92791,128,2,92926:0:0:0:0:
192,192,92791,128,0,92926:0:0:0:0:
