osu file format v14

[General]
AudioFilename: audio.mp3
AudioLeadIn: 0
PreviewTime: 49127
Countdown: 0
SampleSet: Soft
StackLeniency: 0.7
Mode: 0
LetterboxInBreaks: 0
WidescreenStoryboard: 1

[Editor]
DistanceSpacing: 1
BeatDivisor: 3
GridSize: 8
TimelineZoom: 1.4

[Metadata]
Title:Su-Suki Nanka Janai!
TitleUnicode:す、好きなんかじゃない!
Artist:Ichigaya Arisa (CV: Itou Ayasa)
ArtistUnicode:市ヶ谷有咲 (CV: 伊藤彩沙)
Creator:EnuHQ
Version:Normal
Source:バンドリ! ガールズバンドパーティ!
Tags:it's CHOMAMA TIME I-I Never Said Love! poppin'party popipa ppp bandori girls band party garupa ガルパ BanG Dream tsundere character theme song cast officialAkage japanese jpop j-pop pop Video Game
BeatmapID:3459190
BeatmapSetID:1692816

[Difficulty]
HPDrainRate:3.4
CircleSize:3.2
OverallDifficulty:4
ApproachRate:5.5
SliderMultiplier:1
SliderTickRate:1

[Events]
//Background and Video events
0,0,"BG.jpg",0,0
//Break Periods
2,14989,21616
//Storyboard Layer 0 (Background)
//Storyboard Layer 1 (Fail)
//Storyboard Layer 2 (Pass)
//Storyboard Layer 3 (Foreground)
//Storyboard Layer 4 (Overlay)
//Storyboard Sound Samples

[TimingPoints]
332,361.44578313253,4,2,17,50,1,0
332,-111.111111111111,4,2,17,50,0,0
4669,-111.111111111111,4,2,17,55,0,0
5482,-111.111111111111,4,2,17,5,0,0
5572,-111.111111111111,4,2,17,55,0,0
6115,-100,4,2,17,60,0,0
9006,-100,4,2,17,55,0,0
11807,-100,4,2,17,5,0,0
11898,-100,4,2,17,45,0,0
22741,-100,4,2,17,50,0,0
23374,-100,4,2,17,5,0,0
23464,-111.111111111111,4,2,17,55,0,0
25181,-111.111111111111,4,2,17,5,0,0
25271,-111.111111111111,4,2,17,55,0,0
28795,-111.111111111111,4,2,17,5,0,0
28886,-111.111111111111,4,2,17,55,0,0
29157,-111.111111111111,4,2,17,5,0,0
29247,-111.111111111111,4,2,17,60,0,0
29518,-111.111111111111,4,2,17,5,0,0
29609,-111.111111111111,4,2,17,60,0,0
35030,-111.111111111111,4,2,17,50,0,0
42259,-111.111111111111,4,2,17,60,0,0
43072,-111.111111111111,4,2,17,5,0,0
43163,-111.111111111111,4,2,17,60,0,0
43976,-111.111111111111,4,2,17,5,0,0
44066,-111.111111111111,4,2,17,60,0,0
46868,-111.111111111111,4,2,17,5,0,0
46958,-111.111111111111,4,2,17,45,0,0
47139,-111.111111111111,4,2,17,50,0,0
47319,-111.111111111111,4,2,17,55,0,0
47500,-111.111111111111,4,2,17,60,0,0
47681,-111.111111111111,4,2,17,65,0,0
47862,-111.111111111111,4,2,17,70,0,0
48856,-111.111111111111,4,2,17,5,0,0
48946,-111.111111111111,4,2,17,70,0,0
49398,-111.111111111111,4,2,17,5,0,0
49488,-99.9999999999999,4,2,17,75,0,0
58253,-99.9999999999999,4,2,17,5,0,0
58344,-99.9999999999999,4,2,17,75,0,0
60422,-99.9999999999999,4,2,17,5,0,0
60512,-99.9999999999999,4,2,17,75,0,0
62048,-99.9999999999999,4,2,17,5,0,0
62139,-99.9999999999999,4,2,17,75,0,0
66657,-99.9999999999999,4,2,17,65,0,0
66928,-99.9999999999999,4,2,17,5,0,0
67018,-99.9999999999999,4,2,17,65,0,0
67651,-99.9999999999999,4,2,17,5,0,0
67741,-99.9999999999999,4,2,17,65,0,0
70542,-99.9999999999999,4,2,17,5,0,0
70633,-99.9999999999999,4,2,17,65,0,0
73976,-99.9999999999999,4,2,17,5,0,0
74066,-99.9999999999999,4,2,17,65,0,0
74247,-99.9999999999999,4,2,17,40,0,0
74428,-99.9999999999999,4,2,17,45,0,0
74609,-99.9999999999999,4,2,17,50,0,0
74789,-99.9999999999999,4,2,17,55,0,0
74970,-99.9999999999999,4,2,17,60,0,0
75151,-99.9999999999999,4,2,17,65,0,0
75331,-99.9999999999999,4,2,17,70,0,0
75783,-99.9999999999999,4,2,17,5,0,0
75874,-99.9999999999999,4,2,17,70,0,0
76325,-99.9999999999999,4,2,17,5,0,0
76416,-99.9999999999999,4,2,17,70,0,0
76957,-99.9999999999999,4,2,17,5,0,0
77319,-99.9999999999999,4,2,17,45,0,0
77591,-99.9999999999999,4,2,17,5,0,0
77681,-99.9999999999999,4,2,17,45,0,0
77952,-99.9999999999999,4,2,17,5,0,0
78042,-99.9999999999999,4,2,17,45,0,0
78404,-111.111111111111,4,2,17,50,0,0
82741,-111.111111111111,4,2,17,55,0,0
83554,-111.111111111111,4,2,17,5,0,0
83645,-111.111111111111,4,2,17,55,0,0
84187,-111.111111111111,4,2,17,60,0,0
87078,-100,4,2,17,55,0,0
89880,-100,4,2,17,5,0,0
89970,-100,4,2,17,50,0,0
92862,-100,4,2,17,40,0,0

[Colours]
Combo1 : 243,181,168
Combo2 : 255,108,108
Combo3 : 255,255,159

[HitObjects]
30,95,332,6,0,L|161:125,1,135,6|0,1:2|0:0,0:0:0:0:
204,139,1054,2,0,L|193:182,1,45,2|2,0:2|0:2,0:0:0:0:
183,226,1416,1,2,0:2:0:0:
245,290,1777,2,0,P|312:273|376:259,1,135,6|2,1:2|0:2,0:0:0:0:
447,204,2681,1,2,0:2:0:0:
381,150,3042,1,2,0:2:0:0:
381,150,3223,6,0,P|391:107|402:62,1,90.0000000000001,6|0,1:2|0:0,0:0:0:0:
333,4,3946,2,0,P|290:14|245:25,1,90.0000000000001,2|2,0:2|0:2,0:0:0:0:
156,11,4669,1,6,1:2:0:0:
103,84,5030,1,4,0:3:0:0:
103,84,5211,2,0,P|113:127|123:171,1,90.0000000000001,6|0,1:2|1:0,0:0:0:0:
134,215,5753,1,10,0:2:0:0:
143,315,6115,6,0,P|186:290|235:288,1,100,6|0,1:2|0:0,0:0:0:0:
281,264,6657,1,0,0:0:0:0:
281,264,6838,2,0,L|269:215,2,50,6|0|0,1:2|0:0|0:0,0:0:0:0:
364,328,7560,1,14,0:2:0:0:
364,328,7741,1,2,1:2:0:0:
428,251,8103,2,0,P|416:202|405:153,1,100,6|0,1:2|1:2,0:0:0:0:
370,117,8645,1,10,0:2:0:0:
342,21,9006,6,0,L|439:43,2,100,6|10|2,0:2|0:2|1:2,0:0:0:0:
301,48,9910,1,2,0:2:0:0:
301,48,10091,2,0,L|249:59,1,50,8|2,0:2|0:2,0:0:0:0:
207,75,10452,1,6,1:2:0:0:
207,75,10633,1,2,1:2:0:0:
139,148,10994,1,6,1:2:0:0:
202,221,11356,1,6,1:2:0:0:
83,320,11898,5,6,1:2:0:0:
256,192,12078,12,0,14789,0:0:0:0:
24,228,22741,6,0,L|36:178,1,50,10|0,0:2|1:2,0:0:0:0:
51,131,23103,1,4,1:2:0:0:
0,55,23464,6,0,P|41:40|85:47,1,90.0000000000001,6|0,1:2|1:2,0:0:0:0:
169,93,24187,1,2,1:2:0:0:
169,93,24367,2,0,L|181:36,2,45,2|2|0,0:2|1:2|0:2,0:0:0:0:
139,126,24909,2,0,P|148:170|159:213,1,90.0000000000001,2|2,1:2|1:2,0:0:0:0:
130,248,25452,1,2,0:2:0:0:
195,309,25813,1,2,0:2:0:0:
270,258,26175,1,0,0:0:0:0:
270,258,26356,6,0,P|315:268|357:278,1,90.0000000000001,2|0,1:2|1:2,0:0:0:0:
398,257,26898,2,0,L|407:212,1,45,2|0,0:2|1:2,0:0:0:0:
380,131,27440,1,2,1:2:0:0:
380,131,27621,2,0,P|335:128|298:104,1,90.0000000000001,2|2,0:2|0:2,0:0:0:0:
275,65,28163,1,2,1:2:0:0:
194,105,28524,1,2,1:2:0:0:
120,52,28886,1,0,1:2:0:0:
55,114,29247,6,0,P|64:157|76:201,2,89.9999972534181,6|10|2,1:2|0:2|1:2,0:0:0:0:
119,51,30331,1,10,0:2:0:0:
119,51,30512,2,0,P|155:75|200:77,1,90.0000000000001,2|0,0:2|1:2,0:0:0:0:
244,61,31054,1,10,0:2:0:0:
244,61,31235,2,0,P|287:72|331:82,1,90.0000000000001,6|0,1:2|1:0,0:0:0:0:
375,89,31777,1,8,0:2:0:0:
456,128,32139,6,0,L|447:173,1,45,6|2,1:2|1:2,0:0:0:0:
437,216,32500,1,10,0:2:0:0:
437,216,32681,1,6,1:2:0:0:
421,304,33042,2,0,L|377:293,1,44.999998626709,2|10,1:2|0:2,0:0:0:0:
346,260,33404,2,0,P|302:269|258:280,1,90.0000000000001,6|0,1:2|1:0,0:0:0:0:
217,298,33946,1,8,0:2:0:0:
135,274,34307,1,10,0:2:0:0:
135,274,34488,2,0,L|124:318,2,44.999998626709,6|10|10,0:3|0:3|0:3,0:0:0:0:
104,240,35030,6,0,P|93:196|83:152,1,89.9999972534181,6|0,1:2|0:0,0:0:0:0:
69,109,35572,1,2,1:2:0:0:
69,109,35752,2,0,P|112:99|156:88,1,89.9999972534181,10|2,0:2|0:2,0:0:0:0:
235,41,36476,1,2,1:2:0:0:
235,41,36657,2,0,P|278:50|322:61,1,89.9999972534181,8|2,0:2|1:2,0:0:0:0:
366,79,37198,1,10,0:2:0:0:
306,146,37560,1,2,0:2:0:0:
373,205,37922,6,0,P|385:247|375:291,1,89.9999972534181,2|0,1:2|0:0,0:0:0:0:
341,321,38464,1,2,1:2:0:0:
267,269,38825,1,2,0:2:0:0:
193,320,39187,2,0,L|149:309,1,44.999998626709,2|0,1:2|1:0,0:0:0:0:
107,292,39548,2,0,P|116:248|127:204,1,90.0000000000001,10|0,0:2|1:0,0:0:0:0:
161,174,40091,1,10,0:2:0:0:
95,112,40452,1,6,0:3:0:0:
18,159,40813,6,0,P|7:202|-1:246,1,90.0000000000001,6|0,1:2|0:0,0:0:0:0:
21,291,41356,1,2,1:2:0:0:
21,291,41536,2,0,P|65:293|102:317,1,90.0000000000001,10|0,0:2|0:0,0:0:0:0:
174,379,42258,1,12,0:2:0:0:
174,379,42439,1,0,1:0:0:0:
236,313,42801,2,0,P|344:318|388:327,1,134.999995880127,6|8,1:2|0:2,0:0:0:0:
439,266,43704,6,0,P|461:225|457:182,1,89.9999972534181,6|10,1:2|0:2,0:0:0:0:
427,148,44247,2,0,P|382:146|343:166,1,90.0000000000001,6|2,1:2|1:2,0:0:0:0:
306,189,44789,1,8,0:2:0:0:
306,189,44969,2,0,P|298:144|286:101,1,89.9999972534181,6|0,1:2|1:0,0:0:0:0:
249,74,45511,1,10,0:2:0:0:
315,12,45874,2,0,L|358:22,1,44.999998626709,2|8,1:2|0:2,0:0:0:0:
391,52,46234,2,0,L|434:42,1,44.999998626709,10|8,0:2|0:3,0:0:0:0:
475,62,46597,6,0,P|462:106|455:150,1,89.9999972534181,6|4,1:2|0:3,0:0:0:0:
464,198,47138,1,8,0:2:0:0:
464,198,47319,2,0,L|507:188,2,44.999998626709,8|10|10,0:0|0:2|0:2,0:0:0:0:
430,281,48042,2,0,L|385:290,1,44.999998626709,6|2,1:2|0:2,0:0:0:0:
345,301,48404,1,10,0:2:0:0:
345,301,48585,2,0,P|335:262|324:213,1,89.9999972534181,6|8,1:2|0:3,0:0:0:0:
314,168,49127,1,4,1:2:0:0:
214,155,49488,6,0,P|160:164|108:179,1,100,4|10,1:2|0:2,0:0:0:0:
71,191,50030,1,2,0:2:0:0:
71,191,50211,2,0,L|59:139,2,50,2|2|10,1:2|0:2|0:2,0:0:0:0:
52,289,50934,2,0,P|75:281|100:280,1,50,2|0,1:2|0:0,0:0:0:0:
138,312,51295,2,0,P|161:319|186:320,1,50,10|0,0:2|0:0,0:0:0:0:
233,297,51657,1,2,1:2:0:0:
233,297,51838,1,0,0:0:0:0:
310,359,52199,6,0,L|407:335,1,100,6|2,0:3|0:2,0:0:0:0:
438,296,52740,2,0,L|449:247,1,50,10|2,0:2|0:2,0:0:0:0:
482,209,53102,2,0,L|470:160,1,50,2|2,1:2|0:2,0:0:0:0:
425,139,53464,2,0,L|436:90,1,50,10|2,0:2|0:2,0:0:0:0:
448,41,53825,1,2,1:2:0:0:
350,18,54187,1,10,0:2:0:0:
281,90,54548,1,2,1:2:0:0:
281,90,54728,2,0,L|232:79,1,50,2|8,1:2|0:2,0:0:0:0:
183,93,55090,6,0,P|193:141|185:190,1,100,6|0,1:2|1:2,0:0:0:0:
143,213,55633,1,10,0:2:0:0:
143,213,55813,2,0,P|132:261|140:310,1,100,2|0,0:2|1:2,0:0:0:0:
168,352,56356,1,8,0:2:0:0:
168,352,56536,2,0,L|265:328,1,100,6|0,1:2|1:2,0:0:0:0:
312,312,57078,1,10,0:2:0:0:
393,370,57440,2,0,L|404:321,1,50,10|0,0:3|1:2,0:0:0:0:
452,302,57801,1,8,0:2:0:0:
452,302,57982,6,0,L|428:205,1,100,6|2,1:2|1:2,0:0:0:0:
419,155,58524,1,10,0:2:0:0:
328,198,58886,2,0,L|279:209,1,50,2|2,1:2|1:2,0:0:0:0:
235,184,59247,2,0,L|186:172,1,50,10|10,0:2|0:2,0:0:0:0:
140,192,59609,1,6,1:2:0:0:
56,241,59970,1,10,0:2:0:0:
56,241,60151,2,0,L|32:144,1,100,6|0,1:2|1:2,0:0:0:0:
21,94,60693,1,8,0:2:0:0:
93,24,61054,6,0,P|140:18|187:43,1,100,4|10,1:2|0:2,0:0:0:0:
219,85,61597,1,2,0:2:0:0:
219,85,61777,2,0,P|262:62|311:67,1,100,2|10,1:2|0:2,0:0:0:0:
401,22,62500,2,0,P|409:46|413:70,1,50,2|0,1:2|0:0,0:0:0:0:
449,105,62862,2,0,P|442:129|438:153,1,50,10|0,0:2|0:0,0:0:0:0:
435,207,63223,1,2,1:2:0:0:
435,207,63404,1,2,0:2:0:0:
448,305,63765,6,0,P|400:292|350:282,1,100,6|2,0:3|0:2,0:0:0:0:
328,327,64307,2,0,P|304:335|280:339,1,50,10|2,0:2|0:2,0:0:0:0:
245,375,64669,2,0,P|221:368|197:364,1,50,2|2,1:2|0:2,0:0:0:0:
155,335,65030,1,10,0:2:0:0:
155,335,65210,2,0,P|178:291|172:242,1,100,2|2,0:2|0:2,0:0:0:0:
141,202,65753,1,10,0:2:0:0:
141,202,65934,1,2,0:2:0:0:
79,123,66295,2,0,L|128:112,1,50,0|8,1:0|0:3,0:0:0:0:
156,70,66657,6,0,L|253:94,1,100,6|2,1:2|1:2,0:0:0:0:
292,133,67198,1,10,0:2:0:0:
292,133,67380,2,0,L|389:109,1,100,2|2,1:2|1:2,0:0:0:0:
436,93,67922,1,10,0:2:0:0:
436,93,68103,1,6,1:2:0:0:
495,173,68464,2,0,P|488:198|483:221,1,50,2|10,1:2|0:2,0:0:0:0:
471,270,68825,2,0,P|427:247|378:253,1,100,6|0,1:2|1:2,0:0:0:0:
343,289,69368,1,8,0:2:0:0:
270,357,69729,6,0,L|246:260,1,100,6|10,1:2|0:2,0:0:0:0:
217,218,70271,1,6,1:2:0:0:
283,142,70633,2,0,P|308:149|331:154,1,50,6|10,0:3|0:3,0:0:0:0:
362,193,70994,2,0,P|405:170|454:175,1,100,6|0,1:2|1:2,0:0:0:0:
496,148,71536,1,10,0:2:0:0:
496,148,71717,2,0,P|473:104|478:55,1,100,6|0,1:2|1:2,0:0:0:0:
512,18,72259,1,8,0:2:0:0:
412,3,72620,6,0,L|315:27,1,100,6|10,1:2|0:2,0:0:0:0:
282,65,73163,2,0,L|185:41,1,100,6|10,1:2|0:2,0:0:0:0:
136,29,73705,1,6,1:2:0:0:
53,85,74066,2,0,P|65:134|77:182,1,100,2|10,0:2|0:2,0:0:0:0:
119,217,74608,1,10,0:2:0:0:
119,217,74789,2,0,L|108:266,1,50,8|10,0:2|0:2,0:0:0:0:
70,299,75150,1,10,0:2:0:0:
147,362,75512,6,0,P|188:335|237:336,1,100,6|10,1:2|0:2,0:0:0:0:
286,325,76054,2,0,L|262:228,1,100,6|10,1:2|0:2,0:0:0:0:
224,195,76596,2,0,L|248:98,1,100,6|0,1:2|0:0,0:0:0:0:
505,350,78404,6,0,L|374:320,1,134.999995880127,6|0,1:2|0:0,0:0:0:0:
349,281,79126,2,0,L|360:238,1,44.999998626709,2|2,0:2|0:2,0:0:0:0:
355,192,79488,1,2,0:2:0:0:
297,122,79849,2,0,P|225:128|166:153,1,134.999995880127,6|2,1:2|0:2,0:0:0:0:
77,156,80753,1,2,0:2:0:0:
42,241,81114,1,2,0:2:0:0:
42,241,81295,6,0,P|52:284|63:329,1,89.9999972534181,4|0,1:2|0:0,0:0:0:0:
148,356,82017,2,0,P|191:345|235:335,1,89.9999972534181,2|2,0:2|0:2,0:0:0:0:
322,358,82741,1,6,1:2:0:0:
368,282,83102,1,4,0:3:0:0:
368,282,83283,2,0,P|358:239|348:195,1,89.9999972534181,4|0,1:2|1:0,0:0:0:0:
327,151,83825,1,10,0:2:0:0:
290,68,84187,6,0,P|247:93|198:95,1,89.9999972534181,6|0,1:2|0:0,0:0:0:0:
166,99,84729,1,0,0:0:0:0:
166,99,84910,2,0,L|178:148,2,44.999998626709,6|0|0,1:2|0:0|0:0,0:0:0:0:
94,54,85632,1,14,0:2:0:0:
94,54,85813,1,6,0:3:0:0:
43,128,86175,2,0,P|55:177|66:226,1,89.9999972534181,6|2,1:2|1:2,0:0:0:0:
74,257,86717,1,10,0:2:0:0:
96,354,87078,6,0,L|-1:330,2,100,6|10|2,1:2|0:2|1:2,0:0:0:0:
149,346,87981,1,2,0:2:0:0:
149,346,88162,2,0,L|160:297,1,50,8|2,0:2|0:2,0:0:0:0:
176,252,88524,1,6,1:2:0:0:
176,252,88705,1,2,1:2:0:0:
252,188,89066,1,2,1:2:0:0:
177,120,89428,1,6,1:2:0:0:
299,33,89970,5,6,1:2:0:0:
256,192,90211,12,4,93103,0:3:0:0:
