osu file format v14

[General]
AudioFilename: audio.mp3
AudioLeadIn: 0
PreviewTime: 51268
Countdown: 0
SampleSet: None
StackLeniency: 0.3
Mode: 0
LetterboxInBreaks: 0
WidescreenStoryboard: 0

[Editor]
Bookmarks: 31268,41268,46268,51268,61268,71268,75799,82518,83768,85018,86268,87518,88768,90018
DistanceSpacing: 2.2
BeatDivisor: 4
GridSize: 4
TimelineZoom: 2.2

[Metadata]
Title:Sora no Kodou
TitleUnicode:Sora no Kodou
Artist:Iced Blade
ArtistUnicode:Iced Blade
Creator:SolaEclipse
Version:Extra
Source:Sunrider: Liberation Day
Tags:sunrider solaeclipse
BeatmapID:1216829
BeatmapSetID:574546

[Difficulty]
HPDrainRate:6
CircleSize:4.5
OverallDifficulty:7
ApproachRate:9
SliderMultiplier:2
SliderTickRate:1

[Events]
//Background and Video events
0,0,"BgforSora.jpg",0,0
//Break Periods
//Storyboard Layer 0 (Background)
//Storyboard Layer 1 (Fail)
//Storyboard Layer 2 (Pass)
//Storyboard Layer 3 (Foreground)
//Storyboard Sound Samples

[TimingPoints]
839.908311648554,428.571428571429,4,3,1,50,1,0
1697,-100,4,3,1,50,0,0
16268,312.5,4,3,1,50,1,0
50174,-200,4,3,1,50,0,0
51268,-100,4,3,1,50,0,0
71268,-83.3333333333333,4,3,1,50,0,0
81268,-76.9230769230769,4,3,1,50,0,1
91268,-100,4,3,1,50,0,0

[HitObjects]
312,320,839,6,0,B|308:308|308:308|296:320|296:320|296:292|296:292|280:320|280:320|284:288|284:288|264:308|264:308|256:284|256:284|236:304|236:304|240:280|240:280|220:296|220:296|224:276|224:276|200:284|200:284,1,300
136,180,1697,6,0,B|332:104|332:104|136:60,1,400
276,124,3411,6,0,B|392:164|392:164|412:200|392:264|340:236|320:196|320:196|384:64,1,400
440,280,5125,5,0,0:0:0:0:
320,160,5554,1,0,0:0:0:0:
256,328,5982,5,6,0:0:0:0:
172,296,6197,1,0,0:0:0:0:
96,268,6411,1,0,0:0:0:0:
148,56,6839,5,6,0:0:0:0:
176,120,7054,1,0,0:0:0:0:
204,184,7268,1,0,0:0:0:0:
412,112,7697,6,0,B|312:48|304:280|232:288|196:252,1,300
176,240,8447,1,0,0:0:0:0:
152,224,8554,1,0,0:0:0:0:
288,64,8982,5,0,0:0:0:0:
392,216,9197,1,0,0:0:0:0:
332,48,9411,2,0,B|244:64|200:88|192:112|200:132|208:144|228:164|264:184|300:188|344:184|344:252,1,350,4|0,0:0|0:0,0:0:0:0:
336,260,10268,2,0,B|268:300|208:308|160:292|156:292|208:208|208:208|104:248,1,350,4|0,0:0|0:0,0:0:0:0:
104,248,11125,2,0,B|56:168|56:168|144:112|144:112|156:32|260:176,1,350,4|0,0:0|0:0,0:0:0:0:
256,204,11982,1,0,0:0:0:0:
240,40,12411,1,0,0:0:0:0:
420,168,12839,1,4,0:0:0:0:
256,264,13697,5,0,0:0:0:0:
152,152,14125,1,0,0:0:0:0:
260,64,14554,1,8,0:0:0:0:
372,172,14982,1,0,0:0:0:0:
240,48,15411,1,8,0:0:0:0:
276,344,15839,1,6,0:0:0:0:
204,80,16268,5,0,0:0:0:0:
251,220,16424,1,0,0:0:0:0:
252,128,16580,6,0,P|268:168|244:228,1,100,0|2,0:0|0:0,0:0:0:0:
352,108,17049,2,0,P|404:176|396:224,1,100,0|2,0:0|0:0,0:0:0:0:
264,288,17518,2,0,P|200:276|180:232,1,100,0|2,0:0|0:0,0:0:0:0:
192,104,17986,6,0,P|236:76|288:96,1,100,0|2,0:0|0:0,0:0:0:0:
332,144,18299,1,0,0:0:0:0:
204,220,18455,1,0,0:0:0:0:
304,232,18611,1,0,0:0:0:0:
128,92,18768,5,0,0:0:0:0:
380,92,18924,1,0,0:0:0:0:
192,228,19080,6,0,L|132:312,1,100,0|2,0:0|0:0,0:0:0:0:
400,152,19549,2,0,P|460:164|468:136,1,100,0|2,0:0|0:0,0:0:0:0:
224,56,20018,2,0,P|176:68|144:24,1,100,0|2,0:0|0:0,0:0:0:0:
284,192,20486,2,0,P|344:204|384:244,1,100,0|2,0:0|0:0,0:0:0:0:
424,316,20799,1,0,0:0:0:0:
264,320,20955,1,0,0:0:0:0:
424,316,21111,1,0,0:0:0:0:
232,176,21268,6,0,P|208:128|216:64,1,100,0|2,0:0|0:0,0:0:0:0:
220,60,21502,1,0,0:0:0:0:
236,44,21580,1,8,0:0:0:0:
384,128,21736,1,0,0:0:0:0:
388,256,21893,1,0,0:0:0:0:
208,288,22049,5,0,0:0:0:0:
208,288,22127,1,0,0:0:0:0:
208,288,22205,1,8,0:0:0:0:
104,172,22361,1,0,0:0:0:0:
264,184,22518,2,0,P|356:144|372:116,1,100,0|2,0:0|0:0,0:0:0:0:
360,124,22752,1,0,0:0:0:0:
364,100,22830,1,8,0:0:0:0:
108,88,22986,5,0,0:0:0:0:
280,44,23143,1,0,0:0:0:0:
184,212,23299,1,0,0:0:0:0:
184,212,23377,1,0,0:0:0:0:
184,212,23455,1,8,0:0:0:0:
384,276,23611,1,0,0:0:0:0:
164,92,23768,6,0,L|268:32,1,100,2|0,0:0|0:0,0:0:0:0:
368,100,24080,2,0,L|440:196,1,100,8|0,0:0|0:0,0:0:0:0:
348,292,24393,2,0,L|244:352,1,100,2|0,0:0|0:0,0:0:0:0:
144,284,24705,2,0,L|72:188,1,100,8|0,0:0|0:0,0:0:0:0:
172,92,25018,5,0,0:0:0:0:
208,76,25096,1,0,0:0:0:0:
248,68,25174,1,0,0:0:0:0:
284,84,25252,1,0,0:0:0:0:
316,108,25330,2,0,L|356:148,3,50,8|0|0|0,0:0|0:0|0:0|0:0,0:0:0:0:
356,212,25643,5,0,0:0:0:0:
328,240,25721,1,0,0:0:0:0:
296,260,25799,1,0,0:0:0:0:
260,272,25877,1,0,0:0:0:0:
220,280,25955,2,0,L|168:264,3,50,8|0|0|0,0:0|0:0|0:0|0:0,0:0:0:0:
140,244,26268,5,0,0:0:0:0:
144,216,26346,1,0,0:0:0:0:
148,188,26424,1,0,0:0:0:0:
152,160,26502,1,0,0:0:0:0:
156,132,26580,1,8,0:0:0:0:
308,56,27049,5,0,0:0:0:0:
308,56,27361,1,0,0:0:0:0:
308,56,27674,1,8,0:0:0:0:
328,160,28143,5,0,0:0:0:0:
300,168,28221,1,0,0:0:0:0:
272,176,28299,1,0,0:0:0:0:
244,184,28377,1,0,0:0:0:0:
216,196,28455,1,12,0:0:0:0:
352,340,28768,5,0,0:0:0:0:
364,312,28846,1,0,0:0:0:0:
376,284,28924,1,0,0:0:0:0:
384,256,29002,1,0,0:0:0:0:
396,228,29080,1,8,0:0:0:0:
204,248,29549,5,0,0:0:0:0:
204,248,29861,1,0,0:0:0:0:
204,248,30174,1,8,0:0:0:0:
244,72,30643,5,0,0:0:0:0:
260,96,30721,1,0,0:0:0:0:
276,124,30800,1,0,0:0:0:0:
292,152,30878,1,0,0:0:0:0:
308,176,30956,1,12,0:0:0:0:
124,104,31268,6,0,P|208:76|236:92,1,100,0|2,0:0|0:0,0:0:0:0:
384,136,31580,2,0,P|344:168|288:188,1,100,0|2,0:0|0:0,0:0:0:0:
164,192,31893,1,0,0:0:0:0:
352,288,32049,1,0,0:0:0:0:
156,312,32205,1,0,0:0:0:0:
304,184,32361,1,0,0:0:0:0:
120,228,32518,6,0,L|56:148,1,100,0|2,0:0|0:0,0:0:0:0:
212,144,32830,2,0,L|196:44,1,100,0|2,0:0|0:0,0:0:0:0:
352,48,33143,1,0,0:0:0:0:
424,176,33299,1,0,0:0:0:0:
336,296,33455,1,0,0:0:0:0:
268,180,33611,1,0,0:0:0:0:
132,104,33768,5,0,0:0:0:0:
164,152,33924,1,2,0:0:0:0:
232,72,34080,1,0,0:0:0:0:
248,156,34236,1,2,0:0:0:0:
360,88,34393,1,0,0:0:0:0:
296,176,34549,1,2,0:0:0:0:
360,252,34705,1,0,0:0:0:0:
236,224,34861,1,2,0:0:0:0:
328,72,35018,6,0,L|420:132,1,100
172,148,35330,2,0,L|80:208,1,100
312,272,35643,2,0,L|348:164,1,100
176,64,35955,2,0,L|264:132,1,100
136,192,36268,5,2,0:0:0:0:
312,256,36424,1,0,0:0:0:0:
288,72,36580,1,6,0:0:0:0:
416,192,37361,1,0,0:0:0:0:
416,192,37439,1,0,0:0:0:0:
416,192,37518,1,2,0:0:0:0:
132,60,37830,6,0,B|168:124|168:124|92:196|248:232,1,250,4|0,0:0|0:0,0:0:0:0:
242,230,38299,2,0,B|307:207|379:251|379:251|363:315|299:311,1,250,4|0,0:0|0:0,0:0:0:0:
280,316,38768,5,2,0:0:0:0:
104,228,38924,1,0,0:0:0:0:
192,72,39080,1,6,0:0:0:0:
332,76,39861,1,0,0:0:0:0:
332,76,39939,1,0,0:0:0:0:
332,76,40018,1,2,0:0:0:0:
360,276,40330,6,0,B|312:240|228:272|164:368|100:268,1,250,4|0,0:0|0:0,0:0:0:0:
116,276,40799,2,0,P|156:192|332:180,1,250,4|0,0:0|0:0,0:0:0:0:
328,176,41268,6,0,P|392:204|404:248,1,100,8|0,0:0|0:0,0:0:0:0:
448,152,41580,2,0,P|408:96|428:68,1,100,8|0,0:0|0:0,0:0:0:0:
320,72,41893,1,0,0:0:0:0:
168,172,42049,1,0,0:0:0:0:
224,32,42205,1,0,0:0:0:0:
328,168,42361,1,0,0:0:0:0:
184,136,42518,6,0,P|116:112|96:132,1,100,8|0,0:0|0:0,0:0:0:0:
276,232,42830,2,0,P|264:288|224:292,1,100,8|0,0:0|0:0,0:0:0:0:
108,244,43143,1,0,0:0:0:0:
192,148,43299,1,0,0:0:0:0:
192,344,43455,1,0,0:0:0:0:
48,216,43611,1,0,0:0:0:0:
184,80,43768,6,0,P|240:48|288:36,1,100,4|0,0:0|0:0,0:0:0:0:
344,108,44080,1,0,0:0:0:0:
216,188,44236,1,0,0:0:0:0:
296,272,44393,2,0,P|236:304|172:304,1,100
92,256,44705,1,0,0:0:0:0:
112,120,44861,1,0,0:0:0:0:
336,88,45018,6,0,P|372:164|364:192,1,100
264,200,45330,1,0,0:0:0:0:
396,280,45486,1,0,0:0:0:0:
148,224,45643,2,0,P|176:160|200:136,1,100
336,104,45955,1,0,0:0:0:0:
452,208,46111,1,0,0:0:0:0:
88,128,46268,5,0,0:0:0:0:
356,304,46424,1,4,0:0:0:0:
280,144,46736,1,0,0:0:0:0:
116,292,46893,1,0,0:0:0:0:
284,228,47205,5,0,0:0:0:0:
420,64,47361,1,4,0:0:0:0:
236,288,47674,1,0,0:0:0:0:
416,68,47830,1,4,0:0:0:0:
192,80,48143,5,0,0:0:0:0:
288,96,48299,2,2,B|280:168|224:196|120:188,1,200,4|0,0:0|0:0,0:0:0:0:
128,120,48768,5,0,0:0:0:0:
376,312,48924,1,0,0:0:0:0:
200,296,49236,1,0,0:0:0:0:
376,72,49392,1,0,0:0:0:0:
128,168,49705,1,0,0:0:0:0:
388,152,49861,1,0,0:0:0:0:
236,100,50174,6,0,B|216:184|216:184|296:184|296:184|280:100,1,250
328,88,51268,6,0,P|384:136|392:188,1,100
388,192,51502,1,0,0:0:0:0:
380,224,51580,1,0,0:0:0:0:
176,200,51736,1,0,0:0:0:0:
264,64,51893,1,0,0:0:0:0:
316,180,52049,1,0,0:0:0:0:
220,292,52205,1,0,0:0:0:0:
176,84,52518,6,0,P|136:124|128:172,1,100
132,200,52752,1,0,0:0:0:0:
140,236,52830,1,0,0:0:0:0:
248,112,52986,1,0,0:0:0:0:
412,80,53143,1,0,0:0:0:0:
256,212,53299,1,0,0:0:0:0:
412,264,53455,1,0,0:0:0:0:
236,108,53768,6,0,L|144:52,1,100
164,212,54080,2,0,L|264:156,1,100
264,324,54393,2,0,L|168:268,1,100
336,236,54705,1,0,0:0:0:0:
456,116,54861,1,0,0:0:0:0:
320,152,55018,6,0,B|240:68|224:152|224:152|164:232|104:104,1,300
88,80,55564,1,0,0:0:0:0:
68,48,55643,1,0,0:0:0:0:
196,268,55955,5,0,0:0:0:0:
352,256,56111,1,0,0:0:0:0:
392,132,56268,2,0,P|388:76|420:36,1,100
260,64,56580,2,0,P|196:120|156:124,1,100
128,192,56893,6,0,L|220:284,1,100
220,284,57127,2,0,L|336:268,1,100
344,252,57361,2,0,L|392:152,1,100
224,88,57830,1,0,0:0:0:0:
224,88,58143,1,0,0:0:0:0:
140,232,58455,5,0,0:0:0:0:
224,296,58611,1,0,0:0:0:0:
324,264,58768,2,0,P|384:264|424:224,2,100,2|0|4,0:0|0:0|0:0,0:0:0:0:
256,192,59236,1,0,0:0:0:0:
204,112,59393,2,0,P|148:88|96:96,2,100,2|0|4,0:0|0:0|0:0,0:0:0:0:
256,192,59861,1,0,0:0:0:0:
384,64,60018,5,0,0:0:0:0:
396,96,60096,1,0,0:0:0:0:
404,132,60174,1,0,0:0:0:0:
396,216,60330,2,0,L|364:264,2,50,2|0|4,0:0|0:0|0:0,0:0:0:0:
132,192,60643,5,0,0:0:0:0:
136,156,60721,1,0,0:0:0:0:
140,120,60799,1,0,0:0:0:0:
148,88,60877,1,0,0:0:0:0:
168,60,60955,2,0,L|224:40,2,50,2|0|4,0:0|0:0|0:0,0:0:0:0:
124,192,61268,6,0,L|108:248,3,50,2|0|0|0,0:0|0:0|0:0|0:0,0:0:0:0:
120,276,61580,2,0,L|168:304,3,50,4|0|0|0,0:0|0:0|0:0|0:0,0:0:0:0:
200,300,61893,2,0,L|248:268,3,50,2|0|0|0,0:0|0:0|0:0|0:0,0:0:0:0:
260,244,62205,1,6,0:0:0:0:
260,120,62361,1,0,0:0:0:0:
292,52,62518,6,0,L|348:52,3,50,4|0|2|0,0:0|0:0|0:0|0:0,0:0:0:0:
220,52,62830,2,0,L|164:52,3,50,8|0|2|0,0:0|0:0|0:0|0:0,0:0:0:0:
256,112,63143,2,0,L|256:172,3,50,4|0|2|0,0:0|0:0|0:0|0:0,0:0:0:0:
256,232,63455,1,6,0:0:0:0:
256,340,63611,1,0,0:0:0:0:
460,136,63768,6,0,L|472:64,4,50,8|2|8|2|8,0:0|0:0|0:0|0:0|0:0,0:0:0:0:
416,120,64158,1,0,0:0:0:0:
408,88,64236,1,0,0:0:0:0:
380,64,64314,1,0,0:0:0:0:
340,40,64393,2,0,L|248:56,4,50,8|2|8|2|8,0:0|0:0|0:0|0:0|0:0,0:0:0:0:
164,64,64861,1,0,0:0:0:0:
68,216,65018,6,0,L|44:284,4,50,8|2|8|2|8,0:0|0:0|0:0|0:0|0:0,0:0:0:0:
100,216,65408,1,0,0:0:0:0:
132,228,65486,1,0,0:0:0:0:
168,232,65564,1,0,0:0:0:0:
204,236,65643,2,0,L|236:280,4,50,8|2|8|2|8,0:0|0:0|0:0|0:0|0:0,0:0:0:0:
328,224,66111,1,0,0:0:0:0:
124,132,66268,5,0,0:0:0:0:
232,40,66424,1,0,0:0:0:0:
384,48,66580,1,0,0:0:0:0:
448,192,66736,1,0,0:0:0:0:
344,152,66893,2,0,L|320:256,1,100
260,248,67127,2,0,L|228:140,1,100
168,152,67361,2,0,L|144:256,1,100
96,144,67674,1,0,0:0:0:0:
224,56,67830,1,0,0:0:0:0:
324,200,67986,1,0,0:0:0:0:
256,344,68143,5,0,0:0:0:0:
192,256,68299,1,0,0:0:0:0:
96,212,68455,1,0,0:0:0:0:
420,264,68768,2,0,B|408:252|408:252|432:244|432:244|400:236|400:236|428:224|428:224|400:216|400:216|424:200|424:200|384:196,1,200,0|4,0:0|0:0,0:0:0:0:
304,124,69236,1,0,0:0:0:0:
220,84,69393,1,0,0:0:0:0:
68,216,69705,1,0,0:0:0:0:
216,316,70018,6,0,P|308:344|324:340,1,100,2|0,0:0|0:0,0:0:0:0:
268,232,70330,1,0,0:0:0:0:
160,128,70486,1,0,0:0:0:0:
288,52,70643,2,0,P|348:100|356:136,1,100,2|0,0:0|0:0,0:0:0:0:
408,272,70955,1,0,0:0:0:0:
264,324,71111,1,0,0:0:0:0:
136,72,71268,5,2,0:0:0:0:
384,140,71424,1,2,0:0:0:0:
184,256,71580,1,0,0:0:0:0:
428,312,71736,1,0,0:0:0:0:
188,264,71893,2,0,L|248:148,1,119.999996337891,8|0,0:0|0:0,0:0:0:0:
480,52,72205,1,0,0:0:0:0:
352,308,72361,1,0,0:0:0:0:
244,80,72518,6,2,L|128:116,1,119.999996337891
272,336,72830,1,0,0:0:0:0:
328,72,72986,1,0,0:0:0:0:
68,152,73143,1,8,0:0:0:0:
272,296,73299,1,0,0:0:0:0:
376,80,73455,1,0,0:0:0:0:
444,320,73611,1,0,0:0:0:0:
216,160,73768,6,2,L|336:168,1,119.999996337891
80,80,74080,2,8,L|12:216,1,119.999996337891
232,324,74393,2,2,L|340:268,1,119.999996337891
472,68,74705,2,0,L|416:176,1,119.999996337891
156,236,75018,2,0,P|100:220|96:152,3,119.999996337891
96,128,75564,1,0,0:0:0:0:
120,96,75643,1,0,0:0:0:0:
232,304,75955,5,0,0:0:0:0:
420,120,76111,1,0,0:0:0:0:
156,84,76268,5,0,0:0:0:0:
376,228,76424,1,0,0:0:0:0:
112,240,76580,1,0,0:0:0:0:
300,56,76736,1,0,0:0:0:0:
108,240,76893,2,0,L|180:340,1,119.999996337891,4|0,0:0|0:0,0:0:0:0:
224,320,77127,2,0,L|328:248,1,119.999996337891,4|0,0:0|0:0,0:0:0:0:
360,216,77361,2,0,L|372:96,1,119.999996337891,4|0,0:0|0:0,0:0:0:0:
112,52,77674,5,0,0:0:0:0:
84,312,77830,1,0,0:0:0:0:
272,128,77986,1,0,0:0:0:0:
256,332,78143,2,0,L|140:372,1,119.999996337891
80,152,78455,2,0,L|156:52,1,119.999996337891
392,44,78768,5,0,0:0:0:0:
392,44,78924,1,8,0:0:0:0:
388,128,79080,1,0,0:0:0:0:
320,120,79236,1,0,0:0:0:0:
384,216,79393,1,0,0:0:0:0:
256,200,79549,1,8,0:0:0:0:
340,316,79705,1,0,0:0:0:0:
168,276,79861,1,8,0:0:0:0:
80,128,80018,5,0,0:0:0:0:
100,92,80096,1,0,0:0:0:0:
124,60,80174,1,12,0:0:0:0:
256,56,80330,1,0,0:0:0:0:
280,88,80408,1,0,0:0:0:0:
292,124,80486,1,12,0:0:0:0:
176,168,80643,5,0,0:0:0:0:
148,200,80721,1,0,0:0:0:0:
144,240,80799,1,8,0:0:0:0:
160,276,80877,1,0,0:0:0:0:
188,304,80955,2,0,L|248:336,3,59.9999981689454,4|0|0|0,0:0|0:0|0:0|0:0,0:0:0:0:
272,328,81268,5,8,0:0:0:0:
296,296,81346,1,8,0:0:0:0:
308,260,81424,1,0,0:0:0:0:
324,224,81502,1,0,0:0:0:0:
332,184,81580,1,0,0:0:0:0:
332,144,81658,1,8,0:0:0:0:
320,108,81736,1,8,0:0:0:0:
304,72,81814,1,0,0:0:0:0:
268,52,81893,1,12,0:0:0:0:
136,144,82049,5,0,0:0:0:0:
256,224,82205,1,2,0:0:0:0:
136,144,82361,1,0,0:0:0:0:
136,288,82518,5,8,0:0:0:0:
176,288,82596,1,8,0:0:0:0:
216,280,82674,1,0,0:0:0:0:
252,268,82752,1,0,0:0:0:0:
288,252,82830,2,0,L|344:184,4,64.9999970245363,0|8|8|0|12,0:0|0:0|0:0|0:0|0:0,0:0:0:0:
340,104,83299,5,0,0:0:0:0:
224,68,83455,1,2,0:0:0:0:
420,40,83611,1,0,0:0:0:0:
160,44,83768,5,8,0:0:0:0:
140,80,83846,1,8,0:0:0:0:
124,116,83924,1,0,0:0:0:0:
124,156,84002,1,0,0:0:0:0:
128,196,84080,1,0,0:0:0:0:
144,232,84158,1,0,0:0:0:0:
168,264,84236,1,0,0:0:0:0:
200,288,84314,1,0,0:0:0:0:
236,300,84393,1,12,0:0:0:0:
352,160,84549,5,0,0:0:0:0:
352,160,84705,1,2,0:0:0:0:
352,160,84861,1,0,0:0:0:0:
156,56,85018,5,8,0:0:0:0:
140,92,85096,1,0,0:0:0:0:
144,132,85174,2,0,L|200:176,1,64.9999970245363,4|0,0:0|0:0,0:0:0:0:
184,240,85330,1,0,0:0:0:0:
172,280,85408,1,0,0:0:0:0:
148,312,85486,2,0,L|88:288,1,64.9999970245363,4|0,0:0|0:0,0:0:0:0:
112,184,85643,5,8,0:0:0:0:
308,152,85799,1,8,0:0:0:0:
184,180,85955,1,8,0:0:0:0:
440,108,86111,1,8,0:0:0:0:
164,44,86268,5,6,0:0:0:0:
256,132,86424,1,0,0:0:0:0:
360,40,86580,1,6,0:0:0:0:
192,176,86893,2,4,P|260:172|288:228,1,129.999994049073
424,248,87127,2,4,P|364:228|300:276,1,129.999994049073
192,272,87361,2,4,P|248:272|308:340,1,129.999994049073
108,188,87830,1,0,0:0:0:0:
108,188,87986,1,0,0:0:0:0:
108,188,88143,1,2,0:0:0:0:
304,188,88455,1,0,0:0:0:0:
148,84,88768,2,0,B|160:72|160:72|168:104|168:104|188:52|188:52|200:112|200:112|216:68|216:68|244:108,1,259.999988098145,4|0,0:0|0:0,0:0:0:0:
336,136,89236,1,2,0:0:0:0:
432,212,89393,1,2,0:0:0:0:
256,304,89705,5,0,0:0:0:0:
256,304,89861,1,0,0:0:0:0:
168,268,90018,2,0,L|96:152,1,129.999994049073
284,208,90330,2,0,L|312:72,1,129.999994049073
388,296,90643,2,0,L|512:248,1,129.999994049073
272,64,90955,2,0,L|292:200,1,129.999994049073
144,200,91268,5,0,0:0:0:0:
412,136,91424,1,0,0:0:0:0:
192,48,91580,2,0,L|116:128,1,100,0|2,0:0|0:0,0:0:0:0:
256,288,92049,2,0,P|320:268|328:224,1,100,0|2,0:0|0:0,0:0:0:0:
324,48,92518,2,0,P|248:52|192:64,1,100,0|2,0:0|0:0,0:0:0:0:
104,192,92986,1,0,0:0:0:0:
228,328,93143,1,2,0:0:0:0:
344,48,93455,2,0,L|280:144,1,100,0|2,0:0|0:0,0:0:0:0:
144,272,93768,5,8,0:0:0:0:
364,280,93924,1,8,0:0:0:0:
180,120,94080,2,0,P|176:68|140:32,1,100,0|2,0:0|0:0,0:0:0:0:
352,196,94549,2,0,P|400:152|452:132,1,100,0|2,0:0|0:0,0:0:0:0:
148,252,95018,2,0,P|88:196|40:176,1,100,0|2,0:0|0:0,0:0:0:0:
264,340,95486,1,0,0:0:0:0:
448,216,95799,1,0,0:0:0:0:
364,96,95955,1,0,0:0:0:0:
224,192,96111,1,0,0:0:0:0:
40,156,96268,5,8,0:0:0:0:
212,76,96424,1,0,0:0:0:0:
212,76,96502,1,0,0:0:0:0:
212,76,96580,1,2,0:0:0:0:
368,168,96736,1,8,0:0:0:0:
200,296,96893,1,8,0:0:0:0:
444,296,97049,1,0,0:0:0:0:
444,296,97127,1,0,0:0:0:0:
444,296,97205,1,2,0:0:0:0:
400,104,97361,5,8,0:0:0:0:
320,312,97518,1,8,0:0:0:0:
164,184,97674,1,0,0:0:0:0:
164,184,97752,1,0,0:0:0:0:
164,184,97830,1,2,0:0:0:0:
264,32,97986,1,8,0:0:0:0:
448,60,98143,2,0,P|436:120|392:160,1,100,8|0,0:0|0:0,0:0:0:0:
380,176,98377,1,0,0:0:0:0:
348,200,98455,1,2,0:0:0:0:
204,124,98611,1,0,0:0:0:0:
213,330,98768,6,0,L|168:352,1,50,2|0,0:0|0:0,0:0:0:0:
117,149,98924,2,0,L|80:108,1,50,2|0,0:0|0:0,0:0:0:0:
298,53,99080,2,0,L|344:28,1,50,2|0,0:0|0:0,0:0:0:0:
394,234,99236,2,0,L|444:280,1,50,2|0,0:0|0:0,0:0:0:0:
213,53,99393,2,0,L|156:24,1,50,2|0,0:0|0:0,0:0:0:0:
117,234,99549,2,0,L|84:280,1,50,2|0,0:0|0:0,0:0:0:0:
298,330,99705,2,0,L|344:352,1,50,2|0,0:0|0:0,0:0:0:0:
394,149,99861,2,0,L|408:96,1,50,2|0,0:0|0:0,0:0:0:0:
256,192,100018,5,4,0:0:0:0:
256,192,100174,1,6,0:0:0:0:
