osu file format v14

[General]
AudioFilename: audio.mp3
AudioLeadIn: 0
PreviewTime: 91850
Countdown: 1
SampleSet: None
StackLeniency: 0.7
Mode: 0
LetterboxInBreaks: 0
WidescreenStoryboard: 0

[Editor]
Bookmarks: 29733,52321,63615,72086,80556,91850,103145,108792,117262,135615
DistanceSpacing: 1
BeatDivisor: 8
GridSize: 16
TimelineZoom: 1.9

[Metadata]
Title:Wicked Ceremony
TitleUnicode:Wicked Ceremony
Artist:Ice meets t+pazolite
ArtistUnicode:Ice meets t+pazolite
Creator:Nitronic Techno
Version:Wicked!
Source:Cytus II
Tags:EDM Alt House Other Item
BeatmapID:2203812
BeatmapSetID:1054708

[Difficulty]
HPDrainRate:4
CircleSize:4
OverallDifficulty:9
ApproachRate:10
SliderMultiplier:2
SliderTickRate:1

[Events]
//Background and Video events
0,0,"Wicked_Ceremony.png",0,0
//Break Periods
//Storyboard Layer 0 (Background)
//Storyboard Layer 1 (Fail)
//Storyboard Layer 2 (Pass)
//Storyboard Layer 3 (Foreground)
//Storyboard Layer 4 (Overlay)
//Storyboard Sound Samples

[TimingPoints]
1498,352.941176470588,4,1,0,60,1,0
7145,-80,4,1,0,50,0,0
11380,-133.333333333333,4,2,0,35,0,0
12792,-79.9999999999999,4,1,0,55,0,0
17027,-200,4,1,0,55,0,0
18439,-100,4,1,0,55,0,0
29027,-133.333333333333,4,3,0,45,0,0
29733,-76.9230769230769,4,1,0,60,0,0
31850,-133.333333333333,4,1,0,60,0,0
32556,-76.9230769230769,4,1,0,60,0,0
33792,-100,4,1,0,60,0,0
34674,-200,4,2,0,35,0,0
35380,-200,4,1,0,50,0,0
36615,-76.9230769230769,4,1,0,65,0,0
38203,-90.9090909090909,4,1,0,70,0,0
41027,-80,4,1,0,55,0,0
43145,-100,4,1,0,50,0,0
44556,-200,4,1,0,55,0,0
45968,-83.3333333333333,4,1,0,60,0,0
52321,-400,4,2,0,45,0,0
54439,-133.333333333333,4,3,0,60,0,0
54968,-400,4,2,0,45,0,0
57262,-133.333333333333,4,3,0,60,0,0
57791,-400,4,2,0,45,0,0
60086,-133.333333333333,4,3,0,60,0,0
60615,-400,4,2,0,45,0,0
63615,-133.333333333333,4,1,0,45,0,0
65733,-66.6666666666667,4,3,0,70,0,0
66262,-133.333333333333,4,1,0,45,0,0
68556,-66.6666666666667,4,3,0,70,0,0
69085,-133.333333333333,4,1,0,45,0,0
72086,-100,4,1,0,50,0,0
79850,-400,4,1,0,33,0,0
80556,-80,4,1,0,65,0,1
84792,-100,4,1,0,65,0,1
86203,-80,4,1,0,65,0,1
90439,-100,4,1,0,65,0,1
91145,-133.333333333333,4,3,0,50,0,0
91850,-100,4,1,0,75,0,1
101909,-100,4,3,0,60,0,0
103145,-200,4,1,0,50,0,0
108792,-300,4,3,0,40,0,0
114439,-133.333333333333,4,1,0,40,0,0
117262,-66.6666666666667,4,1,0,85,0,1
137027,-66.6666666666667,4,1,0,85,0,0

[HitObjects]
64,56,1498,5,0,0:0:0:0:
64,144,1674,1,0,0:0:0:0:
64,168,1762,1,0,0:0:0:0:
64,192,1850,1,0,0:0:0:0:
64,280,2026,1,0,0:0:0:0:
176,336,2203,5,0,0:0:0:0:
176,248,2379,1,0,0:0:0:0:
176,224,2467,1,0,0:0:0:0:
176,200,2555,1,0,0:0:0:0:
176,112,2731,1,0,0:0:0:0:
448,56,2909,5,0,0:0:0:0:
448,144,3085,1,0,0:0:0:0:
448,168,3173,1,0,0:0:0:0:
448,192,3261,1,0,0:0:0:0:
448,280,3437,1,0,0:0:0:0:
336,336,3614,5,0,0:0:0:0:
336,248,3790,1,0,0:0:0:0:
336,224,3878,1,0,0:0:0:0:
336,200,3966,1,0,0:0:0:0:
336,112,4142,1,0,0:0:0:0:
64,56,4321,5,0,0:0:0:0:
136,144,4497,1,0,0:0:0:0:
152,169,4586,1,0,0:0:0:0:
139,212,4674,1,0,0:0:0:0:
224,336,4850,1,0,0:0:0:0:
448,272,5027,5,0,0:0:0:0:
336,176,5203,1,0,0:0:0:0:
316,129,5292,1,0,0:0:0:0:
334,82,5380,2,0,L|391:39,6,50
56,352,6439,5,0,0:0:0:0:
328,224,6792,1,0,0:0:0:0:
336,224,6880,1,0,0:0:0:0:
344,224,6968,1,0,0:0:0:0:
160,144,7145,5,0,0:0:0:0:
319,206,7321,1,0,0:0:0:0:
272,41,7497,1,0,0:0:0:0:
229,257,7674,1,0,0:0:0:0:
332,110,7850,1,0,0:0:0:0:
147,184,8027,1,0,0:0:0:0:
325,248,8203,1,0,0:0:0:0:
263,65,8380,1,0,0:0:0:0:
259,203,8556,5,0,0:0:0:0:
444,125,8733,1,0,0:0:0:0:
267,118,8909,1,0,0:0:0:0:
446,245,9086,1,0,0:0:0:0:
353,62,9262,1,0,0:0:0:0:
352,269,9439,1,0,0:0:0:0:
495,117,9615,1,0,0:0:0:0:
301,198,9792,1,0,0:0:0:0:
95,138,9968,5,0,0:0:0:0:
225,268,10145,1,0,0:0:0:0:
209,95,10321,1,0,0:0:0:0:
130,259,10497,1,0,0:0:0:0:
301,157,10674,1,0,0:0:0:0:
79,154,10850,1,0,0:0:0:0:
244,319,11027,1,0,0:0:0:0:
186,93,11203,1,0,0:0:0:0:
64,48,11380,5,0,0:0:0:0:
160,128,11556,2,0,L|112:144,1,37.5000014305115
224,160,11733,1,0,0:0:0:0:
48,240,11909,1,0,0:0:0:0:
432,320,12086,5,0,0:0:0:0:
336,240,12262,2,0,L|384:224,1,37.5000014305115
267,257,12439,1,0,0:0:0:0:
448,128,12615,1,0,0:0:0:0:
160,64,12792,6,0,P|222:45|288:60,1,125
304,96,13056,1,0,0:0:0:0:
288,144,13145,1,0,0:0:0:0:
400,256,13321,1,0,0:0:0:0:
112,304,13497,2,0,P|84:245|100:170,1,125
272,352,13850,1,0,0:0:0:0:
64,336,14027,1,0,0:0:0:0:
176,80,14203,6,0,P|207:139|200:214,1,125
169,230,14468,1,0,0:0:0:0:
119,225,14556,1,0,0:0:0:0:
336,64,14733,1,0,0:0:0:0:
272,304,14909,1,0,0:0:0:0:
160,112,15086,1,0,0:0:0:0:
448,240,15262,1,0,0:0:0:0:
144,288,15439,1,0,0:0:0:0:
400,64,15615,6,0,P|429:129|416:201,1,125
386,214,15880,1,0,0:0:0:0:
336,212,15968,1,0,0:0:0:0:
208,48,16145,1,0,0:0:0:0:
464,96,16321,2,0,P|489:174|459:229,1,125
160,128,16674,1,0,0:0:0:0:
272,240,16850,1,0,0:0:0:0:
64,320,17027,6,0,L|48:272,1,50
144,320,17292,1,0,0:0:0:0:
144,320,17380,2,0,L|128:272,1,50
192,208,17733,6,0,L|208:256,1,50
272,208,17997,1,0,0:0:0:0:
272,208,18086,2,0,L|288:256,1,50
480,336,18439,5,0,0:0:0:0:
430,332,18527,1,0,0:0:0:0:
391,300,18615,1,0,0:0:0:0:
384,250,18703,1,0,0:0:0:0:
428,225,18792,5,0,0:0:0:0:
443,205,18880,1,0,0:0:0:0:
450,181,18968,1,0,0:0:0:0:
451,156,19056,1,0,0:0:0:0:
435,136,19145,5,0,0:0:0:0:
395,115,19233,1,0,0:0:0:0:
350,117,19321,1,0,0:0:0:0:
311,140,19409,1,0,0:0:0:0:
311,199,19497,5,0,0:0:0:0:
283,253,19586,1,0,0:0:0:0:
223,262,19674,1,0,0:0:0:0:
170,232,19762,1,0,0:0:0:0:
135,196,19850,5,0,0:0:0:0:
123,146,19939,1,0,0:0:0:0:
138,98,20027,2,0,P|157:74|207:59,1,50
272,96,20203,5,0,0:0:0:0:
262,145,20292,1,0,0:0:0:0:
228,182,20380,2,0,P|180:205|171:205,1,50
112,144,20556,5,0,0:0:0:0:
157,121,20645,1,0,0:0:0:0:
206,128,20733,2,0,P|242:138|276:166,1,50
224,224,20909,5,0,0:0:0:0:
190,187,20997,1,0,0:0:0:0:
182,137,21086,2,0,P|185:111|217:74,1,50
272,32,21262,5,0,0:0:0:0:
284,53,21350,1,0,0:0:0:0:
285,78,21439,1,0,0:0:0:0:
273,100,21527,1,0,0:0:0:0:
279,124,21615,5,0,0:0:0:0:
297,159,21703,1,0,0:0:0:0:
292,199,21792,1,0,0:0:0:0:
266,229,21880,1,0,0:0:0:0:
235,203,21968,5,0,0:0:0:0:
193,166,22056,1,0,0:0:0:0:
137,163,22145,1,0,0:0:0:0:
94,197,22233,1,0,0:0:0:0:
100,251,22321,5,0,0:0:0:0:
146,303,22409,1,0,0:0:0:0:
215,312,22497,1,0,0:0:0:0:
272,270,22586,1,0,0:0:0:0:
283,201,22674,5,0,0:0:0:0:
271,152,22762,1,0,0:0:0:0:
287,104,22850,1,0,0:0:0:0:
328,74,22939,1,0,0:0:0:0:
377,83,23027,5,0,0:0:0:0:
390,115,23115,1,0,0:0:0:0:
389,149,23203,1,0,0:0:0:0:
370,179,23292,1,0,0:0:0:0:
329,203,23380,6,0,L|340:234,1,25
289,203,23468,2,0,L|297:237,1,25
247,198,23556,2,0,L|251:233,1,25
202,189,23645,2,0,L|203:232,1,25
167,159,23733,2,0,L|166:128,1,25
120,157,23821,2,0,L|122:112,1,25
74,152,23909,2,0,L|76:110,1,25
30,152,23997,2,0,L|36:113,1,25
0,192,24086,5,0,0:0:0:0:
17,225,24174,1,0,0:0:0:0:
47,242,24262,1,0,0:0:0:0:
81,237,24350,1,0,0:0:0:0:
99,267,24439,5,0,0:0:0:0:
146,282,24527,1,0,0:0:0:0:
192,265,24615,1,0,0:0:0:0:
212,219,24703,1,0,0:0:0:0:
181,178,24792,5,0,0:0:0:0:
177,138,24880,1,0,0:0:0:0:
199,105,24968,1,0,0:0:0:0:
236,91,25056,1,0,0:0:0:0:
260,123,25145,5,0,0:0:0:0:
270,140,25233,1,0,0:0:0:0:
280,157,25321,1,0,0:0:0:0:
290,174,25409,1,0,0:0:0:0:
300,191,25497,5,0,0:0:0:0:
349,202,25586,1,0,0:0:0:0:
397,190,25674,2,0,P|424:189|456:179,1,50
415,82,25850,5,0,0:0:0:0:
372,108,25939,1,0,0:0:0:0:
352,153,26027,2,0,P|345:183|354:215,1,50
480,193,26203,5,0,0:0:0:0:
460,146,26292,1,0,0:0:0:0:
420,115,26380,2,0,P|386:107|352:111,1,50
365,223,26556,5,0,0:0:0:0:
413,209,26645,1,0,0:0:0:0:
448,173,26733,2,0,P|458:146|457:108,1,50
416,48,26909,5,0,0:0:0:0:
386,44,26997,1,0,0:0:0:0:
356,51,27086,1,0,0:0:0:0:
329,64,27174,1,0,0:0:0:0:
299,66,27262,5,0,0:0:0:0:
254,64,27350,1,0,0:0:0:0:
211,78,27439,1,0,0:0:0:0:
187,115,27527,1,0,0:0:0:0:
145,130,27615,5,0,0:0:0:0:
80,133,27703,1,0,0:0:0:0:
36,182,27792,1,0,0:0:0:0:
33,246,27880,1,0,0:0:0:0:
72,297,27968,5,0,0:0:0:0:
121,304,28056,1,0,0:0:0:0:
170,295,28145,1,0,0:0:0:0:
197,253,28233,1,0,0:0:0:0:
245,240,28321,5,0,0:0:0:0:
277,253,28409,1,0,0:0:0:0:
311,250,28497,1,0,0:0:0:0:
335,224,28586,1,0,0:0:0:0:
361,200,28674,5,0,0:0:0:0:
375,186,28762,1,0,0:0:0:0:
389,172,28850,1,0,0:0:0:0:
404,159,28939,1,0,0:0:0:0:
419,145,29027,6,0,P|453:114|441:43,1,112.500004291535
336,144,29380,2,0,P|353:188|385:210,1,75.0000028610231
144,48,29733,6,0,L|48:304,2,259.999988098145
160,48,30615,1,0,0:0:0:0:
176,48,30792,1,0,0:0:0:0:
448,272,30968,6,0,B|385:301|320:272|320:272|254:255|192:272,1,259.999988098145
416,352,31497,1,0,0:0:0:0:
48,336,31850,6,0,P|30:290|33:247,1,75.0000028610231
128,224,32115,1,0,0:0:0:0:
136,246,32203,2,0,P|146:291|139:336,1,75.0000028610231
320,48,32556,5,0,0:0:0:0:
383,63,32645,1,0,0:0:0:0:
422,114,32733,1,0,0:0:0:0:
401,175,32821,1,0,0:0:0:0:
344,206,32909,1,0,0:0:0:0:
192,320,33086,1,0,0:0:0:0:
144,48,33262,5,0,0:0:0:0:
178,86,33439,1,0,0:0:0:0:
213,124,33615,1,0,0:0:0:0:
128,288,33792,6,0,P|168:258|229:263,1,100
251,277,34056,1,0,0:0:0:0:
289,287,34145,1,0,0:0:0:0:
328,278,34233,1,0,0:0:0:0:
363,259,34321,2,0,L|395:236,6,25
304,208,34674,6,0,L|304:160,1,25
233,191,34850,2,0,L|197:191,1,25
240,121,35027,2,0,L|240:81,1,25
168,95,35203,2,0,L|133:94,1,25
80,144,35380,6,0,L|80:128,1,12.5
114,161,35468,2,0,L|120:141,1,12.5
141,184,35556,2,0,L|154:170,1,12.5
153,216,35645,2,0,L|170:211,1,12.5
153,253,35733,6,0,L|140:257,1,12.5
179,283,35821,2,0,L|164:295,1,12.5
217,299,35909,2,0,L|209:318,1,12.5
256,303,35997,2,0,L|256:322,1,12.5
291,292,36086,6,0,P|318:308|353:302,1,50
288,176,36439,1,0,0:0:0:0:
176,240,36615,6,0,P|113:253|72:85,1,259.999988098145
237,210,37145,1,0,0:0:0:0:
25,232,37321,1,0,0:0:0:0:
184,89,37497,1,0,0:0:0:0:
140,297,37674,1,0,0:0:0:0:
53,103,37850,1,0,0:0:0:0:
416,192,38203,6,0,P|420:236|360:282,1,110.000003356934
333,292,38468,1,0,0:0:0:0:
192,176,38733,6,0,P|156:149|162:74,1,110.000003356934
173,46,38998,1,0,0:0:0:0:
416,192,39262,6,0,P|431:233|385:293,1,110.000003356934
361,310,39527,1,0,0:0:0:0:
96,288,39792,6,0,P|55:269|46:194,1,110.000003356934
50,166,40057,1,0,0:0:0:0:
256,112,40321,6,0,L|361:145,1,110.000003356934
160,192,40674,2,0,L|139:165,6,27.5000008392334
83,241,41027,6,0,P|86:288|152:342,1,125
143,194,41292,2,0,P|96:168|23:191,1,125
159,267,41556,2,0,P|208:230|207:152,1,125
272,80,41909,1,0,0:0:0:0:
352,144,42086,1,0,0:0:0:0:
288,240,42262,2,0,P|252:305|99:252,1,250
72,231,42703,5,0,0:0:0:0:
68,180,42792,1,0,0:0:0:0:
94,137,42880,1,0,0:0:0:0:
142,124,42968,1,0,0:0:0:0:
190,135,43056,1,0,0:0:0:0:
231,163,43145,6,0,P|232:189|219:216,1,50
304,205,43321,2,0,P|286:237|254:260,1,50
355,260,43497,2,0,P|336:286|310:295,1,50
404,316,43674,2,0,P|377:336|348:342,1,50
477,358,43850,6,0,P|476:332|489:305,1,50
404,316,44026,2,0,P|422:284|454:261,1,50
353,261,44202,2,0,P|372:235|398:226,1,50
304,205,44379,2,0,P|331:185|360:179,1,50
256,160,44556,2,0,L|227:149,1,25
160,144,44733,2,0,L|170:112,1,25
144,208,44909,2,0,L|109:196,1,25
105,264,45086,2,0,L|47:370,1,100
208,224,45703,1,0,0:0:0:0:
64,112,45968,6,0,P|52:84|61:43,1,59.9999981689454
160,112,46145,2,0,P|189:104|241:129,1,59.9999981689454
304,192,46321,2,0,P|278:198|233:186,1,59.9999981689454
160,272,46497,2,0,P|153:247|164:185,1,59.9999981689454
256,320,46674,5,0,0:0:0:0:
249,306,46762,1,0,0:0:0:0:
256,295,46850,1,0,0:0:0:0:
269,285,46939,1,0,0:0:0:0:
251,271,47027,1,0,0:0:0:0:
228,258,47115,1,0,0:0:0:0:
219,234,47203,1,0,0:0:0:0:
231,210,47292,1,0,0:0:0:0:
201,184,47380,6,0,P|168:120|181:63,1,119.999996337891
290,148,47645,2,0,P|362:151|405:191,1,119.999996337891
276,243,47909,1,0,0:0:0:0:
224,48,48174,6,0,P|253:82|254:169,1,119.999996337891
396,236,48439,2,0,P|352:244|276:201,1,119.999996337891
147,291,48703,2,0,P|162:249|237:205,1,119.999996337891
96,112,49145,5,0,0:0:0:0:
352,32,49497,6,0,P|386:92|383:157,1,119.999996337891
367,178,49762,1,0,0:0:0:0:
160,320,50027,6,0,P|105:268|110:214,1,119.999996337891
120,191,50292,1,0,0:0:0:0:
419,214,50556,6,0,P|364:256|302:265,1,119.999996337891
280,265,50821,1,0,0:0:0:0:
80,128,51086,6,0,P|97:86|196:30,1,119.999996337891
192,35,51350,1,0,0:0:0:0:
448,160,51615,6,0,P|383:213|336:219,1,119.999996337891
309,216,51880,1,0,0:0:0:0:
267,207,51968,1,0,0:0:0:0:
225,214,52056,2,0,L|175:228,6,29.9999990844727
176,144,52497,5,0,0:0:0:0:
145,144,52674,1,0,0:0:0:0:
115,143,52850,2,0,L|80:143,1,25
128,64,53203,1,0,0:0:0:0:
153,64,53380,1,0,0:0:0:0:
177,64,53556,1,0,0:0:0:0:
202,63,53733,2,0,L|236:64,1,25
272,112,54086,2,0,L|304:112,1,25
432,48,54439,5,0,0:0:0:0:
400,176,54615,1,0,0:0:0:0:
409,212,54703,1,0,0:0:0:0:
415,249,54792,1,0,0:0:0:0:
256,336,54968,6,0,L|256:281,1,50
224,224,55497,1,0,0:0:0:0:
198,223,55674,1,0,0:0:0:0:
173,223,55850,1,0,0:0:0:0:
147,223,56027,2,0,L|111:223,1,25
64,192,56380,2,0,L|64:160,1,25
112,112,56733,2,0,L|144:112,2,25
208,32,57262,5,0,0:0:0:0:
384,112,57527,1,0,0:0:0:0:
368,272,57792,6,0,P|343:301|326:309,1,50
256,288,58321,1,0,0:0:0:0:
192,336,58497,2,0,L|160:336,1,25
107,302,58850,2,0,L|107:268,1,25
144,224,59203,1,0,0:0:0:0:
96,192,59380,1,0,0:0:0:0:
96,128,59556,2,0,L|155:128,1,50
208,64,60086,5,0,0:0:0:0:
384,112,60350,1,0,0:0:0:0:
352,272,60615,6,0,P|322:295|303:295,1,50
240,288,61145,1,0,0:0:0:0:
215,288,61321,1,0,0:0:0:0:
190,288,61497,1,0,0:0:0:0:
164,288,61674,2,0,L|153:289,10,6.25
128,272,62203,6,0,L|107:255,1,25
144,176,62556,1,0,0:0:0:0:
160,194,62733,1,0,0:0:0:0:
224,112,62909,1,0,0:0:0:0:
240,130,63086,1,0,0:0:0:0:
336,48,63262,6,0,L|336:54,6,6.25
361,45,63615,6,0,P|398:54|428:84,1,75.0000028610231
469,169,63968,2,0,P|422:155|390:161,1,75.0000028610231
376,165,64233,1,0,0:0:0:0:
353,175,64321,1,0,0:0:0:0:
256,224,64497,1,0,0:0:0:0:
159,175,64674,1,0,0:0:0:0:
142,155,64762,1,0,0:0:0:0:
136,130,64850,1,0,0:0:0:0:
140,105,64939,1,0,0:0:0:0:
148,81,65027,2,0,L|197:17,1,75.0000028610231
256,112,65380,2,0,L|300:180,1,75.0000028610231
423,99,65733,6,0,P|420:187|365:244,1,150.000005722046
352,103,65997,2,0,P|387:138|376:242,1,150.000005722046
271,144,66262,2,0,P|324:162|387:239,1,150
352,336,66792,1,0,0:0:0:0:
317,320,66880,1,0,0:0:0:0:
279,321,66968,1,0,0:0:0:0:
245,336,67056,1,0,0:0:0:0:
215,359,67145,1,0,0:0:0:0:
128,272,67321,5,0,0:0:0:0:
150,241,67409,1,0,0:0:0:0:
152,203,67497,1,0,0:0:0:0:
137,168,67586,1,0,0:0:0:0:
107,144,67674,1,0,0:0:0:0:
192,64,67850,6,0,B|210:92|210:92|227:61|227:61|240:93|238:92|259:59|259:59|271:95,1,150.000005722046
352,144,68380,1,0,0:0:0:0:
288,224,68556,6,0,P|198:236|131:203,1,150.000005722046
251,304,68821,2,0,P|183:277|143:203,1,150.000005722046
113,348,69086,2,0,P|102:305|148:210,1,150.000005722046
176,144,69615,1,0,0:0:0:0:
236,99,69792,1,0,0:0:0:0:
310,95,69968,1,0,0:0:0:0:
373,134,70145,1,0,0:0:0:0:
400,224,70321,6,0,L|426:236,4,18.7500007152558
365,239,70586,1,0,0:0:0:0:
332,257,70674,1,0,0:0:0:0:
64,128,71027,5,0,0:0:0:0:
136,108,71203,2,0,L|151:129,4,18.7500007152558
256,144,71556,1,0,0:0:0:0:
268,179,71645,1,0,0:0:0:0:
260,215,71733,1,0,0:0:0:0:
209,269,71909,1,0,0:0:0:0:
64,48,72262,5,0,0:0:0:0:
113,41,72350,1,0,0:0:0:0:
163,41,72439,1,0,0:0:0:0:
207,63,72527,1,0,0:0:0:0:
224,109,72615,1,0,0:0:0:0:
209,156,72703,1,0,0:0:0:0:
174,193,72792,1,0,0:0:0:0:
126,208,72880,1,0,0:0:0:0:
76,204,72968,6,0,L|17:174,1,50
112,288,73145,1,0,0:0:0:0:
63,299,73233,6,0,L|11:307,1,50
192,320,73409,1,0,0:0:0:0:
148,343,73497,6,0,L|81:346,1,50
208,256,73674,1,0,0:0:0:0:
253,235,73762,1,0,0:0:0:0:
302,233,73850,1,0,0:0:0:0:
351,239,73939,1,0,0:0:0:0:
397,220,74027,1,0,0:0:0:0:
421,176,74115,1,0,0:0:0:0:
424,126,74203,1,0,0:0:0:0:
412,76,74292,1,0,0:0:0:0:
372,45,74380,6,0,L|311:18,1,50
352,144,74556,1,0,0:0:0:0:
301,138,74645,6,0,L|230:125,1,50
352,224,74821,1,0,0:0:0:0:
302,230,74909,2,0,P|238:235|136:203,1,150
133,200,75262,1,0,0:0:0:0:
119,179,75350,1,0,0:0:0:0:
123,154,75439,1,0,0:0:0:0:
139,135,75527,1,0,0:0:0:0:
170,119,75615,1,0,0:0:0:0:
204,117,75703,1,0,0:0:0:0:
237,127,75792,1,0,0:0:0:0:
269,140,75880,1,0,0:0:0:0:
294,182,75968,5,0,0:0:0:0:
292,231,76056,1,0,0:0:0:0:
268,275,76145,1,0,0:0:0:0:
221,294,76233,1,0,0:0:0:0:
172,283,76321,1,0,0:0:0:0:
149,238,76409,1,0,0:0:0:0:
156,188,76497,1,0,0:0:0:0:
193,153,76586,1,0,0:0:0:0:
237,174,76674,1,0,0:0:0:0:
286,181,76762,1,0,0:0:0:0:
333,164,76850,1,0,0:0:0:0:
361,122,76939,1,0,0:0:0:0:
378,75,77027,6,0,L|393:17,1,50
221,160,77292,2,0,L|202:102,1,50
96,288,77556,2,0,L|120:231,1,50
176,320,77733,5,0,0:0:0:0:
250,316,77821,1,0,0:0:0:0:
316,281,77909,1,0,0:0:0:0:
359,219,77997,1,0,0:0:0:0:
367,143,78086,1,0,0:0:0:0:
331,77,78174,1,0,0:0:0:0:
260,50,78262,1,0,0:0:0:0:
186,61,78350,1,0,0:0:0:0:
122,101,78439,1,0,0:0:0:0:
94,170,78527,1,0,0:0:0:0:
70,241,78615,6,0,L|50:323,1,50
256,176,78880,2,0,L|240:247,1,50
448,112,79145,1,0,0:0:0:0:
96,96,79850,6,0,L|153:96,1,50
400,336,80556,6,0,P|370:272|382:201,1,125
323,91,80909,1,0,0:0:0:0:
259,213,81086,1,0,0:0:0:0:
464,144,81262,2,0,P|396:123|327:130,1,125
288,320,81615,2,0,P|358:299|392:246,1,125
256,128,81968,1,0,0:0:0:0:
124,259,82145,2,0,P|164:306|224:320,1,125
176,128,82497,1,0,0:0:0:0:
64,288,82674,5,0,0:0:0:0:
416,224,82850,1,0,0:0:0:0:
80,96,83027,1,0,0:0:0:0:
432,32,83203,1,0,0:0:0:0:
256,48,83380,6,0,P|316:87|349:152,1,125
256,272,83733,1,0,0:0:0:0:
32,208,83909,2,0,P|87:162|167:174,1,125
400,240,84262,1,0,0:0:0:0:
256,112,84439,1,0,0:0:0:0:
432,96,84615,1,0,0:0:0:0:
336,288,84792,6,0,P|391:314|435:307,1,100
320,224,85056,2,0,L|267:196,1,50
176,304,85321,1,0,0:0:0:0:
176,96,85497,6,0,P|121:70|77:77,1,100
192,160,85761,2,0,L|245:188,1,50
336,80,86026,1,0,0:0:0:0:
416,272,86203,6,0,P|477:218|490:165,1,125
224,176,86556,1,0,0:0:0:0:
352,224,86733,1,0,0:0:0:0:
192,64,86909,2,0,P|166:125|181:184,1,125
448,96,87262,2,0,P|362:63|291:74,1,125
176,192,87615,1,0,0:0:0:0:
330,320,87792,2,0,P|392:315|448:288,1,125
256,208,88145,1,0,0:0:0:0:
96,336,88321,5,0,0:0:0:0:
176,96,88497,1,0,0:0:0:0:
320,336,88674,1,0,0:0:0:0:
400,96,88850,1,0,0:0:0:0:
256,16,89027,6,0,P|223:81|245:139,1,125
368,288,89380,1,0,0:0:0:0:
400,112,89556,2,0,P|342:164|317:225,1,125
432,336,89909,1,0,0:0:0:0:
464,160,90086,1,0,0:0:0:0:
240,208,90262,1,0,0:0:0:0:
400,96,90439,6,0,P|337:96|277:59,1,100
432,160,90703,2,0,L|497:184,1,50
336,192,90968,1,0,0:0:0:0:
208,304,91145,6,0,P|164:252|157:187,1,112.500004291535
272,256,91497,2,0,P|284:309|271:350,1,75.0000028610231
96,112,91850,5,0,0:0:0:0:
139,86,91939,1,0,0:0:0:0:
188,80,92027,1,0,0:0:0:0:
237,87,92115,1,0,0:0:0:0:
223,135,92203,1,0,0:0:0:0:
226,185,92292,1,0,0:0:0:0:
259,221,92380,1,0,0:0:0:0:
307,234,92468,1,0,0:0:0:0:
277,274,92556,5,0,0:0:0:0:
228,287,92645,1,0,0:0:0:0:
178,289,92733,1,0,0:0:0:0:
132,268,92821,1,0,0:0:0:0:
152,222,92909,1,0,0:0:0:0:
155,172,92997,1,0,0:0:0:0:
127,129,93086,1,0,0:0:0:0:
87,98,93174,1,0,0:0:0:0:
134,81,93262,5,0,0:0:0:0:
183,70,93351,1,0,0:0:0:0:
231,82,93439,2,0,P|258:83|290:93,1,50
249,190,93615,5,0,0:0:0:0:
206,164,93704,1,0,0:0:0:0:
186,119,93792,2,0,P|179:89|188:57,1,50
314,79,93968,5,0,0:0:0:0:
294,126,94057,1,0,0:0:0:0:
254,157,94145,2,0,P|220:165|186:161,1,50
199,49,94321,5,0,0:0:0:0:
247,63,94410,1,0,0:0:0:0:
282,99,94498,2,0,P|292:126|291:164,1,50
240,224,94674,5,0,0:0:0:0:
194,204,94762,1,0,0:0:0:0:
144,206,94850,1,0,0:0:0:0:
99,230,94939,1,0,0:0:0:0:
134,264,95027,1,0,0:0:0:0:
181,279,95115,1,0,0:0:0:0:
230,275,95203,1,0,0:0:0:0:
277,258,95292,1,0,0:0:0:0:
322,237,95380,5,0,0:0:0:0:
371,233,95468,1,0,0:0:0:0:
418,248,95556,1,0,0:0:0:0:
463,269,95645,1,0,0:0:0:0:
421,296,95733,1,0,0:0:0:0:
371,301,95821,1,0,0:0:0:0:
322,288,95909,1,0,0:0:0:0:
282,257,95997,1,0,0:0:0:0:
280,206,96086,5,0,0:0:0:0:
293,168,96174,1,0,0:0:0:0:
324,143,96262,1,0,0:0:0:0:
362,132,96350,1,0,0:0:0:0:
322,122,96439,5,0,0:0:0:0:
292,117,96527,1,0,0:0:0:0:
265,103,96615,1,0,0:0:0:0:
259,73,96703,1,0,0:0:0:0:
251,43,96792,6,0,L|211:55,1,25
258,81,96880,2,0,L|220:90,1,25
275,120,96968,2,0,L|242:129,1,25
288,162,97056,2,0,L|259:170,1,25
322,201,97145,6,0,L|358:208,1,25
305,243,97233,2,0,L|348:254,1,25
278,287,97321,2,0,L|314:300,1,25
256,327,97409,2,0,L|302:343,1,25
213,363,97497,5,0,0:0:0:0:
182,361,97586,1,0,0:0:0:0:
156,345,97674,1,0,0:0:0:0:
135,323,97762,1,0,0:0:0:0:
165,297,97850,5,0,0:0:0:0:
204,287,97939,1,0,0:0:0:0:
236,264,98027,1,0,0:0:0:0:
249,226,98115,1,0,0:0:0:0:
201,212,98203,5,0,0:0:0:0:
155,191,98292,1,0,0:0:0:0:
118,156,98380,1,0,0:0:0:0:
116,106,98468,1,0,0:0:0:0:
159,89,98556,5,0,0:0:0:0:
172,81,98645,1,0,0:0:0:0:
185,75,98733,1,0,0:0:0:0:
199,69,98821,1,0,0:0:0:0:
241,79,98909,5,0,0:0:0:0:
226,126,98998,1,0,0:0:0:0:
191,162,99086,2,0,P|176:184|151:207,1,50
89,124,99262,5,0,0:0:0:0:
133,99,99351,1,0,0:0:0:0:
182,105,99439,2,0,P|211:113|234:137,1,50
152,235,99615,5,0,0:0:0:0:
122,195,99704,1,0,0:0:0:0:
115,144,99792,2,0,P|125:110|145:83,1,50
236,151,99968,5,0,0:0:0:0:
200,185,100057,1,0,0:0:0:0:
151,198,100145,2,0,P|122:193|90:173,1,50
80,96,100321,5,0,0:0:0:0:
126,78,100409,1,0,0:0:0:0:
175,74,100497,1,0,0:0:0:0:
223,89,100586,1,0,0:0:0:0:
268,69,100674,1,0,0:0:0:0:
311,59,100762,1,0,0:0:0:0:
353,71,100850,1,0,0:0:0:0:
383,104,100939,1,0,0:0:0:0:
366,145,101027,5,0,0:0:0:0:
343,177,101115,1,0,0:0:0:0:
309,197,101203,1,0,0:0:0:0:
270,207,101292,1,0,0:0:0:0:
236,198,101380,1,0,0:0:0:0:
201,193,101468,1,0,0:0:0:0:
166,199,101556,1,0,0:0:0:0:
139,221,101645,1,0,0:0:0:0:
114,245,101733,5,0,3:0:0:0:
304,320,101909,1,0,0:0:0:0:
269,316,101997,1,0,0:0:0:0:
234,322,102086,1,0,0:0:0:0:
400,224,102262,1,0,0:0:0:0:
368,208,102350,1,0,0:0:0:0:
334,196,102439,2,0,L|342:161,1,25
294,197,102527,2,0,L|277:228,1,25
265,168,102615,2,0,L|284:136,1,25
225,157,102703,2,0,L|204:181,1,25
199,119,102792,2,0,L|198:103,16,12.5
368,320,103497,5,0,0:0:0:0:
378,286,103674,1,0,0:0:0:0:
388,252,103850,1,0,0:0:0:0:
400,219,104027,1,0,0:0:0:0:
411,186,104203,1,0,0:0:0:0:
34,138,104556,5,0,0:0:0:0:
184,116,104733,1,0,0:0:0:0:
75,222,104909,1,0,0:0:0:0:
101,72,105086,1,0,0:0:0:0:
168,209,105262,1,0,0:0:0:0:
34,138,105439,1,0,0:0:0:0:
164,90,105615,1,0,0:0:0:0:
140,227,105792,1,0,0:0:0:0:
48,320,105968,5,0,0:0:0:0:
320,224,106321,1,0,0:0:0:0:
338,194,106497,1,0,0:0:0:0:
357,164,106674,1,0,0:0:0:0:
375,134,106850,1,0,0:0:0:0:
393,104,107027,1,0,0:0:0:0:
412,75,107203,1,0,0:0:0:0:
431,45,107380,5,0,0:0:0:0:
160,0,107733,1,0,0:0:0:0:
256,80,108086,1,0,0:0:0:0:
80,144,108262,1,0,0:0:0:0:
176,240,108439,1,0,0:0:0:0:
32,272,108615,1,0,0:0:0:0:
278,310,108792,6,0,P|281:332|278:348,1,33.3333333333333
224,208,109145,1,0,0:0:0:0:
218,230,109321,1,0,0:0:0:0:
211,239,109409,1,0,0:0:0:0:
201,246,109497,1,0,0:0:0:0:
367,201,109674,1,0,0:0:0:0:
360,65,109851,1,0,0:0:0:0:
479,123,110027,1,0,0:0:0:0:
192,96,110203,6,0,P|172:99|160:106,1,33.3333333333333
256,160,110556,1,0,0:0:0:0:
270,178,110733,1,0,0:0:0:0:
272,189,110821,1,0,0:0:0:0:
272,200,110909,1,0,0:0:0:0:
176,288,111086,1,0,0:0:0:0:
172,277,111174,1,0,0:0:0:0:
172,265,111262,1,0,0:0:0:0:
173,253,111350,1,0,0:0:0:0:
176,241,111439,1,0,0:0:0:0:
272,304,111615,5,0,0:0:0:0:
282,308,111703,1,0,0:0:0:0:
293,309,111792,1,0,0:0:0:0:
304,310,111880,1,0,0:0:0:0:
324,302,111968,1,0,0:0:0:0:
345,300,112056,1,0,0:0:0:0:
362,286,112145,1,0,0:0:0:0:
366,264,112233,1,0,0:0:0:0:
388,242,112321,5,0,0:0:0:0:
395,211,112409,1,0,0:0:0:0:
381,182,112497,1,0,0:0:0:0:
359,158,112586,1,0,0:0:0:0:
329,170,112674,1,0,0:0:0:0:
287,174,112762,1,0,0:0:0:0:
250,153,112850,1,0,0:0:0:0:
240,111,112939,1,0,0:0:0:0:
203,90,113027,5,0,0:0:0:0:
153,77,113115,1,0,0:0:0:0:
107,101,113203,1,0,0:0:0:0:
100,152,113292,1,0,0:0:0:0:
116,200,113380,1,0,0:0:0:0:
161,224,113468,1,0,0:0:0:0:
211,214,113556,1,0,0:0:0:0:
244,174,113645,1,0,0:0:0:0:
279,211,113733,5,0,0:0:0:0:
334,236,113821,1,0,0:0:0:0:
395,230,113909,1,0,0:0:0:0:
435,183,113997,1,0,0:0:0:0:
437,120,114086,1,0,0:0:0:0:
404,67,114174,1,0,0:0:0:0:
343,54,114262,1,0,0:0:0:0:
283,67,114350,1,0,0:0:0:0:
225,87,114439,6,0,P|189:142|189:180,1,75.0000028610231
198,208,114703,1,0,0:0:0:0:
416,240,114968,2,0,P|376:216|328:210,1,75.0000028610231
292,232,115233,1,0,0:0:0:0:
177,146,115409,1,0,0:0:0:0:
120,124,115498,2,0,P|84:133|53:154,1,75.0000028610231
80,304,115850,5,0,0:0:0:0:
154,317,115939,1,0,0:0:0:0:
227,305,116027,1,0,0:0:0:0:
279,252,116115,1,0,0:0:0:0:
296,179,116203,1,0,0:0:0:0:
265,109,116292,1,0,0:0:0:0:
196,79,116380,1,0,0:0:0:0:
121,79,116468,1,0,0:0:0:0:
52,109,116556,5,0,0:0:0:0:
122,136,116645,5,0,0:0:0:0:
59,177,116733,5,0,0:0:0:0:
131,197,116821,5,0,0:0:0:0:
70,240,116909,5,0,0:0:0:0:
384,336,117262,6,0,P|337:329|316:296,1,75.0000028610231
384,240,117439,2,0,P|350:215|337:173,1,75.0000028610231
224,48,117615,6,0,P|243:79|245:131,1,75.0000028610231
128,112,117792,2,0,P|143:141|143:199,1,75.0000028610231
80,336,117968,6,0,P|109:318|176:315,1,75.0000028610231
32,256,118145,2,0,P|73:235|107:233,1,75.0000028610231
48,128,118321,5,0,0:0:0:0:
144,80,118409,5,0,0:0:0:0:
240,128,118497,5,0,0:0:0:0:
336,80,118586,5,0,0:0:0:0:
432,128,118674,6,0,P|452:160|452:204,1,75.0000028610231
352,208,118850,2,0,P|364:251|352:290,1,75.0000028610231
240,240,119027,2,0,P|233:208|251:151,1,75.0000028610231
144,128,119203,6,0,P|141:102|147:85,1,37.5000014305115
116,140,119292,2,0,P|107:130|105:92,1,37.5000014305115
96,176,119380,2,0,P|51:168|13:187,1,75.0000028610231
112,272,119556,2,0,P|171:288|190:281,1,75.0000028610231
400,224,119733,6,0,P|379:175|381:146,1,75.0000028610231
352,304,119909,2,0,P|318:265|308:219,1,75.0000028610231
256,352,120086,5,0,0:0:0:0:
145,333,120174,5,0,0:0:0:0:
71,248,120262,5,0,0:0:0:0:
83,136,120350,5,0,0:0:0:0:
172,65,120439,5,0,0:0:0:0:
284,70,120527,5,0,0:0:0:0:
362,149,120615,5,0,0:0:0:0:
354,260,120703,5,0,0:0:0:0:
249,304,120792,6,0,P|217:293|186:247,1,75.0000028610231
288,208,120968,2,0,P|266:166|271:114,1,75.0000028610231
377,147,121145,2,0,P|378:112|406:73,1,75.0000028610231
449,219,121321,2,0,P|464:187|500:167,1,75.0000028610231
480,320,121497,5,0,0:0:0:0:
208,256,121674,6,0,P|252:246|283:221,1,75.0000028610231
192,160,121850,2,0,P|208:133|209:116,1,37.5000014305115
156,143,121939,2,0,P|162:117|160:94,1,37.5000014305115
119,154,122027,2,0,P|102:113|71:91,1,75.0000028610231
32,208,122203,2,0,P|35:231|70:282,1,75.0000028610231
312,327,122380,6,0,L|316:303,4,18.7500007152558
176,128,122556,6,0,L|170:155,8,18.7500007152558
128,176,122821,5,0,0:0:0:0:
96,224,122909,6,0,P|128:260|162:275,1,75.0000028610231
240,208,123086,2,0,P|275:214|330:208,1,75.0000028610231
176,96,123262,6,0,P|161:113|147:166,1,75.0000028610231
48,160,123439,2,0,P|49:200|71:253,1,75.0000028610231
208,336,123615,6,0,P|216:303|208:249,1,75.0000028610231
320,240,123792,2,0,P|318:185|292:144,1,75.0000028610231
224,80,123968,5,0,0:0:0:0:
128,144,124056,5,0,0:0:0:0:
224,208,124145,5,0,0:0:0:0:
128,272,124233,5,0,0:0:0:0:
224,336,124321,6,0,P|222:301|259:258,1,75.0000028610231
96,256,124497,2,0,P|135:221|180:208,1,75.0000028610231
240,144,124674,2,0,P|234:114|246:61,1,75.0000028610231
368,128,124850,6,0,P|378:142|387:173,1,37.5000014305115
341,139,124939,2,0,P|345:159|336:189,1,37.5000014305115
304,128,125027,2,0,P|247:130|219:121,1,75.0000028610231
160,224,125203,2,0,P|122:212|95:186,1,75.0000028610231
96,80,125380,6,0,P|143:57|189:59,1,75.0000028610231
320,96,125556,2,0,L|351:101,4,18.7500007152558
400,208,125733,6,0,P|356:192|320:192,1,75.0000028610231
320,272,125909,2,0,P|288:272|240:288,1,75.0000028610231
64,336,126086,6,0,P|131:330|157:322,1,75.0000028610231
128,240,126262,2,0,P|162:219|193:183,1,75.0000028610231
176,48,126439,6,0,P|146:79|140:114,1,75.0000028610231
256,144,126615,2,0,P|239:175|244:225,1,75.0000028610231
352,192,126792,2,0,P|370:221|402:258,1,75.0000028610231
448,176,126968,2,0,P|480:175|513:134,1,75.0000028610231
432,80,127145,5,0,0:0:0:0:
321,62,127233,5,0,0:0:0:0:
221,113,127321,5,0,0:0:0:0:
179,217,127409,5,0,0:0:0:0:
208,325,127497,5,0,0:0:0:0:
314,364,127586,5,0,0:0:0:0:
421,330,127674,5,0,0:0:0:0:
470,229,127762,5,0,0:0:0:0:
427,125,127850,6,0,L|406:107,4,18.7500007152558
304,240,128027,6,0,L|320:254,4,18.7500007152558
208,96,128203,6,0,L|226:82,8,18.7500007152558
182,116,128468,5,0,0:0:0:0:
142,146,128556,6,0,P|149:176|144:228,1,75.0000028610231
240,176,128733,2,0,P|246:215|229:263,1,75.0000028610231
336,208,128909,2,0,P|333:236|309:288,1,75.0000028610231
416,256,129086,2,0,P|408:292|384:327,1,75.0000028610231
224,336,129262,6,0,P|193:320|168:282,1,75.0000028610231
256,240,129439,2,0,P|220:206|212:169,1,75.0000028610231
304,160,129615,2,0,P|284:130|288:85,1,75.0000028610231
416,64,129792,2,0,P|428:59|460:60,1,37.5000014305115
409,101,129880,2,0,P|435:100|458:115,1,37.5000014305115
392,130,129968,6,0,P|396:172|392:215,1,75.0000028610231
272,160,130145,2,0,P|282:120|278:80,1,75.0000028610231
160,128,130321,2,0,P|162:168|150:214,1,75.0000028610231
64,144,130497,2,0,L|89:116,2,37.5000014305115
32,208,130674,6,0,P|26:250|40:294,1,75.0000028610231
144,256,130850,2,0,P|138:301|156:343,1,75.0000028610231
256,288,131027,2,0,P|264:253|259:207,1,75.0000028610231
224,128,131203,2,0,P|218:104|202:89,1,37.5000014305115
266,131,131292,2,0,P|271:112|267:85,1,37.5000014305115
300,154,131380,6,0,P|325:110|367:79,1,75.0000028610231
368,224,131556,2,0,P|385:193|425:164,1,75.0000028610231
320,304,131733,6,0,P|272:322|232:308,1,75.0000028610231
272,208,131909,2,0,P|224:192|185:198,1,75.0000028610231
64,288,132086,6,0,P|111:279|140:250,1,75.0000028610231
64,192,132262,2,0,P|87:149|84:85,1,75.0000028610231
208,32,132439,6,0,P|201:73|207:122,1,75.0000028610231
320,112,132615,2,0,P|305:159|309:200,1,75.0000028610231
416,208,132792,1,0,0:0:0:0:
240,304,132968,6,0,P|222:261|220:208,1,75.0000028610231
336,208,133145,2,0,P|315:165|310:121,1,75.0000028610231
306,109,133277,1,0,0:0:0:0:
272,80,133321,6,0,P|216:70|182:74,1,75.0000028610231
192,160,133497,2,0,P|136:152|98:156,1,75.0000028610231
208,272,133674,6,0,L|234:281,4,18.7500007152558
320,128,133850,6,0,L|349:117,8,18.7500007152558
256,64,134115,2,0,L|211:63,1,37.5000014305115
184,59,134203,6,0,P|142:54|107:62,1,75.0000028610231
160,176,134380,6,0,P|192:160|216:120,1,75.0000028610231
48,160,134556,6,0,P|50:193|94:235,1,75.0000028610231
192,272,134733,6,0,P|143:272|102:286,1,75.0000028610231
256,320,134909,6,0,P|316:317|355:291,1,75.0000028610231
320,176,135086,6,0,P|304:210|309:258,1,75.0000028610231
448,192,135262,6,0,P|455:149|444:103,1,75.0000028610231
336,32,135439,6,0,P|318:76|323:117,1,75.0000028610231
464,32,135615,5,0,0:0:0:0:
418,134,135703,5,0,0:0:0:0:
325,199,135792,5,0,0:0:0:0:
212,204,135880,5,0,0:0:0:0:
261,103,135968,5,0,0:0:0:0:
332,189,136056,5,0,0:0:0:0:
317,301,136145,5,0,0:0:0:0:
208,331,136233,5,0,0:0:0:0:
125,254,136321,5,0,0:0:0:0:
132,142,136409,5,0,0:0:0:0:
220,73,136497,5,0,0:0:0:0:
332,88,136586,5,0,0:0:0:0:
417,160,136674,5,0,0:0:0:0:
316,208,136762,5,0,0:0:0:0:
413,263,136850,6,0,L|433:273,1,18.7500007152558
391,289,136895,2,0,L|409:305,1,18.7500007152558
356,301,136939,2,0,L|360:330,1,18.7500007152558
318,308,136983,2,0,L|318:341,1,18.7500007152558
277,305,137027,5,0,0:0:0:0:
97,168,137292,5,0,0:0:0:0:
315,115,137556,5,0,0:0:0:0:
185,298,137821,5,0,0:0:0:0:
208,74,138086,5,0,0:0:0:0:
241,219,138262,5,0,0:0:0:0:
334,101,138439,5,0,0:0:0:0:
122,175,138703,5,0,0:0:0:0:
336,244,138968,5,0,0:0:0:0:
149,118,139233,5,0,0:0:0:0:
267,308,139497,5,0,0:0:0:0:
235,160,139674,5,0,0:0:0:0:
256,192,140203,5,0,0:0:0:0:
256,192,140247,12,0,143380,0:0:0:0:
