osu file format v14

[General]
AudioFilename: audio.mp3
AudioLeadIn: 0
PreviewTime: 31056
Countdown: 0
SampleSet: Soft
StackLeniency: 0.7
Mode: 0
LetterboxInBreaks: 0
WidescreenStoryboard: 0

[Editor]
DistanceSpacing: 1.1
BeatDivisor: 3
GridSize: 4
TimelineZoom: 1.8

[Metadata]
Title:Your Number's Up
TitleUnicode:Your Number's Up
Artist:Ice Nine Kills
ArtistUnicode:Ice Nine Kills
Creator:Blitzifyyy
Version:Time to Scream!
Source:
Tags:TheMefisto Nymphe riffy bakari WashedUp Player The Silver Scream Final Cut Bonus Track Horror INK Spencer Charnas Ricky Armellino Patrick Galante Joe Occhiuti Dan Sugarman Justin DeBlieck Sarah J. Bartholomew numbers Metal Metalcore Rock English
BeatmapID:3030161
BeatmapSetID:1476788

[Difficulty]
HPDrainRate:5
CircleSize:4.8
OverallDifficulty:9.3
ApproachRate:9.6
SliderMultiplier:2.6
SliderTickRate:1

[Events]
//Background and Video events
0,0,"367490.jpg",0,0
//Break Periods
//Storyboard Layer 0 (Background)
//Storyboard Layer 1 (Fail)
//Storyboard Layer 2 (Pass)
//Storyboard Layer 3 (Foreground)
//Storyboard Layer 4 (Overlay)
//Storyboard Sound Samples

[TimingPoints]
29642,454.545454545455,4,2,1,70,1,0
31460,404.040404040404,4,2,1,70,1,0
33487,408.163265306122,4,2,1,70,1,0
33895,-210.79258010118,3,2,1,70,0,0
34303,412.371134020618,4,2,1,70,1,0
34715,396.039603960396,4,2,1,70,1,0
34715,-100,4,2,1,70,0,0
37091,-303.030303030303,4,2,1,70,0,0
37883,387.880041632458,4,2,1,70,1,0
37883,-100,4,2,1,70,0,0
39628,393.507132316773,4,2,1,70,1,0
40218,384.615384615385,4,2,1,70,1,0
40218,-303.030303030303,3,2,1,70,0,0
41563,377.358490566038,3,2,1,70,1,0
42129,370.37037037037,4,2,1,70,1,0
42499,384.615384615385,4,2,1,70,1,0
44038,379.746835443038,4,2,1,60,1,0
44038,-100,4,2,1,60,0,0
45177,-66.6666666666667,4,2,1,60,0,0
45746,-181.818181818181,4,2,1,60,0,0
46696,-500,4,2,1,60,0,0
47075,-100,4,2,1,60,0,0
48215,-66.6666666666667,4,2,1,60,0,0
48784,-90.9090909090909,4,2,1,60,0,0
50493,-100,4,2,1,60,0,0
51253,-66.6666666666667,4,2,1,60,0,0
52012,-100,4,2,1,60,0,0
52392,-133.333333333333,4,2,1,60,0,0
52772,-500,4,2,1,60,0,0
53151,-66.6666666666667,4,2,1,80,0,0
56379,-100,4,2,1,65,0,0
57708,-1000,4,2,1,65,0,0
57850,-1000,4,2,1,5,0,0
57897,-100,4,2,1,65,0,0
59227,-1000,4,2,1,65,0,0
59369,-1000,4,2,1,5,0,0
59416,-100,4,2,1,65,0,0
60746,-1000,4,2,1,65,0,0
60888,-1000,4,2,1,5,0,0
60935,-100,4,2,1,65,0,0
62265,-1000,4,2,1,65,0,0
62407,-1000,4,2,1,5,0,0
62454,-100,4,2,1,65,0,0
63784,-111.111111111111,4,2,1,65,0,0
63926,-111.111111111111,4,2,1,5,0,0
63973,-133.333333333333,4,2,1,65,0,0
64116,-133.333333333333,4,2,1,5,0,0
64163,-166.666666666667,4,2,1,65,0,0
64306,-166.666666666667,4,2,1,5,0,0
64353,-222.222222222222,4,2,1,65,0,0
64496,-222.222222222222,4,2,1,5,0,0
64543,-222.222222222222,4,2,1,65,0,0
65303,-66.6666666666667,8,2,1,80,0,1
66442,-149.99925000375,8,2,1,80,0,1
67581,-306.122448667222,8,2,1,80,0,1
68340,-66.6666666666667,8,2,1,80,0,1
69480,-149.99925000375,8,2,1,80,0,1
70619,-303.030303030303,8,2,1,80,0,1
71378,-66.6666666666667,4,2,1,80,0,1
72518,-149.999925000037,4,2,1,80,0,1
77455,-111.111111111111,4,2,1,60,0,0
78594,-76.9230769230769,4,2,1,60,0,0
78973,-111.111111111111,4,2,1,60,0,0
80113,-1000,4,2,1,60,0,0
80492,-111.111111111111,4,2,1,60,0,0
80872,-100,4,2,1,60,0,0
82011,-111.111111111111,4,2,1,60,0,0
83530,-66.6666666666667,4,2,1,80,0,0
86379,-100,4,2,1,80,0,0
86568,-50,4,2,1,70,0,0
88657,-200,4,2,1,70,0,0
89606,-133.333333333333,4,2,1,60,0,0
90318,-133.333333333333,4,2,1,5,0,0
90366,-100,4,2,1,60,0,0
91125,-1000,4,2,1,60,0,0
91695,-1000,4,2,1,5,0,0
91885,-100,4,2,1,60,0,0
92644,-133.333333333333,4,2,1,60,0,0
93356,-133.333333333333,4,2,1,5,0,0
93404,-100,4,2,1,60,0,0
94163,-1000,4,2,1,60,0,0
94828,-1000,4,2,1,5,0,0
94923,-100,4,2,1,60,0,0
95682,-133.333333333333,4,2,1,60,0,0
97391,-100,4,2,1,60,0,0
98720,-133.333333333333,4,2,1,60,0,0
99432,-133.333333333333,4,2,1,5,0,0
99480,-100,4,2,1,60,0,0
100239,-133.333333333333,4,2,1,60,0,0
101948,-100,4,2,1,65,0,0
103277,-1000,4,2,1,65,0,0
103419,-1000,4,2,1,5,0,0
103466,-100,4,2,1,65,0,0
104796,-1000,4,2,1,65,0,0
104938,-1000,4,2,1,5,0,0
104985,-100,4,2,1,65,0,0
106315,-1000,4,2,1,65,0,0
106457,-1000,4,2,1,5,0,0
106504,-100,4,2,1,65,0,0
108023,-100,4,2,1,65,0,0
109353,-111.111111111111,4,2,1,65,0,0
109495,-111.111111111111,4,2,1,5,0,0
109542,-133.333333333333,4,2,1,65,0,0
109685,-133.333333333333,4,2,1,5,0,0
109732,-166.666666666667,4,2,1,65,0,0
109875,-166.666666666667,4,2,1,5,0,0
109922,-222.222222222222,4,2,1,65,0,0
110065,-222.222222222222,4,2,1,5,0,0
110112,-222.222222222222,4,2,1,65,0,0
110873,-66.6666666666667,8,2,1,80,0,1
112011,-153.846153846154,8,2,1,80,0,1
113150,-333.333333333333,8,2,1,80,0,1
113909,-66.6666666666667,4,2,1,80,0,1
115049,-153.846153846153,4,2,1,80,0,1
116188,-333.333333333333,4,2,1,80,0,1
116947,-66.6666666666667,4,2,1,80,0,1
118087,-153.846153846153,4,2,1,80,0,1
122265,-133.333333333333,4,2,1,80,0,0
123025,-200,8,2,1,70,0,1
126539,-200,8,2,1,5,0,1
126634,-166.666666666667,8,2,1,70,0,1
127109,-166.666666666667,8,2,1,5,0,1
127204,-166.666666666667,8,2,1,70,0,1
127868,-166.666666666667,8,2,1,5,0,1
127963,-166.666666666667,8,2,1,70,0,1
128248,-166.666666666667,8,2,2,70,0,1
128341,-666.666666666667,8,2,1,70,0,0
129008,-333.333333333333,8,2,1,5,0,0
129101,-200,8,2,1,70,0,1
129574,-166.666666666667,8,2,1,5,0,1
129669,-200,8,2,1,70,0,1
131283,-166.666666666667,8,2,1,5,0,1
131378,-200,8,2,1,70,0,1
135177,-200,8,2,1,65,0,0
136504,-181.818181818182,8,2,1,65,0,0
137074,-200,8,2,1,65,0,0
139542,-181.818181818182,8,2,1,65,0,0
140112,-200,8,2,1,65,0,0
142580,-181.818181818182,8,2,1,65,0,0
143150,-200,8,2,1,65,0,0
148656,-181.818181818182,8,2,1,65,0,0
149226,-200,8,2,1,65,0,0
151694,-181.818181818182,8,2,1,65,0,0
152264,-200,8,2,1,65,0,0
154732,-181.818181818182,8,2,1,65,0,0
155302,-200,8,2,1,65,0,0
157960,-400,8,2,1,65,0,0
159481,-400,8,2,1,60,0,1
163277,-62.5,4,2,1,60,0,1
163466,-62.5,4,2,1,5,0,1
163561,-200,4,2,1,60,0,1
163751,-200,4,2,1,5,0,1
163846,-200,4,2,1,60,0,1
163941,-200,4,2,1,5,0,1
164038,-43.4782608695652,4,2,1,60,0,1
164291,-200,4,2,1,60,0,1
164795,-200,4,2,1,60,0,1
169352,-45.4545454545455,3,2,1,60,0,1
169542,-45.4545454545455,3,2,1,5,0,1
169637,-200,3,2,1,60,0,1
169827,-200,3,2,1,5,0,1
169922,-200,3,2,1,60,0,1
170016,-200,3,2,1,5,0,1
170111,-50,3,2,1,60,0,1
170301,-50,3,2,1,5,0,1
170396,-200,3,2,1,60,0,1
170586,-200,3,2,1,5,0,1
170681,-400,3,2,1,60,0,1
171063,-400,3,2,1,5,0,0
175618,-400,3,2,2,60,0,0
175808,-400,3,2,2,5,0,0

[Colours]
Combo1 : 228,228,228
Combo2 : 65,65,65
Combo3 : 164,164,164

[HitObjects]
37,96,31232,5,2,0:2:0:0:
0,211,31460,6,0,B|18:228|39:234|59:227|59:227|64:229|64:229|65:224|65:224|92:211|104:185|104:185|121:156|145:146|167:148|167:148|172:145|172:145|173:149|173:149|192:153|210:174,1,260.000009918213,6|2,1:2|0:2,0:0:0:0:
317,230,32066,2,0,B|374:174|376:112|320:60|320:60|304:117|270:127,1,260.000009918213,6|2,1:2|0:2,0:0:0:0:
214,297,32672,2,0,B|289:285|318:230|318:230|346:287|423:306,1,260.000009918213,6|2,1:2|0:2,0:0:0:0:
308,377,33278,1,6,1:2:0:0:
189,269,33480,5,8,0:2:0:0:
175,216,33623,5,8,0:2:0:0:
198,167,33759,5,8,0:2:0:0:
191,113,33895,6,0,B|153:97|106:118|106:118|102:107|102:107|39:137|0:112,1,205.833327836991,10|8,3:0|0:2,0:0:0:0:
39,27,34715,6,0,B|25:8|-5:3|-5:3|106:2|106:2|111:-1|111:-1|210:0,1,260,6|10,1:2|0:2,0:0:0:0:
340,111,35309,2,0,B|400:92|398:21|405:3|405:3|388:14|318:12|291:68,1,260.000009918213,6|10,1:2|0:2,0:0:0:0:
144,211,35903,2,0,B|201:194|201:194|239:207|239:207|273:193|273:193|329:233|402:192,1,260.000009918213,6|0,1:2|0:0,0:0:0:0:
468,1,36497,6,0,B|488:-3|488:-3|512:0,2,43.3333333333333,10|8|8,0:2|0:2|0:2,0:0:0:0:
332,40,36695,1,8,0:2:0:0:
314,40,36761,1,8,0:2:0:0:
296,39,36827,1,8,3:0:0:0:
278,38,36893,1,8,3:0:0:0:
260,38,36959,1,8,3:0:0:0:
242,37,37025,1,8,3:0:0:0:
225,37,37091,6,0,B|242:53|242:53|242:68|242:68|232:84|232:84|231:101|231:101|241:115|241:115|247:132|247:132|239:165,1,128.699999607239,2|0,1:2|1:2,0:0:0:0:
98,165,37883,6,0,B|84:159|77:150|77:150|121:166|172:141|172:141|139:223|139:223|143:229|143:229|144:289,1,260.000009918213,6|0,1:2|0:0,0:0:0:0:
32,375,38464,2,0,B|73:310|143:303|143:303|166:367|250:375,1,260.000009918213,6|2,1:2|0:2,0:0:0:0:
304,224,39046,2,0,P|208:223|285:297,1,260.000009918213,6|0,1:2|0:0,0:0:0:0:
436,185,39628,5,10,0:2:0:0:
344,364,39824,2,0,L|299:362,1,43.3333333333333,8|8,0:2|0:2,0:0:0:0:
456,340,40021,1,0,1:2:0:0:
256,250,40218,6,0,B|207:252|207:252|202:255|202:255|149:257|149:257|175:250,1,128.699999607239,10|10,0:2|3:0,0:0:0:0:
341,337,40987,5,6,1:2:0:0:
207,134,41179,1,2,1:2:0:0:
136,365,41371,5,0,1:2:0:0:
3,148,41563,1,10,0:2:0:0:
125,339,41940,6,0,B|157:345|157:345|188:336,1,65,2|0,1:2|1:2,0:0:0:0:
360,228,42129,5,14,0:2:0:0:
220,31,42314,1,8,0:2:0:0:
4,176,42499,5,10,0:2:0:0:
143,382,42691,1,10,0:2:0:0:
63,381,44038,5,12,0:2:0:0:
5,339,44132,1,0,1:2:0:0:
0,271,44227,1,2,1:2:0:0:
52,222,44322,1,2,1:2:0:0:
122,234,44417,2,0,P|173:244|222:232,1,65,10|0,0:2|0:0,0:0:0:0:
314,149,44607,1,2,1:2:0:0:
345,84,44702,1,2,1:2:0:0:
302,26,44797,6,0,B|270:18|270:18|235:28,1,65,10|0,0:2|0:0,0:0:0:0:
419,180,44987,2,0,B|451:188|451:188|481:179,1,65,2|0,0:2|0:0,0:0:0:0:
235,109,45177,2,0,L|238:212,1,97.50000371933,10|0,0:2|1:2,0:0:0:0:
474,97,45367,2,0,L|477:-6,1,97.50000371933,2|0,1:2|0:0,0:0:0:0:
303,276,45556,5,8,0:2:0:0:
236,300,45650,1,0,1:2:0:0:
169,272,45746,2,0,P|148:269|122:276,1,35.7500010910034,2|0,0:2|0:0,0:0:0:0:
12,163,45936,2,0,P|33:166|59:159,1,35.7500010910034,10|0,0:2|0:0,0:0:0:0:
191,37,46126,1,2,1:2:0:0:
259,37,46220,1,0,1:2:0:0:
327,37,46316,6,0,L|377:36,1,35.7500010910034,10|0,0:2|0:0,0:0:0:0:
478,163,46506,2,0,L|431:163,1,35.7500010910034,2|0,0:2|0:0,0:0:0:0:
317,221,46696,6,0,B|310:231|310:231|307:244|307:244|310:255|310:255|317:262|317:262,1,39,10|0,0:2|0:0,0:0:0:0:
439,384,47075,1,12,0:2:0:0:
403,323,47169,1,0,1:2:0:0:
337,298,47264,1,2,0:2:0:0:
270,318,47359,1,2,0:2:0:0:
229,375,47455,2,0,P|199:384|165:376,1,65,10|0,0:2|0:0,0:0:0:0:
22,286,47645,1,2,1:2:0:0:
28,214,47739,1,0,1:2:0:0:
35,143,47835,6,0,L|106:147,1,65,10|0,0:2|0:0,0:0:0:0:
258,28,48025,2,0,L|187:32,1,65,2|0,0:2|0:0,0:0:0:0:
346,192,48215,2,0,B|359:144|359:144|340:92,1,97.50000371933,10|0,0:2|0:0,0:0:0:0:
197,212,48405,2,0,B|184:260|184:260|203:312,1,97.50000371933,2|0,1:2|0:0,0:0:0:0:
408,384,48594,5,8,0:2:0:0:
464,333,48688,1,0,1:2:0:0:
456,257,48784,2,0,L|372:258,1,71.5000021820069,2|0,0:2|0:0,0:0:0:0:
244,384,48974,2,0,L|284:311,1,71.5000021820069,10|0,0:2|0:0,0:0:0:0:
240,136,49164,2,0,L|282:207,1,71.5000021820069,2|0,1:2|1:2,0:0:0:0:
145,351,49354,5,10,0:2:0:0:
62,374,49449,1,0,1:2:0:0:
0,314,49544,1,10,0:2:0:0:
21,231,49639,1,0,1:2:0:0:
103,207,49734,1,10,0:2:0:0:
185,183,49829,1,0,1:2:0:0:
230,109,49924,2,0,B|239:76|239:76|228:41,1,71.5000021820069,2|0,1:2|1:2,0:0:0:0:
57,63,50114,5,12,0:2:0:0:
89,127,50207,1,0,1:2:0:0:
163,148,50302,1,2,0:2:0:0:
226,115,50397,1,2,0:2:0:0:
281,68,50493,2,0,P|315:58|347:69,1,65,10|0,0:2|0:0,0:0:0:0:
490,192,50683,1,2,1:2:0:0:
512,257,50777,1,0,1:2:0:0:
482,320,50873,6,0,B|448:329|448:329|414:317,1,65,10|0,0:2|0:0,0:0:0:0:
254,201,51063,2,0,B|288:192|288:192|322:204,1,65,2|0,0:2|0:0,0:0:0:0:
215,377,51253,2,0,L|208:266,1,97.50000371933,10|0,0:2|0:0,0:0:0:0:
404,144,51443,2,0,L|397:255,1,97.50000371933,2|0,1:2|0:0,0:0:0:0:
115,384,51632,5,8,0:2:0:0:
110,312,51726,1,0,1:2:0:0:
106,241,51821,1,2,0:2:0:0:
102,169,51916,1,2,0:2:0:0:
98,96,52012,2,0,P|131:88|168:99,1,65,10|0,0:2|0:0,0:0:0:0:
356,207,52202,1,2,1:2:0:0:
421,227,52296,1,0,1:2:0:0:
470,180,52392,6,0,L|465:119,1,48.750001859665,10|0,0:2|0:0,0:0:0:0:
302,0,52582,2,0,L|309:60,1,48.750001859665,2|0,0:2|0:0,0:0:0:0:
230,219,52772,6,0,B|220:222|220:222|210:218|210:218|199:216|199:216|191:222|191:222|186:217,1,39,10|0,0:2|0:0,0:0:0:0:
77,189,53151,6,0,P|55:147|64:100,1,97.50000371933,14|0,0:2|0:0,0:0:0:0:
132,247,53341,1,2,0:2:0:0:
111,322,53436,2,0,P|88:360|22:375,1,97.50000371933,12|2,0:2|1:2,0:0:0:0:
133,246,53626,1,0,1:2:0:0:
208,227,53721,2,0,P|252:227|298:276,1,97.50000371933,14|0,0:2|1:2,0:0:0:0:
132,247,53911,5,2,1:2:0:0:
77,189,54006,2,0,P|55:147|64:100,1,97.50000371933,12|2,0:2|1:2,0:0:0:0:
150,3,54196,1,0,1:2:0:0:
229,0,54291,1,14,0:2:0:0:
243,25,54385,1,8,0:2:0:0:
251,53,54480,1,2,1:2:0:0:
250,82,54575,1,0,1:2:0:0:
242,110,54670,5,0,1:2:0:0:
259,100,54765,1,0,1:2:0:0:
277,95,54860,1,2,1:2:0:0:
297,96,54955,1,0,1:2:0:0:
317,111,55050,5,2,1:2:0:0:
334,122,55145,1,0,1:2:0:0:
355,126,55240,1,2,1:2:0:0:
376,126,55335,1,0,1:2:0:0:
403,105,55430,5,10,0:2:0:0:
422,93,55525,1,0,1:2:0:0:
445,88,55620,1,2,1:2:0:0:
467,88,55715,1,0,1:2:0:0:
486,99,55810,5,10,0:2:0:0:
479,163,55905,1,8,0:2:0:0:
473,228,56000,1,10,0:2:0:0:
467,293,56094,1,8,0:2:0:0:
455,307,56379,6,0,B|426:300|426:300|385:308,1,65,14|0,0:2|0:0,0:0:0:0:
216,368,56569,1,2,0:2:0:0:
146,384,56664,1,0,1:2:0:0:
95,332,56759,1,10,0:2:0:0:
117,264,56854,1,0,0:0:0:0:
167,213,56949,2,0,P|173:182|163:148,1,65,2|0,1:2|0:0,0:0:0:0:
0,0,57139,5,8,0:2:0:0:
41,58,57234,1,0,0:0:0:0:
111,72,57329,1,2,0:2:0:0:
172,35,57424,1,0,1:2:0:0:
236,3,57519,2,0,P|266:-3|307:5,1,65,10|0,0:2|1:2,0:0:0:0:
446,91,57708,6,0,L|445:101,1,9.75,0|0,1:2|0:0,0:0:0:0:
445,119,57898,6,0,L|369:114,1,65,12|0,0:2|0:0,0:0:0:0:
153,10,58088,1,0,0:0:0:0:
81,10,58183,1,0,1:2:0:0:
32,62,58278,1,8,0:2:0:0:
47,131,58373,1,0,0:0:0:0:
93,185,58468,2,0,B|102:217|102:217|94:251,1,65,0|0,1:2|0:0,0:0:0:0:
0,384,58658,5,10,0:2:0:0:
71,381,58752,1,0,0:0:0:0:
142,378,58847,1,2,0:2:0:0:
214,375,58942,1,0,1:2:0:0:
285,372,59038,2,0,P|293:339|284:310,1,65,10|0,0:2|0:0,0:0:0:0:
101,201,59228,6,0,L|102:211,1,9.75,2|0,1:2|0:0,0:0:0:0:
104,224,59417,6,0,L|107:140,1,65,12|0,0:2|0:0,0:0:0:0:
267,0,59607,1,2,0:2:0:0:
335,15,59702,1,0,1:2:0:0:
376,73,59797,1,10,0:2:0:0:
356,141,59892,1,0,0:0:0:0:
291,172,59987,2,0,B|258:177|258:177|217:166,1,65,0|0,1:2|0:0,0:0:0:0:
6,29,60177,5,10,0:2:0:0:
6,100,60272,1,0,0:0:0:0:
6,171,60367,1,0,0:0:0:0:
6,242,60462,1,0,1:2:0:0:
6,313,60557,2,0,P|37:320|70:312,1,65,10|0,0:2|1:2,0:0:0:0:
210,195,60747,6,0,L|221:193,1,9.75,0|0,1:2|0:0,0:0:0:0:
231,191,60936,6,0,P|262:184|294:191,1,65,12|0,0:2|0:0,0:0:0:0:
500,315,61126,1,0,0:0:0:0:
469,380,61221,1,0,1:2:0:0:
397,384,61316,1,8,0:2:0:0:
334,349,61411,1,0,1:2:0:0:
270,316,61506,2,0,B|237:308|237:308|207:317,1,65,0|0,1:2|0:0,0:0:0:0:
31,382,61696,6,0,B|64:390|64:390|94:381,1,65,8|0,0:2|0:0,0:0:0:0:
279,216,61886,1,8,0:2:0:0:
233,160,61981,1,8,0:2:0:0:
162,161,62075,1,8,0:2:0:0:
117,216,62170,1,8,0:2:0:0:
123,285,62266,6,0,P|125:290|124:296,1,9.75,0|0,1:2|0:0,0:0:0:0:
127,306,62455,6,0,P|159:317|190:305,1,65,14|0,0:2|0:0,0:0:0:0:
337,214,62645,1,2,0:2:0:0:
387,163,62740,1,0,1:2:0:0:
389,91,62835,1,10,0:2:0:0:
331,48,62930,1,0,0:0:0:0:
261,64,63025,2,0,P|230:71|193:61,1,65,2|0,1:2|0:0,0:0:0:0:
23,176,63215,6,0,P|54:169|91:179,1,65,10|0,0:2|0:0,0:0:0:0:
261,312,63405,1,2,0:2:0:0:
330,335,63500,1,0,1:2:0:0:
397,308,63595,1,10,0:2:0:0:
416,236,63690,1,0,1:2:0:0:
366,181,63785,6,0,L|269:184,1,87.7499973220826,10|0,0:2|0:0,0:0:0:0:
243,211,63974,6,0,L|157:207,1,73.1250027894975,2|0,1:2|0:0,0:0:0:0:
138,178,64164,6,0,P|130:146|139:116,1,58.4999982147217,2|0,1:2|0:0,0:0:0:0:
169,91,64354,6,0,P|173:68|165:46,1,43.8749986610413,2|0,1:2|0:0,0:0:0:0:
131,22,64544,5,10,0:2:0:0:
125,27,64592,5,8,0:2:0:0:
249,243,65303,6,0,B|232:237|204:253|204:253|240:171|330:210,1,195.00000743866,14|0,0:2|1:2,0:0:0:0:
502,358,65682,1,2,1:2:0:0:
374,130,65872,1,10,0:2:0:0:
299,378,66062,1,0,1:2:0:0:
503,216,66252,1,2,1:2:0:0:
258,204,66442,6,0,B|218:178|165:213|194:213|139:247|92:226,1,173.333333333333,10|2,0:2|0:2,0:0:0:0:
0,88,67011,1,2,1:2:0:0:
130,152,67202,2,0,B|140:111|140:111|126:70,1,86.6666666666667,0|0,1:2|0:0,0:0:0:0:
15,194,67581,6,0,B|-1:224|17:267|17:267|8:288|8:288|18:308|18:308|16:321,1,127.400005183919,10|0,0:2|0:0,0:0:0:0:
250,379,68341,6,0,B|209:360|165:386|165:386|157:377|157:377|122:401|66:380,1,195.00000743866,14|0,0:2|1:2,0:0:0:0:
11,137,68720,1,10,3:0:0:0:
254,229,68910,1,10,0:2:0:0:
25,351,69100,1,0,1:2:0:0:
99,101,69290,1,2,1:2:0:0:
247,307,69480,6,0,B|281:309|302:294|302:294|319:317|348:321|348:321|372:303|415:307,1,173.334197324185,10|0,0:2|0:0,0:0:0:0:
512,384,70049,1,10,0:2:0:0:
397,232,70239,1,8,0:2:0:0:
490,110,70429,1,0,1:2:0:0:
418,42,70620,6,0,B|404:34|404:34|391:32|391:32|380:35|380:35|372:46|372:46|367:59|367:59|356:68|356:68|343:71|343:71|329:68|329:68|319:58|319:58|314:49,1,128.699999607239,10|0,3:0|1:2,0:0:0:0:
136,0,71379,6,0,B|147:21|166:30|166:30|178:60|155:91|155:91|156:98|156:98|132:124|146:176,1,195.00000743866,14|2,0:2|1:2,0:0:0:0:
238,384,71758,1,0,1:2:0:0:
21,238,71948,1,10,0:2:0:0:
270,168,72138,1,0,1:2:0:0:
104,369,72328,1,2,1:2:0:0:
18,124,72518,6,0,B|57:110|57:110|75:124|98:124|98:124|133:104|185:119,1,173.333333333333,10|0,0:2|0:0,0:0:0:0:
319,221,73087,1,10,0:2:0:0:
212,23,73277,1,8,0:2:0:0:
151,194,73467,1,0,1:2:0:0:
50,118,73657,5,2,0:2:0:0:
180,222,73847,1,8,0:2:0:0:
113,26,74037,1,10,0:2:0:0:
40,256,74227,1,10,3:0:0:0:
47,280,74321,1,8,3:0:0:0:
55,306,74416,5,6,1:2:0:0:
164,70,74606,1,6,1:2:0:0:
274,298,74796,5,4,1:2:0:0:
357,51,74986,1,10,0:2:0:0:
345,70,75367,5,10,0:2:0:0:
221,26,75557,5,6,1:2:0:0:
392,244,75747,1,4,1:2:0:0:
153,383,75936,5,6,1:2:0:0:
2,149,76126,1,10,0:2:0:0:
213,369,77455,5,12,0:2:0:0:
143,384,77550,1,2,1:2:0:0:
87,340,77645,1,2,0:2:0:0:
87,268,77740,1,2,0:2:0:0:
143,224,77835,2,0,P|154:189|145:155,1,58.4999982147217,10|0,0:2|0:0,0:0:0:0:
0,0,78025,1,2,1:2:0:0:
52,48,78120,1,2,1:2:0:0:
123,39,78215,6,0,P|153:30|190:34,1,58.4999982147217,10|0,0:2|0:0,0:0:0:0:
297,157,78405,2,0,P|267:166|230:162,1,58.4999982147217,2|0,0:2|0:0,0:0:0:0:
379,0,78594,2,0,L|374:95,1,84.4999961318971,10|0,0:2|0:0,0:0:0:0:
512,220,78784,2,0,L|507:125,1,84.4999961318971,2|0,1:2|0:0,0:0:0:0:
282,257,78973,5,12,0:2:0:0:
342,222,79069,1,0,1:2:0:0:
407,245,79164,1,2,0:2:0:0:
434,309,79259,1,0,0:0:0:0:
403,371,79354,2,0,L|328:369,1,58.4999982147217,10|0,0:2|0:0,0:0:0:0:
194,339,79543,1,2,1:2:0:0:
122,344,79638,1,0,1:2:0:0:
50,348,79734,6,0,P|40:320|49:277,1,58.4999982147217,10|0,0:2|0:0,0:0:0:0:
152,164,79924,2,0,P|162:192|153:235,1,58.4999982147217,2|0,0:2|0:0,0:0:0:0:
18,82,80113,6,0,B|24:80|24:80|27:83|27:83|32:79|32:79|37:83|37:83,1,19.5,10|0,0:2|0:0,0:0:0:0:
69,69,80492,5,12,0:2:0:0:
110,127,80587,1,0,1:2:0:0:
103,198,80682,1,2,0:2:0:0:
64,258,80777,1,0,0:2:0:0:
99,320,80872,5,10,0:2:0:0:
99,320,80968,2,0,B|135:329|165:315|165:315|197:300|234:316,1,130,0|0,0:2|1:2,0:0:0:0:
338,364,81252,1,10,0:2:0:0:
338,364,81348,2,0,B|343:384|343:384|385:341|341:271,1,130,2|0,0:2|0:0,0:0:0:0:
244,213,81632,1,10,0:2:0:0:
244,213,81727,2,0,B|214:221|214:221|190:213|190:213|158:230|118:216,1,130,2|0,0:2|0:0,0:0:0:0:
9,109,82011,5,12,0:2:0:0:
11,38,82106,1,0,1:2:0:0:
74,6,82201,1,2,0:2:0:0:
140,32,82296,1,0,0:0:0:0:
193,79,82392,2,0,P|225:87|262:78,1,58.4999982147217,10|0,0:2|0:0,0:0:0:0:
418,1,82582,2,0,P|384:-7|349:2,1,58.4999982147217,2|0,1:2|1:2,0:0:0:0:
490,246,82771,5,10,0:2:0:0:
492,174,82867,1,0,1:2:0:0:
495,103,82962,1,2,1:2:0:0:
498,31,83055,1,0,1:2:0:0:
60,360,83531,6,0,B|47:311|47:311|60:256,1,97.50000371933,6|8,1:2|0:0,0:0:0:0:
229,74,83721,2,0,B|241:122|241:122|228:177,1,97.50000371933,2|8,1:2|0:0,0:0:0:0:
0,136,83911,2,0,B|48:123|48:123|103:136,1,97.50000371933,2|8,1:2|0:0,0:0:0:0:
285,306,84101,2,0,B|236:318|236:318|181:305,1,97.50000371933,2|8,1:2|0:0,0:0:0:0:
391,122,84291,5,2,1:2:0:0:
453,91,84386,1,8,0:0:0:0:
512,131,84481,1,2,1:2:0:0:
506,203,84576,1,8,0:0:0:0:
442,232,84671,1,2,1:2:0:0:
382,192,84766,1,8,0:0:0:0:
321,155,84861,1,2,1:2:0:0:
256,175,84956,1,8,0:0:0:0:
202,223,85051,5,2,1:2:0:0:
140,258,85145,1,8,0:0:0:0:
77,224,85240,1,2,1:2:0:0:
76,152,85335,1,8,0:0:0:0:
137,115,85430,1,2,1:2:0:0:
199,150,85525,1,8,0:0:0:0:
202,223,85620,1,0,1:2:0:0:
158,289,85715,1,8,0:0:0:0:
199,358,85810,5,10,0:3:0:0:
273,361,85905,1,8,0:3:0:0:
317,297,86000,1,0,1:2:0:0:
283,225,86095,1,0,1:2:0:0:
202,223,86190,1,8,0:0:0:0:
202,223,86380,6,0,B|197:198|197:198|212:183|190:186|203:172|203:172|204:158,1,65,2|0,0:2|0:0,0:0:0:0:
140,19,86569,5,12,1:2:0:0:
62,0,86664,1,0,1:2:0:0:
0,50,86759,1,10,1:2:0:0:
0,129,86854,1,0,1:2:0:0:
62,177,86949,1,10,1:2:0:0:
134,206,87044,1,0,1:2:0:0:
196,255,87139,1,10,1:2:0:0:
196,334,87234,1,0,1:2:0:0:
134,383,87329,5,10,1:2:0:0:
58,365,87424,1,0,1:2:0:0:
22,295,87519,1,8,1:2:0:0:
56,224,87614,1,0,1:2:0:0:
132,205,87709,1,10,1:2:0:0:
196,255,87804,1,0,1:2:0:0:
260,304,87899,1,2,1:2:0:0:
336,286,87994,1,0,1:2:0:0:
370,214,88089,5,10,0:0:0:0:
278,161,88183,1,8,0:0:0:0:
187,213,88278,1,10,0:0:0:0:
187,318,88373,1,0,1:2:0:0:
278,371,88468,1,10,0:0:0:0:
369,318,88563,1,0,1:2:0:0:
281,257,88658,6,0,B|269:263|269:263|281:268|281:268|270:275|270:275,2,21.6666666666667,0|0|0,1:2|1:2|1:2,0:0:0:0:
58,376,89607,5,4,1:2:0:0:
56,359,89671,1,0,1:2:0:0:
55,343,89734,1,0,1:2:0:0:
51,327,89797,1,0,1:2:0:0:
50,310,89861,1,0,1:2:0:0:
49,294,89924,1,0,1:2:0:0:
64,255,89987,6,0,B|80:244|80:244|102:243|102:243|119:254|119:254|136:277|136:277|158:278|158:278|180:270|180:270|196:256|196:256|196:237,1,170.625006508827,0|0,1:2|0:0,0:0:0:0:
222,173,90367,6,0,P|192:165|166:172,1,32.5,12|0,0:2|0:0,0:0:0:0:
336,125,90557,2,0,P|357:103|365:61,1,65,0|0,1:2|0:0,0:0:0:0:
320,247,90747,2,0,P|328:276|360:304,1,65,0|0,1:2|0:0,0:0:0:0:
504,375,91126,6,0,B|485:366|485:366|463:374,1,39,4|0,0:2|0:0,0:0:0:0:
361,367,91886,5,8,0:2:0:0:
329,374,91949,1,0,1:2:0:0:
303,353,92012,1,0,1:2:0:0:
303,321,92076,1,0,1:2:0:0:
329,301,92139,1,0,1:2:0:0:
361,308,92202,1,0,1:2:0:0:
382,340,92266,5,0,1:2:0:0:
369,376,92329,1,0,1:2:0:0:
330,382,92392,1,0,1:2:0:0:
297,360,92455,1,0,1:2:0:0:
266,335,92519,1,0,1:2:0:0:
228,326,92582,1,0,1:2:0:0:
193,344,92645,6,0,B|173:354|166:375|166:375|115:311|146:263|160:247|160:247|154:252|217:197|154:119|154:119|146:139|127:150,1,365.625013947487,4|0,1:2|0:0,0:0:0:0:
68,185,93405,6,0,P|56:155|62:131,1,32.5,12|0,0:2|0:0,0:0:0:0:
51,311,93595,2,0,P|31:336|-5:342,1,65,0|0,1:2|0:0,0:0:0:0:
168,262,93785,2,0,P|200:267|223:295,1,65,0|0,1:2|0:0,0:0:0:0:
384,384,94164,6,0,B|388:361|388:361|384:340,1,45.5,4|0,0:2|0:0,0:0:0:0:
312,281,94924,5,8,0:2:0:0:
250,237,95019,1,8,0:2:0:0:
256,162,95114,1,0,1:2:0:0:
325,131,95209,1,0,1:2:0:0:
386,174,95304,1,0,1:2:0:0:
379,248,95398,1,0,1:2:0:0:
305,288,95493,5,8,0:2:0:0:
287,290,95557,5,8,0:2:0:0:
269,291,95620,5,8,0:2:0:0:
256,291,95683,6,0,B|62:296|259:299|63:304|63:304|14:317|-32:257|11:194|68:200|90:234,1,390.00001487732,4|4,1:2|0:2,0:0:0:0:
228,371,96823,5,8,0:2:0:0:
293,338,96949,5,8,0:2:0:0:
347,384,97076,5,8,0:2:0:0:
414,360,97202,5,12,0:2:0:0:
316,223,97392,6,0,B|279:214|279:214|239:227,1,65,0|0,1:2|0:0,0:0:0:0:
411,330,97582,2,0,B|422:367|422:367|453:395,1,65,0|0,1:2|0:0,0:0:0:0:
457,193,97772,2,0,B|477:175|477:175|485:150,1,32.5,8|0,0:2|0:0,0:0:0:0:
317,89,97962,5,0,1:2:0:0:
295,90,98025,1,0,1:2:0:0:
273,91,98088,1,0,1:2:0:0:
252,93,98151,1,0,1:2:0:0:
230,94,98215,1,0,1:2:0:0:
208,96,98278,1,0,1:2:0:0:
186,108,98342,5,0,1:2:0:0:
142,105,98405,1,0,1:2:0:0:
116,70,98468,1,0,1:2:0:0:
127,29,98531,1,8,0:2:0:0:
167,11,98595,1,0,1:2:0:0:
206,31,98658,1,0,1:2:0:0:
213,74,98721,6,0,B|183:92|180:131|205:161|205:161|225:190|219:230|194:255|194:255|157:294|83:275|83:198,1,365.625013947487,4|0,1:2|0:0,0:0:0:0:
53,135,99481,6,0,B|85:127|85:127|117:135,1,65,4|0,0:2|0:0,0:0:0:0:
25,320,99671,2,0,B|7:300|7:300|-4:263,1,65,0|0,1:2|0:0,0:0:0:0:
199,251,99861,2,0,B|189:281|189:281|166:307,1,65,0|0,1:2|0:0,0:0:0:0:
107,36,100240,6,0,L|175:43,1,48.750001859665,8|0,0:2|0:0,0:0:0:0:
247,125,100430,1,0,1:2:0:0:
302,175,100525,2,0,L|370:168,1,48.750001859665,8|0,0:2|0:0,0:0:0:0:
435,90,100715,1,8,0:2:0:0:
481,147,100810,6,0,P|497:145|514:150,2,32.5000012397767,0|0|0,1:2|1:2|1:2,0:0:0:0:
463,163,101000,5,8,0:2:0:0:
414,222,101095,1,8,0:2:0:0:
343,202,101190,1,0,1:2:0:0:
324,132,101285,1,0,1:2:0:0:
305,62,101379,1,2,1:2:0:0:
234,42,101474,1,0,1:2:0:0:
181,94,101569,6,0,L|181:136,2,32.5000012397767,10|8|8,0:2|0:2|0:2,0:0:0:0:
192,111,101949,6,0,B|199:143|199:143|190:186,1,65,12|0,0:2|0:0,0:0:0:0:
56,377,102140,1,2,0:2:0:0:
80,309,102234,1,0,1:2:0:0:
147,286,102329,1,8,0:2:0:0:
207,325,102424,1,0,0:0:0:0:
259,373,102519,2,0,P|293:380|323:373,1,65,2|0,1:2|0:0,0:0:0:0:
470,292,102709,5,8,0:2:0:0:
501,228,102804,1,0,0:0:0:0:
470,164,102899,1,2,0:2:0:0:
400,148,102994,1,0,1:2:0:0:
332,170,103089,1,10,0:2:0:0:
262,154,103184,1,0,1:2:0:0:
231,90,103279,6,0,L|231:80,1,9.75,0|0,1:2|0:0,0:0:0:0:
231,44,103468,6,0,B|263:35|263:35|308:42,1,65,12|0,0:2|0:0,0:0:0:0:
115,153,103658,2,0,B|91:129|91:129|74:87,1,65,0|0,0:0|1:2,0:0:0:0:
267,198,103848,2,0,B|258:230|258:230|230:265,1,65,8|0,0:2|1:2,0:0:0:0:
36,382,104038,1,2,1:2:0:0:
78,324,104133,1,0,0:0:0:0:
147,305,104228,1,8,0:2:0:0:
214,330,104323,1,0,0:0:0:0:
259,384,104418,5,2,0:2:0:0:
194,352,104513,1,0,1:2:0:0:
187,280,104608,1,8,0:2:0:0:
230,223,104703,1,0,1:2:0:0:
302,205,104798,6,0,L|311:205,1,9.75,2|0,1:2|0:0,0:0:0:0:
324,203,104987,6,0,P|332:168|322:132,1,65,14|0,0:2|0:0,0:0:0:0:
165,0,105177,1,0,0:2:0:0:
93,1,105272,1,0,1:2:0:0:
49,60,105367,2,0,P|38:93|47:132,1,65,10|0,0:2|0:0,0:0:0:0:
143,299,105557,5,0,1:2:0:0:
214,293,105652,1,0,0:0:0:0:
285,288,105747,2,0,L|357:284,1,65,10|0,0:2|0:0,0:0:0:0:
496,177,105937,5,0,0:0:0:0:
512,107,106032,1,0,1:2:0:0:
461,56,106127,1,10,0:2:0:0:
389,64,106222,1,0,1:2:0:0:
350,121,106317,6,0,L|350:132,1,9.75,0|0,1:2|0:0,0:0:0:0:
361,148,106506,6,0,L|355:223,1,65,12|0,0:2|0:0,0:0:0:0:
255,367,106696,1,0,0:0:0:0:
185,382,106791,1,0,1:2:0:0:
129,338,106886,1,8,0:2:0:0:
129,266,106981,1,0,0:0:0:0:
174,211,107076,2,0,P|183:173|171:139,1,65,0|0,1:2|0:0,0:0:0:0:
18,28,107266,6,0,P|8:65|20:99,1,65,8|0,0:2|0:0,0:0:0:0:
205,296,107456,1,8,0:2:0:0:
276,293,107550,1,8,0:2:0:0:
347,290,107645,1,8,0:2:0:0:
419,287,107740,1,8,0:2:0:0:
433,269,108025,6,0,P|442:237|431:200,1,65,12|0,0:2|0:0,0:0:0:0:
280,76,108215,1,2,0:2:0:0:
208,74,108310,1,0,1:2:0:0:
169,134,108405,1,10,0:2:0:0:
194,200,108500,1,0,0:0:0:0:
240,253,108595,6,0,P|250:285|242:316,1,65,2|0,1:2|0:0,0:0:0:0:
56,215,108785,2,0,P|78:190|109:181,1,65,10|0,0:2|0:0,0:0:0:0:
91,384,108975,2,0,P|58:376|35:354,1,65,2|0,0:2|1:2,0:0:0:0:
0,165,109165,1,10,0:2:0:0:
5,93,109260,1,8,0:2:0:0:
9,21,109355,6,0,B|40:13|40:13|95:30,1,87.7499973220826,8|0,0:2|0:0,0:0:0:0:
113,58,109544,6,0,B|143:68|143:68|199:56,1,73.1250027894975,2|0,1:2|0:0,0:0:0:0:
206,34,109734,6,0,B|229:26|229:26|270:35,1,58.4999982147217,2|0,1:2|0:0,0:0:0:0:
289,62,109924,6,0,L|286:111,1,43.8749986610413,2|0,1:2|0:0,0:0:0:0:
285,142,110114,5,10,0:2:0:0:
186,266,110873,6,0,B|235:299|281:244|281:244|351:256|324:321,1,195.00000743866,14|0,0:2|1:2,0:0:0:0:
114,134,111252,1,2,1:2:0:0:
209,376,111442,1,10,0:2:0:0:
294,131,111632,1,0,1:2:0:0:
80,279,111822,1,2,1:2:0:0:
320,341,112012,6,0,B|396:330|476:344|319:345|397:366|476:350,1,168.999992263794,10|2,0:2|0:2,0:0:0:0:
344,227,112581,1,2,1:2:0:0:
229,363,112772,2,0,L|225:276,1,84.4999961318971,0|0,1:2|0:0,0:0:0:0:
78,113,113151,6,0,B|68:137|68:137|68:154|68:154|78:166|78:166|78:178|78:178|73:187|73:187|73:203|73:203|78:212|78:212|76:238,1,116.999996429443,10|0,0:2|0:0,0:0:0:0:
327,108,113911,6,0,B|275:105|240:139|240:139|203:103|149:105,1,195.00000743866,14|0,0:2|1:2,0:0:0:0:
361,276,114290,1,10,3:0:0:0:
242,43,114480,1,10,0:2:0:0:
135,273,114670,1,0,1:2:0:0:
381,187,114860,1,2,1:2:0:0:
151,67,115050,6,0,B|134:56|128:31|128:31|84:93|121:158,1,168.999992263794,10|0,0:2|0:0,0:0:0:0:
231,323,115619,1,10,0:2:0:0:
383,208,115809,1,8,0:2:0:0:
505,301,115999,1,0,1:2:0:0:
444,373,116189,6,0,B|425:364|425:364|406:368|386:363|386:363|371:358|371:358|358:367|358:367|343:375|325:372,1,116.999996429443,10|0,3:0|1:2,0:0:0:0:
108,316,116949,6,0,B|146:317|163:270|162:237|162:237|172:282|220:302,1,195.00000743866,14|2,0:2|1:2,0:0:0:0:
411,144,117328,1,0,1:2:0:0:
263,358,117518,1,10,0:2:0:0:
172,115,117708,1,0,1:2:0:0:
392,253,117898,1,2,1:2:0:0:
158,365,118088,6,0,B|135:384|98:375|98:375|59:323|93:269,1,168.999992263794,10|0,0:2|0:0,0:0:0:0:
274,129,118657,1,10,0:2:0:0:
122,14,118847,1,8,0:2:0:0:
0,107,119037,1,0,1:2:0:0:
82,180,119227,5,2,0:2:0:0:
221,50,119417,1,8,0:2:0:0:
33,29,119607,1,10,0:2:0:0:
193,180,119797,1,10,3:0:0:0:
228,218,119891,1,8,3:0:0:0:
224,269,119986,5,6,1:2:0:0:
141,22,120176,1,6,1:2:0:0:
443,277,120366,5,4,1:2:0:0:
334,41,120556,1,10,0:2:0:0:
320,62,120936,5,10,0:2:0:0:
145,0,121126,5,6,1:2:0:0:
90,272,121316,1,4,1:2:0:0:
360,328,121505,5,6,1:2:0:0:
415,56,121695,1,10,0:2:0:0:
388,68,122075,5,2,1:2:0:0:
488,233,122265,6,0,L|491:168,1,48.750001859665,10|0,0:2|0:0,0:0:0:0:
509,254,122455,2,0,L|512:189,1,48.750001859665,0|0,1:2|0:0,0:0:0:0:
348,362,122645,6,0,L|344:297,1,48.750001859665,10|0,0:2|0:0,0:0:0:0:
326,384,122835,2,0,L|322:319,1,48.750001859665,8|0,0:2|0:0,0:0:0:0:
287,88,123025,6,0,B|253:71|229:77|208:118|225:116|197:161|164:170|125:145,1,195,6|2,1:2|1:2,0:0:0:0:
0,53,123784,1,8,0:2:0:0:
0,53,124164,6,0,B|20:33|17:5|17:5|73:73|18:156,1,195,6|0,1:2|0:0,0:0:0:0:
22,269,124924,2,0,P|10:240|49:234,1,65,2|0,1:2|0:0,0:0:0:0:
138,321,125304,5,10,0:2:0:0:
236,221,125494,1,8,3:0:0:0:
318,289,125684,1,2,1:2:0:0:
270,354,125874,1,0,1:2:0:0:
144,234,126063,6,0,B|104:165|104:165|127:77,1,162.5,6|0,1:2|0:0,0:0:0:0:
151,21,126632,1,2,1:2:0:0:
287,109,126823,2,0,B|323:122|323:122|401:95,1,116.999996429443,8|0,0:2|0:0,0:0:0:0:
447,44,127203,6,0,B|426:29|401:39|400:71|427:95|427:95|452:124|430:170,1,155.999995239258,6|0,1:2|0:0,0:0:0:0:
379,208,127772,2,0,L|328:201,1,38.9999988098145,0|0,1:2|0:0,0:0:0:0:
194,179,127962,1,0,1:2:0:0:
202,192,128247,5,2,0:0:0:0:
202,192,128342,2,0,B|199:202|199:202|203:210|203:210|198:216|198:216|190:215|190:215|179:217|179:217|171:215|171:215|158:217,1,68.2499979171754,2|0,0:0|0:0,0:0:0:0:
83,186,129101,6,0,B|58:242|58:242|95:273|75:340,1,162.5,6|0,1:2|0:0,0:0:0:0:
22,383,129670,1,2,1:2:0:0:
159,309,129860,1,10,0:2:0:0:
229,372,130050,1,0,0:0:0:0:
372,281,130240,6,0,B|355:274|355:274|342:260|342:260|243:284,1,130,6|2,1:2|0:0,0:0:0:0:
452,384,130809,1,2,0:2:0:0:
452,384,131000,2,0,L|459:266,1,97.5,0|0,1:2|0:0,0:0:0:0:
456,218,131379,1,8,0:2:0:0:
311,297,131569,1,8,3:0:0:0:
202,223,131759,1,2,1:2:0:0:
304,181,131949,1,2,1:2:0:0:
205,333,132138,5,14,0:2:0:0:
120,90,132328,1,2,1:2:0:0:
396,260,132518,5,0,1:2:0:0:
311,17,132708,1,10,0:2:0:0:
294,40,133088,5,14,0:2:0:0:
462,37,133278,5,2,1:2:0:0:
304,265,133469,1,8,3:0:0:0:
53,229,133657,5,2,1:2:0:0:
211,1,133848,1,10,0:2:0:0:
165,10,134227,5,8,0:2:0:0:
141,11,134290,1,8,0:2:0:0:
119,11,134354,1,8,0:2:0:0:
101,12,134417,5,10,0:2:0:0:
148,57,134543,5,8,0:2:0:0:
135,123,134670,5,8,3:0:0:0:
75,148,134797,5,10,3:0:0:0:
16,175,134923,5,8,3:0:0:0:
2,240,135050,5,0,1:2:0:0:
48,286,135177,6,0,L|133:284,1,65,6|0,1:2|1:2,0:0:0:0:
217,229,135557,2,0,L|281:230,1,65,0|0,1:2|1:2,0:0:0:0:
401,309,135936,1,8,1:2:0:0:
414,225,136126,1,0,1:2:0:0:
427,141,136316,1,0,1:2:0:0:
441,57,136506,6,0,B|369:38|378:92|304:85,1,143.000004364014,0|0,1:2|1:2,0:0:0:0:
189,21,137075,1,0,1:2:0:0:
105,28,137265,1,0,1:2:0:0:
69,104,137455,1,8,1:2:0:0:
118,173,137645,1,0,1:2:0:0:
166,242,137835,1,0,1:2:0:0:
130,319,138025,1,8,1:2:0:0:
47,326,138215,6,0,B|35:295|35:295|43:260,1,65,4|0,1:2|1:2,0:0:0:0:
109,184,138595,2,0,B|114:151|114:151|100:118,1,65,0|0,1:2|1:2,0:0:0:0:
9,14,138974,1,8,1:2:0:0:
88,42,139164,1,0,1:2:0:0:
165,7,139354,1,0,1:2:0:0:
228,62,139544,6,0,B|223:210|232:62|227:210,1,143.000004364014,0|0,1:2|1:2,0:0:0:0:
135,301,140114,1,0,1:2:0:0:
50,301,140304,1,0,1:2:0:0:
8,228,140494,1,8,1:2:0:0:
50,155,140684,1,0,1:2:0:0:
135,155,140874,1,0,1:2:0:0:
177,228,141063,1,8,1:2:0:0:
176,244,141158,1,8,1:2:0:0:
176,259,141253,6,0,L|175:324,1,65,4|0,1:2|1:2,0:0:0:0:
86,380,141633,2,0,B|58:388|58:388|25:374,1,65,0|0,1:2|1:2,0:0:0:0:
19,230,142013,1,8,1:2:0:0:
90,237,142203,1,0,1:2:0:0:
161,243,142392,1,0,1:2:0:0:
232,249,142582,6,0,B|256:252|277:239|277:239|292:254|310:257|310:257|333:246|366:251,1,143.000004364014,0|0,1:2|1:2,0:0:0:0:
488,198,143152,1,0,1:2:0:0:
488,94,143341,1,0,1:2:0:0:
389,62,143531,1,8,1:2:0:0:
328,146,143721,1,0,1:2:0:0:
389,230,143911,1,0,1:2:0:0:
328,314,144101,1,8,1:2:0:0:
228,287,144290,5,12,1:2:0:0:
421,310,144480,1,0,1:2:0:0:
313,147,144670,1,0,1:2:0:0:
330,347,144860,5,8,1:2:0:0:
437,176,145050,1,0,1:2:0:0:
236,192,145240,1,0,1:2:0:0:
414,298,145430,5,8,1:2:0:0:
391,92,145619,1,0,1:2:0:0:
276,265,145809,1,0,1:2:0:0:
231,55,145999,5,8,1:2:0:0:
412,169,146189,1,0,1:2:0:0:
229,282,146379,1,0,1:2:0:0:
196,278,146474,1,0,1:2:0:0:
163,274,146569,5,8,1:2:0:0:
261,54,146759,1,8,1:2:0:0:
479,138,146949,1,8,1:2:0:0:
391,353,147138,1,8,1:2:0:0:
359,360,147233,1,8,0:0:0:0:
327,367,147329,6,0,L|258:362,1,65,6|0,1:2|1:2,0:0:0:0:
172,307,147709,2,0,B|166:273|166:273|177:238,1,65,0|0,1:2|1:2,0:0:0:0:
230,111,148088,1,8,1:2:0:0:
154,148,148278,1,0,1:2:0:0:
83,101,148468,1,0,1:2:0:0:
106,20,148658,6,0,B|135:25|167:16|167:16|177:20|177:20|206:4|245:15,1,143.000004364014,0|0,1:2|1:2,0:0:0:0:
364,72,149227,1,0,1:2:0:0:
415,139,149417,1,0,1:2:0:0:
385,218,149607,1,8,1:2:0:0:
320,272,149797,1,0,1:2:0:0:
335,355,149987,1,0,1:2:0:0:
359,376,150081,1,0,1:2:0:0:
391,384,150176,1,8,1:2:0:0:
422,378,150271,1,0,1:2:0:0:
448,360,150367,6,0,P|458:329|449:297,1,65,4|0,1:2|1:2,0:0:0:0:
397,231,150747,2,0,P|387:200|396:168,1,65,0|0,1:2|1:2,0:0:0:0:
445,34,151126,1,8,1:2:0:0:
373,78,151316,1,0,1:2:0:0:
302,31,151506,1,0,1:2:0:0:
238,85,151696,6,0,B|225:115|225:115|233:137|233:137|217:182|233:223,1,143.000004364014,0|0,1:2|1:2,0:0:0:0:
321,324,152265,1,0,1:2:0:0:
250,371,152455,1,0,1:2:0:0:
183,319,152645,1,8,1:2:0:0:
156,301,152741,1,0,1:2:0:0:
124,302,152836,1,0,1:2:0:0:
98,322,152930,1,0,1:2:0:0:
88,352,153025,5,0,1:2:0:0:
86,313,153120,1,0,1:2:0:0:
84,274,153215,1,8,1:2:0:0:
81,235,153310,1,8,1:2:0:0:
79,193,153405,6,0,B|112:183|112:183|149:191,1,65,4|0,1:2|1:2,0:0:0:0:
213,234,153785,2,0,B|246:244|246:244|275:237,1,65,0|0,1:2|1:2,0:0:0:0:
404,173,154164,1,8,1:2:0:0:
488,182,154354,1,0,1:2:0:0:
511,263,154543,1,0,1:2:0:0:
450,322,154734,6,0,B|413:339|376:312|389:312|355:289|314:311,1,143.000004364014,0|0,1:2|1:2,0:0:0:0:
201,382,155303,1,0,1:2:0:0:
117,382,155493,1,0,1:2:0:0:
74,309,155683,1,8,1:2:0:0:
117,236,155873,1,0,1:2:0:0:
160,163,156062,1,2,1:2:0:0:
117,91,156252,1,10,1:2:0:0:
33,91,156442,5,14,1:2:0:0:
315,45,156632,1,2,1:2:0:0:
192,303,156822,5,0,1:2:0:0:
474,257,157012,1,10,1:2:0:0:
78,235,157581,5,10,1:2:0:0:
313,70,157771,1,0,1:2:0:0:
336,349,157962,6,0,B|339:364|339:364|336:376|336:376|338:388,1,32.5,2|2,1:2|0:2,0:0:0:0:
46,43,159481,5,4,1:2:0:0:
71,41,159544,1,0,1:2:0:0:
97,39,159607,1,0,1:2:0:0:
123,38,159670,1,0,1:2:0:0:
149,36,159734,1,0,1:2:0:0:
175,34,159797,1,0,1:2:0:0:
201,32,159860,1,0,1:2:0:0:
466,341,160620,5,0,1:2:0:0:
441,343,160683,1,0,1:2:0:0:
415,345,160746,1,0,1:2:0:0:
389,346,160811,1,0,1:2:0:0:
363,348,160873,1,0,1:2:0:0:
337,350,160936,1,0,1:2:0:0:
311,352,160999,1,4,1:2:0:0:
37,231,161569,5,8,0:2:0:0:
105,126,161760,5,4,1:2:0:0:
124,109,161823,1,0,1:2:0:0:
149,101,161886,1,0,1:2:0:0:
175,104,161949,1,0,1:2:0:0:
198,116,162013,1,0,1:2:0:0:
214,135,162076,1,0,1:2:0:0:
222,160,162139,5,8,0:2:0:0:
194,224,162266,5,8,0:2:0:0:
230,283,162393,5,8,0:2:0:0:
191,340,162519,5,4,1:2:0:0:
198,356,162613,1,0,1:2:0:0:
50,64,163088,5,2,0:2:0:0:
147,141,163279,6,0,B|186:132|186:132|234:145|234:145|292:114|348:143,1,208,12|0,0:2|0:0,0:0:0:0:
394,200,163564,6,0,L|386:274,1,65,0|0,1:2|0:0,0:0:0:0:
459,301,163849,2,0,L|454:344,1,32.5,0|0,1:2|0:0,0:0:0:0:
368,384,164038,6,0,B|316:408|275:367|275:367|278:359|278:359|227:323|174:359,1,199.333337135315,12|0,0:2|1:0,0:0:0:0:
107,384,164291,6,0,L|99:309,1,43.3333333333333,0|0,1:2|1:0,0:0:0:0:
22,304,164544,6,0,L|18:257,1,43.3333333333333,8|0,0:0|1:2,0:0:0:0:
68,161,164798,5,8,0:2:0:0:
131,110,164893,1,8,0:2:0:0:
210,128,164988,1,0,1:2:0:0:
245,201,165083,1,0,1:2:0:0:
269,278,165178,1,0,1:2:0:0:
304,351,165273,1,0,1:2:0:0:
383,369,165368,1,8,0:2:0:0:
446,318,165463,1,8,0:2:0:0:
445,238,165556,5,4,1:2:0:0:
421,226,165620,1,0,1:2:0:0:
396,227,165683,1,0,1:2:0:0:
374,240,165746,1,0,1:2:0:0:
360,262,165810,1,0,1:2:0:0:
358,287,165873,1,0,1:2:0:0:
363,304,165936,1,0,1:2:0:0:
70,154,166696,5,0,1:2:0:0:
95,162,166759,1,0,1:2:0:0:
120,157,166822,1,0,1:2:0:0:
140,140,166886,1,0,1:2:0:0:
150,116,166949,1,0,1:2:0:0:
147,91,167012,1,0,1:2:0:0:
139,76,167075,1,4,1:2:0:0:
471,166,167646,5,8,0:2:0:0:
356,233,167836,1,4,1:2:0:0:
330,231,167899,1,0,1:2:0:0:
304,229,167962,1,0,1:2:0:0:
278,228,168026,1,0,1:2:0:0:
252,226,168089,1,0,1:2:0:0:
226,225,168152,1,0,1:2:0:0:
200,223,168215,5,8,0:2:0:0:
131,276,168341,5,8,0:2:0:0:
71,214,168468,5,8,0:2:0:0:
5,276,168594,5,4,1:2:0:0:
5,285,168642,1,0,1:0:0:0:
421,341,169355,6,0,B|444:351|453:375|453:375|455:290|455:290|459:283|459:283|459:139,1,286.000008728028,12|0,0:2|0:0,0:0:0:0:
420,72,169640,6,0,B|389:63|389:63|332:87,1,65,0|0,1:2|0:0,0:0:0:0:
280,88,169925,2,0,B|262:92|262:92|247:88,1,32.5,0|0,1:2|0:0,0:0:0:0:
144,64,170114,6,0,B|104:40|117:0|165:-8|187:22|165:62|165:62|138:77|129:104|129:104|149:127|136:164,1,260,12|0,0:2|0:0,0:0:0:0:
84,208,170399,6,0,B|72:205|72:205|62:211|62:211|52:204|52:204|44:207|44:207|38:216|38:216|44:228|44:228|38:237,1,65,0|0,1:2|0:0,0:0:0:0:
40,296,170684,6,0,B|35:303|35:303|42:309|42:309|35:316|35:316|42:322|42:322|35:329|35:329|42:337|42:337|36:347,1,65,0|0,1:2|0:0,0:0:0:0:
256,192,171158,12,0,175525,0:0:0:0:
186,330,175620,6,0,B|195:345|208:362,1,32.5,2|0,0:0|0:0,0:0:0:0:
