osu file format v14

[General]
AudioFilename: audio.mp3
AudioLeadIn: 0
PreviewTime: 31056
Countdown: 0
SampleSet: Soft
StackLeniency: 0.5
Mode: 0
LetterboxInBreaks: 0
WidescreenStoryboard: 1

[Editor]
Bookmarks: 101944
DistanceSpacing: 1.7
BeatDivisor: 3
GridSize: 16
TimelineZoom: 2.5

[Metadata]
Title:Your Number's Up
TitleUnicode:Your Number's Up
Artist:Ice Nine Kills
ArtistUnicode:Ice Nine Kills
Creator:Blitzifyyy
Version:TheMefisto's Extra
Source:
Tags:TheMefisto Nymphe riffy bakari WashedUp Player The Silver Scream Final Cut Bonus Track Horror INK Spencer Charnas Ricky Armellino Patrick Galante Joe Occhiuti Dan Sugarman Justin DeBlieck Sarah J. Bartholomew numbers Metal Metalcore Rock English
BeatmapID:3030160
BeatmapSetID:1476788

[Difficulty]
HPDrainRate:5
CircleSize:4
OverallDifficulty:9
ApproachRate:9.4
SliderMultiplier:2.4
SliderTickRate:1

[Events]
//Background and Video events
0,0,"367490.jpg",0,0
//Break Periods
//Storyboard Layer 0 (Background)
//Storyboard Layer 1 (Fail)
//Storyboard Layer 2 (Pass)
//Storyboard Layer 3 (Foreground)
//Storyboard Layer 4 (Overlay)
//Storyboard Sound Samples

[TimingPoints]
29642,454.545454545455,4,2,1,70,1,0
31460,404.040404040404,4,2,1,70,1,0
33487,408.163265306122,4,2,1,70,1,0
33895,-80,3,2,1,70,0,0
34303,412.371134020618,4,2,1,70,1,0
34715,396.039603960396,4,2,1,70,1,0
35012,-66.6666666666667,3,2,1,5,0,0
35111,-100,3,2,1,70,0,0
35606,-66.6666666666667,3,2,1,5,0,0
35705,-100,3,2,1,70,0,0
37091,-200,3,2,1,70,0,0
37883,387.880041632458,4,2,1,70,1,0
37883,-100,3,2,1,70,0,0
39628,393.507132316773,4,2,1,70,1,0
40218,384.615384615385,4,2,1,70,1,0
40218,-121.951219512195,3,2,1,70,0,0
41563,377.358490566038,3,2,1,70,1,0
42129,370.37037037037,4,2,1,70,1,0
42499,384.615384615385,4,2,1,70,1,0
42779,-333.333333333333,3,2,1,20,0,0
44038,379.746835443038,4,2,1,60,1,0
44038,-133.333333333333,4,2,1,60,0,0
45177,-133.333333333333,4,2,1,60,0,0
45272,-133.333333333333,4,2,1,5,0,0
45367,-133.333333333333,4,2,1,60,0,0
45462,-133.333333333333,4,2,1,5,0,0
45556,-133.333333333333,4,2,1,60,0,0
46981,-133.333333333333,4,2,1,5,0,0
47075,-133.333333333333,4,2,1,60,0,0
48215,-133.333333333333,4,2,1,60,0,0
48310,-133.333333333333,4,2,1,5,0,0
48405,-133.333333333333,4,2,1,60,0,0
48500,-133.333333333333,4,2,1,5,0,0
48594,-133.333333333333,4,2,1,60,0,0
51253,-133.333333333333,4,2,1,60,0,0
51348,-133.333333333333,4,2,1,5,0,0
51443,-133.333333333333,4,2,1,60,0,0
51538,-133.333333333333,4,2,1,5,0,0
51632,-133.333333333333,4,2,1,60,0,0
56379,-117.647058823529,4,2,1,65,0,0
59322,-117.647058823529,4,2,1,5,0,0
59416,-117.647058823529,4,2,1,65,0,0
63879,-117.647058823529,4,2,1,5,0,0
63973,-117.647058823529,4,2,1,65,0,0
64068,-117.647058823529,4,2,1,5,0,0
64163,-86.9565217391304,4,2,1,65,0,0
64258,-86.9565217391304,4,2,1,5,0,0
64353,-86.9565217391304,4,2,1,65,0,0
64448,-86.9565217391304,4,2,1,5,0,0
64543,-86.9565217391304,4,2,1,65,0,0
64638,-86.9565217391304,4,2,1,5,0,0
65303,-125,8,2,1,80,0,1
67582,-90.9090909090909,8,2,1,80,0,1
67677,-90.9090909090909,8,2,1,5,0,1
67773,-90.9090909090909,8,2,1,80,0,1
67868,-90.9090909090909,8,2,1,5,0,1
67956,-100,8,2,1,80,0,1
68249,-100,8,2,1,5,0,1
68334,-125,8,2,1,80,0,1
70619,-90.9090909090909,8,2,1,80,0,1
70714,-90.9090909090909,8,2,1,5,0,1
70810,-90.9090909090909,8,2,1,80,0,1
70905,-90.9090909090909,8,2,1,5,0,1
71000,-90.9090909090909,8,2,1,80,0,1
71095,-90.9090909090909,8,2,1,5,0,1
71191,-90.9090909090909,8,2,1,80,0,1
71286,-90.9090909090909,8,2,1,5,0,1
71361,-125,4,2,1,80,0,1
73646,-90.9090909090909,4,2,1,80,0,1
73741,-90.9090909090909,4,2,1,5,0,1
73837,-90.9090909090909,4,2,1,80,0,1
73932,-90.9090909090909,4,2,1,5,0,1
74027,-90.9090909090909,4,2,1,80,0,1
74122,-90.9090909090909,4,2,1,5,0,1
74227,-90.9090909090909,4,2,1,80,0,1
74408,-125,4,2,1,80,0,1
77455,-133.333333333333,4,2,1,60,0,0
78590,-133.333333333333,4,2,1,60,0,0
78685,-133.333333333333,4,2,1,5,0,0
78780,-133.333333333333,4,2,1,60,0,0
78875,-133.333333333333,4,2,1,5,0,0
78969,-133.333333333333,4,2,1,60,0,0
83531,-76.9230769230769,4,2,1,80,0,1
84856,-111.111111111111,4,2,1,80,0,1
85045,-76.9230769230769,4,2,1,80,0,1
86379,-76.9230769230769,4,2,1,80,0,0
86569,-76.9230769230769,4,2,1,70,0,1
88653,-111.111111111111,4,2,1,70,0,1
88748,-111.111111111111,4,2,1,20,0,1
89607,-200,4,2,1,50,0,0
91121,-250,4,2,1,50,0,0
91881,-200,4,2,1,50,0,0
94159,-250,4,2,1,50,0,0
94919,-200,4,2,1,50,0,0
95678,-133.333333333333,4,2,1,50,0,0
96818,-200,4,2,1,50,0,0
101944,-117.647058823529,4,2,1,65,0,0
104887,-117.647058823529,4,2,1,5,0,0
104981,-117.647058823529,4,2,1,65,0,0
109349,-117.647058823529,4,2,1,65,0,0
109444,-117.647058823529,4,2,1,5,0,0
109538,-117.647058823529,4,2,1,65,0,0
109633,-117.647058823529,4,2,1,5,0,0
109728,-86.9565217391302,4,2,1,65,0,0
109823,-86.9565217391302,4,2,1,5,0,0
109918,-86.9565217391302,4,2,1,65,0,0
110013,-86.9565217391302,4,2,1,5,0,0
110108,-86.9565217391302,4,2,1,65,0,0
110203,-86.9565217391302,4,2,1,5,0,0
110873,-125,8,2,1,80,0,1
113146,-83.3333333333333,8,2,1,80,0,1
113241,-83.3333333333333,8,2,1,5,0,1
113337,-83.3333333333333,8,2,1,80,0,1
113432,-83.3333333333333,8,2,1,5,0,1
113526,-100,8,2,1,80,0,1
113813,-66.6666666666667,8,2,1,5,0,1
113905,-125,8,2,1,80,0,1
116184,-83.3333333333333,8,2,1,80,0,1
116279,-83.3333333333333,8,2,1,5,0,1
116375,-83.3333333333333,8,2,1,80,0,1
116470,-83.3333333333333,8,2,1,5,0,1
116565,-83.3333333333333,8,2,1,80,0,1
116660,-83.3333333333333,8,2,1,5,0,1
116756,-83.3333333333333,8,2,1,80,0,1
116851,-83.3333333333333,8,2,1,5,0,1
116943,-125,4,2,1,80,0,1
119222,-83.3333333333333,4,2,1,80,0,1
119317,-83.3333333333333,4,2,1,5,0,1
119413,-83.3333333333333,4,2,1,80,0,1
119508,-83.3333333333333,4,2,1,5,0,1
119603,-83.3333333333333,4,2,1,80,0,1
119698,-83.3333333333333,4,2,1,5,0,1
119794,-83.3333333333333,4,2,1,80,0,1
119979,-125,4,2,1,80,0,1
123025,-235.294117647059,8,2,1,70,0,0
123500,-235.294117647059,8,2,1,5,0,0
123594,-235.294117647059,8,2,1,70,0,0
124829,-235.294117647059,8,2,1,5,0,0
124924,-235.294117647059,8,2,1,70,0,0
126060,-210.526315789474,8,2,1,70,0,0
126538,-210.526315789474,8,2,1,5,0,0
126632,-210.526315789474,8,2,1,70,0,0
128244,-210.526315789474,8,2,2,70,0,0
128339,-181.818181818182,8,2,1,70,0,0
129006,-181.818181818182,8,2,1,5,0,0
129101,-200,8,2,1,70,0,1
129575,-200,8,2,1,5,0,1
129670,-200,8,2,1,70,0,1
135177,-250,8,2,1,55,0,0
144288,-181.818181818182,8,2,1,55,0,0
147326,-200,8,2,1,65,0,0
153402,-166.666666666667,8,2,1,65,0,0
158149,-166.666666666667,8,2,1,20,0,0
159481,-111.111111111111,4,2,1,80,0,1
163560,-83.3333333333333,4,2,1,80,0,1
163845,-111.111111111111,4,2,1,80,0,1
170683,-400,3,2,1,80,0,0
170775,-400,3,2,1,5,0,0
175617,-400,3,2,2,60,0,0

[Colours]
Combo1 : 228,228,228
Combo2 : 65,65,65
Combo3 : 164,164,164

[HitObjects]
199,187,31232,5,2,0:2:0:0:
199,187,31460,2,0,B|135:122|47:118|47:118|88:117|113:99,1,240.000009155274,6|2,1:2|0:2,0:0:0:0:
28,242,32066,2,0,P|104:298|11:317,1,240.000009155274,6|2,1:2|0:2,0:0:0:0:
198,276,32672,2,0,B|264:284|298:247|298:247|358:283|387:254|387:254|358:235,1,240.000009155274,6|2,1:2|0:2,0:0:0:0:
311,366,33278,1,6,1:2:0:0:
228,178,33487,5,8,0:2:0:0:
165,108,33623,5,8,0:2:0:0:
211,27,33759,5,8,0:2:0:0:
298,31,33895,6,0,B|342:48|342:48|376:25|376:25|415:39|415:39|448:9|478:19,1,200,10|0,3:0|1:2,0:0:0:0:
391,129,34303,2,0,P|368:197|409:287,1,160,10|8,0:0|0:2,0:0:0:0:
459,348,34715,6,0,B|414:317|414:317|279:333,1,180.000006866455,6|0,1:2|0:0,0:0:0:0:
269,354,35111,1,10,0:2:0:0:
122,285,35309,2,0,B|92:227|124:176|124:176|99:144|110:114,1,180.000006866455,6|0,1:2|0:0,0:0:0:0:
123,93,35705,1,10,0:2:0:0:
211,232,35903,2,0,B|293:259|298:200|379:235|379:235|328:233|315:248,1,240.000009155274,6|0,1:2|0:0,0:0:0:0:
251,130,36497,5,10,0:2:0:0:
248,110,36563,1,8,0:2:0:0:
245,91,36629,1,8,0:2:0:0:
244,71,36695,2,0,L|309:78,5,40,8|8|8|8|8|8,0:2|0:2|3:0|3:0|3:0|3:0,0:0:0:0:
346,29,37091,5,2,1:2:0:0:
94,77,37289,1,0,1:0:0:0:
287,179,37487,1,10,0:0:0:0:
166,27,37685,1,0,1:2:0:0:
160,250,37883,6,0,P|130:295|145:212,1,240.000009155274,6|0,1:2|0:0,0:0:0:0:
238,337,38464,2,0,B|302:371|364:336|364:336|418:308|469:330,1,240.000009155274,6|2,1:2|0:2,0:0:0:0:
304,232,39046,2,0,B|285:152|303:53|303:53|274:106,1,240.000009155274,6|0,1:2|0:0,0:0:0:0:
215,293,39628,1,10,0:2:0:0:
386,119,39824,1,8,0:2:0:0:
357,302,40021,1,0,1:2:0:0:
185,225,40218,6,0,B|205:212|205:212|232:218|232:218|254:207|254:207|280:211|280:211|308:198|308:198|324:202,1,147.600002252197,10|0,0:2|0:0,0:0:0:0:
342,218,40602,1,8,3:0:0:0:
274,349,40794,1,10,3:0:0:0:
178,76,40987,5,6,1:2:0:0:
358,225,41179,1,2,1:2:0:0:
251,7,41371,1,0,1:2:0:0:
178,297,41564,1,10,0:2:0:0:
433,149,41940,5,2,1:2:0:0:
433,149,42034,1,0,1:2:0:0:
433,149,42129,1,14,0:2:0:0:
163,77,42314,1,8,0:2:0:0:
348,38,42499,1,10,0:2:0:0:
86,222,42691,1,10,0:2:0:0:
86,222,42819,6,0,B|81:253|81:253|78:229,1,47.9999985351563
168,209,44038,5,12,0:2:0:0:
172,244,44132,1,0,1:2:0:0:
176,279,44227,1,2,1:2:0:0:
33,175,44417,1,10,0:2:0:0:
214,108,44607,1,2,1:2:0:0:
249,115,44702,1,2,1:2:0:0:
284,122,44797,2,0,L|293:231,1,90.0000034332277,10|2,0:2|0:2,0:0:0:0:
452,71,45177,2,0,P|427:62|400:64,1,45.0000017166138,10|0,0:2|1:2,0:0:0:0:
246,31,45367,2,0,P|271:22|298:24,1,45.0000017166138,2|0,1:2|0:0,0:0:0:0:
412,154,45556,5,8,0:2:0:0:
300,217,45746,1,2,0:2:0:0:
461,360,45936,2,0,L|469:246,1,90.0000034332277,10|2,0:2|1:2,0:0:0:0:
454,251,46221,1,0,1:2:0:0:
449,248,46316,1,10,0:2:0:0:
285,265,46506,1,2,0:2:0:0:
354,88,46696,2,0,P|423:94|477:172,1,135.000005149841,10|0,0:2|0:0,0:0:0:0:
312,181,47075,5,12,0:2:0:0:
266,184,47170,1,0,1:2:0:0:
220,187,47265,1,2,0:2:0:0:
174,191,47360,1,2,0:2:0:0:
128,194,47455,1,10,0:2:0:0:
277,46,47645,1,2,1:2:0:0:
240,43,47740,1,0,1:2:0:0:
203,40,47835,2,0,L|98:47,1,90.0000034332277,10|2,0:2|0:2,0:0:0:0:
83,200,48215,2,0,L|88:251,1,45.0000017166138,10|0,0:2|0:0,0:0:0:0:
4,67,48405,2,0,L|0:111,1,45.0000017166138,2|0,1:2|0:0,0:0:0:0:
186,165,48594,5,8,0:2:0:0:
0,225,48783,1,2,0:2:0:0:
85,332,48974,1,10,0:2:0:0:
115,104,49164,1,2,1:2:0:0:
115,104,49258,1,0,1:2:0:0:
144,58,49353,5,10,0:2:0:0:
191,30,49449,1,0,1:2:0:0:
243,38,49543,1,10,0:2:0:0:
283,74,49639,1,0,1:2:0:0:
284,128,49734,5,10,0:2:0:0:
308,80,49829,1,0,1:2:0:0:
356,56,49924,1,2,1:2:0:0:
408,70,50019,1,0,1:2:0:0:
443,110,50113,5,12,0:2:0:0:
444,145,50208,1,0,1:2:0:0:
445,180,50303,1,2,0:2:0:0:
337,301,50493,1,10,0:2:0:0:
254,158,50683,1,2,1:2:0:0:
253,193,50778,1,0,1:2:0:0:
252,228,50873,2,0,L|144:219,1,90.0000034332277,10|2,0:2|0:2,0:0:0:0:
24,102,51253,2,0,P|5:118|-1:139,1,45.0000017166138,10|0,0:2|0:0,0:0:0:0:
47,299,51443,2,0,P|66:283|72:262,1,45.0000017166138,2|0,1:2|0:0,0:0:0:0:
144,86,51632,5,8,0:2:0:0:
8,148,51822,1,2,0:2:0:0:
205,218,52012,2,0,P|252:219|297:210,1,90.0000034332277,10|2,0:2|1:2,0:0:0:0:
313,186,52297,1,0,1:2:0:0:
309,180,52392,1,10,0:2:0:0:
205,314,52582,1,2,0:2:0:0:
247,114,52772,1,10,0:2:0:0:
397,195,52962,1,0,0:0:0:0:
362,23,53151,5,14,0:2:0:0:
370,14,53246,2,0,L|380:92,1,45.0000017166138,0|2,0:0|0:2,0:0:0:0:
512,122,53436,5,12,0:2:0:0:
504,113,53531,2,0,L|494:191,1,45.0000017166138,2|0,1:2|1:2,0:0:0:0:
395,289,53721,5,14,0:2:0:0:
387,298,53816,2,0,L|377:220,1,45.0000017166138,0|2,1:2|1:2,0:0:0:0:
240,219,54006,5,12,0:2:0:0:
248,228,54101,2,0,L|258:150,1,45.0000017166138,2|0,1:2|1:2,0:0:0:0:
136,354,54291,5,14,0:2:0:0:
82,359,54386,1,8,0:2:0:0:
38,327,54481,1,2,1:2:0:0:
28,274,54575,1,0,1:2:0:0:
49,231,54670,5,0,1:2:0:0:
65,238,54764,1,0,1:2:0:0:
80,247,54859,1,2,1:2:0:0:
96,254,54954,1,0,1:2:0:0:
138,242,55049,5,2,1:2:0:0:
106,228,55144,1,0,1:2:0:0:
77,210,55239,1,2,1:2:0:0:
45,196,55335,1,0,1:2:0:0:
31,162,55430,5,10,0:2:0:0:
82,184,55525,1,0,1:2:0:0:
128,213,55620,1,2,1:2:0:0:
180,235,55715,1,0,1:2:0:0:
229,226,55810,5,10,0:2:0:0:
153,194,55905,1,8,0:2:0:0:
87,152,56000,1,10,0:2:0:0:
13,120,56094,1,8,0:2:0:0:
439,30,56379,6,0,L|431:141,1,102.000001945496,14|2,0:2|0:2,0:0:0:0:
358,283,56663,1,0,1:2:0:0:
382,306,56759,2,0,L|483:298,1,102.000001945496,10|2,0:2|1:2,0:0:0:0:
252,181,57139,2,0,L|80:168,1,153.000002918243,8|0,0:2|1:2,0:0:0:0:
1,246,57518,1,10,0:2:0:0:
9,279,57613,1,0,1:2:0:0:
17,312,57708,1,0,1:2:0:0:
214,364,57898,6,0,P|266:338|327:347,1,102.000001945496,12|0,0:2|0:0,0:0:0:0:
212,198,58182,1,0,1:2:0:0:
235,217,58278,2,0,P|260:173|261:122,1,102.000001945496,8|0,0:2|1:2,0:0:0:0:
50,25,58658,2,0,L|164:34,1,102.000001945496,10|2,0:2|0:2,0:0:0:0:
169,115,58942,1,0,1:2:0:0:
158,137,59037,1,10,0:2:0:0:
20,274,59227,2,0,L|24:343,1,51.0000009727478,2|0,1:2|0:0,0:0:0:0:
170,384,59417,6,0,L|164:282,1,102.000001945496,12|2,0:2|0:2,0:0:0:0:
276,185,59701,1,0,1:2:0:0:
290,161,59797,2,0,P|344:148|409:163,1,102.000001945496,10|0,0:2|1:2,0:0:0:0:
420,373,60177,2,0,P|360:330|345:257,1,153.000002918243,10|0,0:2|1:2,0:0:0:0:
505,240,60556,1,10,0:2:0:0:
475,256,60651,1,0,1:2:0:0:
446,273,60746,1,0,1:2:0:0:
358,103,60936,6,0,B|402:99|402:99|448:65|448:65|499:61,1,153.000002918243,12|0,0:2|1:2,0:0:0:0:
366,9,61315,1,8,0:2:0:0:
332,12,61410,1,0,1:2:0:0:
298,16,61505,1,0,1:2:0:0:
488,157,61695,1,8,0:2:0:0:
256,239,61885,1,8,0:2:0:0:
213,211,61980,1,8,0:2:0:0:
195,163,62075,1,8,0:2:0:0:
206,113,62170,1,8,0:2:0:0:
246,82,62265,1,0,1:2:0:0:
115,219,62455,6,0,P|54:229|2:196,1,102.000001945496,14|2,0:2|0:2,0:0:0:0:
0,130,62739,1,0,1:2:0:0:
5,116,62834,1,10,0:2:0:0:
49,319,63024,1,2,1:2:0:0:
187,266,63214,1,10,0:2:0:0:
82,138,63405,2,0,P|82:113|88:88,1,51.0000009727478,2|0,0:2|1:2,0:0:0:0:
246,25,63594,5,10,0:2:0:0:
257,33,63689,1,0,1:2:0:0:
268,41,63784,2,0,L|269:91,1,51.0000009727478,10|0,0:2|0:0,0:0:0:0:
382,283,63974,2,0,L|380:232,1,51.0000009727478,2|0,1:2|0:0,0:0:0:0:
176,81,64164,6,0,L|178:149,1,69.0000013160706,2|0,1:2|0:0,0:0:0:0:
468,234,64354,2,0,L|465:165,1,69.0000013160706,2|0,1:2|0:0,0:0:0:0:
139,292,64544,6,0,L|141:360,1,69.0000013160706,10|0,0:2|0:0,0:0:0:0:
188,115,65303,5,14,0:2:0:0:
466,205,65493,1,0,1:2:0:0:
139,247,65683,1,2,1:2:0:0:
249,27,65874,5,10,0:2:0:0:
310,312,66064,1,0,1:2:0:0:
110,50,66254,1,2,1:2:0:0:
354,188,66443,6,0,L|344:379,1,191.999994140625,10|2,0:2|0:2,0:0:0:0:
484,239,67012,1,2,1:2:0:0:
408,105,67202,2,0,P|362:85|300:100,1,95.9999970703126,0|0,1:2|0:0,0:0:0:0:
189,182,67582,6,0,B|174:214|174:214|185:244,1,66.0000020141602,10|0,0:2|0:0,0:0:0:0:
199,316,67772,6,0,B|210:285|210:285|195:253,1,66.0000020141602,0|0,1:0|0:0,0:0:0:0:
206,169,67962,6,0,B|187:215|187:215|218:284|218:284|193:350,1,180,0|0,1:0|0:0,0:0:0:0:
82,364,68341,5,14,0:2:0:0:
346,220,68530,1,0,1:2:0:0:
21,303,68720,1,10,3:0:0:0:
371,308,68911,5,10,0:2:0:0:
107,164,69101,1,0,1:2:0:0:
432,247,69291,1,2,1:2:0:0:
160,222,69481,6,0,B|151:70|151:70|165:111,1,191.999994140625,10|0,0:2|0:0,0:0:0:0:
63,249,70050,1,10,0:2:0:0:
252,155,70240,1,8,0:2:0:0:
217,284,70430,1,0,1:2:0:0:
241,63,70620,6,0,B|271:47|271:47|304:55,1,66.0000020141602,10|0,3:0|0:0,0:0:0:0:
407,127,70811,6,0,B|437:142|437:142|470:134,1,66.0000020141602,8|0,0:0|0:0,0:0:0:0:
472,147,71001,6,0,B|439:155|439:155|409:140,1,66.0000020141602,8|0,0:0|0:0,0:0:0:0:
306,68,71189,6,0,B|273:60|273:60|243:76,1,66.0000020141602,0|0,1:2|0:0,0:0:0:0:
212,297,71379,5,14,0:2:0:0:
495,339,71569,1,2,1:2:0:0:
306,78,71759,1,0,1:2:0:0:
98,330,71949,5,10,0:2:0:0:
381,372,72139,1,0,1:2:0:0:
192,111,72329,1,2,1:2:0:0:
2,368,72519,6,0,B|73:375|73:375|131:349|131:349|187:355,1,191.999994140625,10|0,0:2|0:0,0:0:0:0:
0,197,73088,1,10,0:2:0:0:
202,242,73278,1,8,0:2:0:0:
62,284,73468,1,0,1:2:0:0:
130,88,73658,6,0,B|139:52|139:52|130:22,1,66.0000020141602,2|0,0:2|0:0,0:0:0:0:
121,171,73849,6,0,B|112:135|112:135|120:105,1,66.0000020141602,8|0,0:2|0:0,0:0:0:0:
131,250,74039,6,0,B|140:214|140:214|131:184,1,66.0000020141602,10|0,0:2|0:0,0:0:0:0:
24,31,74227,1,10,3:0:0:0:
27,72,74322,1,8,3:0:0:0:
30,113,74417,5,6,1:2:0:0:
315,180,74607,1,6,1:2:0:0:
46,227,74797,1,4,1:2:0:0:
347,96,74987,1,10,0:2:0:0:
270,342,75367,5,10,0:2:0:0:
272,304,75462,1,0,0:0:0:0:
275,266,75556,1,6,1:2:0:0:
477,364,75746,1,4,1:2:0:0:
500,89,75936,1,6,1:2:0:0:
199,247,76126,1,10,0:2:0:0:
420,195,77455,5,12,0:2:0:0:
415,239,77549,1,2,1:2:0:0:
410,283,77644,1,2,0:2:0:0:
405,327,77739,1,2,0:2:0:0:
400,371,77834,1,10,0:2:0:0:
285,219,78024,1,2,1:2:0:0:
290,175,78119,1,2,1:2:0:0:
295,131,78215,2,0,L|183:142,1,90.0000034332277,10|2,0:2|0:2,0:0:0:0:
34,275,78594,2,0,P|27:253|28:231,1,45.0000017166138,10|0,0:2|0:0,0:0:0:0:
109,64,78784,2,0,P|115:85|114:107,1,45.0000017166138,2|0,1:2|0:0,0:0:0:0:
110,244,78974,5,12,0:2:0:0:
0,142,79164,1,2,0:2:0:0:
202,219,79354,2,0,L|193:330,1,90.0000034332277,10|2,0:2|1:2,0:0:0:0:
175,334,79638,1,0,1:2:0:0:
167,341,79733,1,10,0:2:0:0:
310,307,79923,1,2,0:2:0:0:
109,209,80113,2,0,B|96:114|96:114|120:70,1,135.000005149841,10|0,0:2|0:0,0:0:0:0:
238,24,80492,5,12,0:2:0:0:
276,28,80587,1,0,1:2:0:0:
315,32,80682,1,2,0:2:0:0:
219,184,80872,1,10,0:2:0:0:
382,121,81062,1,0,0:0:0:0:
378,159,81157,1,0,1:2:0:0:
374,197,81253,2,0,L|362:308,1,90.0000034332277,10|0,0:2|0:0,0:0:0:0:
494,124,81632,2,0,L|503:34,1,90.0000034332277,10|0,0:2|0:0,0:0:0:0:
328,133,82012,5,12,0:2:0:0:
461,202,82202,1,2,0:2:0:0:
376,47,82392,1,10,0:2:0:0:
282,225,82582,2,0,L|231:219,1,45.0000017166138,2|0,1:2|1:2,0:0:0:0:
61,42,82772,5,10,0:2:0:0:
140,58,82867,1,0,1:2:0:0:
178,129,82962,1,2,1:2:0:0:
146,202,83056,1,0,1:2:0:0:
146,202,83531,5,6,1:2:0:0:
107,249,83626,1,8,0:0:0:0:
114,309,83720,1,2,1:2:0:0:
162,346,83815,1,8,0:0:0:0:
222,338,83910,1,2,1:2:0:0:
259,290,84005,1,8,0:0:0:0:
250,230,84100,1,2,1:2:0:0:
201,194,84195,1,8,0:0:0:0:
164,145,84291,5,2,1:2:0:0:
173,85,84386,1,8,0:0:0:0:
222,49,84481,1,2,1:2:0:0:
282,60,84576,1,8,0:0:0:0:
316,108,84671,1,2,1:2:0:0:
303,168,84766,1,8,0:0:0:0:
252,201,84861,2,0,L|192:202,1,53.9999983520508,2|8,1:2|0:0,0:0:0:0:
39,303,85050,5,2,1:2:0:0:
71,353,85144,1,8,0:0:0:0:
126,375,85239,1,2,1:2:0:0:
185,363,85334,1,8,0:0:0:0:
225,318,85429,1,2,1:2:0:0:
257,268,85525,1,8,0:0:0:0:
312,246,85620,1,0,1:2:0:0:
371,258,85715,1,8,0:0:0:0:
404,310,85811,5,10,0:3:0:0:
334,341,85905,1,8,0:3:0:0:
263,314,86000,1,0,1:2:0:0:
233,245,86095,1,0,1:2:0:0:
261,174,86190,1,8,0:0:0:0:
454,20,86380,2,0,B|456:32|456:32|450:42|450:42|456:58|456:58|448:67|448:67|454:80|454:80|449:89,1,77.9999964294435,2|0,0:2|0:0,0:0:0:0:
334,235,86569,5,12,1:2:0:0:
290,279,86664,1,0,1:2:0:0:
229,295,86759,1,10,1:2:0:0:
168,277,86854,1,0,1:2:0:0:
124,231,86949,1,10,1:2:0:0:
110,169,87044,1,0,1:2:0:0:
129,109,87139,1,10,1:2:0:0:
176,68,87234,1,0,1:2:0:0:
219,122,87329,5,10,1:2:0:0:
175,177,87424,1,0,1:2:0:0:
105,186,87519,1,8,1:2:0:0:
54,137,87614,1,0,1:2:0:0:
57,66,87709,1,10,1:2:0:0:
113,24,87804,1,0,1:2:0:0:
181,37,87899,1,2,1:2:0:0:
216,97,87994,1,0,1:2:0:0:
233,172,88088,5,10,0:0:0:0:
200,242,88183,1,8,0:0:0:0:
256,298,88278,1,10,0:0:0:0:
324,259,88373,1,0,1:2:0:0:
312,183,88468,1,10,0:0:0:0:
234,171,88563,1,0,1:2:0:0:
200,242,88658,2,0,L|207:326,1,53.9999983520508,0|0,1:2|0:0,0:0:0:0:
434,70,89607,6,0,L|435:50,6,20,4|0|0|0|0|0|0,1:2|1:2|1:2|1:2|1:2|1:2|1:2,0:0:0:0:
492,213,90367,5,12,0:2:0:0:
331,163,90557,2,0,L|287:170,1,30,0|0,1:2|0:0,0:0:0:0:
229,273,90747,2,0,L|199:268,1,30,0|0,1:2|0:0,0:0:0:0:
0,164,91126,6,0,P|52:153|25:177,1,144,4|0,0:2|0:0,0:0:0:0:
20,341,91886,5,8,0:2:0:0:
20,341,91949,1,0,1:2:0:0:
20,341,92012,2,0,L|24:369,3,20,0|0|0|0,1:2|1:2|1:2|1:2,0:0:0:0:
123,331,92266,5,0,1:2:0:0:
123,331,92329,1,0,1:2:0:0:
123,331,92392,2,0,L|118:359,3,20,0|0|0|0,1:2|1:2|1:2|1:2,0:0:0:0:
81,242,92645,6,0,B|137:229|137:229|200:275|251:247,1,180,4|0,1:2|0:0,0:0:0:0:
304,95,93405,1,12,0:2:0:0:
163,134,93595,2,0,L|159:99,1,30,0|0,1:2|0:0,0:0:0:0:
39,43,93785,2,0,L|36:73,1,30,0|0,1:2|0:0,0:0:0:0:
265,30,94164,6,0,B|339:1|338:49|406:29,1,144,4|0,0:2|0:0,0:0:0:0:
303,173,94924,1,8,0:2:0:0:
261,177,95019,1,8,0:2:0:0:
219,181,95114,1,0,1:2:0:0:
177,185,95209,1,0,1:2:0:0:
135,189,95304,1,0,1:2:0:0:
93,193,95399,1,0,1:2:0:0:
51,197,95493,2,0,L|35:171,2,20,8|8|8,0:2|0:2|0:2,0:0:0:0:
38,131,95683,6,0,B|68:107|107:112|107:112|134:70|134:70|227:98|295:30|295:30|273:73|295:104,1,360.000013732911,4|4,1:2|0:2,0:0:0:0:
500,276,96823,5,8,0:2:0:0:
392,351,96949,5,8,0:2:0:0:
391,212,97076,5,8,0:2:0:0:
283,287,97202,5,12,0:2:0:0:
342,73,97392,6,0,L|294:67,1,30,0|0,1:2|0:0,0:0:0:0:
201,147,97582,2,0,L|171:150,1,30,0|0,1:2|0:0,0:0:0:0:
227,14,97772,2,0,L|179:8,1,30,8|0,0:2|0:0,0:0:0:0:
106,74,97962,5,0,1:2:0:0:
106,74,98025,1,0,1:2:0:0:
106,74,98088,1,0,1:2:0:0:
106,74,98152,1,0,1:2:0:0:
106,74,98215,2,0,L|105:101,1,20,0|0,1:2|1:2,0:0:0:0:
49,166,98342,5,0,1:2:0:0:
49,166,98405,1,0,1:2:0:0:
49,166,98468,1,0,1:2:0:0:
49,166,98532,1,8,0:2:0:0:
49,166,98595,2,0,L|50:193,1,20,0|0,1:2|1:2,0:0:0:0:
124,245,98721,6,0,B|202:208|295:232|295:232|252:228|231:237,1,240,4|4,1:2|0:2,0:0:0:0:
342,68,99671,2,0,L|345:101,1,30,0|0,1:2|0:0,0:0:0:0:
439,182,99861,2,0,L|436:215,1,30,0|0,1:2|0:0,0:0:0:0:
268,329,100240,5,8,0:2:0:0:
349,223,100430,1,0,1:2:0:0:
355,209,100525,2,0,L|281:213,1,60,8|8,0:2|0:2,0:0:0:0:
178,272,100810,2,0,L|180:300,2,20,0|0|0,1:2|1:2|1:2,0:0:0:0:
147,254,101000,5,8,0:2:0:0:
125,218,101095,1,8,0:2:0:0:
130,176,101190,1,0,1:2:0:0:
158,144,101285,1,0,1:2:0:0:
180,108,101379,1,2,1:2:0:0:
175,66,101474,1,0,1:2:0:0:
147,34,101569,2,0,L|127:34,2,20,10|8|8,0:2|0:2|0:2,0:0:0:0:
236,200,101949,6,0,L|368:195,1,102.000001945496,12|2,0:2|0:2,0:0:0:0:
483,73,102233,1,0,1:2:0:0:
468,51,102329,2,0,L|336:46,1,102.000001945496,8|2,0:2|1:2,0:0:0:0:
227,191,102708,2,0,B|194:272|253:269|221:339,1,153.000002918243,8|0,0:2|1:2,0:0:0:0:
327,234,103088,1,10,0:2:0:0:
360,238,103183,1,0,1:2:0:0:
394,242,103278,1,0,1:2:0:0:
234,352,103468,6,0,L|130:361,1,102.000001945496,12|0,0:2|0:0,0:0:0:0:
16,230,103752,1,0,1:2:0:0:
0,212,103848,2,0,P|-1:161|21:115,1,102.000001945496,8|2,0:2|1:2,0:0:0:0:
195,21,104227,2,0,P|217:66|216:116,1,102.000001945496,8|2,0:2|0:2,0:0:0:0:
143,146,104512,1,0,1:2:0:0:
121,135,104607,1,8,0:2:0:0:
311,34,104797,2,0,L|378:41,1,51.0000009727478,2|0,1:2|0:0,0:0:0:0:
426,175,104987,6,0,P|440:212|432:290,1,102.000001945496,14|0,0:2|0:2,0:0:0:0:
322,374,105271,1,0,1:2:0:0:
298,360,105366,2,0,L|300:241,1,102.000001945496,10|0,0:2|1:2,0:0:0:0:
140,109,105746,2,0,L|137:261,1,153.000002918243,10|0,0:2|1:2,0:0:0:0:
69,347,106126,1,10,0:2:0:0:
35,343,106221,1,0,1:2:0:0:
1,339,106316,1,0,1:2:0:0:
164,190,106506,6,0,B|282:204|282:204|327:178,1,153.000002918243,12|0,0:2|1:2,0:0:0:0:
212,107,106885,1,8,0:2:0:0:
263,293,107075,1,0,1:2:0:0:
344,73,107265,1,8,0:2:0:0:
512,202,107455,1,8,0:2:0:0:
508,254,107550,1,8,0:2:0:0:
504,305,107645,1,8,0:2:0:0:
499,356,107740,1,8,0:2:0:0:
335,115,108025,6,0,P|274:105|222:138,1,102.000001945496,12|2,0:2|0:2,0:0:0:0:
220,204,108309,1,0,1:2:0:0:
225,218,108404,1,10,0:2:0:0:
161,66,108594,1,2,1:2:0:0:
101,242,108784,1,10,0:2:0:0:
0,87,108974,2,0,L|65:82,1,51.0000009727478,2|0,0:2|1:2,0:0:0:0:
200,218,109164,5,10,0:2:0:0:
211,226,109259,1,8,0:2:0:0:
222,234,109354,2,0,P|229:262|223:284,1,51.0000009727478,8|0,0:2|0:0,0:0:0:0:
145,56,109544,2,0,P|138:28|144:6,1,51.0000009727478,2|0,1:2|0:0,0:0:0:0:
356,156,109734,2,0,P|363:194|347:231,1,69.0000013160706,2|0,1:2|0:0,0:0:0:0:
73,188,109924,2,0,P|70:150|83:123,1,69.0000013160706,2|0,1:2|0:0,0:0:0:0:
409,23,110113,2,0,P|422:54|419:88,1,69.0000013160706,10|0,0:2|0:0,0:0:0:0:
139,282,110873,5,14,0:2:0:0:
77,31,111063,1,0,1:2:0:0:
297,273,111253,1,2,1:2:0:0:
209,22,111443,5,10,0:2:0:0:
147,273,111632,1,0,1:2:0:0:
367,31,111822,1,2,1:2:0:0:
460,329,112012,6,0,B|409:344|409:344|296:317|296:317|334:302,1,191.999994140625,10|2,0:2|0:2,0:0:0:0:
494,186,112581,1,2,1:2:0:0:
334,108,112772,2,0,L|342:218,1,95.9999970703126,0|0,1:2|0:0,0:0:0:0:
191,327,113151,6,0,B|157:343|157:343|125:331,1,71.9999978027344,10|0,0:2|0:0,0:0:0:0:
131,212,113341,6,0,B|164:200|164:200|199:216,1,71.9999978027344,0|0,1:0|0:0,0:0:0:0:
242,321,113531,6,0,B|161:358|161:358|73:325,1,180.000006866455,2|0,1:2|0:0,0:0:0:0:
37,233,113910,5,14,0:2:0:0:
212,36,114100,1,0,1:2:0:0:
256,327,114290,1,10,3:0:0:0:
89,60,114480,5,10,0:2:0:0:
350,43,114670,1,0,1:2:0:0:
177,281,114860,1,2,1:2:0:0:
428,134,115050,6,0,B|455:188|437:286|437:286|462:238,1,191.999994140625,10|0,0:2|0:0,0:0:0:0:
301,146,115619,1,10,0:2:0:0:
455,20,115809,1,8,0:2:0:0:
297,3,115999,1,0,1:2:0:0:
378,156,116189,6,0,B|346:173|346:173|312:164,1,71.9999978027344,10|0,3:0|0:0,0:0:0:0:
410,288,116379,6,0,B|441:304|441:304|476:295,1,71.9999978027344,8|0,0:0|0:0,0:0:0:0:
317,151,116569,6,0,B|352:159|352:159|383:143,1,71.9999978027344,8|0,0:0|0:0,0:0:0:0:
475,284,116759,6,0,B|440:292|440:292|409:276,1,71.9999978027344,0|0,1:2|0:0,0:0:0:0:
483,107,116948,5,14,0:2:0:0:
400,366,117138,1,2,1:2:0:0:
331,61,117328,1,0,1:2:0:0:
419,379,117518,5,10,0:2:0:0:
160,296,117708,1,0,1:2:0:0:
465,227,117898,1,2,1:2:0:0:
239,79,118088,6,0,B|39:94,1,191.999994140625,10|0,0:2|0:0,0:0:0:0:
220,222,118657,1,10,0:2:0:0:
318,50,118847,1,8,0:2:0:0:
381,172,119037,1,0,1:2:0:0:
135,186,119227,6,0,B|115:220|115:220|115:252,1,71.9999978027344,2|0,0:2|0:0,0:0:0:0:
215,140,119417,6,0,B|175:139|175:139|147:156,1,71.9999978027344,8|0,0:2|0:0,0:0:0:0:
292,186,119607,6,0,B|272:151|272:151|244:136,1,71.9999978027344,10|0,0:2|0:0,0:0:0:0:
207,363,119797,1,10,3:0:0:0:
248,360,119891,1,8,3:0:0:0:
289,357,119986,5,6,1:2:0:0:
50,227,120176,1,6,1:2:0:0:
322,194,120366,1,4,1:2:0:0:
26,353,120556,1,10,0:2:0:0:
144,79,120936,5,10,0:2:0:0:
146,117,121031,1,8,3:0:0:0:
149,155,121126,1,6,1:2:0:0:
218,359,121316,1,4,1:2:0:0:
266,82,121505,1,6,1:2:0:0:
486,327,121695,1,10,0:2:0:0:
486,327,122075,5,2,1:2:0:0:
323,250,122265,1,10,0:2:0:0:
474,200,122455,1,0,1:2:0:0:
251,199,122645,1,10,0:2:0:0:
357,67,122835,1,8,0:2:0:0:
166,142,123025,6,0,P|150:204|172:263,1,127.50000243187,6|0,1:2|0:0,0:0:0:0:
203,272,123594,1,2,1:2:0:0:
79,352,123784,2,0,L|11:357,1,51.0000009727478,8|0,0:2|0:0,0:0:0:0:
36,212,124164,2,0,P|76:128|69:38,1,178.500003404617,6|0,1:2|0:0,0:0:0:0:
77,28,124924,6,0,L|138:36,1,51.0000009727478,2|0,1:2|0:0,0:0:0:0:
242,172,125303,1,10,0:2:0:0:
322,0,125493,1,8,3:0:0:0:
152,137,125683,1,2,1:2:0:0:
343,113,125873,1,0,1:2:0:0:
193,227,126063,6,0,B|172:298|172:298|208:366,1,142.49999619484,6|0,1:2|0:0,0:0:0:0:
224,367,126632,1,2,1:2:0:0:
348,272,126822,2,0,L|344:213,1,56.9999984779358,8|0,0:2|0:0,0:0:0:0:
457,67,127202,2,0,L|462:184,1,113.999996955872,6|0,1:2|0:0,0:0:0:0:
479,338,127771,1,0,1:2:0:0:
380,241,127961,1,0,1:2:0:0:
262,355,128151,2,0,L|233:359,1,28.4999992389679,0|2,0:0|0:0,0:0:0:0:
81,258,128341,6,0,B|110:226|139:218|139:218|138:265|169:289|169:289|128:334|146:390,1,231.000007049561,2|0,0:0|0:0,0:0:0:0:
237,218,129101,6,0,P|251:144|222:64,1,150,6|0,1:2|0:0,0:0:0:0:
205,58,129670,1,2,1:2:0:0:
48,56,129860,2,0,L|50:124,1,60,10|0,0:2|0:0,0:0:0:0:
136,243,130240,2,0,B|223:273|222:212|311:247,1,180,6|2,1:2|0:2,0:0:0:0:
180,152,130999,6,0,P|174:123|183:88,1,60,0|0,1:2|0:0,0:0:0:0:
374,27,131379,1,8,0:2:0:0:
441,191,131569,1,8,3:0:0:0:
504,49,131759,1,2,1:2:0:0:
356,202,131949,1,2,1:2:0:0:
170,18,132138,5,14,0:2:0:0:
128,292,132328,1,2,1:2:0:0:
356,98,132518,1,0,1:2:0:0:
381,347,132708,1,10,0:2:0:0:
219,294,133088,5,14,0:2:0:0:
219,294,133183,1,0,0:0:0:0:
219,294,133278,1,2,1:2:0:0:
512,168,133468,1,8,3:0:0:0:
267,125,133657,1,2,1:2:0:0:
414,355,133847,1,10,0:2:0:0:
97,349,134227,6,0,L|117:344,3,20,8|8|8|10,0:2|0:2|0:2|0:2,0:0:0:0:
191,296,134543,1,8,0:2:0:0:
234,219,134670,1,8,3:0:0:0:
201,137,134797,1,10,3:0:0:0:
240,58,134923,1,8,3:0:0:0:
327,47,135050,1,0,1:2:0:0:
384,117,135177,6,0,L|381:175,1,48,6|0,1:2|1:2,0:0:0:0:
498,55,135556,2,0,L|501:113,1,48,0|0,1:2|1:2,0:0:0:0:
393,126,135936,2,0,L|390:173,1,48,8|0,1:2|1:2,0:0:0:0:
499,270,136316,1,0,1:2:0:0:
347,336,136506,6,0,P|295:337|232:293,1,96,0|0,1:2|1:2,0:0:0:0:
326,180,137075,2,0,L|321:228,1,48,0|0,1:2|1:2,0:0:0:0:
205,134,137455,2,0,L|199:86,1,48,8|0,1:2|1:2,0:0:0:0:
314,18,137835,1,0,1:2:0:0:
337,171,138025,1,8,1:2:0:0:
208,79,138215,6,0,P|186:71|162:71,1,48,4|0,1:2|1:2,0:0:0:0:
166,181,138594,2,0,P|142:180|119:188,1,48,0|0,1:2|1:2,0:0:0:0:
160,290,138974,2,0,P|137:298|119:313,1,48,8|0,1:2|1:2,0:0:0:0:
263,368,139354,1,0,1:2:0:0:
358,222,139544,6,0,B|374:175|374:175|361:130,1,96,0|0,1:2|1:2,0:0:0:0:
241,54,140113,2,0,L|181:58,1,48,0|0,1:2|1:2,0:0:0:0:
52,147,140493,2,0,L|112:151,1,48,8|0,1:2|1:2,0:0:0:0:
232,147,140873,1,0,1:2:0:0:
108,39,141062,1,8,1:2:0:0:
108,39,141157,1,8,1:2:0:0:
108,39,141253,6,0,P|81:40|58:47,1,48,4|0,1:2|1:2,0:0:0:0:
184,140,141632,2,0,P|207:146|231:146,1,48,0|0,1:2|1:2,0:0:0:0:
362,42,142012,2,0,P|338:42|314:48,1,48,8|0,1:2|1:2,0:0:0:0:
463,132,142392,1,0,1:2:0:0:
350,232,142582,6,0,L|354:127,1,96,0|0,1:2|1:2,0:0:0:0:
495,256,143151,2,0,L|493:303,1,48,0|0,1:2|1:2,0:0:0:0:
367,354,143531,2,0,L|368:306,1,48,8|0,1:2|1:2,0:0:0:0:
432,189,143911,1,0,1:2:0:0:
270,243,144100,1,8,1:2:0:0:
309,72,144291,6,0,P|346:59|385:62,1,66.0000020141602,12|0,1:2|1:2,0:0:0:0:
281,232,144669,1,0,1:2:0:0:
177,43,144860,6,0,P|140:30|101:33,1,66.0000020141602,8|0,1:2|1:2,0:0:0:0:
205,203,145239,1,0,1:2:0:0:
315,40,145430,6,0,P|352:27|391:30,1,66.0000020141602,8|0,1:2|1:2,0:0:0:0:
287,200,145809,1,0,1:2:0:0:
182,34,145999,6,0,L|185:102,1,66.0000020141602,8|0,1:2|1:2,0:0:0:0:
91,209,146379,1,0,1:2:0:0:
91,209,146474,1,0,1:2:0:0:
91,209,146569,1,8,1:2:0:0:
0,36,146759,1,8,1:2:0:0:
178,112,146949,1,8,1:2:0:0:
5,169,147138,1,8,1:2:0:0:
5,169,147233,1,0,0:0:0:0:
5,169,147329,6,0,L|1:228,1,60,6|0,1:2|1:2,0:0:0:0:
109,347,147708,2,0,L|105:288,1,60,0|0,1:2|1:2,0:0:0:0:
212,158,148088,2,0,L|208:217,1,60,8|0,1:2|1:2,0:0:0:0:
283,335,148468,1,0,1:2:0:0:
356,203,148658,6,0,L|477:197,1,120,0|0,1:2|1:2,0:0:0:0:
507,23,149227,2,0,P|477:22|448:30,1,60,0|0,1:2|1:2,0:0:0:0:
317,100,149607,2,0,P|346:99|375:107,1,60,8|0,1:2|1:2,0:0:0:0:
469,228,149987,1,0,1:2:0:0:
458,271,150081,1,0,1:2:0:0:
424,301,150177,1,8,1:2:0:0:
379,306,150271,1,0,1:2:0:0:
338,285,150366,6,0,P|316:277|269:279,1,60,4|0,1:2|1:2,0:0:0:0:
191,203,150746,2,0,P|167:200|122:215,1,60,0|0,1:2|1:2,0:0:0:0:
305,115,151126,2,0,P|283:107|236:109,1,60,8|0,1:2|1:2,0:0:0:0:
137,218,151506,1,0,1:2:0:0:
20,105,151696,6,0,B|13:35,1,60,0|0,1:2|0:0,0:0:0:0:
142,121,152075,1,0,1:2:0:0:
59,289,152265,2,0,B|0:294,1,60,0|0,1:2|1:2,0:0:0:0:
178,362,152645,1,8,1:2:0:0:
212,332,152740,1,0,1:2:0:0:
229,290,152835,1,0,1:2:0:0:
226,245,152930,1,0,1:2:0:0:
203,205,153025,1,0,1:2:0:0:
169,175,153119,1,0,1:2:0:0:
152,133,153214,1,8,1:2:0:0:
155,88,153309,1,8,1:2:0:0:
178,48,153404,6,0,L|266:55,1,71.9999978027344,4|0,1:2|1:2,0:0:0:0:
362,156,153784,2,0,L|290:161,1,71.9999978027344,0|0,1:2|1:2,0:0:0:0:
417,281,154164,2,0,L|488:286,1,71.9999978027344,8|0,1:2|1:2,0:0:0:0:
456,143,154544,1,0,1:2:0:0:
284,211,154734,6,0,B|238:216|238:216|195:194|195:194|146:200,1,143.999995605469,0|0,1:2|1:2,0:0:0:0:
262,46,155303,2,0,P|270:81|262:116,1,71.9999978027344,0|0,1:2|1:2,0:0:0:0:
180,289,155683,2,0,P|172:324|181:359,1,71.9999978027344,8|0,1:2|1:2,0:0:0:0:
330,215,156063,1,2,1:2:0:0:
257,321,156252,1,10,1:2:0:0:
119,57,156442,5,14,1:2:0:0:
390,137,156632,1,2,1:2:0:0:
182,262,156822,1,0,1:2:0:0:
396,15,157012,1,10,1:2:0:0:
161,162,157582,5,10,1:2:0:0:
438,334,157772,1,0,1:2:0:0:
487,61,157961,1,2,1:2:0:0:
381,162,158151,2,0,P|317:169|375:138,1,179.999994506836,2|0,0:2|0:0,0:0:0:0:
151,125,159481,5,4,1:2:0:0:
151,125,159544,1,0,1:2:0:0:
151,125,159607,1,0,1:2:0:0:
151,125,159670,1,0,1:2:0:0:
151,125,159734,2,0,L|153:164,2,35.9999989013672,0|0|0,1:2|1:2|1:2,0:0:0:0:
231,291,160240,1,4,0:0:0:0:
339,154,160620,5,0,1:2:0:0:
339,154,160683,1,0,1:2:0:0:
339,154,160746,1,0,1:2:0:0:
339,154,160810,1,0,1:2:0:0:
339,154,160873,2,0,L|343:106,2,35.9999989013672,0|0|4,1:2|1:2|1:2,0:0:0:0:
407,313,161569,1,8,0:2:0:0:
268,337,161759,5,4,1:2:0:0:
268,337,161822,1,0,1:2:0:0:
268,337,161886,2,0,L|220:333,3,35.9999989013672,0|0|0|0,1:2|1:2|1:2|1:2,0:0:0:0:
204,297,162139,2,0,P|207:258|248:221,2,71.9999978027344,8|8|8,0:2|0:2|0:2,0:0:0:0:
153,285,162518,6,0,P|91:292|30:250,1,107.999996704102,4|0,1:2|0:0,0:0:0:0:
6,79,163088,2,0,B|32:69|32:69|74:78,1,53.9999983520508,2|0,0:2|0:0,0:0:0:0:
203,162,163278,6,0,B|200:127|200:127|214:99|214:99|212:57,1,107.999996704102,12|0,0:2|0:0,0:0:0:0:
222,42,163563,6,0,B|227:100|227:100|213:136|213:136|222:197,1,143.999995605469,0|0,1:2|0:0,0:0:0:0:
322,299,163848,6,0,L|315:238,1,53.9999983520508,0|0,1:2|0:0,0:0:0:0:
325,233,164038,6,0,L|333:304,1,71.9999978027344,12|0,0:2|1:0,0:0:0:0:
105,224,164291,6,0,B|70:216|70:216|35:226,1,71.9999978027344,0|0,1:2|1:0,0:0:0:0:
34,345,164544,6,0,B|68:355|68:355|103:347,1,71.9999978027344,8|0,0:0|1:2,0:0:0:0:
254,244,164797,5,8,0:2:0:0:
289,203,164892,1,8,0:2:0:0:
286,149,164987,1,0,1:2:0:0:
250,108,165082,1,0,1:2:0:0:
230,57,165177,1,0,1:2:0:0:
261,12,165272,1,0,1:2:0:0:
314,14,165367,1,8,0:2:0:0:
343,58,165462,1,8,0:2:0:0:
327,109,165556,6,0,L|285:117,6,35.9999989013672,4|0|0|0|0|0|0,1:2|1:2|1:2|1:2|1:2|1:2|1:2,0:0:0:0:
114,304,166316,2,0,L|235:308,1,107.999996704102,4|0,0:0|0:0,0:0:0:0:
375,259,166696,5,0,1:2:0:0:
375,259,166759,1,0,1:2:0:0:
375,259,166822,1,0,1:2:0:0:
375,259,166886,1,0,1:2:0:0:
375,259,166949,2,0,L|372:223,2,35.9999989013672,0|0|4,1:2|1:2|1:2,0:0:0:0:
499,119,167645,5,8,0:2:0:0:
395,22,167835,1,4,1:2:0:0:
395,22,167898,1,0,1:2:0:0:
395,22,167962,2,0,L|347:28,3,35.9999989013672,0|0|0|0,1:2|1:2|1:2|1:2,0:0:0:0:
346,49,168215,5,8,0:2:0:0:
285,154,168341,5,8,0:2:0:0:
224,259,168468,5,8,0:2:0:0:
163,364,168594,6,0,P|99:366|57:341,1,107.999996704102,4|0,1:2|0:0,0:0:0:0:
138,53,169354,6,0,B|156:104|156:104|138:155,1,107.999996704102,12|0,0:2|0:0,0:0:0:0:
115,155,169639,6,0,B|97:103|97:103|115:52,1,107.999996704102,0|0,1:2|0:0,0:0:0:0:
273,44,169924,6,0,L|334:50,1,53.9999983520508,0|0,1:2|0:0,0:0:0:0:
354,67,170113,6,0,L|246:56,1,107.999996704102,12|0,0:2|0:0,0:0:0:0:
351,187,170398,6,0,B|363:243|363:243|346:291,1,107.999996704102,0|0,1:2|0:0,0:0:0:0:
239,236,170683,1,0,1:2:0:0:
256,192,170778,12,2,175620,0:0:0:0:
