osu file format v14

[General]
AudioFilename: audio.mp3
AudioLeadIn: 0
PreviewTime: 116267
Countdown: 0
SampleSet: None
StackLeniency: 0.7
Mode: 0
LetterboxInBreaks: 0
WidescreenStoryboard: 1

[Editor]
DistanceSpacing: 2.4
BeatDivisor: 4
GridSize: 8
TimelineZoom: 2.899999

[Metadata]
Title:Take Your Pick (feat. Corpsegrinder)
TitleUnicode:Take Your Pick (feat. Corpsegrinder)
Artist:Ice Nine Kills
ArtistUnicode:Ice Nine Kills
Creator:Blitzifyyy
Version:Normal
Source:
Tags:ajitani hifumi we_vibing we vibing themefisto washedup player the silver scream 2 welcome to horrorwood horror metalcore deathcore english cannibal corpse death metal ink
BeatmapID:4012164
BeatmapSetID:1940471

[Difficulty]
HPDrainRate:3
CircleSize:3.4
OverallDifficulty:4
ApproachRate:5.6
SliderMultiplier:0.999999999999999
SliderTickRate:1

[Events]
//Background and Video events
0,0,"thumb-1920-807986.jpg",0,0
//Break Periods
2,116288,123638
2,167126,177066
//Storyboard Layer 0 (Background)
//Storyboard Layer 1 (Fail)
//Storyboard Layer 2 (Pass)
//Storyboard Layer 3 (Foreground)
//Storyboard Layer 4 (Overlay)
//Storyboard Sound Samples

[TimingPoints]
171,309.278350515464,4,2,1,65,1,0
1098,333.333333333333,4,2,1,65,1,0
1431,300,4,2,1,65,1,0
2030,396.039603960396,4,2,1,65,1,0
2228,320.855614973262,4,2,1,65,1,0
2548,285.714285714286,4,2,1,65,1,0
3410,357.142857142857,4,2,1,65,1,0
7873,-100,4,2,1,65,0,0
7963,-100,4,2,1,65,0,0
9124,-100,4,2,1,75,0,0
19124,-100,4,2,1,45,0,0
19660,-100,4,2,1,55,0,0
20195,-100,4,2,1,65,0,0
20731,-100,4,2,1,75,0,0
21267,-100,4,2,1,85,0,0
21981,-100,4,2,1,75,0,0
23410,-100,4,2,1,65,0,0
23678,-100,4,2,1,65,0,0
23767,-100,4,2,1,65,0,0
25373,-100,4,2,1,5,0,0
25553,-100,4,2,1,65,0,0
26355,-100,4,2,1,65,0,0
26445,-100,4,2,1,65,0,0
29391,-100,4,2,1,65,0,0
29481,-100,4,2,1,65,0,0
31981,-100,4,2,1,75,0,0
34838,-100,4,2,1,65,0,0
37427,-100,4,2,1,65,0,0
37517,-100,4,2,1,65,0,0
41176,-100,4,2,1,65,0,0
41267,-100,4,2,1,65,0,0
41892,-100,4,2,1,65,0,0
41981,-100,4,2,1,65,0,0
42606,-100,4,2,1,65,0,0
42695,-100,4,2,1,65,0,0
43231,-100,4,2,1,65,0,0
43588,-100,4,2,1,5,0,0
43677,-100,4,2,1,65,0,0
43767,-100,4,2,1,65,0,0
44034,-100,4,2,1,65,0,0
44124,-100,4,2,1,65,0,0
44391,-100,4,2,1,65,0,0
44481,-100,4,2,1,65,0,0
44838,-100,4,2,1,45,0,0
46267,-100,4,2,1,85,0,1
49212,-100,4,2,1,85,0,1
49303,-100,4,2,1,85,0,1
54927,-100,4,2,1,85,0,1
55017,-100,4,2,1,85,0,1
55640,-100,4,2,1,85,0,1
55731,-100,4,2,1,85,0,1
57427,-100,4,2,1,85,0,0
57517,-100,4,2,1,85,0,1
59124,-100,4,2,1,85,0,1
59838,-100,4,2,1,85,0,1
60374,-100,4,2,1,85,0,1
63231,-100,4,2,1,85,0,1
64838,-100,4,2,1,85,0,1
66505,-100,4,2,1,85,0,1
66802,-100,4,2,1,85,0,1
66981,-100,4,2,1,85,0,1
67695,-100,4,2,1,85,0,1
69124,-100,4,2,1,75,0,0
79124,-100,4,2,1,45,0,0
79660,-100,4,2,1,55,0,0
80195,-100,4,2,1,65,0,0
80731,-100,4,2,1,75,0,0
81981,-100,4,2,1,65,0,0
82248,-100,4,2,1,65,0,0
82338,-100,4,2,1,65,0,0
85017,-100,4,2,1,65,0,0
87962,-100,4,2,1,65,0,0
88052,-100,4,2,1,65,0,0
90552,-100,4,2,1,75,0,0
93410,-100,4,2,1,85,0,1
96355,-100,4,2,1,85,0,1
96445,-100,4,2,1,85,0,1
102069,-100,4,2,1,85,0,1
102160,-100,4,2,1,85,0,1
102784,-100,4,2,1,85,0,1
102874,-100,4,2,1,85,0,1
104600,-100,4,2,1,85,0,1
104660,-100,4,2,1,85,0,1
105998,-100,4,2,1,85,0,1
106088,-100,4,2,1,85,0,1
109212,-100,4,2,1,85,0,1
109302,-100,4,2,1,85,0,1
111713,-100,4,2,1,85,0,1
111802,-100,4,2,1,85,0,1
113856,-100,4,2,1,85,0,1
113945,-100,4,2,1,85,0,1
114391,-100,4,2,1,85,0,1
114481,-100,4,2,1,85,0,1
116267,-100,4,2,1,55,0,0
124838,-100,4,2,1,55,0,0
126891,-100,4,2,1,55,0,0
126981,-100,4,2,1,75,0,0
127606,-100,4,2,1,75,0,0
127695,-100,4,2,1,75,0,0
127962,-100,4,2,1,75,0,0
128052,-100,4,2,1,75,0,0
128319,-100,4,2,1,75,0,0
128410,-100,4,2,1,75,0,0
128677,-100,4,2,1,75,0,0
128767,-100,4,2,1,75,0,0
128945,-100,4,2,1,75,0,0
129124,-100,4,2,1,75,0,0
129302,-100,4,2,1,75,0,0
129481,-100,4,2,1,75,0,0
129719,-100,4,2,1,75,0,0
129838,-100,4,2,1,75,0,0
130910,-100,4,2,1,75,0,0
131177,-100,4,2,1,75,0,0
131267,-100,4,2,1,75,0,0
131534,-100,4,2,1,75,0,0
131624,-100,4,2,1,75,0,0
131891,-100,4,2,1,75,0,0
131981,-100,4,2,1,75,0,0
132605,-100,4,2,1,75,0,0
132695,-100,4,2,1,75,0,0
133319,-100,4,2,1,75,0,0
133410,-100,4,2,1,75,0,0
133677,-100,4,2,1,75,0,0
133767,-100,4,2,1,75,0,0
134034,-100,4,2,1,75,0,0
134124,-100,4,2,1,75,0,0
134391,-100,4,2,1,75,0,0
134481,-100,4,2,1,75,0,0
134659,-100,4,2,1,75,0,0
134838,-100,4,2,1,75,0,0
135016,-100,4,2,1,75,0,0
135195,-100,4,2,1,75,0,0
135462,-100,4,2,1,75,0,0
135552,-100,4,2,1,75,0,0
136624,-100,4,2,1,75,0,0
136891,-100,4,2,1,75,0,0
136981,-100,4,2,1,75,0,0
137248,-100,4,2,1,75,0,0
137338,-100,4,2,1,75,0,0
137605,-100,4,2,1,75,0,0
137695,-100,4,2,1,75,0,0
140116,387.096774193549,4,2,1,75,1,0
145728,-100,4,2,1,5,0,0
145922,-100,4,2,1,75,0,0
153405,422.535211267606,4,2,1,85,1,1
155517,-100,4,2,1,75,0,0
157523,-100,4,2,1,75,0,0
157630,-100,4,2,1,75,0,0
157946,-100,4,2,1,75,0,0
158052,-100,4,2,1,75,0,0
158368,-100,4,2,1,75,0,0
158475,-100,4,2,1,75,0,0
159213,-100,4,2,1,75,0,0
159320,-100,4,2,1,75,0,0
160059,-100,4,2,1,75,0,0
160165,-100,4,2,1,85,0,1
162700,-100,4,2,1,85,0,0
163968,-100,4,2,1,85,0,1
166081,-100,4,2,1,85,0,0
166926,-100,4,2,1,45,0,0
178452,357.142857142857,4,2,1,85,1,0
178452,-100,4,2,1,85,0,1
181397,-100,4,2,1,85,0,1
181487,-100,4,2,1,85,0,1
187111,-100,4,2,1,85,0,1
187202,-100,4,2,1,85,0,1
187826,-100,4,2,1,85,0,1
187916,-100,4,2,1,85,0,1
188540,-100,4,2,1,85,0,1
188630,-100,4,2,1,85,0,1
188897,-100,4,2,1,85,0,1
188987,-100,4,2,1,85,0,1
192737,-100,4,2,1,75,0,0
193452,-100,4,2,1,85,0,1
196309,-100,4,2,1,75,0,0
196666,-100,4,2,1,75,0,0

[Colours]
Combo1 : 77,77,77
Combo2 : 255,17,23
Combo3 : 159,159,159

[HitObjects]
95,77,3410,6,0,P|143:67|144:187,1,200,4|8,1:2|0:0,0:0:0:0:
0,302,4838,2,0,B|40:266|106:300|76:317|133:348|186:315,1,200,4|8,1:2|0:0,0:0:0:0:
357,216,6267,6,0,B|363:65|349:217|358:64,1,150,4|8,1:2|0:0,0:0:0:0:
358,17,6981,1,4,1:2:0:0:
176,101,7695,2,0,P|140:92|89:86,2,74.9999999999999,8|8|0,1:3|1:3|1:0,0:0:0:0:
216,131,8410,1,8,1:2:0:0:
381,19,9124,6,0,P|432:50|437:148,1,150,4|10,1:2|0:0,0:0:0:0:
412,173,9838,2,0,L|345:169,1,50,2|8,1:2|0:0,0:0:0:0:
312,167,10195,1,2,1:2:0:0:
232,227,10552,1,2,1:2:0:0:
232,227,10731,2,0,B|116:223|231:230|115:229,1,99.9999999999999,10|10,0:0|0:0,0:0:0:0:
84,215,11267,2,0,P|63:181|75:120,1,99.9999999999999,4|6,1:2|1:2,0:0:0:0:
133,45,11981,6,0,L|185:50,1,50,6|10,1:2|0:0,0:0:0:0:
223,78,12338,2,0,L|327:72,1,99.9999999999999,2|2,1:2|1:2,0:0:0:0:
410,23,13052,1,2,1:2:0:0:
470,102,13409,1,10,0:0:0:0:
470,102,13588,2,0,P|476:129|474:159,1,50,10|8,0:0|1:3,0:0:0:0:
436,182,13945,2,0,P|435:229|442:285,1,99.9999999999999,10|10,0:0|0:0,0:0:0:0:
458,328,14481,1,10,0:3:0:0:
370,376,14838,6,0,L|260:374,1,99.9999999999999,6|2,1:2|1:2,0:0:0:0:
224,353,15374,1,10,0:0:0:0:
224,353,15552,2,0,P|205:307|220:254,1,99.9999999999999,2|2,1:2|1:2,0:0:0:0:
290,192,16267,1,2,1:2:0:0:
290,192,16445,2,0,P|307:151|278:89,1,99.9999999999999,10|10,0:0|0:0,0:0:0:0:
256,62,16981,2,0,L|265:13,2,50,0|10|2,1:2|1:2|1:2,0:0:0:0:
165,103,17695,6,0,L|60:98,1,99.9999999999999,4|2,1:2|1:2,0:0:0:0:
16,85,18231,1,10,0:0:0:0:
16,85,18409,2,0,P|28:131|41:191,1,99.9999999999999,2|2,1:2|1:2,0:0:0:0:
116,246,19124,2,0,P|158:262|212:240,1,99.9999999999999,10|8,1:2|0:0,0:0:0:0:
235,202,19659,2,0,P|277:186|331:208,1,99.9999999999999,10|8,1:2|0:0,0:0:0:0:
368,231,20195,6,0,L|355:337,1,99.9999999999999,10|8,1:2|0:0,0:0:0:0:
350,380,20731,1,10,1:2:0:0:
222,300,21267,2,0,B|156:268|156:268|77:305,1,150,10|8,1:2|0:0,0:0:0:0:
48,333,21981,2,0,L|-8:329,2,50,8|8|8,1:3|1:2|1:2,0:0:0:0:
66,379,22517,1,8,1:2:0:0:
31,131,23409,6,0,B|61:121|73:92|73:92|111:100|150:149,1,150,6|0,1:2|1:2,0:0:0:0:
169,188,24124,1,8,0:0:0:0:
169,188,24302,2,0,L|166:251,1,50,0|0,1:2|0:0,0:0:0:0:
252,368,25017,1,0,1:2:0:0:
252,368,25195,2,0,P|288:354|317:363,1,50,2|0,1:2|0:0,0:0:0:0:
345,372,25552,1,10,0:0:0:0:
468,286,26088,6,0,L|466:168,1,99.9999999999999,6|0,1:2|1:2,0:0:0:0:
444,140,26624,2,0,P|415:125|377:124,1,50,0|0,1:2|1:2,0:0:0:0:
359,152,26981,1,0,1:2:0:0:
359,152,27159,2,0,P|330:167|292:168,1,50,8|0,0:0|0:0,0:0:0:0:
223,124,27695,2,0,L|223:59,2,50,8|0|8,0:0|1:2|1:3,0:0:0:0:
190,161,28231,1,0,1:2:0:0:
190,161,28409,2,0,L|192:219,1,50,10|8,1:2|1:3,0:0:0:0:
195,261,28767,1,0,0:0:0:0:
130,336,29124,6,0,P|68:359|13:293,1,150,6|0,1:2|1:2,0:0:0:0:
7,260,29838,1,8,0:0:0:0:
67,180,30195,2,0,P|90:174|116:178,1,50,0|0,1:2|1:2,0:0:0:0:
154,209,30552,2,0,P|177:215|203:211,1,50,0|0,1:2|1:2,0:0:0:0:
245,185,30909,2,0,L|243:76,1,99.9999999999999,2|10,1:2|1:2,0:0:0:0:
243,34,31445,1,0,1:2:0:0:
96,0,31981,6,0,P|47:31|37:85,1,99.9999999999999,10|0,1:2|1:2,0:0:0:0:
16,115,32517,2,0,P|27:159|38:215,1,99.9999999999999,8|0,1:2|1:2,0:0:0:0:
29,261,33052,2,0,B|54:247|82:255|82:255|96:278|124:282,1,99.9999999999999,8|0,1:2|1:2,0:0:0:0:
167,283,33588,1,8,1:2:0:0:
262,167,34124,2,0,L|257:110,1,50,8|8,1:3|1:3,0:0:0:0:
364,11,34838,6,0,L|386:214,1,200,4|2,1:2|0:0,0:0:0:0:
50,376,37159,2,0,P|38:338|42:313,1,50
55,280,37517,6,0,B|103:243|166:275|134:289|195:323|242:290|242:290|210:287|193:264,1,250,4|2,1:2|0:0,0:0:0:0:
20,30,39481,2,0,L|16:87,1,50,2|2,1:2|1:2,0:0:0:0:
19,129,39838,1,8,1:2:0:0:
200,213,40552,6,0,B|295:210|295:210|302:216|302:216|413:212,2,200,4|6|6,1:2|1:2|1:2,0:0:0:0:
19,298,42695,1,4,1:2:0:0:
149,371,43231,6,0,L|261:369,1,99.9999999999999,4|0,1:2|0:0,0:0:0:0:
289,340,43767,2,0,P|306:307|306:276,1,50,6|2,1:2|0:0,0:0:0:0:
347,264,44124,2,0,P|353:222|324:168,1,99.9999999999999,6|2,1:2|1:2,0:0:0:0:
286,144,44659,1,2,1:2:0:0:
492,369,45731,1,0,1:2:0:0:
492,369,45909,2,0,L|426:363,1,50,10|2,0:0|1:2,0:0:0:0:
403,331,46267,6,0,L|299:340,1,99.9999999999999,4|10,1:2|0:0,0:0:0:0:
263,369,46802,1,0,1:2:0:0:
263,369,46981,2,0,L|208:364,1,50,2|2,1:2|1:2,0:0:0:0:
163,363,47338,1,8,0:0:0:0:
72,334,47695,1,2,0:0:0:0:
72,334,47874,2,0,P|61:300|63:272,1,50,2|8,1:2|0:0,0:0:0:0:
70,236,48231,2,0,L|183:241,1,99.9999999999999,2|0,1:2|1:2,0:0:0:0:
252,297,48945,6,0,L|370:292,1,99.9999999999999,0|2,1:2|1:2,0:0:0:0:
399,278,49481,2,0,P|413:248|414:225,1,50,10|2,0:0|1:2,0:0:0:0:
376,198,49838,2,0,P|362:168|361:145,1,50,2|2,1:2|1:2,0:0:0:0:
368,102,50195,1,10,0:0:0:0:
423,18,50552,2,0,L|478:26,2,50,2|2|10,0:0|1:2|0:0,0:0:0:0:
374,6,51088,2,0,B|326:6|326:6|321:10|321:10|261:14,1,99.9999999999999,2|0,1:2|1:2,0:0:0:0:
222,16,51624,1,10,0:0:0:0:
222,16,51802,1,2,1:2:0:0:
102,107,52338,6,0,P|91:134|90:161,1,50,10|0,1:2|1:2,0:0:0:0:
61,196,52695,2,0,P|65:234|78:260,1,50,10|2,1:2|1:2,0:0:0:0:
79,293,53052,1,10,1:2:0:0:
164,344,53409,2,0,P|190:350|226:342,1,50,10|2,1:2|1:2,0:0:0:0:
254,318,53767,2,0,P|280:314|316:320,1,50,10|2,1:2|1:2,0:0:0:0:
346,341,54124,1,8,0:2:0:0:
463,245,54659,6,0,P|480:201|467:137,1,99.9999999999999,6|10,1:2|0:0,0:0:0:0:
442,110,55195,1,8,0:0:0:0:
442,110,55374,2,0,B|339:120|442:113|339:122,1,99.9999999999999,6|10,1:2|0:0,0:0:0:0:
259,176,56088,2,0,L|198:172,1,50,6|0,1:2|0:0,0:0:0:0:
167,200,56445,2,0,L|105:198,1,50,10|8,0:3|0:3,0:0:0:0:
75,170,56802,2,0,P|70:143|76:118,1,50,10|8,0:3|0:0,0:0:0:0:
99,77,57159,1,2,1:2:0:0:
177,14,57517,6,0,L|334:20,1,150,6|0,1:2|0:0,0:0:0:0:
371,43,58231,1,2,0:0:0:0:
371,43,58409,2,0,B|393:91|393:91|375:145,1,99.9999999999999,8|0,0:0|0:0,0:0:0:0:
322,219,59124,2,0,L|326:308,2,74.9999999999999,2|2|2,0:0|0:0|1:2,0:0:0:0:
280,190,59838,2,0,P|247:174|178:187,1,99.9999999999999,10|0,0:0|0:0,0:0:0:0:
125,261,60552,6,0,L|128:319,1,50,2|2,0:0|0:0,0:0:0:0:
157,351,60909,2,0,P|190:362|222:354,1,50,2|2,0:0|0:0,0:0:0:0:
246,332,61267,2,0,P|279:321|311:329,1,50,10|2,0:0|0:0,0:0:0:0:
334,350,61624,1,2,0:0:0:0:
414,289,61981,1,2,0:0:0:0:
414,289,62159,2,0,L|466:292,2,50,10|10|10,0:0|0:3|0:3,0:0:0:0:
383,249,62695,1,10,0:0:0:0:
248,314,63231,6,0,B|89:318|248:317|89:321,1,150,6|0,1:2|0:0,0:0:0:0:
54,312,63945,1,2,0:0:0:0:
54,312,64124,2,0,P|22:262|36:215,1,99.9999999999999,10|0,0:0|0:0,0:0:0:0:
84,141,64838,2,0,P|81:104|77:59,2,74.9999999999999,2|2|2,0:0|0:0|1:2,0:0:0:0:
117,177,65552,2,0,P|168:189|217:168,1,99.9999999999999,10|0,0:0|0:0,0:0:0:0:
286,106,66267,6,0,L|280:-12,2,99.9999999999999,2|0|8,0:0|0:0|0:0,0:0:0:0:
357,175,67338,1,8,0:3:0:0:
300,257,67695,2,0,P|264:268|230:262,1,50,10|10,1:2|0:0,0:0:0:0:
210,239,68052,2,0,P|174:228|140:234,1,50,10|10,1:2|0:0,0:0:0:0:
117,250,68409,1,10,1:2:0:0:
14,77,69124,6,0,B|82:44|82:44|147:81,1,150,4|10,1:2|0:0,0:0:0:0:
181,117,69838,2,0,L|181:188,1,50,2|8,1:2|0:0,0:0:0:0:
183,217,70195,1,2,1:2:0:0:
248,300,70552,1,2,1:2:0:0:
248,300,70731,2,0,B|364:296,1,99.9999999999999,10|10,0:0|1:2,0:0:0:0:
394,277,71267,2,0,P|415:243|403:182,1,99.9999999999999,0|2,1:2|1:2,0:0:0:0:
327,123,71981,6,0,P|300:121|275:128,1,50,4|10,1:2|0:0,0:0:0:0:
237,156,72338,2,0,B|133:146|236:160|133:150,1,99.9999999999999,2|2,1:2|1:2,0:0:0:0:
57,90,73052,1,2,1:2:0:0:
14,180,73409,2,0,L|28:294,1,99.9999999999999,6|2,1:2|1:2,0:0:0:0:
22,329,73945,2,0,P|70:312|122:319,1,99.9999999999999,10|2,0:0|1:2,0:0:0:0:
159,345,74481,1,10,0:0:0:0:
228,272,74838,6,0,P|238:245|232:210,1,50,0|8,1:2|1:2,0:0:0:0:
207,191,75195,1,0,1:2:0:0:
207,191,75373,2,0,P|190:150|209:98,1,99.9999999999999,8|8,1:2|1:2,0:0:0:0:
245,67,75909,1,0,1:2:0:0:
335,24,76267,2,0,P|365:17|435:35,1,99.9999999999999,0|0,1:2|1:2,0:0:0:0:
463,70,76802,2,0,L|460:173,1,99.9999999999999,8|8,1:2|1:2,0:0:0:0:
461,220,77338,1,0,1:2:0:0:
381,281,77695,6,0,P|352:288|326:281,1,50,2|10,1:2|1:2,0:0:0:0:
293,252,78052,2,0,P|264:245|238:252,1,50,2|10,1:2|1:2,0:0:0:0:
196,264,78409,1,2,1:2:0:0:
119,199,78767,1,10,1:2:0:0:
30,245,79124,2,0,P|7:290|22:352,1,99.9999999999999,10|8,1:2|0:0,0:0:0:0:
46,375,79659,2,0,L|166:368,1,99.9999999999999,10|8,1:2|0:0,0:0:0:0:
187,340,80195,2,0,L|307:347,1,99.9999999999999,10|8,1:2|0:0,0:0:0:0:
332,366,80731,1,10,1:2:0:0:
495,57,81980,6,0,B|453:18|453:18|376:75,1,150,6|0,1:2|1:2,0:0:0:0:
342,108,82695,1,8,0:0:0:0:
342,108,82873,2,0,L|345:168,1,50,0|0,1:2|0:0,0:0:0:0:
254,279,83588,1,0,1:2:0:0:
254,279,83766,2,0,P|215:283|189:267,1,50,2|0,1:2|0:0,0:0:0:0:
165,252,84123,1,10,0:0:0:0:
44,162,84659,6,0,P|29:107|52:63,1,99.9999999999999,6|0,1:2|1:2,0:0:0:0:
87,41,85195,2,0,L|151:45,1,50,0|0,1:2|1:2,0:0:0:0:
179,80,85552,1,0,1:2:0:0:
179,80,85730,2,0,L|239:81,1,50,8|0,0:0|0:0,0:0:0:0:
324,50,86266,2,0,L|324:-15,2,50,8|0|8,0:0|1:2|1:3,0:0:0:0:
352,97,86802,1,0,1:2:0:0:
352,97,86980,2,0,L|350:146,1,50,10|8,1:2|1:3,0:0:0:0:
351,197,87338,1,0,0:0:0:0:
264,247,87695,6,0,B|170:262|215:192|112:200,1,150,6|0,1:2|1:2,0:0:0:0:
84,221,88409,1,8,0:0:0:0:
20,298,88766,2,0,P|14:321|18:347,1,50,0|0,1:2|1:2,0:0:0:0:
58,376,89123,2,0,L|107:374,1,50,0|0,1:2|1:2,0:0:0:0:
147,343,89480,2,0,L|253:343,1,99.9999999999999,2|10,1:2|1:2,0:0:0:0:
290,367,90016,1,0,1:2:0:0:
398,263,90552,6,0,P|411:205|387:159,1,99.9999999999999,10|0,1:2|1:2,0:0:0:0:
356,138,91088,2,0,L|244:147,1,99.9999999999999,8|0,1:2|1:2,0:0:0:0:
215,175,91624,2,0,L|111:174,1,99.9999999999999,8|0,1:2|1:2,0:0:0:0:
65,171,92159,1,8,1:2:0:0:
150,47,92695,1,8,1:2:0:0:
216,125,93052,2,0,L|214:191,1,50,10|2,0:0|1:2,0:0:0:0:
186,216,93409,6,0,L|191:316,1,99.9999999999999,4|10,1:2|0:0,0:0:0:0:
223,361,93945,1,0,1:2:0:0:
223,361,94123,2,0,P|247:367|276:359,1,50,2|2,1:2|1:2,0:0:0:0:
319,347,94480,1,8,0:0:0:0:
399,286,94837,1,2,0:0:0:0:
399,286,95016,2,0,L|394:225,1,50,2|8,1:2|0:0,0:0:0:0:
428,198,95373,2,0,L|420:91,1,99.9999999999999,2|0,1:2|1:2,0:0:0:0:
355,21,96087,6,0,P|310:12|260:34,1,99.9999999999999,0|2,1:2|1:2,0:0:0:0:
229,72,96623,2,0,L|235:137,1,50,10|2,0:0|1:2,0:0:0:0:
260,164,96981,2,0,L|254:229,1,50,2|2,1:2|1:2,0:0:0:0:
235,259,97337,1,10,0:0:0:0:
302,332,97694,2,0,L|357:332,2,50,10|2|2,0:0|1:2|1:2,0:0:0:0:
266,366,98231,2,0,B|211:362|211:362|209:359|209:359|166:359,1,99.9999999999999,10|0,0:2|1:2,0:0:0:0:
117,355,98767,1,10,0:0:0:0:
117,355,98944,1,10,0:2:0:0:
18,242,99480,6,0,P|14:214|21:188,1,50,10|0,1:2|1:2,0:0:0:0:
37,146,99838,2,0,P|45:120|41:90,1,50,10|2,1:2|1:2,0:0:0:0:
29,46,100194,1,10,1:2:0:0:
118,2,100551,2,0,L|178:5,1,50,10|2,1:2|1:2,0:0:0:0:
211,30,100909,2,0,L|260:27,1,50,10|2,1:2|1:2,0:0:0:0:
308,11,101266,1,8,0:2:0:0:
408,122,101801,6,0,P|415:170|397:217,1,99.9999999999999,6|10,1:2|0:0,0:0:0:0:
363,253,102337,1,8,0:0:0:0:
363,253,102516,2,0,L|259:251,1,99.9999999999999,6|10,1:2|0:0,0:0:0:0:
174,297,103230,2,0,P|165:326|169:356,1,50,6|0,1:2|0:0,0:0:0:0:
202,380,103587,2,0,L|264:378,1,50,10|8,0:3|0:3,0:0:0:0:
296,354,103944,2,0,L|349:356,1,50,10|8,0:3|0:0,0:0:0:0:
392,373,104301,1,2,1:2:0:0:
472,313,104659,6,0,P|499:255|399:207,1,200,6|8,1:2|0:0,0:0:0:0:
363,242,105552,1,8,0:0:0:0:
214,218,106088,2,0,B|177:150|177:150|218:77,1,150,0|0,1:2|0:0,0:0:0:0:
246,50,106802,1,0,1:2:0:0:
246,50,106981,2,0,L|312:53,2,50,8|8|8,0:0|0:3|0:3,0:0:0:0:
218,8,107517,6,0,L|60:13,1,150,4|0,1:2|0:0,0:0:0:0:
6,91,108409,1,8,0:0:0:0:
6,91,108588,2,0,P|-3:128|2:149,1,50,0|8,0:0|0:0,0:0:0:0:
27,180,108945,2,0,P|34:206|33:231,1,50,0|0,1:2|0:0,0:0:0:0:
10,273,109302,1,8,0:0:0:0:
68,360,109659,1,0,1:2:0:0:
68,360,109838,2,0,L|179:356,1,99.9999999999999,8|8,0:0|0:0,0:0:0:0:
213,336,110374,6,0,B|246:292|209:236|197:266|153:215|192:155,1,200,4|8,1:2|0:0,0:0:0:0:
224,116,111267,1,8,0:0:0:0:
355,43,111802,2,0,P|408:44|439:137,1,150,0|0,1:2|0:0,0:0:0:0:
424,171,112517,1,0,1:2:0:0:
424,171,112695,2,0,B|313:165|423:178|313:171,1,99.9999999999999,8|8,0:0|0:3,0:0:0:0:
282,145,113231,6,0,P|228:128|159:234,1,200,4|0,1:2|1:2,0:0:0:0:
173,276,114124,1,8,0:0:0:0:
241,356,114481,1,8,0:0:0:0:
241,356,114659,2,0,L|349:352,1,99.9999999999999,4|8,1:2|0:0,0:0:0:0:
377,318,115195,2,0,P|382:293|378:269,1,50,8|8,1:3|1:3,0:0:0:0:
350,227,115552,2,0,L|299:227,2,50,8|8|8,0:0|1:3|1:3,0:0:0:0:
376,184,116088,1,8,0:0:0:0:
256,192,124838,12,8,126981,0:0:0:0:
64,135,127695,6,0,L|50:20,2,99.9999999999999,4|0|4,1:2|1:2|1:2,0:0:0:0:
126,213,128767,1,0,1:2:0:0:
60,288,129124,1,12,0:0:0:0:
131,357,129481,2,0,P|181:368|227:350,1,99.9999999999999,0|0,1:2|0:0,0:0:0:0:
387,98,130909,6,0,P|433:80|485:89,2,99.9999999999999,4|0|0,1:2|1:2|1:2,0:0:0:0:
294,137,131981,2,0,P|271:141|235:133,1,50,8|0,0:0|1:2,0:0:0:0:
205,106,132338,1,8,0:3:0:0:
130,172,132695,2,0,L|136:230,1,50,8|0,0:0|1:2,0:0:0:0:
141,271,133052,1,8,0:3:0:0:
223,328,133409,6,0,L|327:328,2,99.9999999999999,4|0|4,1:2|1:2|1:2,0:0:0:0:
136,378,134481,1,0,1:2:0:0:
52,322,134838,2,0,P|33:269|51:219,1,99.9999999999999,12|0,0:0|1:2,0:0:0:0:
388,23,136624,6,0,L|497:32,2,99.9999999999999,4|0|0,1:2|1:2|1:2,0:0:0:0:
296,62,137695,1,8,0:0:0:0:
73,90,140116,6,0,P|26:38|30:-6,2,99.9999999999999,6|2|6,1:2|1:2|1:2,0:0:0:0:
169,62,141277,1,2,1:2:0:0:
243,129,141664,2,0,L|235:246,1,99.9999999999999,14|2,0:0|1:2,0:0:0:0:
177,309,142438,2,0,P|126:336|94:232,1,200,2|8,0:0|0:0,0:0:0:0:
177,181,143599,6,0,L|300:185,2,99.9999999999999,6|2|2,1:2|1:2|1:2,0:0:0:0:
85,140,144761,2,0,P|73:108|75:83,1,50,10|0,0:0|1:2,0:0:0:0:
87,44,145148,1,4,1:2:0:0:
177,0,145535,2,0,L|241:4,1,50,10|0,0:0|0:0,0:0:0:0:
277,6,145922,1,2,0:0:0:0:
361,58,146309,6,0,B|407:56|407:56|413:59|413:59|472:54,2,99.9999999999999,4|2|6,1:2|1:2|1:2,0:0:0:0:
285,123,147470,2,0,P|276:161|277:188,1,50,2|0,1:2|1:2,0:0:0:0:
293,218,147857,1,14,0:0:0:0:
230,295,148245,2,0,P|182:312|128:287,1,99.9999999999999,2|2,1:2|0:0,0:0:0:0:
250,17,149793,6,0,L|356:12,2,99.9999999999999,2|2|2,1:2|1:2|1:2,0:0:0:0:
162,61,150954,1,10,0:0:0:0:
470,372,153405,6,0,L|467:316,1,50,2|0,1:2|1:2,0:0:0:0:
437,281,153827,2,0,L|440:225,1,50,0|0,1:2|1:2,0:0:0:0:
471,192,154250,2,0,L|468:136,1,50,0|0,1:2|1:2,0:0:0:0:
465,92,154672,1,0,1:2:0:0:
384,32,155095,2,0,P|339:29|296:60,1,99.9999999999999,8|0,1:2|1:2,0:0:0:0:
12,342,157207,6,0,P|-5:290|14:240,2,99.9999999999999,8|8|8,1:3|1:3|1:3,0:0:0:0:
108,370,158475,2,0,L|173:365,1,50,8|4,1:2|1:2,0:0:0:0:
207,363,158897,1,4,1:2:0:0:
283,297,159320,2,0,L|335:300,2,50,8|8|0,1:2|1:3|0:0,0:0:0:0:
191,256,160165,6,0,P|176:222|177:195,1,50,4|0,1:2|1:2,0:0:0:0:
157,162,160588,2,0,P|163:131|188:110,1,50,2|0,1:2|1:2,0:0:0:0:
187,69,161010,2,0,P|217:52|247:51,1,50,2|0,1:2|1:2,0:0:0:0:
281,58,161433,1,2,1:2:0:0:
363,114,161855,2,0,L|359:181,1,50,10|0,1:2|1:2,0:0:0:0:
335,207,162278,2,0,L|339:274,1,50,2|8,1:2|0:3,0:0:0:0:
363,299,162700,1,10,0:2:0:0:
64,327,163968,6,0,P|45:281|60:231,2,99.9999999999999,10|10|10,0:0|0:0|0:0,0:0:0:0:
152,374,165235,2,0,L|204:370,1,50,10|0,0:0|1:2,0:0:0:0:
241,339,165658,2,0,L|293:343,1,50,8|0,0:3|1:2,0:0:0:0:
336,364,166081,1,10,0:0:0:0:
478,224,166926,5,4,1:2:0:0:
289,51,178452,6,0,P|337:32|393:42,1,99.9999999999999,4|10,1:2|0:0,0:0:0:0:
428,60,178987,1,0,1:2:0:0:
428,60,179166,2,0,L|423:114,1,50,2|2,1:2|1:2,0:0:0:0:
418,159,179523,1,8,0:0:0:0:
339,220,179880,1,2,0:0:0:0:
339,220,180059,2,0,P|303:217|278:205,1,50,2|8,1:2|0:0,0:0:0:0:
254,177,180416,2,0,P|204:169|156:193,1,99.9999999999999,2|8,1:2|0:2,0:0:0:0:
79,247,181130,6,0,L|94:363,1,99.9999999999999,4|2,1:2|1:2,0:0:0:0:
130,378,181666,2,0,P|154:374|176:362,1,50,10|2,0:0|1:2,0:0:0:0:
216,332,182023,2,0,P|240:335|262:347,1,50,2|2,1:2|1:2,0:0:0:0:
302,377,182380,1,10,0:0:0:0:
385,321,182737,2,0,L|435:322,2,50,10|2|10,0:0|1:2|0:0,0:0:0:0:
346,288,183273,2,0,B|325:245|325:245|344:196,1,99.9999999999999,2|8,1:2|0:3,0:0:0:0:
371,154,183809,1,10,0:0:0:0:
371,154,183987,1,2,1:2:0:0:
278,35,184523,6,0,P|251:24|224:23,1,50,10|0,1:2|1:2,0:0:0:0:
182,6,184880,2,0,P|152:13|128:35,1,50,10|2,1:2|1:2,0:0:0:0:
96,53,185237,1,10,1:2:0:0:
144,140,185594,2,0,P|150:166|142:202,1,50,10|2,1:2|1:2,0:0:0:0:
112,226,185952,2,0,P|108:251|114:288,1,50,10|2,1:2|1:2,0:0:0:0:
135,318,186309,1,8,0:2:0:0:
272,378,186844,6,0,B|321:376|321:376|325:378|325:378|377:374,1,99.9999999999999,6|10,1:2|0:0,0:0:0:0:
416,348,187380,1,8,0:0:0:0:
416,348,187559,2,0,P|428:303|404:245,1,99.9999999999999,6|10,1:2|0:0,0:0:0:0:
332,192,188273,2,0,L|281:197,1,50,6|0,1:2|0:0,0:0:0:0:
241,225,188630,2,0,L|185:225,1,50,10|0,1:2|0:0,0:0:0:0:
148,198,188987,2,0,P|123:156|143:103,1,99.9999999999999,10|8,1:2|0:0,0:0:0:0:
166,68,189523,1,8,0:0:0:0:
251,15,189880,6,0,L|359:23,1,99.9999999999999,8|8,0:0|0:0,0:0:0:0:
390,52,190416,2,0,P|411:103|397:159,1,99.9999999999999,10|10,1:2|0:0,0:0:0:0:
376,187,190952,1,10,1:2:0:0:
260,281,191487,1,10,0:0:0:0:
260,281,191666,2,0,L|203:278,1,50,8|10,0:3|0:3,0:0:0:0:
167,251,192023,2,0,B|120:254|120:254|117:257|117:257|59:262,2,99.9999999999999,6|4|4,1:2|1:2|1:2,0:0:0:0:
332,363,193452,6,0,P|384:374|371:211,1,300,6|0,1:2|1:2,0:0:0:0:
277,189,194880,2,0,P|272:225|287:268,2,74.9999999999999,8|8|8,1:3|1:3|1:3,0:0:0:0:
297,143,195594,2,0,P|342:112|435:129,1,150,8|0,1:3|1:2,0:0:0:0:
471,158,196309,1,0,1:0:0:0:
