osu file format v14

[General]
AudioFilename: audio.ogg
AudioLeadIn: 0
PreviewTime: 106008
Countdown: 0
SampleSet: Soft
StackLeniency: 0.7
Mode: 3
LetterboxInBreaks: 0
SpecialStyle: 0
WidescreenStoryboard: 1

[Editor]
DistanceSpacing: 1.5
BeatDivisor: 2
GridSize: 4
TimelineZoom: 2.5

[Metadata]
Title:IT Is The End
TitleUnicode:IT Is The End
Artist:Ice Nine Kills
ArtistUnicode:Ice Nine Kills
Creator:Div
Version:Hard
Source:
Tags:metal rock metalcore clown circus the silver scream final cut ink spencer charnas ricky armellino patrick galante joe occhiuti dan sugarman justin deblieck english pennywise less than jake fenix tx jr wasilewski buddy schaub will salazar its it's
BeatmapID:2909614
BeatmapSetID:1409573

[Difficulty]
HPDrainRate:7.7
CircleSize:4
OverallDifficulty:7.7
ApproachRate:5
SliderMultiplier:1.6
SliderTickRate:1

[Events]
//Background and Video events
0,0,"you'll float too.jpg",0,0
//Break Periods
//Storyboard Layer 0 (Background)
//Storyboard Layer 1 (Fail)
//Storyboard Layer 2 (Pass)
//Storyboard Layer 3 (Foreground)
//Storyboard Layer 4 (Overlay)
//Storyboard Sound Samples
Sample,64556,0,"Hat open.wav",55
Sample,64879,0,"Hat open.wav",55
Sample,65202,0,"Hat open.wav",55
Sample,65524,0,"Hat open.wav",55
Sample,65847,0,"Hat open.wav",55
Sample,66169,0,"Ride.wav",40
Sample,66492,0,"Ride.wav",40
Sample,67137,0,"Hat open.wav",55
Sample,67460,0,"Hat open.wav",55
Sample,67782,0,"Hat open.wav",55
Sample,68105,0,"Tom1.wav",55
Sample,68427,0,"Tom1.wav",55
Sample,68589,0,"Tom3.wav",55
Sample,68750,0,"Tom3.wav",55
Sample,68911,0,"Tom3.wav",55
Sample,69073,0,"Tom3.wav",55
Sample,69718,0,"Hat open.wav",55
Sample,70040,0,"Hat open.wav",55
Sample,70363,0,"Hat open.wav",55
Sample,70685,0,"Hat open.wav",55
Sample,71008,0,"Hat open.wav",55
Sample,71331,0,"Ride.wav",40
Sample,71653,0,"Ride.wav",40
Sample,72298,0,"Hat open.wav",55
Sample,72621,0,"Hat open.wav",55
Sample,72943,0,"Hat open.wav",55
Sample,73266,0,"Hat open.wav",55
Sample,73589,0,"Hat open.wav",55
Sample,73911,0,"Tom1.wav",55
Sample,74073,0,"Tom2.wav",55
Sample,74234,0,"Tom3.wav",55
Sample,76331,0,"Hat open.wav",55
Sample,76653,0,"Hat open.wav",55
Sample,76976,0,"Hat open.wav",55
Sample,77782,0,"Hat open.wav",55
Sample,77943,0,"Hat open.wav",55
Sample,78427,0,"Hat open.wav",55
Sample,78589,0,"Hat open.wav",55
Sample,78911,0,"Hat open.wav",55
Sample,79234,0,"Hat open.wav",55
Sample,79556,0,"Hat open.wav",55
Sample,80040,0,"Crash 2.wav",55
Sample,80524,0,"Crash 2.wav",55
Sample,81492,0,"Hat open.wav",55
Sample,81814,0,"Hat open.wav",55
Sample,82137,0,"Hat open.wav",55
Sample,82460,0,"Hat open.wav",55
Sample,82943,0,"Hat open.wav",55
Sample,83105,0,"Hat open.wav",55
Sample,83750,0,"Hat open.wav",55
Sample,84073,0,"Hat open.wav",55
Sample,84395,0,"Hat open.wav",55
Sample,84879,0,"Crash 2.wav",55
Sample,85202,0,"Crash 2.wav",55
Sample,94825,0,"Tom3.wav",55
Sample,95685,0,"Tom3.wav",55
Sample,98427,0,"Crash 2.wav",55
Sample,98750,0,"Crash 2.wav",55
Sample,99556,0,"Ride.wav",40
Sample,103589,0,"Crash 2.wav",55
Sample,103911,0,"Crash 2.wav",55
Sample,104718,0,"Ride.wav",40
Sample,107298,0,"Hat open.wav",55
Sample,107943,0,"Hat open.wav",55
Sample,108589,0,"Hat open.wav",55
Sample,109879,0,"Hat open.wav",55
Sample,117782,0,"Hat open.wav",55
Sample,117943,0,"Hat open.wav",55
Sample,118427,0,"Hat open.wav",55
Sample,118589,0,"Hat open.wav",55
Sample,119073,0,"Hat open.wav",55
Sample,119234,0,"Hat open.wav",55
Sample,119718,0,"Hat open.wav",55
Sample,119879,0,"Hat open.wav",55
Sample,120363,0,"Hat open.wav",55
Sample,120524,0,"Hat open.wav",55
Sample,121169,0,"Tom1.wav",55
Sample,121492,0,"Tom2.wav",55
Sample,121814,0,"Tom3.wav",55
Sample,122943,0,"Hat open.wav",55
Sample,123105,0,"Hat open.wav",55
Sample,123589,0,"Hat open.wav",55
Sample,123750,0,"Hat open.wav",55
Sample,124234,0,"Hat open.wav",55
Sample,124395,0,"Hat open.wav",55
Sample,124879,0,"Hat open.wav",55
Sample,125524,0,"Hat open.wav",55
Sample,126008,0,"Hat open.wav",55
Sample,131814,0,"Hat open.wav",55
Sample,135202,0,"Hat open.wav",55
Sample,136008,0,"Tom2.wav",55
Sample,136169,0,"Tom3.wav",55
Sample,136250,0,"Tom3.wav",55
Sample,136492,0,"Hat open.wav",55
Sample,136814,0,"Hat open.wav",55
Sample,136976,0,"Tom3.wav",55
Sample,137137,0,"Tom3.wav",55
Sample,137298,0,"Tom3.wav",55
Sample,137460,0,"Tom3.wav",55
Sample,137621,0,"Tom3.wav",55
Sample,143427,0,"Hat open.wav",55
Sample,143750,0,"Hat open.wav",55
Sample,144073,0,"Hat open.wav",55
Sample,144395,0,"Hat open.wav",55
Sample,145040,0,"Hat open.wav",55
Sample,145524,0,"Hat open.wav",55
Sample,145685,0,"Hat open.wav",55
Sample,146008,0,"Hat open.wav",55
Sample,146331,0,"Hat open.wav",55
Sample,146653,0,"Hat open.wav",55
Sample,147137,0,"Crash 2.wav",55
Sample,147621,0,"Crash 2.wav",55
Sample,148589,0,"Hat open.wav",55
Sample,148911,0,"Hat open.wav",55
Sample,149234,0,"Hat open.wav",55
Sample,149556,0,"Hat open.wav",55
Sample,150040,0,"Hat open.wav",55
Sample,150202,0,"Hat open.wav",55
Sample,150847,0,"Hat open.wav",55
Sample,151169,0,"Hat open.wav",55
Sample,151492,0,"Hat open.wav",55
Sample,151814,0,"Crash 2.wav",55
Sample,151976,0,"Crash 2.wav",55
Sample,152137,0,"Crash 2.wav",55
Sample,152298,0,"Crash 2.wav",55
Sample,152460,0,"Tom1.wav",55
Sample,152621,0,"Tom1.wav",55
Sample,156492,0,"Crash 2.wav",55
Sample,156814,0,"Crash 2.wav",55
Sample,157621,0,"Ride.wav",40
Sample,161653,0,"Crash 2.wav",55
Sample,161976,0,"Crash 2.wav",55
Sample,162782,0,"Ride.wav",40
Sample,163750,0,"Tom1.wav",55
Sample,163857,0,"Tom1.wav",55
Sample,163965,0,"Tom1.wav",55
Sample,164073,0,"Tom3.wav",55
Sample,164180,0,"Tom3.wav",55
Sample,164288,0,"Tom3.wav",55
Sample,166008,0,"Hat open.wav",55
Sample,166653,0,"Hat open.wav",55
Sample,167298,0,"Hat open.wav",55
Sample,168588,0,"Hat open.wav",55
Sample,176492,0,"Hat open.wav",55
Sample,176653,0,"Hat open.wav",55
Sample,177137,0,"Hat open.wav",55
Sample,177298,0,"Hat open.wav",55
Sample,177782,0,"Hat open.wav",55
Sample,177943,0,"Hat open.wav",55
Sample,178427,0,"Hat open.wav",55
Sample,178588,0,"Hat open.wav",55
Sample,179072,0,"Hat open.wav",55
Sample,179233,0,"Hat open.wav",55
Sample,179879,0,"Tom1.wav",55
Sample,180201,0,"Tom2.wav",55
Sample,180524,0,"Tom3.wav",55
Sample,181653,0,"Hat open.wav",55
Sample,181814,0,"Hat open.wav",55
Sample,182298,0,"Hat open.wav",55
Sample,182459,0,"Hat open.wav",55
Sample,182943,0,"Hat open.wav",55
Sample,183104,0,"Hat open.wav",55
Sample,183588,0,"Hat open.wav",55
Sample,184233,0,"Hat open.wav",55
Sample,184717,0,"Hat open.wav",55
Sample,190524,0,"Hat open.wav",55
Sample,193911,0,"Hat open.wav",55
Sample,194717,0,"Tom2.wav",55
Sample,194879,0,"Tom3.wav",55
Sample,194959,0,"Tom3.wav",55
Sample,195201,0,"Hat open.wav",55
Sample,195524,0,"Hat open.wav",55
Sample,195685,0,"Tom3.wav",55
Sample,195846,0,"Tom3.wav",55
Sample,196008,0,"Tom3.wav",55
Sample,196169,0,"Tom3.wav",55
Sample,196330,0,"Tom3.wav",55
Sample,201169,0,"Tom2.wav",55
Sample,206653,0,"Crash 2.wav",55
Sample,207298,0,"Crash 2.wav",55
Sample,209879,0,"Crash 2.wav",55
Sample,211814,0,"Crash 2.wav",55
Sample,212459,0,"Crash 2.wav",55
Sample,214395,0,"Crash 2.wav",55
Sample,215040,0,"Crash 2.wav",55
Sample,221814,0,"Tom2.wav",55
Sample,227298,0,"Crash 2.wav",55
Sample,227943,0,"Crash 2.wav",55
Sample,229879,0,"Crash 2.wav",55
Sample,230524,0,"Crash 2.wav",55
Sample,232459,0,"Crash 2.wav",55
Sample,233104,0,"Crash 2.wav",55
Sample,235040,0,"Crash 2.wav",55
Sample,235685,0,"Crash 2.wav",55
Sample,236814,0,"Tom3.wav",55
Sample,236895,0,"Tom3.wav",55

[TimingPoints]
23248,400,3,2,1,30,1,0
23248,-80.6451612903226,3,2,1,30,0,0
59248,655.737685373077,4,2,1,30,1,0
59248,-49.2610837438424,4,2,1,30,0,0
59903,759.493644666679,4,2,1,30,1,0
59903,-42.5531914893617,4,2,1,30,0,0
60662,923.076884346686,4,2,1,30,1,0
60662,-34.965034965035,4,2,1,30,0,0
61585,1243.52331606218,4,2,1,30,1,0
61585,-25.974025974026,4,2,1,30,0,0
64073,322.580657958984,4,2,1,40,1,0
75363,-100,4,2,1,45,0,0
106653,-100,4,2,1,55,0,1
114395,-100,4,2,1,55,0,0
116976,-100,4,2,1,55,0,1
137621,-100,4,2,1,55,0,0
142782,-100,4,2,1,45,0,0
165363,322.58064516129,4,2,1,55,1,1
173104,-100,4,2,1,55,0,0
175685,-100,4,2,1,55,0,1
196330,-100,4,2,1,40,0,0

[HitObjects]
64,192,23248,128,0,23848:0:0:0:0:
448,192,23848,128,0,24048:0:0:0:0:
192,192,24048,128,0,24248:0:0:0:0:
320,192,24248,128,0,24448:0:0:0:0:
64,192,24448,128,0,24848:0:0:0:0:
448,192,24848,1,0,0:0:0:0:
320,192,25248,1,0,0:0:0:0:
192,192,25648,128,0,26248:0:0:0:0:
448,192,26248,128,0,26448:0:0:0:0:
320,192,26448,128,0,26648:0:0:0:0:
192,192,26648,128,0,26848:0:0:0:0:
448,192,26848,128,0,27048:0:0:0:0:
64,192,27048,128,0,27248:0:0:0:0:
448,192,27248,128,0,27648:0:0:0:0:
192,192,27648,128,0,28048:0:0:0:0:
448,192,28048,128,0,28248:0:0:0:0:
320,192,28248,128,0,28448:0:0:0:0:
192,192,28448,128,0,28648:0:0:0:0:
64,192,28648,128,0,28848:0:0:0:0:
320,192,28848,128,0,29048:0:0:0:0:
192,192,29048,128,0,29248:0:0:0:0:
448,192,29248,128,0,29448:0:0:0:0:
64,192,29448,128,0,29648:0:0:0:0:
192,192,29648,128,0,29848:0:0:0:0:
320,192,29848,128,0,30048:0:0:0:0:
448,192,30048,128,0,30248:0:0:0:0:
64,192,30248,128,0,30448:0:0:0:0:
448,192,30448,128,0,30648:0:0:0:0:
192,192,30648,128,0,30848:0:0:0:0:
320,192,30848,128,0,31048:0:0:0:0:
64,192,31048,128,0,31248:0:0:0:0:
448,192,31248,128,0,31448:0:0:0:0:
320,192,31448,128,0,31648:0:0:0:0:
64,192,31648,128,0,32048:0:0:0:0:
448,192,32048,1,0,0:0:0:0:
192,192,32448,128,0,32848:0:0:0:0:
448,192,32848,128,0,33448:0:0:0:0:
64,192,33448,128,0,33648:0:0:0:0:
192,192,33648,128,0,33848:0:0:0:0:
320,192,33848,128,0,34048:0:0:0:0:
64,192,34048,128,0,34448:0:0:0:0:
448,192,34448,1,0,0:0:0:0:
320,192,34848,1,0,0:0:0:0:
192,192,35248,128,0,35848:0:0:0:0:
448,192,35848,128,0,36048:0:0:0:0:
192,192,36048,128,0,36248:0:0:0:0:
320,192,36248,128,0,36448:0:0:0:0:
64,192,36448,128,0,36648:0:0:0:0:
448,192,36648,128,0,36848:0:0:0:0:
64,192,36848,128,0,37248:0:0:0:0:
320,192,37248,1,0,0:0:0:0:
448,192,37648,128,0,37848:0:0:0:0:
320,192,37848,128,0,38048:0:0:0:0:
192,192,38048,128,0,38248:0:0:0:0:
448,192,38248,128,0,38448:0:0:0:0:
320,192,38448,128,0,38648:0:0:0:0:
64,192,38648,128,0,38848:0:0:0:0:
448,192,38848,128,0,39048:0:0:0:0:
64,192,39048,128,0,39248:0:0:0:0:
320,192,39248,128,0,39448:0:0:0:0:
192,192,39448,128,0,39648:0:0:0:0:
448,192,39648,128,0,39848:0:0:0:0:
64,192,39848,128,0,40048:0:0:0:0:
448,192,40048,128,0,40248:0:0:0:0:
192,192,40248,128,0,40448:0:0:0:0:
320,192,40448,128,0,40648:0:0:0:0:
448,192,40648,128,0,40848:0:0:0:0:
64,192,40848,128,0,41048:0:0:0:0:
192,192,41048,128,0,41248:0:0:0:0:
320,192,41248,128,0,41448:0:0:0:0:
64,192,41448,128,0,41648:0:0:0:0:
448,192,41648,128,0,41848:0:0:0:0:
192,192,41848,128,0,42048:0:0:0:0:
64,192,42048,128,0,42448:0:0:0:0:
448,192,42448,128,4,43648:0:0:0:0:
192,192,43648,128,0,44448:0:0:0:0:
448,192,44448,1,0,0:0:0:0:
320,192,44648,1,0,0:0:0:0:
64,192,44848,128,0,45248:0:0:0:0:
448,192,45248,1,0,0:0:0:0:
192,192,45648,1,0,0:0:0:0:
320,192,46048,128,0,46848:0:0:0:0:
64,192,46848,1,0,0:0:0:0:
192,192,47248,128,4,47848:0:0:0:0:
448,192,47848,128,0,48448:0:0:0:0:
64,192,48448,128,0,49048:0:0:0:0:
448,192,49048,1,0,0:0:0:0:
320,192,49248,1,0,0:0:0:0:
192,192,49448,1,0,0:0:0:0:
64,192,49648,128,0,50848:0:0:0:0:
448,192,50448,1,0,0:0:0:0:
320,192,50848,128,0,51648:0:0:0:0:
64,192,51648,128,0,52048:0:0:0:0:
448,192,52048,128,4,53248:0:0:0:0:
64,192,53248,128,0,54048:0:0:0:0:
448,192,54048,1,0,0:0:0:0:
192,192,54448,128,0,54848:0:0:0:0:
320,192,54848,128,0,55248:0:0:0:0:
64,192,55248,128,0,55648:0:0:0:0:
448,192,55648,128,0,56448:0:0:0:0:
64,192,56448,128,0,56848:0:0:0:0:
320,192,56848,128,4,58448:0:0:0:0:
64,192,58448,1,0,0:0:0:0:
448,192,58848,1,0,0:0:0:0:
64,192,59248,1,0,0:0:0:0:
192,192,59903,1,0,0:0:0:0:
320,192,60662,1,0,0:0:0:0:
448,192,61585,1,0,0:0:0:0:
64,192,64073,1,2,0:0:0:0:
192,192,64073,1,4,0:0:0:0:
320,192,64234,1,2,0:0:0:0:
64,192,64395,1,2,0:0:0:0:
448,192,64395,1,0,0:0:0:55:Hat open.wav
192,192,64556,1,2,0:0:0:0:
64,192,64718,1,2,0:0:0:0:
320,192,64718,1,0,0:0:0:55:Hat open.wav
448,192,64879,1,2,0:0:0:0:
192,192,65040,1,2,0:0:0:0:
320,192,65040,1,0,0:0:0:55:Hat open.wav
64,192,65202,1,2,0:0:0:0:
320,192,65363,1,2,0:0:0:0:
448,192,65363,1,0,0:0:0:55:Hat open.wav
64,192,65524,1,2,0:0:0:0:
192,192,65685,1,2,0:0:0:0:
448,192,65685,1,0,0:0:0:55:Hat open.wav
320,192,65847,1,2,0:0:0:0:
64,192,66008,1,2,0:0:0:0:
448,192,66008,1,0,0:0:0:40:Ride.wav
64,192,66169,1,2,0:0:0:0:
320,192,66331,1,2,0:0:0:0:
448,192,66331,1,0,0:0:0:40:Ride.wav
320,192,66492,1,2,0:0:0:0:
64,192,66653,1,2,0:0:0:0:
448,192,66653,1,4,0:0:0:0:
192,192,66814,1,2,0:0:0:0:
64,192,66976,1,2,0:0:0:0:
320,192,66976,1,0,0:0:0:55:Hat open.wav
448,192,67137,1,2,0:0:0:0:
64,192,67298,1,2,0:0:0:0:
192,192,67298,1,0,0:0:0:55:Hat open.wav
320,192,67460,1,2,0:0:0:0:
192,192,67621,1,2,0:0:0:0:
448,192,67621,1,0,0:0:0:55:Hat open.wav
64,192,67782,1,2,0:0:0:0:
320,192,67943,1,2,0:0:0:0:
448,192,67943,1,4,0:0:0:0:
192,192,68105,1,2,0:0:0:0:
64,192,68266,1,2,0:0:0:0:
448,192,68266,1,0,0:0:0:55:Tom1.wav
320,192,68427,1,2,0:0:0:0:
64,192,68589,1,2,0:0:0:0:
192,192,68669,1,0,0:0:0:55:Tom3.wav
448,192,68750,1,2,0:0:0:0:
320,192,68831,1,0,0:0:0:55:Tom3.wav
192,192,68911,1,2,0:0:0:0:
64,192,68992,1,0,0:0:0:55:Tom3.wav
448,192,69073,1,2,0:0:0:0:
320,192,69153,1,0,0:0:0:55:Tom3.wav
64,192,69234,1,2,0:0:0:0:
192,192,69234,1,0,0:0:0:55:Crash 2.wav
320,192,69395,1,2,0:0:0:0:
64,192,69556,1,2,0:0:0:0:
448,192,69556,1,0,0:0:0:55:Hat open.wav
192,192,69718,1,2,0:0:0:0:
320,192,69879,1,2,0:0:0:0:
448,192,69879,1,0,0:0:0:55:Hat open.wav
192,192,70040,1,2,0:0:0:0:
64,192,70202,1,2,0:0:0:0:
448,192,70202,1,0,0:0:0:55:Hat open.wav
320,192,70363,1,2,0:0:0:0:
64,192,70524,1,2,0:0:0:0:
192,192,70524,1,0,0:0:0:55:Hat open.wav
448,192,70685,1,2,0:0:0:0:
64,192,70847,1,2,0:0:0:0:
320,192,70847,1,0,0:0:0:55:Hat open.wav
192,192,71008,1,2,0:0:0:0:
320,192,71169,1,2,0:0:0:0:
448,192,71169,1,0,0:0:0:40:Ride.wav
448,192,71331,1,2,0:0:0:0:
64,192,71492,1,2,0:0:0:0:
320,192,71492,1,0,0:0:0:40:Ride.wav
64,192,71653,1,2,0:0:0:0:
192,192,71814,1,4,0:0:0:0:
448,192,71814,1,2,0:0:0:0:
320,192,71976,1,2,0:0:0:0:
64,192,72137,1,2,0:0:0:0:
192,192,72137,1,0,0:0:0:55:Hat open.wav
320,192,72298,1,2,0:0:0:0:
64,192,72460,1,2,0:0:0:0:
448,192,72460,1,0,0:0:0:55:Hat open.wav
192,192,72621,1,2,0:0:0:0:
64,192,72782,1,2,0:0:0:0:
320,192,72782,1,0,0:0:0:55:Hat open.wav
192,192,72943,1,2,0:0:0:0:
320,192,73105,1,2,0:0:0:0:
448,192,73105,1,0,0:0:0:55:Hat open.wav
448,192,73266,1,2,0:0:0:0:
64,192,73427,1,2,0:0:0:0:
320,192,73427,1,0,0:0:0:55:Hat open.wav
64,192,73589,1,2,0:0:0:0:
192,192,73750,1,6,0:0:0:0:
448,192,73750,1,0,0:0:0:55:Hat open.wav
320,192,73911,1,2,0:0:0:0:
192,192,73992,1,0,0:0:0:55:Tom1.wav
448,192,74073,1,2,0:0:0:0:
320,192,74153,1,0,0:0:0:55:Tom2.wav
64,192,74234,1,2,0:0:0:0:
192,192,74314,1,0,0:0:0:55:Tom3.wav
320,192,74395,1,2,0:0:0:0:
448,192,74395,1,0,0:0:0:40:Crash short.wav
448,192,75363,1,8,0:0:0:0:
320,192,75443,1,8,0:0:0:0:
64,192,75524,1,8,0:0:0:0:
192,192,75605,1,8,0:0:0:0:
320,192,75685,1,4,0:0:0:0:
448,192,75685,1,2,0:0:0:0:
64,192,75847,1,10,0:0:0:0:
448,192,76008,1,2,0:0:0:0:
320,192,76089,1,2,0:0:0:0:
64,192,76169,1,10,0:0:0:0:
192,192,76169,1,0,0:0:0:55:Hat open.wav
320,192,76331,1,2,0:0:0:0:
64,192,76492,1,10,0:0:0:0:
448,192,76492,1,0,0:0:0:55:Hat open.wav
192,192,76653,1,2,0:0:0:0:
320,192,76814,1,10,0:0:0:0:
448,192,76814,1,0,0:0:0:55:Hat open.wav
64,192,76976,1,2,0:0:0:0:
320,192,77137,1,10,0:0:0:0:
448,192,77137,1,0,0:0:0:55:Hat open.wav
64,192,77298,1,2,0:0:0:0:
192,192,77298,1,0,0:0:0:55:Hat open.wav
320,192,77460,1,10,0:0:0:0:
448,192,77460,1,0,0:0:0:55:Hat open.wav
64,192,77621,1,2,0:0:0:0:
192,192,77621,1,0,0:0:0:55:Hat open.wav
448,192,77782,1,10,0:0:0:0:
64,192,77943,1,2,0:0:0:0:
192,192,78024,1,2,0:0:0:0:
320,192,78105,1,10,0:0:0:0:
448,192,78105,1,0,0:0:0:55:Hat open.wav
64,192,78266,1,2,0:0:0:0:
192,192,78266,1,0,0:0:0:55:Hat open.wav
320,192,78427,1,10,0:0:0:0:
64,192,78589,1,2,0:0:0:0:
192,192,78669,1,2,0:0:0:0:
320,192,78750,1,10,0:0:0:0:
448,192,78750,1,0,0:0:0:55:Hat open.wav
64,192,78911,1,2,0:0:0:0:
192,192,79073,1,10,0:0:0:0:
448,192,79073,1,0,0:0:0:55:Hat open.wav
320,192,79234,1,2,0:0:0:0:
192,192,79314,1,2,0:0:0:0:
64,192,79395,1,10,0:0:0:0:
448,192,79395,1,0,0:0:0:55:Hat open.wav
320,192,79556,1,2,0:0:0:0:
64,192,79718,1,10,0:0:0:0:
192,192,79718,1,0,0:0:0:55:Crash 2.wav
320,192,79879,1,2,0:0:0:0:
448,192,79879,1,0,0:0:0:55:Crash 2.wav
192,192,80040,1,10,0:0:0:0:
64,192,80202,1,2,0:0:0:0:
448,192,80202,1,0,0:0:0:55:Crash 2.wav
192,192,80363,1,10,0:0:0:0:
320,192,80363,1,0,0:0:0:55:Crash 2.wav
64,192,80524,1,2,0:0:0:0:
192,192,80685,1,10,0:0:0:0:
448,192,80685,1,0,0:0:0:55:Crash 2.wav
64,192,80847,1,2,0:0:0:0:
320,192,80847,1,4,0:0:0:0:
448,192,81008,1,10,0:0:0:0:
64,192,81169,1,2,0:0:0:0:
192,192,81250,1,2,0:0:0:0:
320,192,81331,1,10,0:0:0:0:
448,192,81331,1,0,0:0:0:55:Hat open.wav
192,192,81492,1,2,0:0:0:0:
64,192,81653,1,10,0:0:0:0:
448,192,81653,1,0,0:0:0:55:Hat open.wav
320,192,81814,1,2,0:0:0:0:
192,192,81895,1,2,0:0:0:0:
64,192,81976,1,10,0:0:0:0:
448,192,81976,1,0,0:0:0:55:Hat open.wav
320,192,82137,1,2,0:0:0:0:
64,192,82298,1,10,0:0:0:0:
192,192,82298,1,0,0:0:0:55:Hat open.wav
448,192,82460,1,2,0:0:0:0:
320,192,82540,1,2,0:0:0:0:
64,192,82621,1,10,0:0:0:0:
192,192,82621,1,0,0:0:0:55:Hat open.wav
320,192,82782,1,2,0:0:0:0:
448,192,82782,1,0,0:0:0:55:Hat open.wav
64,192,82943,1,10,0:0:0:0:
320,192,83105,1,2,0:0:0:0:
192,192,83185,1,2,0:0:0:0:
64,192,83266,1,10,0:0:0:0:
448,192,83266,1,0,0:0:0:55:Hat open.wav
192,192,83427,1,2,0:0:0:0:
320,192,83427,1,4,0:0:0:0:
448,192,83589,1,10,0:0:0:0:
64,192,83750,1,2,0:0:0:0:
192,192,83831,1,2,0:0:0:0:
320,192,83911,1,10,0:0:0:0:
448,192,83911,1,0,0:0:0:55:Hat open.wav
64,192,84073,1,2,0:0:0:0:
192,192,84234,1,10,0:0:0:0:
448,192,84234,1,0,0:0:0:55:Hat open.wav
320,192,84395,1,2,0:0:0:0:
192,192,84476,1,2,0:0:0:0:
64,192,84556,1,10,0:0:0:0:
448,192,84556,1,0,0:0:0:55:Hat open.wav
192,192,84718,1,2,0:0:0:0:
320,192,84718,1,0,0:0:0:55:Crash 2.wav
320,192,84879,1,2,0:0:0:0:
192,192,85040,1,2,0:0:0:0:
448,192,85040,1,0,0:0:0:55:Crash 2.wav
192,192,85202,1,2,0:0:0:0:
320,192,85363,1,2,0:0:0:0:
448,192,85363,1,0,0:0:0:55:Tom1.wav
320,192,85524,1,2,0:0:0:0:
448,192,85524,1,0,0:0:0:55:Tom1.wav
64,192,85685,1,10,0:0:0:0:
192,192,85685,1,0,0:0:0:55:Tom3.wav
64,192,85847,1,2,0:0:0:0:
192,192,85847,1,0,0:0:0:55:Tom3.wav
320,192,86008,1,2,0:0:0:0:
448,192,86008,1,0,0:0:0:55:Crash 2.wav
192,192,86169,1,0,0:0:0:0:
448,192,86331,1,0,0:0:0:0:
192,192,86492,1,0,0:0:0:0:
64,192,86653,1,2,0:0:0:0:
448,192,86653,1,0,0:0:0:0:
320,192,86814,1,0,0:0:0:0:
64,192,86976,1,0,0:0:0:0:
320,192,87137,1,0,0:0:0:0:
64,192,87298,1,6,0:0:0:0:
192,192,87298,1,0,0:0:0:55:Crash 2.wav
64,192,87943,1,2,0:0:0:0:
448,192,87943,1,0,0:0:0:0:
320,192,88105,1,0,0:0:0:0:
192,192,88266,1,0,0:0:0:0:
320,192,88427,1,0,0:0:0:0:
64,192,88589,1,2,0:0:0:0:
448,192,88589,1,0,0:0:0:0:
64,192,89234,1,2,0:0:0:0:
192,192,89341,1,0,0:0:0:0:
320,192,89449,1,0,0:0:0:0:
64,192,89556,1,0,0:0:0:0:
192,192,89664,1,0,0:0:0:0:
320,192,89771,1,0,0:0:0:0:
64,192,89879,1,2,0:0:0:0:
448,192,89879,1,0,0:0:0:0:
448,192,90202,1,0,0:0:0:0:
320,192,90309,1,0,0:0:0:0:
192,192,90417,1,0,0:0:0:0:
64,192,90524,1,2,0:0:0:0:
448,192,90524,1,0,0:0:0:0:
320,192,90685,1,0,0:0:0:0:
192,192,90847,1,0,0:0:0:0:
320,192,91008,1,0,0:0:0:0:
64,192,91169,1,2,0:0:0:0:
192,192,91169,1,8,0:0:0:0:
320,192,91331,1,8,0:0:0:0:
64,192,91492,1,8,0:0:0:0:
320,192,91653,1,8,0:0:0:0:
448,192,91653,1,0,0:0:0:0:
64,192,91976,1,0,0:0:0:55:Tom1.wav
192,192,91976,1,0,0:0:0:0:
320,192,92137,1,0,0:0:0:55:Tom3.wav
448,192,92137,1,0,0:0:0:0:
192,192,92298,1,0,0:0:0:55:Tom2.wav
64,192,92460,1,2,0:0:0:0:
448,192,92460,1,0,0:0:0:55:Crash 2.wav
320,192,92621,1,0,0:0:0:0:
192,192,92782,1,0,0:0:0:0:
448,192,92943,1,8,0:0:0:0:
320,192,93024,1,8,0:0:0:0:
64,192,93105,1,2,0:0:0:0:
192,192,93105,1,8,0:0:0:0:
320,192,93266,1,8,0:0:0:0:
64,192,93427,1,8,0:0:0:0:
192,192,93589,1,8,0:0:0:0:
320,192,93750,1,2,0:0:0:0:
448,192,93750,1,8,0:0:0:0:
64,192,94395,1,8,0:0:0:0:
192,192,94503,1,8,0:0:0:0:
448,192,94610,1,0,0:0:0:55:Tom1.wav
64,192,94718,1,0,0:0:0:55:Tom2.wav
192,192,94825,1,2,0:0:0:0:
448,192,94933,1,2,0:0:0:0:
64,192,95040,1,8,0:0:0:0:
320,192,95040,1,4,0:0:0:0:
448,192,95363,1,2,0:0:0:0:
192,192,95470,1,2,0:0:0:0:
320,192,95578,1,2,0:0:0:0:
64,192,95685,1,2,0:0:0:0:
192,192,95685,1,0,0:0:0:55:Crash 2.wav
64,192,96331,1,6,0:0:0:0:
448,192,96331,1,0,0:0:0:40:Ride.wav
192,192,96492,1,2,0:0:0:0:
320,192,96653,1,2,0:0:0:0:
448,192,96653,1,0,0:0:0:0:
64,192,96814,1,2,0:0:0:0:
192,192,96814,1,0,0:0:0:0:
448,192,97137,1,2,0:0:0:0:
320,192,97218,1,2,0:0:0:0:
192,192,97298,1,2,0:0:0:0:
448,192,97460,1,2,0:0:0:0:
64,192,97621,128,10,98266:0:0:0:0:
320,192,97621,1,0,0:0:0:40:Ride.wav
320,192,98266,1,2,0:0:0:0:
448,192,98266,1,0,0:0:0:55:Crash 2.wav
64,192,98427,1,2,0:0:0:0:
192,192,98589,1,2,0:0:0:0:
448,192,98589,1,0,0:0:0:55:Crash 2.wav
320,192,98750,1,2,0:0:0:0:
64,192,98911,128,2,99556:0:0:0:0:
448,192,98911,1,0,0:0:0:40:Ride.wav
448,192,99556,1,6,0:0:0:0:
320,192,99664,1,2,0:0:0:0:
64,192,99771,1,2,0:0:0:0:
448,192,99879,1,2,0:0:0:0:
320,192,99986,1,2,0:0:0:0:
64,192,100094,1,2,0:0:0:0:
192,192,100202,1,10,0:0:0:0:
448,192,100202,1,0,0:0:0:55:Hat open.wav
64,192,100524,1,2,0:0:0:0:
320,192,100632,1,2,0:0:0:0:
192,192,100739,1,2,0:0:0:0:
320,192,100847,1,8,0:0:0:0:
448,192,100847,1,0,0:0:0:0:
64,192,101008,1,2,0:0:0:0:
192,192,101008,1,0,0:0:0:0:
320,192,101169,1,8,0:0:0:0:
448,192,101169,1,2,0:0:0:0:
192,192,101331,1,2,0:0:0:0:
64,192,101492,1,6,0:0:0:0:
448,192,101492,1,0,0:0:0:40:Ride.wav
320,192,101653,1,2,0:0:0:0:
64,192,101814,1,2,0:0:0:0:
192,192,101814,1,0,0:0:0:0:
320,192,101976,1,2,0:0:0:0:
448,192,101976,1,0,0:0:0:0:
64,192,102298,1,2,0:0:0:0:
192,192,102379,1,2,0:0:0:0:
320,192,102460,1,2,0:0:0:0:
64,192,102621,1,2,0:0:0:0:
192,192,102782,1,10,0:0:0:0:
448,192,102782,128,0,103427:0:0:0:40:Ride.wav
64,192,103427,1,2,0:0:0:0:
192,192,103427,1,0,0:0:0:55:Crash 2.wav
448,192,103589,1,2,0:0:0:0:
64,192,103750,1,2,0:0:0:0:
320,192,103750,1,0,0:0:0:55:Crash 2.wav
192,192,103911,1,2,0:0:0:0:
64,192,104073,1,2,0:0:0:0:
448,192,104073,128,0,104718:0:0:0:40:Ride.wav
64,192,104718,1,6,0:0:0:0:
192,192,104825,1,2,0:0:0:0:
448,192,104933,1,2,0:0:0:0:
64,192,105040,1,2,0:0:0:0:
192,192,105148,1,2,0:0:0:0:
448,192,105255,1,2,0:0:0:0:
64,192,105363,1,10,0:0:0:0:
320,192,105363,1,0,0:0:0:55:Hat open.wav
320,192,106008,1,0,0:0:0:0:
192,192,106331,1,0,0:0:0:0:
64,192,106653,1,6,0:0:0:0:
448,192,106653,1,0,0:0:0:55:Crash 2.wav
320,192,106814,1,2,0:0:0:0:
64,192,106976,1,10,0:0:0:0:
192,192,106976,1,0,0:0:0:55:Hat open.wav
448,192,107137,1,2,0:0:0:0:
64,192,107298,1,2,0:0:0:0:
64,192,107460,1,2,0:0:0:0:
320,192,107621,1,10,0:0:0:0:
448,192,107621,1,0,0:0:0:55:Hat open.wav
192,192,107782,1,2,0:0:0:0:
448,192,107943,1,2,0:0:0:0:
448,192,108105,1,2,0:0:0:0:
64,192,108266,1,10,0:0:0:0:
320,192,108266,1,0,0:0:0:55:Hat open.wav
192,192,108427,1,2,0:0:0:0:
320,192,108589,1,2,0:0:0:0:
320,192,108750,1,2,0:0:0:0:
64,192,108911,1,10,0:0:0:0:
192,192,108911,1,0,0:0:0:55:Hat open.wav
448,192,109073,1,2,0:0:0:0:
192,192,109234,1,2,0:0:0:0:
192,192,109395,1,2,0:0:0:0:
64,192,109556,1,10,0:0:0:0:
448,192,109556,1,0,0:0:0:55:Hat open.wav
320,192,109718,1,2,0:0:0:0:
192,192,109879,1,2,0:0:0:0:
64,192,110040,1,10,0:0:0:0:
448,192,110040,1,0,0:0:0:55:Crash 2.wav
64,192,110363,1,10,0:0:0:0:
448,192,110363,1,4,0:0:0:0:
192,192,110685,1,2,0:0:0:0:
320,192,110847,1,10,0:0:0:0:
448,192,110847,1,0,0:0:0:55:Hat open.wav
192,192,111008,1,2,0:0:0:0:
64,192,111169,1,2,0:0:0:0:
448,192,111169,1,0,0:0:0:0:
320,192,111331,1,2,0:0:0:0:
64,192,111492,1,0,0:0:0:55:Tom1.wav
192,192,111573,1,0,0:0:0:55:Tom1.wav
448,192,111653,1,0,0:0:0:55:Tom3.wav
320,192,111734,1,0,0:0:0:55:Tom3.wav
64,192,111814,1,8,0:0:0:0:
192,192,111814,1,0,0:0:0:55:Crash 2.wav
448,192,111976,1,2,0:0:0:0:
448,192,112137,1,2,0:0:0:0:
64,192,112298,1,8,0:0:0:0:
320,192,112298,1,0,0:0:0:55:Hat open.wav
192,192,112460,1,2,0:0:0:0:
192,192,112621,1,2,0:0:0:0:
64,192,112782,1,8,0:0:0:0:
448,192,112782,1,0,0:0:0:55:Crash 2.wav
320,192,112943,1,2,0:0:0:0:
320,192,113105,1,2,0:0:0:0:
192,192,113266,1,8,0:0:0:0:
448,192,113266,1,0,0:0:0:55:Crash 2.wav
64,192,113427,1,2,0:0:0:0:
64,192,113589,1,2,0:0:0:0:
320,192,113750,1,8,0:0:0:0:
448,192,113750,1,0,0:0:0:55:Hat open.wav
448,192,113911,1,2,0:0:0:0:
64,192,114073,1,8,0:0:0:0:
192,192,114073,1,0,0:0:0:0:
448,192,114234,1,2,0:0:0:0:
320,192,114314,1,2,0:0:0:0:
64,192,114395,1,8,0:0:0:0:
320,192,114718,1,0,0:0:0:0:
64,192,115040,1,0,0:0:0:0:
192,192,115202,1,0,0:0:0:0:
320,192,115363,1,0,0:0:0:0:
448,192,115524,1,0,0:0:0:0:
64,192,115685,1,2,0:0:0:0:
192,192,115685,1,0,0:0:0:55:Hat open.wav
448,192,115847,1,8,0:0:0:0:
320,192,115927,1,8,0:0:0:0:
192,192,116008,1,8,0:0:0:0:
64,192,116089,1,8,0:0:0:0:
448,192,116169,1,8,0:0:0:0:
320,192,116250,1,8,0:0:0:0:
64,192,116331,1,2,0:0:0:0:
192,192,116331,1,0,0:0:0:55:Hat open.wav
64,192,116976,1,4,0:0:0:0:
448,192,116976,1,2,0:0:0:0:
448,192,117137,1,10,0:0:0:0:
64,192,117298,1,2,0:0:0:0:
192,192,117379,1,2,0:0:0:0:
320,192,117460,1,10,0:0:0:0:
448,192,117460,1,0,0:0:0:55:Hat open.wav
64,192,117621,1,2,0:0:0:0:
192,192,117621,1,0,0:0:0:55:Hat open.wav
64,192,117782,1,10,0:0:0:0:
448,192,117943,1,2,0:0:0:0:
320,192,118024,1,2,0:0:0:0:
64,192,118105,1,10,0:0:0:0:
192,192,118105,1,0,0:0:0:55:Hat open.wav
320,192,118266,1,2,0:0:0:0:
448,192,118266,1,0,0:0:0:55:Hat open.wav
320,192,118427,1,10,0:0:0:0:
64,192,118589,1,2,0:0:0:0:
192,192,118669,1,2,0:0:0:0:
320,192,118750,1,10,0:0:0:0:
448,192,118750,1,0,0:0:0:55:Hat open.wav
64,192,118911,1,2,0:0:0:0:
192,192,118911,1,0,0:0:0:55:Hat open.wav
192,192,119073,1,10,0:0:0:0:
320,192,119234,1,2,0:0:0:0:
192,192,119314,1,2,0:0:0:0:
64,192,119395,1,10,0:0:0:0:
448,192,119395,1,0,0:0:0:55:Hat open.wav
192,192,119556,1,2,0:0:0:0:
320,192,119556,1,0,0:0:0:55:Hat open.wav
320,192,119718,1,10,0:0:0:0:
64,192,119879,1,2,0:0:0:0:
192,192,119960,1,2,0:0:0:0:
320,192,120040,1,10,0:0:0:0:
448,192,120040,1,0,0:0:0:55:Hat open.wav
64,192,120202,1,2,0:0:0:0:
192,192,120202,1,0,0:0:0:55:Hat open.wav
64,192,120363,1,10,0:0:0:0:
448,192,120524,1,2,0:0:0:0:
320,192,120605,1,2,0:0:0:0:
64,192,120685,1,10,0:0:0:0:
192,192,120685,1,0,0:0:0:55:Hat open.wav
320,192,120847,1,2,0:0:0:0:
448,192,120847,1,0,0:0:0:55:Hat open.wav
448,192,121008,1,8,0:0:0:0:
320,192,121089,1,8,0:0:0:0:
192,192,121169,1,2,0:0:0:0:
64,192,121250,1,0,0:0:0:55:Tom1.wav
448,192,121331,1,0,0:0:0:55:Tom1.wav
320,192,121411,1,0,0:0:0:55:Tom1.wav
64,192,121492,1,2,0:0:0:0:
192,192,121573,1,0,0:0:0:55:Tom2.wav
448,192,121653,1,0,0:0:0:55:Tom2.wav
320,192,121734,1,0,0:0:0:55:Tom2.wav
64,192,121814,1,2,0:0:0:0:
192,192,121895,1,0,0:0:0:55:Tom3.wav
448,192,121976,1,0,0:0:0:55:Tom3.wav
320,192,122056,1,0,0:0:0:55:Tom3.wav
64,192,122137,1,2,0:0:0:0:
192,192,122137,1,0,0:0:0:55:Crash 2.wav
192,192,122298,1,10,0:0:0:0:
448,192,122460,1,2,0:0:0:0:
320,192,122540,1,2,0:0:0:0:
64,192,122621,1,10,0:0:0:0:
192,192,122621,1,0,0:0:0:55:Hat open.wav
320,192,122782,1,2,0:0:0:0:
448,192,122782,1,0,0:0:0:55:Hat open.wav
448,192,122943,1,10,0:0:0:0:
192,192,123105,1,2,0:0:0:0:
320,192,123185,1,2,0:0:0:0:
64,192,123266,1,10,0:0:0:0:
448,192,123266,1,0,0:0:0:55:Hat open.wav
192,192,123427,1,2,0:0:0:0:
320,192,123427,1,0,0:0:0:55:Hat open.wav
192,192,123589,1,10,0:0:0:0:
448,192,123750,1,2,0:0:0:0:
320,192,123831,1,2,0:0:0:0:
64,192,123911,1,10,0:0:0:0:
192,192,123911,1,0,0:0:0:55:Hat open.wav
320,192,124073,1,2,0:0:0:0:
448,192,124073,1,0,0:0:0:55:Hat open.wav
320,192,124234,1,10,0:0:0:0:
64,192,124395,1,2,0:0:0:0:
192,192,124476,1,2,0:0:0:0:
320,192,124556,1,10,0:0:0:0:
448,192,124556,1,0,0:0:0:55:Hat open.wav
64,192,124718,1,2,0:0:0:0:
192,192,124718,1,0,0:0:0:55:Hat open.wav
64,192,124879,1,8,0:0:0:0:
320,192,124960,1,2,0:0:0:0:
448,192,124960,1,0,0:0:0:0:
448,192,125121,1,2,0:0:0:0:
64,192,125202,1,8,0:0:0:0:
192,192,125202,1,0,0:0:0:55:Hat open.wav
320,192,125363,1,2,0:0:0:0:
448,192,125363,1,0,0:0:0:55:Hat open.wav
192,192,125524,1,10,0:0:0:0:
320,192,125605,1,0,0:0:0:0:
64,192,125685,1,2,0:0:0:0:
448,192,125685,1,0,0:0:0:55:Hat open.wav
192,192,125847,1,10,0:0:0:0:
320,192,125847,1,0,0:0:0:55:Hat open.wav
192,192,126008,1,2,0:0:0:0:
448,192,126169,1,10,0:0:0:0:
320,192,126250,1,2,0:0:0:0:
64,192,126331,1,2,0:0:0:0:
192,192,126411,1,2,0:0:0:0:
320,192,126492,1,10,0:0:0:0:
448,192,126573,1,2,0:0:0:0:
64,192,126653,1,0,0:0:0:55:Tom1.wav
192,192,126734,1,0,0:0:0:55:Tom1.wav
448,192,126814,1,0,0:0:0:55:Tom2.wav
320,192,126895,1,0,0:0:0:55:Tom3.wav
64,192,126976,1,8,0:0:0:0:
192,192,126976,1,0,0:0:0:0:
320,192,127137,1,0,0:0:0:0:
64,192,127298,1,6,0:0:0:0:
448,192,127298,1,0,0:0:0:55:Crash 2.wav
64,192,127621,1,10,0:0:0:0:
320,192,127621,1,0,0:0:0:55:Hat open.wav
320,192,127943,1,2,0:0:0:0:
448,192,127943,1,0,0:0:0:55:Hat open.wav
192,192,128105,1,0,0:0:0:0:
64,192,128266,1,10,0:0:0:0:
448,192,128266,1,0,0:0:0:55:Hat open.wav
320,192,128427,1,0,0:0:0:0:
64,192,128589,1,2,0:0:0:0:
192,192,128589,1,0,0:0:0:55:Hat open.wav
64,192,128911,1,10,0:0:0:0:
448,192,128911,1,0,0:0:0:55:Hat open.wav
320,192,129073,1,0,0:0:0:0:
192,192,129234,1,2,0:0:0:0:
448,192,129234,1,0,0:0:0:55:Hat open.wav
64,192,129395,1,0,0:0:0:0:
320,192,129556,1,10,0:0:0:0:
448,192,129556,1,0,0:0:0:55:Hat open.wav
192,192,129718,1,0,0:0:0:0:
64,192,129879,1,2,0:0:0:0:
448,192,129879,1,4,0:0:0:0:
64,192,130202,1,10,0:0:0:0:
320,192,130202,1,0,0:0:0:55:Hat open.wav
192,192,130363,1,0,0:0:0:0:
320,192,130524,1,2,0:0:0:0:
448,192,130524,1,0,0:0:0:55:Hat open.wav
64,192,130847,1,10,0:0:0:0:
448,192,130847,1,0,0:0:0:55:Hat open.wav
320,192,131008,1,0,0:0:0:0:
64,192,131169,1,2,0:0:0:0:
192,192,131169,1,0,0:0:0:55:Hat open.wav
448,192,131331,1,0,0:0:0:0:
64,192,131492,1,10,0:0:0:0:
320,192,131492,1,0,0:0:0:55:Hat open.wav
192,192,131653,1,0,0:0:0:0:
320,192,131814,1,2,0:0:0:0:
320,192,131976,1,8,0:0:0:0:
448,192,131976,1,0,0:0:0:0:
64,192,132137,1,8,0:0:0:0:
192,192,132137,1,4,0:0:0:0:
64,192,132298,1,8,0:0:0:0:
192,192,132460,1,6,0:0:0:0:
448,192,132460,1,8,0:0:0:0:
64,192,132782,1,10,0:0:0:0:
448,192,132782,1,0,0:0:0:55:Hat open.wav
192,192,132943,1,0,0:0:0:0:
320,192,133105,1,2,0:0:0:0:
448,192,133105,1,0,0:0:0:55:Hat open.wav
192,192,133266,1,0,0:0:0:0:
64,192,133427,1,10,0:0:0:0:
448,192,133427,1,0,0:0:0:55:Hat open.wav
320,192,133589,1,0,0:0:0:0:
64,192,133750,1,2,0:0:0:0:
192,192,133750,1,0,0:0:0:55:Hat open.wav
192,192,134073,1,10,0:0:0:0:
448,192,134073,1,0,0:0:0:55:Hat open.wav
320,192,134234,1,0,0:0:0:0:
64,192,134395,1,2,0:0:0:0:
192,192,134476,1,0,0:0:0:0:
320,192,134556,1,8,0:0:0:0:
448,192,134637,1,8,0:0:0:0:
64,192,134718,1,10,0:0:0:0:
192,192,134798,1,8,0:0:0:0:
320,192,134879,1,8,0:0:0:0:
448,192,134960,1,8,0:0:0:0:
64,192,135040,1,2,0:0:0:0:
192,192,135040,1,4,0:0:0:0:
64,192,135202,1,10,0:0:0:0:
448,192,135363,1,2,0:0:0:0:
320,192,135443,1,2,0:0:0:0:
64,192,135524,1,10,0:0:0:0:
192,192,135524,1,0,0:0:0:55:Hat open.wav
320,192,135685,1,2,0:0:0:0:
448,192,135685,1,0,0:0:0:0:
448,192,135847,1,0,0:0:0:55:Tom1.wav
320,192,135927,1,0,0:0:0:55:Tom1.wav
64,192,136008,1,2,0:0:0:0:
192,192,136089,1,0,0:0:0:55:Tom2.wav
448,192,136169,1,2,0:0:0:0:
320,192,136250,1,2,0:0:0:0:
64,192,136331,1,2,0:0:0:0:
192,192,136331,1,8,0:0:0:0:
320,192,136492,1,2,0:0:0:0:
64,192,136653,1,2,0:0:0:0:
448,192,136653,1,0,0:0:0:0:
192,192,136814,1,10,0:0:0:0:
448,192,136976,1,2,0:0:0:0:
448,192,137137,1,2,0:0:0:0:
192,192,137298,1,2,0:0:0:0:
192,192,137460,1,2,0:0:0:0:
64,192,137621,1,2,0:0:0:0:
448,192,137621,1,0,0:0:0:40:Crash short.wav
320,192,138427,1,2,0:0:0:0:
448,192,138427,1,0,0:0:0:40:Crash short.wav
64,192,138589,1,2,0:0:0:0:
192,192,138589,1,0,0:0:0:0:
64,192,138911,1,2,0:0:0:0:
192,192,138911,1,0,0:0:0:40:Crash short.wav
320,192,139073,1,2,0:0:0:0:
448,192,139073,1,0,0:0:0:40:Crash short.wav
64,192,140202,1,2,0:0:0:0:
448,192,140202,1,0,0:0:0:40:Crash short.wav
64,192,141008,1,2,0:0:0:0:
320,192,141008,1,0,0:0:0:40:Crash short.wav
192,192,141169,1,2,0:0:0:0:
448,192,141169,1,0,0:0:0:0:
64,192,141492,1,2,0:0:0:0:
448,192,141492,1,0,0:0:0:40:Crash short.wav
64,192,142782,1,4,0:0:0:0:
192,192,142782,1,2,0:0:0:0:
448,192,142943,1,10,0:0:0:0:
64,192,143105,1,2,0:0:0:0:
192,192,143185,1,2,0:0:0:0:
320,192,143266,1,10,0:0:0:0:
448,192,143266,1,0,0:0:0:55:Hat open.wav
192,192,143427,1,2,0:0:0:0:
64,192,143589,1,10,0:0:0:0:
448,192,143589,1,0,0:0:0:55:Hat open.wav
320,192,143750,1,2,0:0:0:0:
192,192,143831,1,2,0:0:0:0:
64,192,143911,1,10,0:0:0:0:
448,192,143911,1,0,0:0:0:55:Hat open.wav
320,192,144073,1,2,0:0:0:0:
64,192,144234,1,10,0:0:0:0:
192,192,144234,1,0,0:0:0:55:Hat open.wav
448,192,144395,1,2,0:0:0:0:
320,192,144476,1,2,0:0:0:0:
64,192,144556,1,10,0:0:0:0:
192,192,144556,1,0,0:0:0:55:Hat open.wav
320,192,144718,1,2,0:0:0:0:
448,192,144718,1,0,0:0:0:55:Hat open.wav
64,192,144879,1,10,0:0:0:0:
192,192,144879,1,0,0:0:0:55:Hat open.wav
320,192,145040,1,2,0:0:0:0:
192,192,145121,1,2,0:0:0:0:
64,192,145202,1,10,0:0:0:0:
448,192,145202,1,0,0:0:0:55:Hat open.wav
192,192,145363,1,2,0:0:0:0:
320,192,145363,1,0,0:0:0:55:Hat open.wav
448,192,145524,1,10,0:0:0:0:
64,192,145685,1,2,0:0:0:0:
192,192,145766,1,2,0:0:0:0:
320,192,145847,1,10,0:0:0:0:
448,192,145847,1,0,0:0:0:55:Hat open.wav
192,192,146008,1,2,0:0:0:0:
64,192,146169,1,10,0:0:0:0:
320,192,146169,1,0,0:0:0:55:Hat open.wav
448,192,146331,1,2,0:0:0:0:
320,192,146411,1,2,0:0:0:0:
64,192,146492,1,10,0:0:0:0:
192,192,146492,1,0,0:0:0:55:Hat open.wav
448,192,146653,1,2,0:0:0:0:
64,192,146814,1,10,0:0:0:0:
192,192,146814,1,0,0:0:0:55:Crash 2.wav
320,192,146976,1,2,0:0:0:0:
448,192,146976,1,0,0:0:0:55:Crash 2.wav
192,192,147137,1,10,0:0:0:0:
64,192,147298,1,2,0:0:0:0:
448,192,147298,1,0,0:0:0:55:Crash 2.wav
192,192,147460,1,10,0:0:0:0:
320,192,147460,1,0,0:0:0:55:Crash 2.wav
64,192,147621,1,2,0:0:0:0:
192,192,147782,1,10,0:0:0:0:
448,192,147782,1,0,0:0:0:55:Crash 2.wav
64,192,147943,1,2,0:0:0:0:
320,192,147943,1,4,0:0:0:0:
448,192,148105,1,10,0:0:0:0:
64,192,148266,1,2,0:0:0:0:
192,192,148347,1,2,0:0:0:0:
320,192,148427,1,10,0:0:0:0:
448,192,148427,1,0,0:0:0:55:Hat open.wav
192,192,148589,1,2,0:0:0:0:
64,192,148750,1,10,0:0:0:0:
448,192,148750,1,0,0:0:0:55:Hat open.wav
320,192,148911,1,2,0:0:0:0:
192,192,148992,1,2,0:0:0:0:
64,192,149073,1,10,0:0:0:0:
448,192,149073,1,0,0:0:0:55:Hat open.wav
320,192,149234,1,2,0:0:0:0:
64,192,149395,1,10,0:0:0:0:
192,192,149395,1,0,0:0:0:55:Hat open.wav
448,192,149556,1,2,0:0:0:0:
320,192,149637,1,2,0:0:0:0:
64,192,149718,1,10,0:0:0:0:
192,192,149718,1,0,0:0:0:55:Hat open.wav
320,192,149879,1,2,0:0:0:0:
448,192,149879,1,0,0:0:0:55:Hat open.wav
64,192,150040,1,10,0:0:0:0:
320,192,150202,1,2,0:0:0:0:
192,192,150282,1,2,0:0:0:0:
64,192,150363,1,10,0:0:0:0:
448,192,150363,1,0,0:0:0:55:Hat open.wav
192,192,150524,1,2,0:0:0:0:
320,192,150524,1,4,0:0:0:0:
448,192,150685,1,10,0:0:0:0:
64,192,150847,1,2,0:0:0:0:
192,192,150927,1,2,0:0:0:0:
320,192,151008,1,10,0:0:0:0:
448,192,151008,1,0,0:0:0:55:Hat open.wav
64,192,151169,1,2,0:0:0:0:
192,192,151331,1,10,0:0:0:0:
448,192,151331,1,0,0:0:0:55:Hat open.wav
320,192,151492,1,2,0:0:0:0:
192,192,151573,1,2,0:0:0:0:
64,192,151653,1,10,0:0:0:0:
448,192,151653,1,0,0:0:0:55:Hat open.wav
192,192,151814,1,2,0:0:0:0:
320,192,151895,1,8,0:0:0:0:
64,192,151976,1,2,0:0:0:0:
192,192,152056,1,8,0:0:0:0:
320,192,152137,1,2,0:0:0:0:
448,192,152218,1,8,0:0:0:0:
64,192,152298,1,2,0:0:0:0:
192,192,152379,1,8,0:0:0:0:
448,192,152460,1,2,0:0:0:0:
320,192,152540,1,0,0:0:0:55:Tom1.wav
64,192,152621,1,2,0:0:0:0:
192,192,152702,1,0,0:0:0:55:Tom1.wav
448,192,152782,1,10,0:0:0:0:
320,192,152863,1,2,0:0:0:0:
64,192,152943,1,10,0:0:0:0:
192,192,153024,1,2,0:0:0:0:
320,192,153105,1,2,0:0:0:0:
448,192,153105,1,8,0:0:0:0:
64,192,153266,1,8,0:0:0:0:
192,192,153266,1,0,0:0:0:0:
320,192,153427,1,8,0:0:0:0:
448,192,153427,1,0,0:0:0:0:
64,192,153589,1,8,0:0:0:0:
192,192,153589,1,0,0:0:0:0:
448,192,153911,1,2,0:0:0:0:
192,192,153992,1,2,0:0:0:0:
64,192,154073,1,2,0:0:0:0:
320,192,154234,1,2,0:0:0:0:
64,192,154395,1,6,0:0:0:0:
448,192,154395,1,0,0:0:0:40:Ride.wav
320,192,154556,1,2,0:0:0:0:
64,192,154718,1,2,0:0:0:0:
192,192,154718,1,0,0:0:0:0:
320,192,154879,1,2,0:0:0:0:
448,192,154879,1,0,0:0:0:0:
64,192,155202,1,2,0:0:0:0:
192,192,155282,1,2,0:0:0:0:
320,192,155363,1,2,0:0:0:0:
64,192,155524,1,2,0:0:0:0:
192,192,155685,1,10,0:0:0:0:
448,192,155685,128,0,156331:0:0:0:40:Ride.wav
64,192,156331,1,2,0:0:0:0:
192,192,156331,1,0,0:0:0:55:Crash 2.wav
448,192,156492,1,2,0:0:0:0:
64,192,156653,1,2,0:0:0:0:
320,192,156653,1,0,0:0:0:55:Crash 2.wav
192,192,156814,1,2,0:0:0:0:
64,192,156976,1,2,0:0:0:0:
448,192,156976,128,0,157621:0:0:0:40:Ride.wav
64,192,157621,1,6,0:0:0:0:
192,192,157728,1,2,0:0:0:0:
448,192,157836,1,2,0:0:0:0:
64,192,157943,1,2,0:0:0:0:
192,192,158051,1,2,0:0:0:0:
448,192,158159,1,2,0:0:0:0:
64,192,158266,1,10,0:0:0:0:
320,192,158266,1,0,0:0:0:55:Hat open.wav
448,192,158589,1,2,0:0:0:0:
192,192,158696,1,2,0:0:0:0:
320,192,158804,1,2,0:0:0:0:
64,192,158911,1,8,0:0:0:0:
192,192,158911,1,0,0:0:0:0:
320,192,159073,1,2,0:0:0:0:
448,192,159073,1,0,0:0:0:0:
64,192,159234,1,8,0:0:0:0:
192,192,159234,1,2,0:0:0:0:
320,192,159395,1,2,0:0:0:0:
64,192,159556,1,6,0:0:0:0:
448,192,159556,1,0,0:0:0:40:Ride.wav
192,192,159718,1,2,0:0:0:0:
320,192,159879,1,2,0:0:0:0:
448,192,159879,1,0,0:0:0:0:
64,192,160040,1,2,0:0:0:0:
192,192,160040,1,0,0:0:0:0:
448,192,160363,1,2,0:0:0:0:
320,192,160443,1,2,0:0:0:0:
192,192,160524,1,2,0:0:0:0:
448,192,160685,1,2,0:0:0:0:
64,192,160847,128,10,161492:0:0:0:0:
320,192,160847,1,0,0:0:0:40:Ride.wav
320,192,161492,1,2,0:0:0:0:
448,192,161492,1,0,0:0:0:55:Crash 2.wav
64,192,161653,1,2,0:0:0:0:
192,192,161814,1,2,0:0:0:0:
448,192,161814,1,0,0:0:0:55:Crash 2.wav
320,192,161976,1,2,0:0:0:0:
64,192,162137,128,2,162782:0:0:0:0:
448,192,162137,1,0,0:0:0:40:Ride.wav
448,192,162782,1,6,0:0:0:0:
320,192,162890,1,2,0:0:0:0:
64,192,162997,1,2,0:0:0:0:
448,192,163105,1,2,0:0:0:0:
320,192,163212,1,2,0:0:0:0:
64,192,163320,1,2,0:0:0:0:
192,192,163427,1,10,0:0:0:0:
448,192,163427,1,0,0:0:0:55:Hat open.wav
64,192,163750,1,2,0:0:0:0:
192,192,163857,1,2,0:0:0:0:
320,192,163965,1,2,0:0:0:0:
64,192,164073,1,2,0:0:0:0:
192,192,164180,1,2,0:0:0:0:
320,192,164288,1,2,0:0:0:0:
64,192,164395,1,10,0:0:0:0:
448,192,164395,1,0,0:0:0:55:Hat open.wav
192,192,164718,1,0,0:0:0:0:
320,192,165040,1,0,0:0:0:0:
64,192,165363,1,6,0:0:0:0:
448,192,165363,1,0,0:0:0:55:Crash 2.wav
192,192,165524,1,2,0:0:0:0:
320,192,165685,1,10,0:0:0:0:
448,192,165685,1,0,0:0:0:55:Hat open.wav
64,192,165846,1,2,0:0:0:0:
448,192,166008,1,2,0:0:0:0:
448,192,166169,1,2,0:0:0:0:
64,192,166330,1,10,0:0:0:0:
192,192,166330,1,0,0:0:0:55:Hat open.wav
320,192,166492,1,2,0:0:0:0:
64,192,166653,1,2,0:0:0:0:
64,192,166814,1,2,0:0:0:0:
192,192,166975,1,10,0:0:0:0:
448,192,166975,1,0,0:0:0:55:Hat open.wav
320,192,167137,1,2,0:0:0:0:
192,192,167298,1,2,0:0:0:0:
192,192,167459,1,2,0:0:0:0:
320,192,167621,1,10,0:0:0:0:
448,192,167621,1,0,0:0:0:55:Hat open.wav
64,192,167782,1,2,0:0:0:0:
320,192,167943,1,2,0:0:0:0:
320,192,168104,1,2,0:0:0:0:
64,192,168266,1,10,0:0:0:0:
448,192,168266,1,0,0:0:0:55:Hat open.wav
192,192,168427,1,2,0:0:0:0:
320,192,168588,1,2,0:0:0:0:
64,192,168750,1,10,0:0:0:0:
448,192,168750,1,0,0:0:0:55:Crash 2.wav
64,192,169072,1,12,0:0:0:0:
448,192,169072,1,2,0:0:0:0:
320,192,169395,1,2,0:0:0:0:
64,192,169556,1,10,0:0:0:0:
192,192,169556,1,0,0:0:0:55:Hat open.wav
320,192,169717,1,2,0:0:0:0:
64,192,169879,1,2,0:0:0:0:
448,192,169879,1,0,0:0:0:0:
192,192,170040,1,2,0:0:0:0:
448,192,170201,1,0,0:0:0:55:Tom1.wav
320,192,170282,1,0,0:0:0:55:Tom1.wav
64,192,170363,1,0,0:0:0:55:Tom3.wav
192,192,170443,1,0,0:0:0:55:Tom3.wav
320,192,170524,1,8,0:0:0:0:
448,192,170524,1,0,0:0:0:55:Crash 2.wav
64,192,170685,1,2,0:0:0:0:
64,192,170846,1,2,0:0:0:0:
192,192,171008,1,8,0:0:0:0:
448,192,171008,1,0,0:0:0:55:Hat open.wav
320,192,171169,1,2,0:0:0:0:
320,192,171330,1,2,0:0:0:0:
64,192,171492,1,8,0:0:0:0:
448,192,171492,1,0,0:0:0:55:Crash 2.wav
192,192,171653,1,2,0:0:0:0:
192,192,171814,1,2,0:0:0:0:
64,192,171975,1,8,0:0:0:0:
320,192,171975,1,0,0:0:0:55:Crash 2.wav
448,192,172137,1,2,0:0:0:0:
448,192,172298,1,2,0:0:0:0:
64,192,172459,1,8,0:0:0:0:
192,192,172459,1,0,0:0:0:55:Hat open.wav
64,192,172621,1,2,0:0:0:0:
320,192,172782,1,8,0:0:0:0:
448,192,172782,1,0,0:0:0:0:
64,192,172943,1,2,0:0:0:0:
192,192,173024,1,2,0:0:0:0:
448,192,173104,1,8,0:0:0:0:
192,192,173427,1,0,0:0:0:0:
448,192,173750,1,0,0:0:0:0:
320,192,173911,1,0,0:0:0:0:
192,192,174072,1,0,0:0:0:0:
64,192,174233,1,0,0:0:0:0:
320,192,174395,1,2,0:0:0:0:
448,192,174395,1,0,0:0:0:55:Hat open.wav
64,192,174556,1,8,0:0:0:0:
192,192,174637,1,8,0:0:0:0:
320,192,174717,1,8,0:0:0:0:
448,192,174798,1,8,0:0:0:0:
64,192,174879,1,8,0:0:0:0:
192,192,174959,1,8,0:0:0:0:
320,192,175040,1,2,0:0:0:0:
448,192,175040,1,0,0:0:0:55:Hat open.wav
64,192,175685,1,2,0:0:0:0:
448,192,175685,1,4,0:0:0:0:
64,192,175846,1,10,0:0:0:0:
448,192,176008,1,2,0:0:0:0:
320,192,176088,1,2,0:0:0:0:
64,192,176169,1,10,0:0:0:0:
192,192,176169,1,0,0:0:0:55:Hat open.wav
320,192,176330,1,2,0:0:0:0:
448,192,176330,1,0,0:0:0:55:Hat open.wav
448,192,176492,1,10,0:0:0:0:
64,192,176653,1,2,0:0:0:0:
192,192,176733,1,2,0:0:0:0:
320,192,176814,1,10,0:0:0:0:
448,192,176814,1,0,0:0:0:55:Hat open.wav
64,192,176975,1,2,0:0:0:0:
192,192,176975,1,0,0:0:0:55:Hat open.wav
192,192,177137,1,10,0:0:0:0:
448,192,177298,1,2,0:0:0:0:
320,192,177379,1,2,0:0:0:0:
64,192,177459,1,10,0:0:0:0:
192,192,177459,1,0,0:0:0:55:Hat open.wav
320,192,177621,1,2,0:0:0:0:
448,192,177621,1,0,0:0:0:55:Hat open.wav
320,192,177782,1,10,0:0:0:0:
192,192,177943,1,2,0:0:0:0:
320,192,178024,1,2,0:0:0:0:
64,192,178104,1,10,0:0:0:0:
448,192,178104,1,0,0:0:0:55:Hat open.wav
192,192,178266,1,2,0:0:0:0:
320,192,178266,1,0,0:0:0:55:Hat open.wav
192,192,178427,1,10,0:0:0:0:
448,192,178588,1,2,0:0:0:0:
320,192,178669,1,2,0:0:0:0:
64,192,178750,1,10,0:0:0:0:
192,192,178750,1,0,0:0:0:55:Hat open.wav
320,192,178911,1,2,0:0:0:0:
448,192,178911,1,0,0:0:0:55:Hat open.wav
448,192,179072,1,10,0:0:0:0:
64,192,179233,1,2,0:0:0:0:
192,192,179314,1,2,0:0:0:0:
320,192,179395,1,10,0:0:0:0:
448,192,179395,1,0,0:0:0:55:Hat open.wav
64,192,179556,1,2,0:0:0:0:
192,192,179556,1,0,0:0:0:55:Hat open.wav
64,192,179717,1,8,0:0:0:0:
192,192,179798,1,8,0:0:0:0:
320,192,179879,1,2,0:0:0:0:
448,192,179959,1,0,0:0:0:55:Tom1.wav
64,192,180040,1,0,0:0:0:55:Tom1.wav
192,192,180121,1,0,0:0:0:55:Tom1.wav
448,192,180201,1,2,0:0:0:0:
320,192,180282,1,0,0:0:0:55:Tom2.wav
64,192,180363,1,0,0:0:0:55:Tom2.wav
192,192,180443,1,0,0:0:0:55:Tom2.wav
448,192,180524,1,2,0:0:0:0:
320,192,180604,1,0,0:0:0:55:Tom3.wav
64,192,180685,1,0,0:0:0:55:Tom3.wav
192,192,180766,1,0,0:0:0:55:Tom3.wav
320,192,180846,1,2,0:0:0:0:
448,192,180846,1,0,0:0:0:55:Crash 2.wav
320,192,181008,1,10,0:0:0:0:
64,192,181169,1,2,0:0:0:0:
192,192,181250,1,2,0:0:0:0:
320,192,181330,1,10,0:0:0:0:
448,192,181330,1,0,0:0:0:55:Hat open.wav
64,192,181492,1,2,0:0:0:0:
192,192,181492,1,0,0:0:0:55:Hat open.wav
64,192,181653,1,10,0:0:0:0:
320,192,181814,1,2,0:0:0:0:
192,192,181895,1,2,0:0:0:0:
64,192,181975,1,10,0:0:0:0:
448,192,181975,1,0,0:0:0:55:Hat open.wav
192,192,182137,1,2,0:0:0:0:
320,192,182137,1,0,0:0:0:55:Hat open.wav
320,192,182298,1,10,0:0:0:0:
64,192,182459,1,2,0:0:0:0:
192,192,182540,1,2,0:0:0:0:
320,192,182621,1,10,0:0:0:0:
448,192,182621,1,0,0:0:0:55:Hat open.wav
64,192,182782,1,2,0:0:0:0:
192,192,182782,1,0,0:0:0:55:Hat open.wav
192,192,182943,1,10,0:0:0:0:
448,192,183104,1,2,0:0:0:0:
320,192,183185,1,2,0:0:0:0:
64,192,183266,1,10,0:0:0:0:
192,192,183266,1,0,0:0:0:55:Hat open.wav
320,192,183427,1,2,0:0:0:0:
448,192,183427,1,0,0:0:0:55:Hat open.wav
448,192,183588,1,8,0:0:0:0:
64,192,183669,1,2,0:0:0:0:
192,192,183669,1,0,0:0:0:0:
64,192,183830,1,2,0:0:0:0:
320,192,183911,1,8,0:0:0:0:
448,192,183911,1,0,0:0:0:55:Hat open.wav
64,192,184072,1,2,0:0:0:0:
192,192,184072,1,0,0:0:0:55:Hat open.wav
320,192,184233,1,10,0:0:0:0:
192,192,184314,1,0,0:0:0:0:
64,192,184395,1,2,0:0:0:0:
448,192,184395,1,0,0:0:0:55:Hat open.wav
192,192,184556,1,10,0:0:0:0:
320,192,184556,1,0,0:0:0:55:Hat open.wav
320,192,184717,1,2,0:0:0:0:
64,192,184879,1,10,0:0:0:0:
192,192,184959,1,2,0:0:0:0:
448,192,185040,1,2,0:0:0:0:
320,192,185121,1,2,0:0:0:0:
192,192,185201,1,10,0:0:0:0:
64,192,185282,1,2,0:0:0:0:
448,192,185362,1,0,0:0:0:55:Tom1.wav
320,192,185443,1,0,0:0:0:55:Tom1.wav
64,192,185524,1,0,0:0:0:55:Tom2.wav
192,192,185604,1,0,0:0:0:55:Tom3.wav
320,192,185685,1,8,0:0:0:0:
448,192,185685,1,0,0:0:0:0:
192,192,185846,1,0,0:0:0:0:
64,192,186008,1,6,0:0:0:0:
448,192,186008,1,0,0:0:0:55:Crash 2.wav
192,192,186330,1,10,0:0:0:0:
448,192,186330,1,0,0:0:0:55:Hat open.wav
64,192,186653,1,2,0:0:0:0:
192,192,186653,1,0,0:0:0:55:Hat open.wav
320,192,186814,1,0,0:0:0:0:
64,192,186975,1,10,0:0:0:0:
448,192,186975,1,0,0:0:0:55:Hat open.wav
192,192,187137,1,0,0:0:0:0:
320,192,187298,1,2,0:0:0:0:
448,192,187298,1,0,0:0:0:55:Hat open.wav
64,192,187621,1,10,0:0:0:0:
448,192,187621,1,0,0:0:0:55:Hat open.wav
192,192,187782,1,0,0:0:0:0:
64,192,187943,1,2,0:0:0:0:
320,192,187943,1,0,0:0:0:55:Hat open.wav
448,192,188104,1,0,0:0:0:0:
64,192,188266,1,10,0:0:0:0:
192,192,188266,1,0,0:0:0:55:Hat open.wav
320,192,188427,1,0,0:0:0:0:
64,192,188588,1,4,0:0:0:0:
448,192,188588,1,2,0:0:0:0:
192,192,188911,1,10,0:0:0:0:
448,192,188911,1,0,0:0:0:55:Hat open.wav
320,192,189072,1,0,0:0:0:0:
64,192,189233,1,2,0:0:0:0:
192,192,189233,1,0,0:0:0:55:Hat open.wav
64,192,189556,1,10,0:0:0:0:
448,192,189556,1,0,0:0:0:55:Hat open.wav
192,192,189717,1,0,0:0:0:0:
320,192,189879,1,2,0:0:0:0:
448,192,189879,1,0,0:0:0:55:Hat open.wav
64,192,190040,1,0,0:0:0:0:
192,192,190201,1,10,0:0:0:0:
448,192,190201,1,0,0:0:0:55:Hat open.wav
320,192,190362,1,0,0:0:0:0:
192,192,190524,1,2,0:0:0:0:
192,192,190685,1,8,0:0:0:0:
448,192,190846,1,12,0:0:0:0:
448,192,191008,1,8,0:0:0:0:
64,192,191169,1,10,0:0:0:0:
320,192,191169,1,4,0:0:0:0:
64,192,191492,1,10,0:0:0:0:
448,192,191492,1,0,0:0:0:55:Hat open.wav
320,192,191653,1,0,0:0:0:0:
64,192,191814,1,2,0:0:0:0:
192,192,191814,1,0,0:0:0:55:Hat open.wav
320,192,191975,1,0,0:0:0:0:
64,192,192137,1,10,0:0:0:0:
448,192,192137,1,0,0:0:0:55:Hat open.wav
192,192,192298,1,0,0:0:0:0:
320,192,192459,1,2,0:0:0:0:
448,192,192459,1,0,0:0:0:55:Hat open.wav
64,192,192782,1,10,0:0:0:0:
320,192,192782,1,0,0:0:0:55:Hat open.wav
192,192,192943,1,0,0:0:0:0:
448,192,193104,1,2,0:0:0:0:
320,192,193185,1,0,0:0:0:0:
192,192,193266,1,8,0:0:0:0:
64,192,193346,1,8,0:0:0:0:
448,192,193427,1,10,0:0:0:0:
320,192,193508,1,8,0:0:0:0:
192,192,193588,1,8,0:0:0:0:
64,192,193669,1,8,0:0:0:0:
320,192,193750,1,4,0:0:0:0:
448,192,193750,1,2,0:0:0:0:
448,192,193911,1,10,0:0:0:0:
64,192,194072,1,2,0:0:0:0:
192,192,194153,1,2,0:0:0:0:
320,192,194233,1,10,0:0:0:0:
448,192,194233,1,0,0:0:0:55:Hat open.wav
64,192,194395,1,2,0:0:0:0:
192,192,194395,1,0,0:0:0:0:
64,192,194556,1,0,0:0:0:55:Tom1.wav
192,192,194637,1,0,0:0:0:55:Tom1.wav
448,192,194717,1,2,0:0:0:0:
320,192,194798,1,0,0:0:0:55:Tom2.wav
64,192,194879,1,2,0:0:0:0:
192,192,194959,1,2,0:0:0:0:
320,192,195040,1,8,0:0:0:0:
448,192,195040,1,2,0:0:0:0:
192,192,195201,1,2,0:0:0:0:
64,192,195362,1,2,0:0:0:0:
448,192,195362,1,0,0:0:0:0:
320,192,195524,1,10,0:0:0:0:
64,192,195685,1,10,0:0:0:0:
64,192,195846,1,2,0:0:0:0:
320,192,196008,1,2,0:0:0:0:
320,192,196169,1,2,0:0:0:0:
64,192,196330,1,6,0:0:0:0:
448,192,196330,1,0,0:0:0:55:Crash 2.wav
192,192,196492,1,2,0:0:0:0:
64,192,196653,1,2,0:0:0:0:
320,192,196653,1,0,0:0:0:0:
448,192,196814,1,2,0:0:0:0:
64,192,196975,1,2,0:0:0:0:
192,192,196975,1,0,0:0:0:55:Crash 2.wav
320,192,197137,1,2,0:0:0:0:
192,192,197298,1,2,0:0:0:0:
448,192,197298,1,0,0:0:0:0:
64,192,197459,1,2,0:0:0:0:
320,192,197621,1,10,0:0:0:0:
448,192,197621,1,0,0:0:0:55:Crash 2.wav
192,192,198266,1,0,0:0:0:55:Crash 2.wav
320,192,198911,1,2,0:0:0:0:
448,192,198911,1,0,0:0:0:55:Crash 2.wav
192,192,199072,1,2,0:0:0:0:
64,192,199233,1,2,0:0:0:0:
448,192,199233,1,0,0:0:0:0:
320,192,199395,1,2,0:0:0:0:
192,192,199556,1,2,0:0:0:0:
448,192,199556,1,0,0:0:0:55:Crash 2.wav
64,192,199717,1,2,0:0:0:0:
192,192,199879,1,2,0:0:0:0:
320,192,199879,1,0,0:0:0:0:
448,192,200040,1,2,0:0:0:0:
64,192,200201,1,10,0:0:0:0:
192,192,200201,1,0,0:0:0:55:Crash 2.wav
448,192,200846,1,0,0:0:0:55:Crash 2.wav
64,192,201008,1,0,0:0:0:55:Tom1.wav
320,192,201008,1,0,0:0:0:0:
192,192,201169,1,2,0:0:0:0:
320,192,201330,1,2,0:0:0:0:
448,192,201330,1,0,0:0:0:0:
64,192,201492,1,6,0:0:0:0:
192,192,201492,1,0,0:0:0:55:Crash 2.wav
320,192,201653,1,2,0:0:0:0:
64,192,201814,1,2,0:0:0:0:
448,192,201814,1,0,0:0:0:0:
192,192,201975,1,2,0:0:0:0:
320,192,202137,1,2,0:0:0:0:
448,192,202137,1,0,0:0:0:55:Crash 2.wav
192,192,202298,1,2,0:0:0:0:
64,192,202459,1,2,0:0:0:0:
448,192,202459,1,0,0:0:0:0:
320,192,202621,1,2,0:0:0:0:
64,192,202782,1,10,0:0:0:0:
192,192,202782,1,0,0:0:0:55:Crash 2.wav
320,192,203427,1,0,0:0:0:55:Crash 2.wav
64,192,204072,1,2,0:0:0:0:
448,192,204072,1,0,0:0:0:55:Crash 2.wav
320,192,204233,1,2,0:0:0:0:
64,192,204395,1,2,0:0:0:0:
192,192,204395,1,0,0:0:0:0:
320,192,204556,1,2,0:0:0:0:
64,192,204717,1,2,0:0:0:0:
448,192,204717,1,0,0:0:0:55:Crash 2.wav
192,192,204879,1,2,0:0:0:0:
320,192,205040,1,2,0:0:0:0:
448,192,205040,1,0,0:0:0:0:
192,192,205201,1,2,0:0:0:0:
64,192,205362,1,10,0:0:0:0:
448,192,205362,1,0,0:0:0:55:Crash 2.wav
320,192,205685,1,0,0:0:0:0:
64,192,206008,1,8,0:0:0:0:
192,192,206008,1,0,0:0:0:55:Crash 2.wav
448,192,206169,1,2,0:0:0:0:
320,192,206250,1,2,0:0:0:0:
192,192,206330,1,0,0:0:0:55:Tom1.wav
64,192,206411,1,0,0:0:0:55:Tom1.wav
448,192,206492,1,0,0:0:0:55:Tom3.wav
320,192,206572,1,0,0:0:0:55:Tom3.wav
64,192,206653,1,2,0:0:0:0:
192,192,206733,1,2,0:0:0:0:
320,192,206814,1,2,0:0:0:0:
448,192,206895,1,2,0:0:0:0:
64,192,206975,1,2,0:0:0:0:
192,192,207056,1,2,0:0:0:0:
320,192,207137,1,2,0:0:0:0:
448,192,207217,1,2,0:0:0:0:
64,192,207298,1,2,0:0:0:0:
192,192,207379,1,2,0:0:0:0:
448,192,207459,1,2,0:0:0:0:
320,192,207540,1,2,0:0:0:0:
64,192,207621,1,2,0:0:0:0:
192,192,207701,1,2,0:0:0:0:
448,192,207782,1,2,0:0:0:0:
320,192,207862,1,2,0:0:0:0:
64,192,207943,1,10,0:0:0:0:
192,192,207943,1,0,0:0:0:55:Crash 2.wav
448,192,208588,1,0,0:0:0:55:Crash 2.wav
64,192,209233,1,2,0:0:0:0:
192,192,209233,1,0,0:0:0:55:Crash 2.wav
448,192,209314,1,2,0:0:0:0:
320,192,209395,1,2,0:0:0:0:
192,192,209475,1,2,0:0:0:0:
64,192,209556,1,2,0:0:0:0:
448,192,209637,1,2,0:0:0:0:
320,192,209717,1,2,0:0:0:0:
64,192,209798,1,2,0:0:0:0:
192,192,209879,1,2,0:0:0:0:
320,192,209959,1,2,0:0:0:0:
448,192,210040,1,2,0:0:0:0:
64,192,210121,1,2,0:0:0:0:
192,192,210201,1,2,0:0:0:0:
448,192,210282,1,2,0:0:0:0:
320,192,210362,1,2,0:0:0:0:
192,192,210443,1,2,0:0:0:0:
64,192,210524,1,10,0:0:0:0:
448,192,210524,1,0,0:0:0:55:Crash 2.wav
320,192,210846,1,0,0:0:0:55:Hat open.wav
64,192,211008,1,2,0:0:0:0:
192,192,211008,1,0,0:0:0:0:
320,192,211169,1,8,0:0:0:0:
448,192,211169,1,0,0:0:0:55:Crash 2.wav
192,192,211330,1,2,0:0:0:0:
448,192,211492,1,0,0:0:0:55:Tom1.wav
320,192,211572,1,0,0:0:0:55:Tom1.wav
64,192,211653,1,0,0:0:0:55:Tom3.wav
192,192,211733,1,0,0:0:0:55:Tom3.wav
448,192,211814,1,2,0:0:0:0:
320,192,211895,1,2,0:0:0:0:
192,192,211975,1,2,0:0:0:0:
64,192,212056,1,2,0:0:0:0:
448,192,212137,1,2,0:0:0:0:
320,192,212217,1,2,0:0:0:0:
192,192,212298,1,2,0:0:0:0:
64,192,212379,1,2,0:0:0:0:
448,192,212459,1,2,0:0:0:0:
320,192,212540,1,2,0:0:0:0:
64,192,212621,1,2,0:0:0:0:
192,192,212701,1,2,0:0:0:0:
320,192,212782,1,2,0:0:0:0:
448,192,212862,1,2,0:0:0:0:
64,192,212943,1,2,0:0:0:0:
192,192,213024,1,2,0:0:0:0:
320,192,213104,1,10,0:0:0:0:
448,192,213104,1,0,0:0:0:55:Crash 2.wav
64,192,213750,1,0,0:0:0:55:Hat open.wav
448,192,214072,1,0,0:0:0:55:Tom1.wav
320,192,214153,1,0,0:0:0:55:Tom1.wav
64,192,214233,1,0,0:0:0:55:Tom3.wav
192,192,214314,1,0,0:0:0:55:Tom3.wav
448,192,214395,1,2,0:0:0:0:
320,192,214475,1,2,0:0:0:0:
192,192,214556,1,2,0:0:0:0:
64,192,214637,1,2,0:0:0:0:
448,192,214717,1,2,0:0:0:0:
320,192,214798,1,2,0:0:0:0:
192,192,214879,1,2,0:0:0:0:
64,192,214959,1,2,0:0:0:0:
320,192,215040,1,2,0:0:0:0:
448,192,215121,1,2,0:0:0:0:
64,192,215201,1,2,0:0:0:0:
192,192,215282,1,2,0:0:0:0:
320,192,215362,1,2,0:0:0:0:
448,192,215443,1,2,0:0:0:0:
64,192,215524,1,2,0:0:0:0:
192,192,215604,1,2,0:0:0:0:
320,192,215685,1,10,0:0:0:0:
448,192,215685,1,0,0:0:0:55:Tom1.wav
64,192,215846,1,0,0:0:0:55:Tom2.wav
192,192,216008,1,0,0:0:0:55:Tom3.wav
448,192,216008,1,0,0:0:0:0:
320,192,216169,1,2,0:0:0:0:
192,192,216250,1,2,0:0:0:0:
64,192,216330,1,8,0:0:0:0:
448,192,216330,1,0,0:0:0:0:
320,192,216492,1,2,0:0:0:0:
64,192,216653,1,0,0:0:0:55:Tom1.wav
192,192,216653,1,0,0:0:0:0:
448,192,216814,1,0,0:0:0:55:Tom3.wav
64,192,216975,1,6,0:0:0:0:
320,192,216975,1,0,0:0:0:55:Crash 2.wav
192,192,217137,1,2,0:0:0:0:
320,192,217298,1,2,0:0:0:0:
448,192,217298,1,0,0:0:0:0:
192,192,217459,1,2,0:0:0:0:
64,192,217621,1,2,0:0:0:0:
448,192,217621,1,0,0:0:0:55:Crash 2.wav
320,192,217782,1,2,0:0:0:0:
64,192,217943,1,2,0:0:0:0:
192,192,217943,1,0,0:0:0:0:
320,192,218104,1,2,0:0:0:0:
192,192,218266,1,10,0:0:0:0:
448,192,218266,1,0,0:0:0:55:Crash 2.wav
64,192,218911,1,0,0:0:0:55:Crash 2.wav
64,192,219556,1,2,0:0:0:0:
448,192,219556,1,0,0:0:0:55:Crash 2.wav
320,192,219717,1,2,0:0:0:0:
192,192,219879,1,2,0:0:0:0:
448,192,219879,1,0,0:0:0:0:
64,192,220040,1,2,0:0:0:0:
320,192,220201,1,2,0:0:0:0:
448,192,220201,1,0,0:0:0:55:Crash 2.wav
64,192,220362,1,2,0:0:0:0:
192,192,220524,1,2,0:0:0:0:
320,192,220524,1,0,0:0:0:0:
448,192,220685,1,2,0:0:0:0:
64,192,220846,1,10,0:0:0:0:
192,192,220846,1,0,0:0:0:55:Crash 2.wav
448,192,221492,1,0,0:0:0:55:Crash 2.wav
64,192,221653,1,0,0:0:0:55:Tom1.wav
320,192,221653,1,0,0:0:0:0:
192,192,221814,1,2,0:0:0:0:
320,192,221975,1,2,0:0:0:0:
448,192,221975,1,0,0:0:0:0:
64,192,222137,1,6,0:0:0:0:
192,192,222137,1,0,0:0:0:55:Crash 2.wav
320,192,222298,1,2,0:0:0:0:
64,192,222459,1,2,0:0:0:0:
448,192,222459,1,0,0:0:0:0:
192,192,222621,1,2,0:0:0:0:
320,192,222782,1,2,0:0:0:0:
448,192,222782,1,0,0:0:0:55:Crash 2.wav
192,192,222943,1,2,0:0:0:0:
64,192,223104,1,2,0:0:0:0:
448,192,223104,1,0,0:0:0:0:
320,192,223266,1,2,0:0:0:0:
64,192,223427,1,10,0:0:0:0:
192,192,223427,1,0,0:0:0:55:Crash 2.wav
320,192,224072,1,0,0:0:0:55:Crash 2.wav
64,192,224717,1,2,0:0:0:0:
448,192,224717,1,0,0:0:0:55:Crash 2.wav
192,192,224879,1,2,0:0:0:0:
320,192,225040,1,2,0:0:0:0:
448,192,225040,1,0,0:0:0:0:
64,192,225201,1,2,0:0:0:0:
192,192,225362,1,2,0:0:0:0:
448,192,225362,1,0,0:0:0:55:Crash 2.wav
320,192,225524,1,2,0:0:0:0:
64,192,225685,1,2,0:0:0:0:
192,192,225685,1,0,0:0:0:0:
448,192,225846,1,2,0:0:0:0:
64,192,226008,1,10,0:0:0:0:
320,192,226008,1,0,0:0:0:55:Crash 2.wav
192,192,226330,1,0,0:0:0:0:
320,192,226653,1,8,0:0:0:0:
448,192,226653,1,0,0:0:0:55:Crash 2.wav
64,192,226814,1,2,0:0:0:0:
192,192,226895,1,2,0:0:0:0:
320,192,226975,1,0,0:0:0:55:Tom1.wav
448,192,227056,1,0,0:0:0:55:Tom1.wav
64,192,227137,1,0,0:0:0:55:Tom3.wav
192,192,227217,1,0,0:0:0:55:Tom3.wav
448,192,227298,1,2,0:0:0:0:
320,192,227379,1,2,0:0:0:0:
192,192,227459,1,2,0:0:0:0:
64,192,227540,1,2,0:0:0:0:
448,192,227621,1,2,0:0:0:0:
320,192,227701,1,2,0:0:0:0:
192,192,227782,1,2,0:0:0:0:
64,192,227862,1,2,0:0:0:0:
320,192,227943,1,2,0:0:0:0:
448,192,228024,1,2,0:0:0:0:
64,192,228104,1,2,0:0:0:0:
192,192,228185,1,2,0:0:0:0:
320,192,228266,1,2,0:0:0:0:
448,192,228346,1,2,0:0:0:0:
64,192,228427,1,2,0:0:0:0:
192,192,228508,1,2,0:0:0:0:
320,192,228588,1,10,0:0:0:0:
448,192,228588,1,0,0:0:0:55:Crash 2.wav
64,192,229233,1,0,0:0:0:55:Crash 2.wav
448,192,229879,1,2,0:0:0:0:
320,192,229959,1,2,0:0:0:0:
192,192,230040,1,2,0:0:0:0:
64,192,230121,1,2,0:0:0:0:
448,192,230201,1,2,0:0:0:0:
320,192,230282,1,2,0:0:0:0:
64,192,230362,1,2,0:0:0:0:
192,192,230443,1,2,0:0:0:0:
320,192,230524,1,2,0:0:0:0:
448,192,230604,1,2,0:0:0:0:
64,192,230685,1,2,0:0:0:0:
192,192,230766,1,2,0:0:0:0:
320,192,230846,1,2,0:0:0:0:
448,192,230927,1,2,0:0:0:0:
64,192,231008,1,2,0:0:0:0:
192,192,231088,1,2,0:0:0:0:
320,192,231169,1,10,0:0:0:0:
448,192,231169,1,0,0:0:0:55:Crash 2.wav
64,192,231492,1,0,0:0:0:55:Hat open.wav
320,192,231653,1,2,0:0:0:0:
448,192,231653,1,0,0:0:0:0:
64,192,231814,1,8,0:0:0:0:
192,192,231814,1,0,0:0:0:55:Crash 2.wav
320,192,231975,1,2,0:0:0:0:
64,192,232137,1,0,0:0:0:55:Tom1.wav
192,192,232217,1,0,0:0:0:55:Tom1.wav
448,192,232298,1,0,0:0:0:55:Tom3.wav
320,192,232379,1,0,0:0:0:55:Tom3.wav
64,192,232459,1,2,0:0:0:0:
192,192,232540,1,2,0:0:0:0:
320,192,232621,1,2,0:0:0:0:
448,192,232701,1,2,0:0:0:0:
64,192,232782,1,2,0:0:0:0:
192,192,232862,1,2,0:0:0:0:
320,192,232943,1,2,0:0:0:0:
448,192,233024,1,2,0:0:0:0:
192,192,233104,1,2,0:0:0:0:
64,192,233185,1,2,0:0:0:0:
448,192,233266,1,2,0:0:0:0:
320,192,233346,1,2,0:0:0:0:
192,192,233427,1,2,0:0:0:0:
64,192,233508,1,2,0:0:0:0:
448,192,233588,1,2,0:0:0:0:
320,192,233669,1,2,0:0:0:0:
64,192,233750,1,10,0:0:0:0:
192,192,233750,1,0,0:0:0:55:Crash 2.wav
448,192,234395,1,0,0:0:0:55:Hat open.wav
64,192,234717,1,0,0:0:0:55:Tom1.wav
192,192,234798,1,0,0:0:0:55:Tom1.wav
448,192,234879,1,0,0:0:0:55:Tom3.wav
320,192,234959,1,0,0:0:0:55:Tom3.wav
64,192,235040,1,2,0:0:0:0:
192,192,235121,1,2,0:0:0:0:
320,192,235201,1,2,0:0:0:0:
448,192,235282,1,2,0:0:0:0:
64,192,235362,1,2,0:0:0:0:
192,192,235443,1,2,0:0:0:0:
320,192,235524,1,2,0:0:0:0:
448,192,235604,1,2,0:0:0:0:
192,192,235685,1,2,0:0:0:0:
64,192,235766,1,2,0:0:0:0:
448,192,235846,1,2,0:0:0:0:
320,192,235927,1,2,0:0:0:0:
192,192,236008,1,2,0:0:0:0:
64,192,236088,1,2,0:0:0:0:
448,192,236169,1,2,0:0:0:0:
320,192,236250,1,2,0:0:0:0:
64,192,236330,1,10,0:0:0:0:
192,192,236411,1,8,0:0:0:0:
448,192,236492,1,2,0:0:0:0:
320,192,236572,1,2,0:0:0:0:
192,192,236653,1,0,0:0:0:55:Tom1.wav
64,192,236733,1,0,0:0:0:55:Tom1.wav
320,192,236814,1,2,0:0:0:0:
448,192,236895,1,2,0:0:0:0:
64,192,236975,1,8,0:0:0:0:
192,192,237056,1,8,0:0:0:0:
320,192,237137,1,2,0:0:0:0:
448,192,237217,1,2,0:0:0:0:
64,192,237298,1,8,0:0:0:0:
192,192,237379,1,8,0:0:0:0:
320,192,237459,1,8,0:0:0:0:
448,192,237540,1,8,0:0:0:0:
64,192,237621,1,0,0:0:0:0:
