osu file format v14

[General]
AudioFilename: audio.mp3
AudioLeadIn: 0
PreviewTime: 107430
Countdown: 0
SampleSet: Soft
StackLeniency: 0.3
Mode: 0
LetterboxInBreaks: 0
WidescreenStoryboard: 0

[Editor]
Bookmarks: 24848,44048,144365,186623,189204,197913,249526
DistanceSpacing: 1
BeatDivisor: 4
GridSize: 8
TimelineZoom: 1.799999

[Metadata]
Title:IT Is The End
TitleUnicode:IT Is The End
Artist:Ice Nine Kills
ArtistUnicode:Ice Nine Kills
Creator:Blitzifyyy
Version:TheMefisto's Insane
Source:
Tags:Fix XZeniFX Nelliel [-Evil-] Mimari TheMefisto The Silver Scream INK its it's Spencer Charnas Ricky Armellino Patrick Galante Joe Occhiuti Dan Sugarman Justin DeBlieck Metal Metalcore English Pennywise Less Than Jake Fenix TX JR Wasilewski Buddy Schaub Will Salazar
BeatmapID:2653460
BeatmapSetID:1061532

[Difficulty]
HPDrainRate:5
CircleSize:3.7
OverallDifficulty:8.4
ApproachRate:9.1
SliderMultiplier:1.6
SliderTickRate:1

[Events]
//Background and Video events
0,0,"You'll Float Too.jpg",0,0
//Break Periods
//Storyboard Layer 0 (Background)
//Storyboard Layer 1 (Fail)
//Storyboard Layer 2 (Pass)
//Storyboard Layer 3 (Foreground)
//Storyboard Layer 4 (Overlay)
//Storyboard Sound Samples

[TimingPoints]
24848,400,3,2,1,50,1,0
44048,-250,3,2,1,50,0,0
45248,-153.846153846154,3,2,1,50,0,0
47648,-250,3,2,1,50,0,0
48848,-133.333333333333,3,2,1,50,0,0
51248,-153.846153846154,3,2,1,50,0,0
53648,-250,3,2,1,50,0,0
54848,-153.846153846153,3,2,1,50,0,0
57248,-250,3,2,1,50,0,0
58448,-133.333333333333,3,2,1,50,0,0
58748,-133.333333333333,3,2,1,5,0,0
58848,-133.333333333333,3,2,1,50,0,0
59948,-133.333333333333,3,2,1,5,0,0
60048,-133.333333333333,3,2,1,50,0,0
60848,626.631853785901,3,2,1,35,1,0
60848,-181.818181818182,3,2,1,35,0,0
61317,-181.818181818182,3,2,1,5,0,0
61475,757.097791798107,3,2,1,30,1,0
61475,-200,3,2,1,30,0,0
62042,-200,3,2,1,5,0,0
62231,946.372239747634,3,2,1,25,1,0
62231,-222.222222222222,3,2,1,25,0,0
62940,-222.222222222222,3,2,1,5,0,0
63178,826.332461093513,3,2,1,20,1,0
63178,-400,3,2,1,20,0,0
64004,-400,3,2,1,5,0,0
65656,322.58064516129,4,2,1,80,1,1
65736,-100,4,2,1,80,0,0
76623,-133.333333333333,4,2,1,40,0,0
76703,-133.333333333333,4,2,1,5,0,0
76785,-133.333333333333,4,2,1,40,0,0
76946,-133.333333333333,4,2,1,70,0,0
77268,-100,4,2,1,70,0,0
87591,-80,4,2,1,70,0,0
87671,-80,4,2,1,5,0,0
87752,-80,4,2,1,60,0,0
87832,-80,4,2,1,5,0,0
87914,-80,4,2,1,60,0,0
87994,-80,4,2,1,5,0,0
88075,-80,4,2,1,60,0,0
88155,-80,4,2,1,5,0,0
88397,-80,4,2,1,60,0,0
88477,-80,4,2,1,5,0,0
88559,-80,4,2,1,60,0,0
88639,-80,4,2,1,5,0,0
88720,-80,4,2,1,60,0,0
88800,-80,4,2,1,5,0,0
88881,-80,4,2,1,60,0,0
88961,-80,4,2,1,5,0,0
89526,-66.6666666666667,4,2,1,60,0,0
89606,-66.6666666666667,4,2,1,5,0,0
89688,-66.6666666666667,4,2,1,60,0,0
89768,-66.6666666666667,4,2,1,5,0,0
89849,-66.6666666666667,4,2,1,60,0,0
89929,-66.6666666666667,4,2,1,5,0,0
90010,-66.6666666666667,4,2,1,60,0,0
90090,-66.6666666666667,4,2,1,5,0,0
90817,-133.333333333333,4,2,1,60,0,0
92752,-79.9999999999999,4,2,1,60,0,0
92832,-79.9999999999999,4,2,1,5,0,0
92914,-79.9999999999999,4,2,1,60,0,0
92994,-79.9999999999999,4,2,1,5,0,0
93075,-79.9999999999999,4,2,1,60,0,0
93155,-79.9999999999999,4,2,1,5,0,0
93236,-79.9999999999999,4,2,1,60,0,0
93316,-79.9999999999999,4,2,1,5,0,0
93559,-79.9999999999999,4,2,1,60,0,0
93639,-79.9999999999999,4,2,1,5,0,0
93720,-79.9999999999999,4,2,1,60,0,0
93800,-79.9999999999999,4,2,1,5,0,0
93881,-79.9999999999999,4,2,1,60,0,0
93961,-79.9999999999999,4,2,1,5,0,0
94043,-79.9999999999999,4,2,1,60,0,0
94123,-79.9999999999999,4,2,1,5,0,0
94526,-79.9999999999999,4,2,1,60,0,0
94688,-66.6666666666667,4,2,1,60,0,0
94768,-66.6666666666667,4,2,1,5,0,0
94849,-66.6666666666667,4,2,1,60,0,0
94929,-66.6666666666667,4,2,1,5,0,0
95010,-66.6666666666667,4,2,1,60,0,0
95090,-66.6666666666667,4,2,1,5,0,0
95172,-66.6666666666667,4,2,1,60,0,0
95252,-66.6666666666667,4,2,1,5,0,0
95333,-66.6666666666667,4,2,1,60,0,0
95978,-200,4,2,1,60,0,0
97914,-200,4,2,1,70,0,0
98881,-100,4,2,1,70,0,0
99204,-117.647058823529,4,2,1,70,0,0
99768,-117.647058823529,4,2,1,5,0,0
99849,-100,4,2,1,70,0,0
100494,-142.857142857143,4,2,1,70,0,0
101058,-142.857142857143,4,2,1,5,0,0
101139,-142.857142857143,4,2,1,70,0,0
102430,-66.6666666666667,4,2,1,70,0,0
102510,-66.6666666666667,4,2,1,5,0,0
102591,-66.6666666666667,4,2,1,70,0,0
102671,-66.6666666666667,4,2,1,5,0,0
102752,-66.6666666666667,4,2,1,70,0,0
102832,-66.6666666666667,4,2,1,5,0,0
102914,-66.6666666666667,4,2,1,70,0,0
102994,-66.6666666666667,4,2,1,5,0,0
103075,-66.6666666666667,4,2,1,70,0,0
104043,-100,4,2,1,70,0,0
104365,-117.647058823529,4,2,1,70,0,0
104929,-117.647058823529,4,2,1,5,0,0
105010,-100,4,2,1,70,0,0
105655,-142.857142857143,4,2,1,70,0,0
106219,-142.857142857143,4,2,1,5,0,0
106301,-142.857142857143,4,2,1,70,0,0
108236,-100,4,2,1,75,0,1
115978,-100,4,2,1,60,0,0
118559,-86.9565217391304,4,2,1,85,0,1
128559,-66.6666666666667,4,2,1,85,0,0
128800,-66.6666666666667,4,2,1,5,0,0
128881,-86.9565217391304,4,2,1,85,0,1
139204,-86.9565217391304,4,2,1,80,0,0
143720,-133.333333333333,4,2,1,40,0,0
143800,-133.333333333333,4,2,1,5,0,0
143881,-133.333333333333,4,2,1,40,0,0
144123,-133.333333333333,4,2,1,5,0,0
144204,-133.333333333333,4,2,1,40,0,0
144365,-100,4,2,1,70,0,0
154688,-100,4,2,1,60,0,0
155978,-100,4,2,1,70,0,0
157268,-117.647058823529,4,2,1,70,0,0
157832,-117.647058823529,4,2,1,5,0,0
157914,-100,4,2,1,70,0,0
158559,-142.857142857143,4,2,1,70,0,0
159123,-142.857142857143,4,2,1,5,0,0
159204,-142.857142857143,4,2,1,70,0,0
160494,-66.6666666666667,4,2,1,70,0,0
160574,-66.6666666666667,4,2,1,5,0,0
160655,-66.6666666666667,4,2,1,70,0,0
160735,-66.6666666666667,4,2,1,5,0,0
160817,-66.6666666666667,4,2,1,70,0,0
160897,-66.6666666666667,4,2,1,5,0,0
160978,-66.6666666666667,4,2,1,70,0,0
161058,-66.6666666666667,4,2,1,5,0,0
161139,-66.6666666666667,4,2,1,70,0,0
162107,-100,4,2,1,70,0,0
162430,-117.647058823529,4,2,1,70,0,0
162994,-117.647058823529,4,2,1,5,0,0
163075,-100,4,2,1,70,0,0
163720,-142.857142857143,4,2,1,70,0,0
164284,-142.857142857143,4,2,1,5,0,0
164365,-142.857142857143,4,2,1,70,0,0
166946,322.58064516129,4,2,1,75,1,1
174687,-100,4,2,1,80,0,0
177268,-86.9565217391304,4,2,1,85,0,1
186945,-86.9565217391304,4,2,1,85,0,0
187268,-66.6666666666667,4,2,1,85,0,0
187509,-66.6666666666667,4,2,1,5,0,0
187591,-86.9565217391304,4,2,1,85,0,1
197913,-133.333333333333,4,2,1,65,0,0
199204,-166.666666666667,4,2,1,65,0,0
200494,-133.333333333333,4,2,1,65,0,0
201784,-166.666666666667,4,2,1,65,0,0
203075,-133.333333333333,4,2,1,65,0,0
204365,-166.666666666667,4,2,1,65,0,0
205655,-133.333333333333,4,2,1,65,0,0
206945,-166.666666666667,4,2,1,65,0,0
208236,-133.333333333333,4,2,1,65,0,0
209526,-166.666666666667,4,2,1,65,0,0
210816,-133.333333333333,4,2,1,65,0,0
219849,-166.666666666667,4,2,1,65,0,0
221139,-133.333333333333,4,2,1,65,0,0
222429,-166.666666666667,4,2,1,65,0,0
223720,-133.333333333333,4,2,1,65,0,0
225010,-166.666666666667,4,2,1,65,0,0
226300,-133.333333333333,4,2,1,65,0,0
227591,-166.666666666667,4,2,1,65,0,0
228881,-133.333333333333,4,2,1,65,0,0
230171,-166.666666666667,4,2,1,65,0,0
231462,-133.333333333333,4,2,1,65,0,0
237913,-100,4,2,1,65,0,0
239204,-250,4,2,1,40,0,0
240494,-250,4,2,1,35,0,0
241784,-250,4,2,1,30,0,0
243074,-250,4,2,1,25,0,0
249526,-250,4,2,1,5,0,0

[Colours]
Combo1 : 199,184,3
Combo2 : 202,0,0
Combo3 : 79,79,79

[HitObjects]
158,115,44048,6,0,P|214:89|183:129,1,160,6|0,2:0|2:0,2:0:0:0:
154,258,45248,2,0,L|161:319,1,51.999997619629,2|0,2:0|2:0,2:0:0:0:
53,217,45648,2,0,L|58:165,1,51.999997619629,0|0,2:0|2:0,2:0:0:0:
174,87,46048,1,0,2:0:0:0:
235,168,46248,1,0,2:0:0:0:
329,50,46448,6,0,B|372:21|429:33,1,103.999995239258,2|0,2:0|2:0,2:0:0:0:
498,105,47048,1,0,2:0:0:0:
456,194,47248,1,0,2:0:0:0:
250,162,47648,2,0,L|254:262,1,96,2|0,2:0|2:0,2:0:0:0:
353,131,48448,2,0,L|351:162,1,32,0|0,2:0|2:0,2:0:0:0:
423,52,48848,6,0,P|369:26|296:42,1,120.000004577637,6|0,2:0|2:0,2:0:0:0:
502,130,49448,2,0,P|444:144|404:187,1,120.000004577637,0|0,2:0|2:0,2:0:0:0:
506,310,50048,2,0,B|461:295|429:314|429:314|415:302|415:302|377:329|338:316,1,180.000006866455,2|0,2:0|2:0,2:0:0:0:
446,211,50848,1,0,2:0:0:0:
352,158,51048,1,0,2:0:0:0:
254,256,51248,6,0,P|194:277|138:266,1,103.999995239258,2|0,2:0|2:0,2:0:0:0:
75,191,51848,1,0,2:0:0:0:
199,120,52048,2,0,L|189:171,1,51.999997619629,0|0,2:0|2:0,2:0:0:0:
116,55,52448,2,0,P|189:15|269:40,1,155.999992858887,2|0,2:0|2:0,2:0:0:0:
351,95,53248,2,0,L|346:146,1,51.999997619629,0|0,2:0|2:0,2:0:0:0:
388,319,53648,6,0,P|307:318|221:336,1,160,6|0,2:0|2:0,2:0:0:0:
112,372,54848,2,0,L|107:314,1,51.999997619629,2|0,2:0|2:0,2:0:0:0:
5,254,55248,2,0,L|0:305,1,51.999997619629,0|0,2:0|2:0,2:0:0:0:
110,202,55648,1,0,2:0:0:0:
22,61,56048,6,0,B|66:32|66:32|116:38,1,103.999995239258,2|0,2:0|2:0,2:0:0:0:
210,207,56848,1,0,2:0:0:0:
308,73,57248,2,0,L|204:83,1,96,2|0,2:0|2:0,2:0:0:0:
332,175,58048,2,0,L|375:179,1,32,0|0,2:0|2:0,2:0:0:0:
451,312,58448,6,0,B|429:367|429:367|424:333,1,90.0000034332277,6|0,2:0|2:0,2:0:0:0:
413,324,58848,1,0,2:0:0:0:
358,194,59048,2,0,B|408:165|408:165|479:180,1,120.000004577637,0|0,2:0|2:0,2:0:0:0:
433,30,59648,2,0,B|386:23|386:23|335:48,1,90.0000034332277,2|0,2:0|2:0,2:0:0:0:
336,56,60048,2,0,B|314:67|314:67|263:59,1,60.0000022888184,0|0,2:0|2:0,2:0:0:0:
155,10,60448,1,0,2:0:0:0:
57,92,60848,6,0,L|68:172,1,66.0000020141602,2|0,2:0|2:0,2:0:0:0:
157,152,61475,6,0,L|147:225,1,60,2|0,2:0|2:0,2:0:0:0:
238,235,62231,6,0,L|212:297,1,53.9999983520508,2|0,2:0|2:0,2:0:0:0:
294,336,63178,6,0,L|264:374,1,40,2|0,2:0|2:0,2:0:0:0:
150,273,65656,5,4,1:2:0:0:
177,295,65736,1,0,1:0:0:0:
212,299,65817,1,0,1:0:0:0:
245,287,65897,1,0,1:0:0:0:
269,260,65978,2,0,L|262:205,3,40,2|0|0|0,1:2|1:0|1:0|1:0,2:0:0:0:
340,175,66301,2,0,L|347:120,3,40,2|0|0|0,1:2|1:0|1:0|1:0,2:0:0:0:
415,233,66623,1,2,1:2:0:0:
434,263,66704,1,0,1:0:0:0:
443,298,66785,1,0,1:0:0:0:
435,332,66865,1,0,1:0:0:0:
412,360,66946,6,0,L|363:367,1,40,2|0,1:2|1:0,2:0:0:0:
274,283,67107,2,0,L|323:290,1,40,0|0,1:0|1:0,2:0:0:0:
340,175,67268,1,2,1:2:0:0:
362,146,67349,1,0,1:0:0:0:
364,107,67430,1,0,1:0:0:0:
351,73,67510,1,0,1:0:0:0:
327,45,67591,6,0,L|258:29,1,40,12|0,2:0|1:0,2:0:0:0:
134,52,67752,2,0,L|173:62,1,40,8|0,2:0|1:0,2:0:0:0:
282,152,67914,2,0,L|243:142,1,40,8|0,2:0|1:0,2:0:0:0:
89,159,68075,2,0,L|128:169,1,40,8|0,2:0|1:0,2:0:0:0:
183,264,68236,5,4,1:2:0:0:
171,297,68317,1,0,1:0:0:0:
140,317,68397,1,0,1:0:0:0:
104,315,68478,1,0,1:0:0:0:
72,297,68559,2,0,L|65:242,3,40,2|0|0|0,1:2|1:0|1:0|1:0,2:0:0:0:
127,168,68881,2,0,L|134:113,3,40,2|0|0|0,1:2|1:0|1:0|1:0,2:0:0:0:
72,42,69204,1,2,1:2:0:0:
107,37,69285,1,0,1:0:0:0:
142,32,69365,1,0,1:0:0:0:
177,27,69446,1,0,1:0:0:0:
212,22,69526,6,0,L|261:29,1,40,12|0,2:0|1:0,2:0:0:0:
319,127,69688,2,0,L|279:121,1,40,8|0,2:0|1:0,2:0:0:0:
193,198,69849,5,8,3:0:0:0:
193,209,69930,1,8,3:0:0:0:
193,221,70010,1,8,3:0:0:0:
194,233,70091,1,8,3:0:0:0:
215,243,70172,5,8,1:3:0:0:
215,254,70252,1,8,1:3:0:0:
215,266,70333,1,8,1:3:0:0:
216,278,70414,1,8,1:3:0:0:
237,288,70494,5,8,1:3:0:0:
237,299,70575,1,8,1:3:0:0:
237,311,70656,1,8,1:3:0:0:
238,323,70736,1,8,1:3:0:0:
259,333,70817,6,0,L|260:372,3,40,4|0|0|0,1:2|1:0|1:0|1:0,2:0:0:0:
358,287,71139,1,2,1:2:0:0:
381,259,71220,1,0,1:0:0:0:
388,224,71301,1,0,1:0:0:0:
377,190,71381,1,0,1:0:0:0:
352,165,71462,2,0,L|314:150,3,40,2|0|0|0,1:2|1:0|1:0|1:0,2:0:0:0:
214,181,71785,1,2,1:2:0:0:
191,151,71865,1,0,1:0:0:0:
183,115,71946,1,0,1:0:0:0:
195,83,72026,1,0,1:0:0:0:
221,57,72107,2,0,L|267:39,3,40,2|0|0|0,1:2|1:0|1:0|1:0,2:0:0:0:
214,181,72430,5,2,1:2:0:0:
201,215,72510,1,0,1:0:0:0:
174,239,72591,1,0,1:0:0:0:
139,246,72672,1,0,1:0:0:0:
105,237,72752,2,0,L|66:206,1,40,12|0,2:0|1:0,2:0:0:0:
160,352,72914,2,0,L|191:376,1,40,8|0,2:0|1:0,2:0:0:0:
39,297,73075,2,0,L|0:293,1,40,8|0,2:0|1:0,2:0:0:0:
174,239,73236,2,0,L|213:242,1,40,8|0,2:0|1:0,2:0:0:0:
106,133,73397,5,4,1:2:0:0:
106,133,73478,1,0,1:0:0:0:
106,133,73559,2,0,L|99:60,1,40,0|0,1:0|1:0,2:0:0:0:
206,54,73720,1,2,1:2:0:0:
206,54,73801,1,0,1:0:0:0:
206,54,73881,2,0,L|213:-19,1,40,0|0,1:0|1:0,2:0:0:0:
302,145,74043,5,2,1:2:0:0:
302,145,74123,1,0,1:0:0:0:
302,145,74204,2,0,L|295:72,1,40,0|0,1:0|1:0,2:0:0:0:
402,66,74365,1,2,1:2:0:0:
402,66,74446,1,0,1:0:0:0:
402,66,74526,2,0,L|409:-7,1,40,0|0,1:0|1:0,2:0:0:0:
472,176,74688,6,0,L|406:191,3,40,8|0|8|0,2:0|1:0|2:0|1:0,2:0:0:0:
367,257,75010,2,0,L|406:265,3,40,8|0|8|0,2:0|1:0|2:0|1:0,2:0:0:0:
482,337,75333,6,0,L|416:352,1,40,4|0,1:2|1:0,2:0:0:0:
302,310,75494,1,0,1:0:0:0:
278,278,75575,1,0,1:0:0:0:
278,239,75655,1,0,1:0:0:0:
302,208,75736,1,0,1:0:0:0:
324,176,75817,1,0,1:0:0:0:
324,137,75897,1,0,1:0:0:0:
300,106,75978,5,0,1:0:0:0:
300,106,76623,6,2,L|304:156,1,30.0000011444092,2|2,2:1|2:1,2:1:0:0:
266,219,76785,1,2,2:0:0:0:
428,138,76946,5,8,2:0:0:0:
430,157,77026,1,8,2:0:0:0:
432,177,77107,1,8,2:0:0:0:
433,197,77188,1,8,2:0:0:0:
435,217,77268,6,0,L|343:209,1,80,12|8,1:2|2:0,2:0:0:0:
245,323,77591,1,0,1:0:0:0:
368,334,77752,1,8,2:0:0:0:
244,204,77914,2,0,P|236:169|240:124,1,80,0|8,1:0|2:0,2:0:0:0:
311,34,78236,1,0,1:0:0:0:
420,146,78397,2,0,P|380:149|342:159,1,80,8|0,2:0|1:0,2:0:0:0:
489,276,78720,5,8,2:0:0:0:
345,174,78881,1,0,1:0:0:0:
497,98,79043,1,8,2:0:0:0:
394,257,79204,2,0,L|386:355,1,80,0|8,1:0|2:0,2:0:0:0:
244,240,79526,1,0,1:0:0:0:
240,220,79607,1,0,1:0:0:0:
236,200,79688,1,8,2:0:0:0:
207,331,79849,6,0,P|247:338|288:328,1,80,4|8,1:2|2:0,2:0:0:0:
109,254,80172,2,0,L|101:337,1,80,0|8,1:0|2:0,2:0:0:0:
0,143,80494,2,0,L|8:226,1,80,0|8,1:0|2:0,2:0:0:0:
83,55,80817,1,0,1:0:0:0:
205,164,80978,2,0,P|243:167|294:147,1,80,8|0,2:0|1:0,2:0:0:0:
164,35,81301,5,12,2:0:0:0:
123,201,81462,1,8,1:2:0:0:
176,31,81623,1,8,2:0:0:0:
293,149,81785,2,0,P|293:188|285:228,1,80,8|8,1:2|2:0,2:0:0:0:
399,335,82107,2,0,P|391:295|391:255,1,80,8|8,1:2|2:0,2:0:0:0:
507,149,82430,5,4,1:2:0:0:
388,58,82591,2,0,P|432:50|482:54,1,80,8|0,2:0|1:0,2:0:0:0:
505,168,82914,1,8,2:0:0:0:
349,149,83075,1,0,1:0:0:0:
498,265,83236,2,0,L|502:186,1,80,8|0,2:0|1:0,2:0:0:0:
382,295,83559,2,0,L|386:384,1,80,8|0,2:0|1:0,2:0:0:0:
240,328,83881,5,8,2:0:0:0:
366,199,84043,1,0,1:0:0:0:
194,163,84204,1,8,2:0:0:0:
250,336,84365,2,0,P|261:277|264:235,1,80,0|8,1:0|2:0,2:0:0:0:
116,204,84688,1,0,1:0:0:0:
95,206,84768,1,0,1:0:0:0:
75,208,84849,1,8,2:0:0:0:
0,76,85010,6,0,L|101:64,1,80,0|8,1:0|2:0,2:0:0:0:
248,154,85333,2,0,L|168:144,1,80,0|8,1:0|2:0,2:0:0:0:
276,38,85655,2,0,L|377:26,1,80,0|8,1:0|2:0,2:0:0:0:
511,122,85978,2,0,L|431:112,1,80,0|8,1:0|2:0,2:0:0:0:
357,181,86301,6,0,L|365:226,3,40,4|8|0|8,1:2|2:0|1:0|2:0,2:0:0:0:
305,284,86623,2,0,L|313:329,3,40,0|8|0|8,1:0|2:0|1:0|2:0,2:0:0:0:
401,357,86946,1,8,1:2:0:0:
455,250,87107,1,8,1:2:0:0:
357,181,87268,1,8,1:2:0:0:
305,284,87430,1,8,1:2:0:0:
455,250,87591,6,0,L|453:174,1,50,4|0,1:2|2:0,2:0:0:0:
373,192,87752,2,0,L|371:116,1,50,8|0,2:0|2:0,2:0:0:0:
291,134,87914,2,0,L|289:58,1,50,8|0,2:0|2:0,2:0:0:0:
209,76,88075,2,0,L|207:0,1,50,8|0,2:0|2:0,2:0:0:0:
194,35,88397,6,0,L|195:84,1,50,8|0,2:0|2:0,2:0:0:0:
276,92,88559,2,0,L|277:141,1,50,8|0,2:0|2:0,2:0:0:0:
358,150,88720,2,0,L|359:199,1,50,8|0,2:0|2:0,2:0:0:0:
440,208,88881,2,0,L|441:257,1,50,4|0,1:2|2:0,2:0:0:0:
219,60,89526,6,0,P|191:48|161:45,1,60.0000022888184,0|0,1:0|2:0,2:0:0:0:
50,132,89688,2,0,P|77:120|107:117,1,60.0000022888184,8|0,2:0|2:0,2:0:0:0:
214,167,89849,2,0,P|186:178|163:197,1,60.0000022888184,8|0,2:0|2:0,2:0:0:0:
54,238,90010,2,0,P|81:249|104:268,1,60.0000022888184,8|0,2:0|2:0,2:0:0:0:
75,43,90817,6,0,L|26:30,2,40.000001525879,0|0|0,1:0|2:0|2:0,2:0:0:0:
157,108,91139,2,0,L|206:95,2,40.000001525879,8|8|8,2:0|2:0|2:0,2:0:0:0:
92,194,91462,1,0,1:0:0:0:
92,194,91785,6,0,L|83:137,2,40.000001525879,8|8|8,2:0|2:0|2:0,2:0:0:0:
198,241,92107,2,0,P|231:233|276:238,1,60.0000022888184,0|0,1:0|2:0,2:0:0:0:
130,346,92430,2,0,P|100:346|71:338,1,60.0000022888184,8|8,2:0|2:0,2:0:0:0:
23,185,92752,6,0,L|29:135,1,50,12|0,1:2|2:0,2:0:0:0:
125,153,92914,2,0,L|131:103,1,50,8|0,2:0|2:0,2:0:0:0:
226,121,93075,2,0,L|232:71,1,50,8|0,2:0|2:0,2:0:0:0:
327,90,93236,2,0,L|333:40,1,50,8|0,2:0|2:0,2:0:0:0:
336,101,93559,6,0,L|329:150,1,50,8|0,3:0|2:0,2:0:0:0:
235,132,93720,2,0,L|228:181,1,50,8|0,3:0|2:0,2:0:0:0:
134,164,93881,2,0,L|127:213,1,50,8|0,3:0|2:0,2:0:0:0:
32,196,94043,2,0,L|25:245,1,50,4|0,1:2|2:0,2:0:0:0:
286,369,94526,5,0,2:0:0:0:
286,369,94607,1,0,2:0:0:0:
286,369,94688,2,0,P|321:365|344:353,1,60.0000022888184,0|0,1:0|2:0,2:0:0:0:
461,261,94849,2,0,P|433:248|404:245,1,60.0000022888184,8|0,2:0|2:0,2:0:0:0:
282,259,95010,2,0,P|269:231|266:202,1,60.0000022888184,8|0,2:0|2:0,2:0:0:0:
390,84,95172,2,0,P|386:119|374:142,1,60.0000022888184,8|0,2:0|2:0,2:0:0:0:
299,268,95333,1,0,1:0:0:0:
470,56,95978,6,0,L|477:16,2,26.6666666666667,8|8|8,3:0|3:0|3:0,2:0:0:0:
410,148,96301,2,0,L|414:174,2,26.6666666666667,8|0|0,3:0|1:0|1:0,2:0:0:0:
318,81,96623,1,4,1:2:0:0:
437,280,96946,6,0,P|423:285|411:285,2,26.6666666666667,0|0|0,1:0|1:0|1:0,2:0:0:0:
505,207,97268,1,8,1:2:0:0:
207,360,97914,5,4,1:2:0:0:
119,231,98075,1,0,1:0:0:0:
27,346,98236,1,0,1:0:0:0:
79,145,98397,1,0,1:0:0:0:
241,272,98720,1,0,1:0:0:0:
241,272,98801,1,0,1:0:0:0:
241,271,98881,2,0,P|258:235|265:196,1,80,0|0,1:0|1:0,2:0:0:0:
116,111,99204,6,0,B|158:124|189:98|189:98|224:120|224:120|260:97|260:97|300:127|362:115,1,238.00000453949,4|0,1:2|2:0,2:0:0:0:
392,53,99849,2,0,L|384:11,3,40,4|8|0|8,1:2|2:0|1:0|2:0,2:0:0:0:
470,114,100172,2,0,L|462:153,3,40,0|8|0|8,1:0|2:0|1:0|2:0,2:0:0:0:
511,248,100494,6,0,B|449:257|449:257|389:232|389:232|321:243,1,195.999994018555,4|0,1:2|2:0,2:0:0:0:
273,334,101139,2,0,P|258:345|241:353,2,37.3333321940105,4|0|0,1:2|1:0|1:0,2:0:0:0:
375,331,101462,2,0,P|391:338|406:350,2,37.3333321940105,0|0|0,1:0|1:0|1:0,2:0:0:0:
321,243,101785,1,12,2:0:0:0:
321,243,102107,2,0,P|323:224|320:206,2,37.3333321940105,0|0|0,1:0|1:0|1:0,2:0:0:0:
252,141,102430,6,0,B|225:128|225:128|195:129,1,60.0000022888184,8|0,2:0|2:0,2:0:0:0:
227,268,102591,2,0,B|224:238|224:238|208:213,1,60.0000022888184,0|0,1:0|2:0,2:0:0:0:
102,309,102752,2,0,B|126:292|126:292|140:265,1,60.0000022888184,8|8,2:0|2:0,2:0:0:0:
4,222,102914,2,0,B|31:235|31:235|60:233,1,60.0000022888184,0|0,1:0|2:0,2:0:0:0:
30,93,103075,5,4,1:2:0:0:
71,228,103236,1,0,1:0:0:0:
192,126,103397,1,0,1:0:0:0:
18,87,103559,1,0,1:0:0:0:
252,26,103881,1,0,1:0:0:0:
252,26,103962,1,0,1:0:0:0:
252,26,104043,2,0,P|213:21|174:29,1,80,0|0,1:0|1:0,2:0:0:0:
274,157,104365,6,0,B|292:204|255:243|255:243|271:274|271:274|254:299|254:299|267:344|267:344|257:325|244:322,1,238.00000453949,12|0,2:0|2:0,2:0:0:0:
349,313,105010,2,0,L|389:305,3,40,4|8|0|8,1:2|2:0|1:0|2:0,2:0:0:0:
439,236,105333,2,0,L|478:243,3,40,0|8|0|8,1:0|2:0|1:0|2:0,2:0:0:0:
405,148,105655,6,0,B|264:179|264:179|208:157,1,195.999994018555,4|0,1:2|2:0,2:0:0:0:
272,87,106301,2,0,P|285:73|294:57,2,37.3333321940105,4|0|0,1:2|1:0|1:0,2:0:0:0:
194,41,106623,2,0,P|188:23|178:7,2,37.3333321940105,0|0|0,1:0|1:0|1:0,2:0:0:0:
124,104,106946,5,8,2:0:0:0:
124,104,108236,6,0,P|83:92|22:101,1,80,4|0,1:2|1:0,2:0:0:0:
128,211,108559,1,8,2:0:0:0:
217,75,108720,1,0,1:0:0:0:
252,241,108881,2,0,L|237:338,1,80,0|0,1:0|1:0,2:0:0:0:
120,222,109204,1,8,2:0:0:0:
270,150,109365,1,0,1:0:0:0:
335,331,109526,6,0,P|419:326|496:273,1,160,0|8,1:0|2:0,2:0:0:0:
492,161,110010,1,0,1:0:0:0:
318,233,110172,1,0,1:0:0:0:
489,295,110333,1,0,1:0:0:0:
393,156,110494,2,0,L|405:52,1,80,8|0,2:0|1:0,2:0:0:0:
483,224,110817,6,0,P|415:268|323:245,1,160,4|8,1:2|2:0,2:0:0:0:
234,128,111301,2,0,L|226:223,1,80,0|0,1:0|1:0,2:0:0:0:
129,323,111623,2,0,L|122:243,1,80,8|0,2:0|2:0,2:0:0:0:
2,126,111946,6,0,B|81:155|85:95|157:126,1,160,12|0,2:0|1:0,2:0:0:0:
44,40,112430,1,8,2:0:0:0:
121,211,112591,1,8,2:0:0:0:
221,54,112752,2,0,L|300:60,1,80,0|0,1:0|1:0,2:0:0:0:
387,185,113075,1,8,3:0:0:0:
380,212,113155,1,8,3:0:0:0:
359,231,113236,1,0,1:0:0:0:
331,236,113317,1,0,1:0:0:0:
303,231,113397,6,0,P|252:223|209:236,1,80,12|0,2:0|1:0,2:0:0:0:
98,323,113720,1,0,1:0:0:0:
132,110,113881,6,0,P|99:150|89:193,1,80,12|0,2:0|1:0,2:0:0:0:
109,333,114204,1,0,1:0:0:0:
274,194,114365,6,0,P|325:199|363:223,1,80,12|0,2:0|1:0,2:0:0:0:
447,335,114688,1,0,1:0:0:0:
479,127,114849,6,0,P|499:174|498:219,1,80,12|0,2:0|1:0,2:0:0:0:
443,347,115172,1,0,1:0:0:0:
474,138,115333,5,8,2:0:0:0:
339,275,115494,1,0,1:0:0:0:
338,287,115575,1,0,1:0:0:0:
337,299,115655,1,8,2:0:0:0:
236,169,115817,1,0,1:0:0:0:
237,181,115897,1,0,1:0:0:0:
238,193,115978,5,8,2:0:0:0:
47,150,117268,6,0,L|36:211,1,40,4|0,1:2|2:0,2:0:0:0:
14,334,117430,1,8,2:0:0:0:
41,330,117510,1,8,2:0:0:0:
68,326,117591,1,8,2:0:0:0:
95,322,117672,1,8,2:0:0:0:
122,318,117752,1,8,2:0:0:0:
149,314,117833,1,8,2:0:0:0:
176,310,117914,5,8,2:0:0:0:
19,79,118559,6,0,P|61:60|133:68,1,92.0000017547608,4|8,1:2|2:0,2:0:0:0:
198,193,118881,1,0,1:0:0:0:
198,193,118962,1,0,1:0:0:0:
198,193,119043,1,8,2:0:0:0:
236,40,119204,1,0,1:0:0:0:
87,158,119365,1,8,2:0:0:0:
276,121,119526,2,0,L|342:128,2,46.0000008773804,0|0|8,1:0|1:0|2:0,2:0:0:0:
97,155,119849,5,0,1:0:0:0:
235,262,120010,2,0,P|213:313|203:361,1,92.0000017547608,8|0,2:0|1:0,2:0:0:0:
217,363,120252,1,0,1:0:0:0:
217,363,120333,1,8,2:0:0:0:
122,216,120494,1,0,1:0:0:0:
311,189,120655,1,8,2:0:0:0:
211,38,120817,1,0,1:0:0:0:
211,38,120897,1,0,1:0:0:0:
211,38,120978,1,8,2:0:0:0:
302,206,121139,6,0,P|346:204|405:201,1,92.0000017547608,4|8,1:2|2:0,2:0:0:0:
487,64,121462,1,0,1:0:0:0:
487,64,121543,1,0,1:0:0:0:
487,64,121623,1,8,2:0:0:0:
510,259,121785,2,0,L|503:371,1,92.0000017547608,0|8,1:0|2:0,2:0:0:0:
295,291,122107,2,0,L|289:199,1,92.0000017547608,0|8,1:0|2:0,2:0:0:0:
410,37,122430,6,0,L|407:82,1,46.0000008773804,0|0,1:0|2:0,2:0:0:0:
252,122,122591,1,8,2:0:0:0:
225,136,122672,1,8,2:0:0:0:
195,138,122752,1,8,3:0:0:0:
167,126,122833,1,8,3:0:0:0:
147,102,122914,1,8,3:0:0:0:
140,73,122994,1,8,3:0:0:0:
147,43,123075,6,0,L|199:37,3,46.0000008773804,8|8|8|8,3:0|3:0|3:0|3:0,2:0:0:0:
50,103,123397,2,0,L|-2:97,3,46.0000008773804,0|0|0|0,3:0|3:0|3:0|3:0,2:0:0:0:
114,194,123720,6,0,P|105:243|105:306,1,92.0000017547608,4|8,1:2|2:0,2:0:0:0:
245,125,124043,1,0,1:0:0:0:
245,125,124123,1,0,1:0:0:0:
245,125,124204,1,8,2:0:0:0:
336,270,124365,2,0,P|294:271|237:260,1,92.0000017547608,0|8,1:0|2:0,2:0:0:0:
141,103,124688,1,0,1:0:0:0:
91,280,124849,1,8,2:0:0:0:
45,83,125010,6,0,P|71:34|110:9,1,92.0000017547608,0|8,1:0|2:0,2:0:0:0:
228,115,125333,2,0,P|185:98|140:102,1,92.0000017547608,0|8,1:0|2:0,2:0:0:0:
271,253,125655,1,4,1:2:0:0:
333,62,125817,1,8,2:0:0:0:
170,205,125978,1,4,1:2:0:0:
162,15,126139,1,8,2:0:0:0:
323,158,126301,6,0,B|418:195|417:139|503:168,1,184.000003509522,4|0,1:2|1:0,2:0:0:0:
352,293,126785,1,8,2:0:0:0:
508,176,126946,1,4,1:2:0:0:
317,163,127107,1,8,2:0:0:0:
474,285,127268,2,0,L|460:376,1,92.0000017547608,4|8,1:2|2:0,2:0:0:0:
276,354,127591,5,4,1:2:0:0:
377,212,127752,1,0,1:0:0:0:
368,180,127833,1,0,1:0:0:0:
342,160,127914,2,0,L|286:142,3,46.0000008773804,0|0|0|0,1:0|1:0|1:0|1:0,2:0:0:0:
405,86,128236,2,0,L|461:68,3,46.0000008773804,8|8|8|8,3:0|3:0|3:0|3:0,2:0:0:0:
329,38,128559,6,0,B|297:21|269:32|269:32|250:19|250:19|231:25|231:25|208:11|178:19|178:19|194:33,1,180.000006866455,12|0,2:0|2:0,2:0:0:0:
151,117,128881,6,0,P|96:101|45:98,1,92.0000017547608,4|0,1:2|2:0,2:0:0:0:
0,243,129204,2,0,P|45:237|89:223,1,92.0000017547608,8|0,2:0|2:0,2:0:0:0:
251,116,129526,1,0,1:0:0:0:
189,276,129688,1,0,2:0:0:0:
362,202,129849,2,0,L|270:213,1,92.0000017547608,8|0,2:0|2:0,2:0:0:0:
410,332,130172,6,0,L|501:320,1,92.0000017547608,0|0,1:0|2:0,2:0:0:0:
369,209,130494,1,8,2:0:0:0:
311,370,130655,1,0,2:0:0:0:
188,215,130817,2,0,P|186:163|200:108,1,92.0000017547608,0|0,1:0|2:0,2:0:0:0:
340,18,131139,1,8,2:0:0:0:
318,175,131301,1,8,2:0:0:0:
242,26,131462,6,0,B|180:19|180:19|120:43|120:43|63:35,1,184.000003509522,4|8,1:2|2:0,2:0:0:0:
0,170,131946,1,0,2:0:0:0:
184,214,132107,2,0,P|198:171|193:121,1,92.0000017547608,0|0,1:0|2:0,2:0:0:0:
54,43,132430,1,8,2:0:0:0:
96,226,132591,1,0,2:0:0:0:
206,113,132752,6,0,P|250:117|298:118,1,92.0000017547608,0|0,1:0|2:0,2:0:0:0:
458,22,133075,2,0,P|414:18|366:17,1,92.0000017547608,8|0,2:0|2:0,2:0:0:0:
450,137,133397,1,0,1:0:0:0:
265,205,133559,1,8,2:0:0:0:
448,275,133720,1,8,2:0:0:0:
308,128,133881,1,8,2:0:0:0:
272,338,134043,6,0,L|162:350,1,92.0000017547608,4|0,1:2|2:0,2:0:0:0:
0,196,134365,2,0,L|91:205,1,92.0000017547608,8|0,2:0|2:0,2:0:0:0:
0,354,134688,1,0,1:0:0:0:
163,257,134849,1,0,2:0:0:0:
66,88,135010,2,0,P|101:74|171:65,1,92.0000017547608,8|0,2:0|2:0,2:0:0:0:
255,192,135333,6,0,B|220:106|286:102|245:10,1,184.000003509522,0|8,1:0|2:0,2:0:0:0:
343,143,135817,1,0,2:0:0:0:
214,282,135978,1,8,1:2:0:0:
244,290,136059,1,8,2:0:0:0:
276,288,136139,1,8,2:0:0:0:
306,276,136220,1,8,2:0:0:0:
330,255,136301,1,8,1:2:0:0:
360,246,136381,1,8,2:0:0:0:
392,248,136462,1,8,2:0:0:0:
422,260,136543,1,8,2:0:0:0:
446,281,136623,6,0,L|429:377,1,92.0000017547608,4|8,1:2|2:0,2:0:0:0:
273,381,136946,1,0,1:0:0:0:
255,192,137107,2,0,L|271:101,1,92.0000017547608,8|0,2:0|1:0,2:0:0:0:
427,16,137430,1,8,2:0:0:0:
452,34,137510,1,8,2:0:0:0:
468,61,137591,1,8,3:0:0:0:
473,92,137672,1,8,3:0:0:0:
467,123,137752,1,8,3:0:0:0:
452,151,137833,1,8,3:0:0:0:
426,171,137914,6,0,P|472:176|508:204,1,92.0000017547608,4|8,1:2|2:0,2:0:0:0:
372,319,138236,2,0,L|379:373,2,46.0000008773804,0|0|8,1:0|1:0|2:0,2:0:0:0:
247,177,138559,1,8,2:0:0:0:
436,260,138720,1,8,2:0:0:0:
212,278,138881,1,8,2:0:0:0:
415,181,139043,1,8,2:0:0:0:
201,88,139204,5,4,2:0:0:0:
201,88,140010,5,4,1:2:0:0:
161,286,140172,1,0,1:0:0:0:
201,88,140494,5,4,1:2:0:0:
32,199,140655,1,0,1:0:0:0:
32,199,141785,5,4,1:2:0:0:
32,199,142591,5,4,1:2:0:0:
243,147,142752,1,0,1:0:0:0:
32,199,143075,5,4,1:2:0:0:
287,133,143720,6,2,L|292:185,1,30.0000011444092,2|2,2:1|2:1,2:1:0:0:
251,246,143881,1,2,2:0:0:0:
128,198,144043,6,2,L|125:227,1,30.0000011444092,2|2,2:1|2:1,2:1:0:0:
164,311,144204,1,2,2:0:0:0:
12,346,144365,6,0,P|1:308|3:268,1,80,12|8,1:2|2:0,2:0:0:0:
83,120,144688,2,0,L|172:113,1,80,0|8,1:0|2:0,2:0:0:0:
271,162,145010,1,0,1:0:0:0:
186,278,145172,1,8,2:0:0:0:
170,120,145333,1,0,1:0:0:0:
276,258,145494,2,0,L|355:264,1,80,8|0,2:0|1:0,2:0:0:0:
511,339,145817,5,8,2:0:0:0:
425,171,145978,1,0,1:0:0:0:
408,354,146139,1,8,2:0:0:0:
432,162,146301,2,0,L|425:66,1,80,0|8,1:0|2:0,2:0:0:0:
293,14,146623,1,0,1:0:0:0:
294,33,146704,1,0,1:0:0:0:
295,53,146785,1,8,2:0:0:0:
214,182,146946,6,0,P|180:208|125:211,1,80,4|8,1:2|2:0,2:0:0:0:
300,276,147268,2,0,P|339:292|369:338,1,80,0|8,1:0|2:0,2:0:0:0:
168,341,147591,1,0,1:0:0:0:
219,192,147752,1,8,2:0:0:0:
64,239,147914,1,0,1:0:0:0:
65,259,147994,1,0,1:0:0:0:
66,278,148075,2,0,L|155:261,1,80,8|0,2:0|1:0,2:0:0:0:
52,139,148397,5,12,2:0:0:0:
205,72,148559,1,8,1:2:0:0:
41,146,148720,1,8,2:0:0:0:
256,157,148881,2,0,P|286:127|304:69,1,80,8|8,1:2|2:0,2:0:0:0:
111,42,149204,2,0,P|107:81|119:122,1,80,8|8,1:2|2:0,2:0:0:0:
243,254,149526,6,0,L|322:246,1,80,4|8,1:2|2:0,2:0:0:0:
408,114,149849,1,0,1:0:0:0:
481,267,150010,1,8,2:0:0:0:
503,92,150172,1,0,1:0:0:0:
307,62,150333,2,0,L|317:164,1,80,8|0,2:0|1:0,2:0:0:0:
176,88,150655,2,0,L|183:8,1,80,8|0,2:0|1:0,2:0:0:0:
227,175,150978,5,8,2:0:0:0:
72,103,151139,1,0,1:0:0:0:
193,4,151301,1,8,2:0:0:0:
66,112,151462,2,0,P|60:158|58:194,1,80,0|8,1:0|2:0,2:0:0:0:
179,281,151785,1,0,1:0:0:0:
10,315,151946,1,8,2:0:0:0:
187,377,152107,6,0,L|291:371,1,80,0|8,1:0|2:0,2:0:0:0:
396,283,152430,2,0,L|292:277,1,80,0|8,1:0|2:0,2:0:0:0:
199,174,152752,1,0,1:0:0:0:
346,118,152914,1,8,2:0:0:0:
254,0,153075,2,0,L|249:79,1,80,0|8,1:0|2:0,2:0:0:0:
392,205,153397,5,4,1:2:0:0:
416,187,153478,1,8,2:0:0:0:
433,163,153559,1,0,1:0:0:0:
443,135,153639,1,8,2:0:0:0:
442,105,153720,2,0,L|429:46,1,40,0|8,1:0|2:0,2:0:0:0:
333,19,153881,2,0,L|341:58,1,40,0|8,1:0|2:0,2:0:0:0:
297,154,154043,6,0,L|288:193,3,40,0|0|0|0,1:0|1:0|1:0|1:0,2:0:0:0:
217,108,154365,2,0,L|225:68,3,40,0|0|0|0,1:0|1:0|1:0|1:0,2:0:0:0:
137,161,154688,5,8,2:0:0:0:
143,264,154849,1,8,2:0:0:0:
229,321,155010,1,8,2:0:0:0:
329,291,155172,1,8,2:0:0:0:
273,122,155494,1,0,1:0:0:0:
273,122,155575,1,0,1:0:0:0:
273,122,155655,2,0,L|373:128,1,80,0|0,1:0|1:0,2:0:0:0:
477,233,155978,5,4,1:2:0:0:
318,308,156139,1,0,1:0:0:0:
361,132,156301,1,0,1:0:0:0:
421,341,156462,1,0,1:0:0:0:
205,289,156785,1,0,1:0:0:0:
205,289,156865,1,0,1:0:0:0:
205,288,156946,2,0,L|211:186,1,80,0|0,1:0|1:0,2:0:0:0:
253,84,157268,6,0,B|193:64|143:92|143:92|118:74|118:74|81:110|53:96|53:96|65:78,1,238.00000453949,4|0,1:2|2:0,2:0:0:0:
23,176,157914,2,0,L|32:224,3,40,4|8|0|8,1:2|2:0|1:0|2:0,2:0:0:0:
132,234,158236,2,0,L|124:194,3,40,0|8|0|8,1:0|2:0|1:0|2:0,2:0:0:0:
209,165,158559,6,0,B|261:175|261:175|299:155|299:155|336:175|336:175|392:160,1,195.999994018555,4|0,1:2|2:0,2:0:0:0:
433,83,159204,2,0,P|427:65|419:48,2,37.3333321940105,4|0|0,1:2|1:0|1:0,2:0:0:0:
489,151,159526,2,0,P|502:138|512:123,2,37.3333321940105,0|0|0,1:0|1:0|1:0,2:0:0:0:
450,224,159849,1,12,2:0:0:0:
450,224,160172,2,0,P|452:242|460:259,2,37.3333321940105,0|0|0,1:0|1:0|1:0,2:0:0:0:
392,160,160494,6,0,B|365:147|365:147|335:148,1,60.0000022888184,8|0,2:0|2:0,2:0:0:0:
300,268,160655,2,0,B|316:243|316:243|343:229,1,60.0000022888184,0|0,1:0|2:0,2:0:0:0:
219,175,160817,2,0,B|192:162|192:162|162:163,1,60.0000022888184,8|8,2:0|2:0,2:0:0:0:
127,283,160978,2,0,B|143:258|143:258|170:244,1,60.0000022888184,0|0,1:0|2:0,2:0:0:0:
46,190,161139,5,4,1:2:0:0:
169,77,161301,1,0,1:0:0:0:
37,202,161462,1,0,1:0:0:0:
80,5,161623,1,0,1:0:0:0:
166,210,161946,1,0,1:0:0:0:
166,210,162026,1,0,1:0:0:0:
165,209,162107,2,0,L|257:204,1,80,0|0,1:0|1:0,2:0:0:0:
370,129,162430,6,0,B|346:179|386:233|386:233|367:259|367:259|392:306|370:349,1,238.00000453949,12|0,2:0|2:0,2:0:0:0:
288,308,163075,2,0,L|246:317,3,40,4|8|0|8,1:2|2:0|1:0|2:0,2:0:0:0:
174,252,163397,2,0,L|134:243,3,40,0|8|0|8,1:0|2:0|1:0|2:0,2:0:0:0:
85,311,163720,6,0,B|101:236|101:236|88:196|88:196|107:107,1,195.999994018555,4|0,1:2|2:0,2:0:0:0:
46,52,164365,2,0,P|29:42|16:30,2,37.3333321940105,4|0|0,1:2|1:0|1:0,2:0:0:0:
135,36,164688,2,0,P|151:26|168:21,2,37.3333321940105,0|0|0,1:0|1:0|1:0,2:0:0:0:
104,120,165010,5,12,2:0:0:0:
104,120,165333,6,0,P|95:136|90:154,2,37.3333321940105,8|0|0,3:0|1:0|1:0,2:0:0:0:
191,144,165655,2,0,P|201:159|215:172,2,37.3333321940105,0|0|0,1:0|1:0|1:0,2:0:0:0:
242,65,165978,5,12,2:0:0:0:
242,65,166946,6,0,L|356:75,1,80,4|0,1:2|1:0,2:0:0:0:
193,169,167268,1,8,2:0:0:0:
146,21,167429,1,0,1:0:0:0:
106,198,167591,2,0,L|185:191,1,80,0|0,1:0|1:0,2:0:0:0:
348,242,167913,1,8,2:0:0:0:
253,348,168075,1,0,1:0:0:0:
310,148,168236,6,0,B|394:121|393:179|465:151,1,160,0|8,1:0|2:0,2:0:0:0:
348,242,168720,1,0,1:0:0:0:
433,67,168881,1,0,1:0:0:0:
306,158,169042,1,0,1:0:0:0:
457,284,169204,2,0,P|457:333|438:383,1,80,8|0,2:0|1:0,2:0:0:0:
303,269,169526,6,0,P|217:271|149:331,1,160,4|8,1:2|2:0,2:0:0:0:
166,143,170010,2,0,P|187:110|191:70,1,80,0|0,1:0|1:0,2:0:0:0:
69,178,170333,2,0,P|86:213|119:235,1,80,8|0,2:0|2:0,2:0:0:0:
189,61,170655,6,0,B|76:36|76:36|17:58,1,160,12|0,2:0|1:0,2:0:0:0:
175,169,171139,1,8,2:0:0:0:
64,263,171300,1,8,2:0:0:0:
200,351,171462,2,0,L|285:357,1,80,0|0,1:0|1:0,2:0:0:0:
390,251,171784,1,8,3:0:0:0:
406,228,171865,1,8,3:0:0:0:
410,200,171946,1,0,1:0:0:0:
404,172,172026,1,0,1:0:0:0:
384,152,172107,6,0,L|299:158,1,80,12|0,2:0|1:0,2:0:0:0:
181,258,172429,1,0,1:0:0:0:
373,354,172591,6,0,L|288:348,1,80,12|0,2:0|1:0,2:0:0:0:
170,248,172913,1,0,1:0:0:0:
362,132,173075,6,0,L|277:138,1,80,12|0,2:0|1:0,2:0:0:0:
159,238,173397,1,0,1:0:0:0:
351,334,173558,6,0,L|266:328,1,80,12|0,2:0|1:0,2:0:0:0:
148,228,173881,1,0,1:0:0:0:
360,182,174042,5,8,2:0:0:0:
208,102,174204,1,0,1:0:0:0:
196,103,174284,1,0,1:0:0:0:
184,104,174365,1,8,2:0:0:0:
347,19,174526,1,0,1:0:0:0:
359,20,174607,1,0,1:0:0:0:
371,21,174687,5,8,2:0:0:0:
486,224,175978,6,0,L|426:220,1,40,4|0,1:2|2:0,2:0:0:0:
314,166,176139,1,8,2:0:0:0:
287,181,176220,1,8,2:0:0:0:
280,212,176300,1,8,2:0:0:0:
299,237,176381,1,8,2:0:0:0:
330,241,176462,1,8,2:0:0:0:
353,221,176542,1,8,2:0:0:0:
354,190,176623,5,8,2:0:0:0:
264,31,177268,6,0,L|256:144,1,92.0000017547608,4|8,1:2|2:0,2:0:0:0:
141,247,177591,1,0,1:0:0:0:
141,247,177671,1,0,1:0:0:0:
141,247,177752,1,8,2:0:0:0:
269,130,177913,1,0,1:0:0:0:
83,154,178075,1,8,2:0:0:0:
272,252,178236,2,0,L|278:307,2,46.0000008773804,0|0|8,1:0|1:0|2:0,2:0:0:0:
328,69,178558,5,0,1:0:0:0:
464,193,178720,2,0,P|467:242|452:286,1,92.0000017547608,8|0,2:0|1:0,2:0:0:0:
440,297,178962,1,0,1:0:0:0:
440,297,179042,1,8,2:0:0:0:
327,160,179204,1,0,1:0:0:0:
486,83,179365,1,8,2:0:0:0:
306,27,179526,1,0,1:0:0:0:
306,27,179607,1,0,1:0:0:0:
306,27,179687,1,8,2:0:0:0:
240,179,179849,6,0,P|286:172|332:172,1,92.0000017547608,4|8,1:2|2:0,2:0:0:0:
440,319,180171,1,0,1:0:0:0:
440,319,180252,1,0,1:0:0:0:
440,319,180333,1,8,2:0:0:0:
249,378,180494,2,0,L|254:286,1,92.0000017547608,0|8,1:0|2:0,2:0:0:0:
121,164,180816,2,0,L|126:255,1,92.0000017547608,0|8,1:0|2:0,2:0:0:0:
236,91,181139,6,0,L|240:22,1,46.0000008773804,0|0,1:0|2:0,2:0:0:0:
95,13,181300,1,8,2:0:0:0:
66,26,181381,1,8,2:0:0:0:
44,50,181462,1,8,3:0:0:0:
30,79,181542,1,8,3:0:0:0:
27,110,181623,1,8,3:0:0:0:
31,142,181704,1,8,3:0:0:0:
45,171,181784,6,0,L|97:165,3,46.0000008773804,8|8|8|8,3:0|3:0|3:0|3:0,2:0:0:0:
107,251,182107,2,0,L|159:245,3,46.0000008773804,0|0|0|0,3:0|3:0|3:0|3:0,2:0:0:0:
23,293,182429,6,0,P|10:336|17:381,1,92.0000017547608,4|8,1:2|2:0,2:0:0:0:
200,332,182752,1,0,1:0:0:0:
200,332,182833,1,0,1:0:0:0:
200,332,182913,1,8,2:0:0:0:
118,159,183075,2,0,P|110:204|106:250,1,92.0000017547608,0|8,1:0|2:0,2:0:0:0:
281,234,183397,1,0,1:0:0:0:
186,82,183558,1,8,2:0:0:0:
376,53,183720,6,0,L|369:153,1,92.0000017547608,0|8,1:0|2:0,2:0:0:0:
400,308,184042,2,0,P|446:322|503:317,1,92.0000017547608,0|8,1:0|2:0,2:0:0:0:
377,161,184365,1,4,1:2:0:0:
283,354,184526,1,8,2:0:0:0:
246,142,184687,1,4,1:2:0:0:
391,299,184849,1,8,2:0:0:0:
172,269,185010,6,0,P|143:196|161:91,1,184.000003509522,4|0,1:2|1:0,2:0:0:0:
334,21,185494,1,8,2:0:0:0:
304,227,185655,1,4,1:2:0:0:
341,17,185816,1,8,2:0:0:0:
408,227,185978,2,0,L|301:237,1,92.0000017547608,4|8,1:2|2:0,2:0:0:0:
170,348,186300,5,4,1:2:0:0:
129,161,186462,1,0,1:0:0:0:
132,128,186542,1,0,1:0:0:0:
135,95,186623,2,0,L|184:73,3,46.0000008773804,0|0|0|0,1:0|1:0|1:0|1:0,2:0:0:0:
67,32,186945,2,0,L|11:14,3,46.0000008773804,8|8|8|8,3:0|3:0|3:0|3:0,2:0:0:0:
40,127,187268,6,0,B|36:150|46:169|46:169|33:196|33:196|50:224|50:224|37:248|37:248|46:271|35:294,1,180.000006866455,12|0,2:0|2:0,2:0:0:0:
8,367,187591,6,0,P|57:346|114:348,1,92.0000017547608,4|0,1:2|2:0,2:0:0:0:
255,275,187913,2,0,P|209:271|167:252,1,92.0000017547608,8|0,2:0|2:0,2:0:0:0:
357,173,188236,1,0,1:0:0:0:
310,358,188397,1,0,2:0:0:0:
241,161,188558,2,0,L|235:55,1,92.0000017547608,8|0,2:0|2:0,2:0:0:0:
83,12,188881,6,0,L|77:103,1,92.0000017547608,0|0,1:0|2:0,2:0:0:0:
237,59,189204,1,8,2:0:0:0:
86,111,189365,1,0,2:0:0:0:
263,222,189526,2,0,P|308:222|352:207,1,92.0000017547608,0|0,1:0|2:0,2:0:0:0:
439,43,189849,1,8,2:0:0:0:
255,17,190010,1,8,2:0:0:0:
441,139,190171,6,0,P|458:247|384:316,1,184.000003509522,4|8,1:2|2:0,2:0:0:0:
300,130,190655,1,0,2:0:0:0:
179,276,190816,2,0,L|282:266,1,92.0000017547608,0|0,1:0|2:0,2:0:0:0:
114,132,191139,1,8,2:0:0:0:
20,265,191300,1,0,2:0:0:0:
65,47,191462,6,0,P|109:35|154:41,1,92.0000017547608,0|0,1:0|2:0,2:0:0:0:
307,128,191784,2,0,P|262:135|218:123,1,92.0000017547608,8|0,2:0|2:0,2:0:0:0:
357,16,192107,1,0,1:0:0:0:
166,50,192268,1,8,2:0:0:0:
285,228,192429,1,8,2:0:0:0:
269,38,192591,1,8,2:0:0:0:
139,227,192752,6,0,L|134:339,1,92.0000017547608,4|0,1:2|2:0,2:0:0:0:
9,207,193075,2,0,L|13:115,1,92.0000017547608,8|0,2:0|2:0,2:0:0:0:
149,24,193397,1,0,1:0:0:0:
20,104,193558,1,0,2:0:0:0:
216,168,193720,2,0,P|266:169|314:163,1,92.0000017547608,8|0,2:0|2:0,2:0:0:0:
402,29,194042,6,0,B|374:115|440:116|410:207,1,184.000003509522,0|8,1:0|2:0,2:0:0:0:
487,70,194526,1,0,2:0:0:0:
512,258,194687,1,8,1:2:0:0:
497,283,194768,1,8,2:0:0:0:
474,304,194849,1,8,2:0:0:0:
447,318,194929,1,8,2:0:0:0:
417,324,195010,1,8,1:2:0:0:
387,322,195091,1,8,2:0:0:0:
358,312,195171,1,8,2:0:0:0:
332,295,195252,1,8,2:0:0:0:
313,272,195333,6,0,L|306:365,1,92.0000017547608,4|8,1:2|2:0,2:0:0:0:
197,221,195655,1,0,1:0:0:0:
374,114,195816,2,0,L|282:105,1,92.0000017547608,8|0,2:0|1:0,2:0:0:0:
100,211,196139,1,8,2:0:0:0:
101,241,196220,1,8,2:0:0:0:
111,270,196300,1,8,3:0:0:0:
130,294,196381,1,8,3:0:0:0:
155,311,196462,1,8,3:0:0:0:
185,319,196542,1,8,3:0:0:0:
214,318,196623,6,0,P|257:292|312:288,1,92.0000017547608,4|8,1:2|2:0,2:0:0:0:
438,362,196945,2,0,L|498:376,2,46.0000008773804,0|0|8,1:0|1:0|2:0,2:0:0:0:
366,188,197268,1,8,2:0:0:0:
289,382,197429,1,8,2:0:0:0:
233,203,197591,1,8,2:0:0:0:
439,142,197752,1,8,2:0:0:0:
281,51,197913,6,0,L|209:56,1,60.0000022888184,4|0,1:2|1:0,2:0:0:0:
129,144,198236,2,0,L|69:139,1,60.0000022888184,0|0,1:0|1:0,2:0:0:0:
251,220,198558,2,0,L|179:225,1,60.0000022888184,4|0,1:2|1:0,2:0:0:0:
99,313,198881,2,0,L|39:308,1,60.0000022888184,0|0,1:0|1:0,2:0:0:0:
19,184,199204,2,0,B|-16:101|50:30|50:30|132:84|106:175,1,335.999989746094,12|0,2:0|2:0,2:0:0:0:
146,290,200494,6,0,P|176:275|211:272,1,60.0000022888184,4|0,1:2|1:0,2:0:0:0:
331,217,200816,2,0,P|301:202|266:199,1,60.0000022888184,0|0,1:0|1:0,2:0:0:0:
146,148,201139,2,0,P|176:133|211:130,1,60.0000022888184,4|0,1:2|1:0,2:0:0:0:
331,75,201462,2,0,P|301:60|266:57,1,60.0000022888184,0|0,1:0|1:0,2:0:0:0:
275,198,201784,2,0,P|376:158|476:170,1,191.999994140625,12|4,2:0|1:2,2:0:0:0:
510,258,202591,5,8,3:0:0:0:
444,343,202752,1,8,3:0:0:0:
335,343,202913,1,0,1:0:0:0:
263,262,203075,6,0,L|269:185,1,60.0000022888184,4|0,2:0|1:0,2:0:0:0:
170,327,203397,2,0,L|164:250,1,60.0000022888184,0|0,1:0|1:0,2:0:0:0:
79,179,203720,2,0,L|73:256,1,60.0000022888184,4|0,1:2|1:0,2:0:0:0:
172,114,204042,2,0,L|178:191,1,60.0000022888184,0|0,1:0|1:0,2:0:0:0:
108,44,204365,2,0,B|202:-20|212:72|302:13|302:13|328:44|328:44|372:22|429:51,1,335.999989746094,12|0,2:0|2:0,2:0:0:0:
374,143,205655,6,0,L|386:224,1,60.0000022888184,4|0,1:2|1:0,2:0:0:0:
255,147,205978,2,0,L|305:211,1,60.0000022888184,0|0,1:0|1:0,2:0:0:0:
153,209,206300,2,0,L|229:239,1,60.0000022888184,4|0,1:2|1:0,2:0:0:0:
95,313,206623,2,0,L|176:300,1,60.0000022888184,0|0,1:0|1:0,2:0:0:0:
47,216,206945,2,0,B|25:148|25:148|61:85,1,143.999995605469,12|0,2:0|2:0,2:0:0:0:
171,34,207591,1,4,2:0:0:0:
251,124,207752,5,0,1:0:0:0:
250,142,207833,1,0,1:0:0:0:
249,160,207913,1,8,2:0:0:0:
248,178,207994,1,8,2:0:0:0:
247,196,208075,1,0,1:0:0:0:
246,214,208155,1,0,1:0:0:0:
245,232,208236,6,0,L|251:284,7,30.0000011444092,4|0|0|0|0|0|0|0,1:2|1:0|1:0|1:0|1:0|1:0|1:0|1:0,2:0:0:0:
315,313,208881,2,0,L|309:365,7,30.0000011444092,4|0|0|0|0|0|0|0,1:2|1:0|1:0|1:0|1:0|1:0|1:0|1:0,2:0:0:0:
378,242,209526,6,0,P|487:190|407:271,1,335.999989746094,12|0,2:0|2:0,2:0:0:0:
315,313,210816,6,0,L|270:323,7,30.0000011444092,4|0|0|0|0|0|0|0,1:2|1:0|1:0|1:0|1:0|1:0|1:0|1:0,2:0:0:0:
211,365,211462,2,0,L|181:358,7,30.0000011444092,4|0|0|0|0|0|0|0,1:2|1:0|1:0|1:0|1:0|1:0|1:0|1:0,2:0:0:0:
136,285,212107,6,0,L|150:165,1,120.000004577637,12|0,2:0|2:0,2:0:0:0:
235,93,212591,1,0,1:0:0:0:
311,172,212752,2,0,P|339:183|368:181,1,60.0000022888184,12|0,2:0|2:0,2:0:0:0:
457,103,213075,1,8,3:0:0:0:
462,85,213155,1,8,3:0:0:0:
456,67,213236,1,8,3:0:0:0:
442,54,213316,1,8,3:0:0:0:
424,49,213397,6,0,L|383:59,7,30.0000011444092,4|0|0|0|0|0|0|0,1:2|1:0|1:0|1:0|1:0|1:0|1:0|1:0,2:0:0:0:
314,25,214042,2,0,L|273:35,7,30.0000011444092,4|0|0|0|0|0|0|0,1:2|1:0|1:0|1:0|1:0|1:0|1:0|1:0,2:0:0:0:
209,90,214687,6,0,B|186:151|236:201|236:201|271:238|243:289|199:296|169:270|167:227|203:217,1,300.000011444092,12|0,2:0|2:0,2:0:0:0:
300,126,215655,1,8,3:0:0:0:
317,120,215736,1,8,3:0:0:0:
335,120,215816,1,8,3:0:0:0:
351,126,215897,1,8,3:0:0:0:
366,135,215978,6,0,L|374:187,7,30.0000011444092,4|0|0|0|0|0|0|0,1:2|1:0|1:0|1:0|1:0|1:0|1:0|1:0,2:0:0:0:
438,215,216623,2,0,L|430:267,7,30.0000011444092,4|0|0|0|0|0|0|0,1:2|1:0|1:0|1:0|1:0|1:0|1:0|1:0,2:0:0:0:
391,314,217268,6,0,L|332:320,1,60.0000022888184,12|8,2:0|3:0,2:0:0:0:
218,262,217591,1,8,3:0:0:0:
330,160,217752,1,0,1:0:0:0:
330,160,217833,1,0,1:0:0:0:
330,160,217913,2,0,L|271:166,1,60.0000022888184,12|0,2:0|1:0,2:0:0:0:
163,125,218236,1,0,1:0:0:0:
217,20,218397,1,0,1:0:0:0:
66,43,218558,6,0,L|71:110,1,60.0000022888184,4|0,1:2|1:0,2:0:0:0:
158,184,218881,2,0,L|163:125,1,60.0000022888184,0|0,1:0|1:0,2:0:0:0:
252,38,219204,2,0,L|257:105,1,60.0000022888184,4|0,1:2|1:0,2:0:0:0:
344,179,219526,2,0,L|348:119,1,60.0000022888184,0|0,1:0|1:0,2:0:0:0:
437,34,219849,2,0,B|461:78|446:135|446:135|477:151|477:151|449:227|485:286|485:286|457:263|432:266,1,335.999989746094,12|0,2:0|2:0,2:0:0:0:
344,322,221139,6,0,P|315:334|274:329,1,60.0000022888184,4|0,1:2|1:0,2:0:0:0:
317,187,221462,2,0,P|312:218|288:251,1,60.0000022888184,0|0,1:0|1:0,2:0:0:0:
186,142,221784,2,0,P|210:161|227:199,1,60.0000022888184,4|0,1:2|1:0,2:0:0:0:
81,232,222107,2,0,P|110:219|151:224,1,60.0000022888184,0|0,1:0|1:0,2:0:0:0:
107,366,222429,2,0,B|203:380|201:317|294:352,1,191.999994140625,12|4,2:0|1:2,2:0:0:0:
392,309,223236,5,8,3:0:0:0:
335,217,223397,1,8,3:0:0:0:
400,130,223558,1,0,1:0:0:0:
343,38,223720,6,0,L|265:50,1,60.0000022888184,4|0,2:0|1:0,2:0:0:0:
227,141,224042,2,0,L|305:153,1,60.0000022888184,0|0,1:0|1:0,2:0:0:0:
172,56,224365,2,0,L|94:68,1,60.0000022888184,4|0,1:2|1:0,2:0:0:0:
56,159,224687,2,0,L|115:168,1,60.0000022888184,0|0,1:0|1:0,2:0:0:0:
237,155,225010,2,0,B|248:228|166:288|166:288|249:320|256:369|256:369|222:375|211:357,1,335.999989746094,12|0,2:0|2:0,2:0:0:0:
304,272,226300,6,0,L|317:213,1,60.0000022888184,4|0,1:2|1:0,2:0:0:0:
427,353,226623,2,0,L|368:339,1,60.0000022888184,0|0,1:0|1:0,2:0:0:0:
510,230,226945,2,0,L|496:288,1,60.0000022888184,4|0,1:2|1:0,2:0:0:0:
387,147,227268,2,0,L|445:160,1,60.0000022888184,0|0,1:0|1:0,2:0:0:0:
304,272,227591,2,0,L|148:233,1,143.999995605469,12|0,2:0|2:0,2:0:0:0:
106,140,228236,1,4,2:0:0:0:
202,45,228397,5,0,1:0:0:0:
220,43,228478,1,0,1:0:0:0:
238,41,228558,1,0,1:0:0:0:
256,39,228639,1,0,1:0:0:0:
274,37,228720,1,0,1:0:0:0:
292,35,228800,1,0,1:0:0:0:
310,33,228881,6,0,L|306:82,7,30.0000011444092,4|0|0|0|0|0|0|0,1:2|1:0|1:0|1:0|1:0|1:0|1:0|1:0,2:0:0:0:
388,73,229526,2,0,L|390:102,7,30.0000011444092,4|0|0|0|0|0|0|0,1:2|1:0|1:0|1:0|1:0|1:0|1:0|1:0,2:0:0:0:
458,163,230171,6,0,B|337:122|191:144|191:144|243:156|270:179,1,335.999989746094,12|0,2:0|2:0,2:0:0:0:
304,237,231462,6,0,L|341:246,7,30.0000011444092,4|0|0|0|0|0|0|0,1:2|1:0|1:0|1:0|1:0|1:0|1:0|1:0,2:0:0:0:
235,292,232107,2,0,L|197:301,7,30.0000011444092,4|0|0|0|0|0|0|0,1:2|1:0|1:0|1:0|1:0|1:0|1:0|1:0,2:0:0:0:
308,351,232752,6,0,P|357:369|429:365,1,120.000004577637,12|0,2:0|2:0,2:0:0:0:
494,272,233236,1,0,1:0:0:0:
389,172,233397,2,0,L|385:232,1,60.0000022888184,12|0,2:0|2:0,2:0:0:0:
262,275,233720,1,8,3:0:0:0:
245,281,233800,1,8,3:0:0:0:
226,279,233881,1,8,3:0:0:0:
208,272,233962,1,8,3:0:0:0:
198,257,234042,6,0,L|200:227,7,30.0000011444092,4|0|0|0|0|0|0|0,1:2|1:0|1:0|1:0|1:0|1:0|1:0|1:0,2:0:0:0:
145,165,234687,2,0,L|142:135,7,30.0000011444092,4|0|0|0|0|0|0|0,1:2|1:0|1:0|1:0|1:0|1:0|1:0|1:0,2:0:0:0:
73,87,235333,6,0,B|139:118|209:86|209:86|251:108|251:108|299:79|358:95,1,300.000011444092,12|0,2:0|2:0,2:0:0:0:
321,203,236300,1,8,3:0:0:0:
321,221,236381,1,8,3:0:0:0:
321,239,236462,1,8,3:0:0:0:
321,257,236542,1,8,3:0:0:0:
321,275,236623,6,0,L|276:289,7,30.0000011444092,4|0|0|0|0|0|0|0,1:2|1:0|1:0|1:0|1:0|1:0|1:0|1:0,2:0:0:0:
227,346,237268,2,0,L|198:337,7,30.0000011444092,4|0|0|0|0|0|0|0,1:2|1:0|1:0|1:0|1:0|1:0|1:0|1:0,2:0:0:0:
158,255,237913,6,0,L|102:264,1,40,12|8,2:0|2:0,2:0:0:0:
74,357,238075,1,0,1:0:0:0:
31,196,238236,5,8,3:0:0:0:
39,164,238316,1,8,3:0:0:0:
60,140,238397,1,0,1:0:0:0:
90,129,238478,1,0,1:0:0:0:
122,127,238558,2,0,L|181:139,1,40,12|8,2:0|2:0,2:0:0:0:
234,220,238720,2,0,L|273:212,1,40,0|0,1:0|1:0,2:0:0:0:
356,125,238881,1,8,2:0:0:0:
383,102,238962,1,8,2:0:0:0:
394,68,239042,1,8,2:0:0:0:
383,34,239123,1,8,2:0:0:0:
355,10,239204,6,0,P|231:51|104:34,3,256,12|0|0|0,2:0|2:0|2:0|2:0,2:0:0:0:
27,125,243397,2,0,L|32:197,2,64,0|0|0,2:0|2:0|2:0,2:0:0:0:
135,145,244365,1,0,2:0:0:0:
256,192,244445,12,0,249526,2:0:0:0:
