osu file format v14

[General]
AudioFilename: audio.mp3
AudioLeadIn: 0
PreviewTime: 107430
Countdown: 0
SampleSet: Soft
StackLeniency: 0.6
Mode: 0
LetterboxInBreaks: 0
WidescreenStoryboard: 1

[Editor]
Bookmarks: 24848,144365,189204,197913
DistanceSpacing: 1.5
BeatDivisor: 4
GridSize: 8
TimelineZoom: 2.1

[Metadata]
Title:IT Is The End
TitleUnicode:IT Is The End
Artist:Ice Nine Kills
ArtistUnicode:Ice Nine Kills
Creator:Blitzifyyy
Version:Evil's Hard
Source:
Tags:Fix XZeniFX Nelliel [-Evil-] Mimari TheMefisto The Silver Scream INK its it's Spencer Charnas Ricky Armellino Patrick Galante Joe Occhiuti Dan Sugarman Justin DeBlieck Metal Metalcore English Pennywise Less Than Jake Fenix TX JR Wasilewski Buddy Schaub Will Salazar
BeatmapID:2664032
BeatmapSetID:1061532

[Difficulty]
HPDrainRate:4
CircleSize:3.5
OverallDifficulty:7
ApproachRate:8
SliderMultiplier:1.2
SliderTickRate:1

[Events]
//Background and Video events
0,0,"You'll Float Too.jpg",0,0
//Break Periods
//Storyboard Layer 0 (Background)
//Storyboard Layer 1 (Fail)
//Storyboard Layer 2 (Pass)
//Storyboard Layer 3 (Foreground)
//Storyboard Layer 4 (Overlay)
//Storyboard Sound Samples

[TimingPoints]
24848,400,3,2,1,50,1,0
44048,-125,3,2,1,50,0,0
60848,626.631853785901,3,2,1,35,1,0
61474,-100,3,2,1,30,0,0
61475,757.097791798107,3,2,1,30,1,0
62231,946.372239747634,3,2,1,25,1,0
63177,-100,3,2,1,20,0,0
63178,826.332461093513,3,2,1,20,1,0
65656,322.58064516129,4,2,1,80,1,1
65736,-100,4,2,1,80,0,0
76623,-133.333333333333,4,2,1,40,0,0
76946,-133.333333333333,4,2,1,70,0,0
77430,-100,4,2,1,70,0,0
87591,-111.111111111111,4,2,1,70,0,0
87752,-111.111111111111,4,2,1,60,0,0
97914,-100,4,2,1,70,0,0
107591,-133.333333333333,4,2,1,70,0,0
108236,-90.9090909090909,4,2,1,75,0,1
115978,-90.9090909090909,4,2,1,60,0,0
116623,-100,4,2,1,60,0,0
118559,-90.9090909090909,4,2,1,85,0,1
128236,-100,4,2,1,85,0,0
128881,-90.9090909090909,4,2,1,85,0,1
139204,-90.9090909090909,4,2,1,80,0,0
140010,-100,4,2,1,80,0,0
143720,-133.333333333333,4,2,1,40,0,0
144365,-133.333333333333,4,2,1,70,0,0
144526,-100,4,2,1,70,0,0
154688,-111.111111111111,4,2,1,60,0,0
155978,-111.111111111111,4,2,1,70,0,0
163075,-100,4,2,1,70,0,0
163720,-111.111111111111,4,2,1,70,0,0
166301,-133.333333333333,4,2,1,70,0,0
166946,322.58064516129,4,2,1,75,1,1
166946,-90.9090909090909,4,2,1,75,0,1
174687,-90.9090909090909,4,2,1,80,0,0
175333,-100,4,2,1,80,0,0
177268,-90.9090909090909,4,2,1,85,0,1
186945,-100,4,2,1,85,0,0
187591,-90.9090909090909,4,2,1,85,0,1
197913,-100,4,2,1,65,0,0
199204,-125,4,2,1,65,0,0
200494,-100,4,2,1,65,0,0
204365,-125,4,2,1,65,0,0
205655,-100,4,2,1,65,0,0
209526,-125,4,2,1,65,0,0
212107,-100,4,2,1,65,0,0
214687,-125,4,2,1,65,0,0
215978,-100,4,2,1,65,0,0
219849,-125,4,2,1,65,0,0
221139,-100,4,2,1,65,0,0
225010,-125,4,2,1,65,0,0
226300,-100,4,2,1,65,0,0
230171,-125,4,2,1,65,0,0
231462,-100,4,2,1,65,0,0
235333,-125,4,2,1,65,0,0
236300,-100,4,2,1,65,0,0
239204,-178.571428571429,4,2,1,40,0,0
240494,-178.571428571429,4,2,1,35,0,0
241784,-178.571428571429,4,2,1,30,0,0
243074,-178.571428571429,4,2,1,25,0,0
249526,-178.571428571429,4,2,1,5,0,0

[Colours]
Combo1 : 199,184,3
Combo2 : 202,0,0
Combo3 : 79,79,79

[HitObjects]
122,11,44048,6,0,B|104:45|119:70|124:54|140:93|134:126|134:126|91:124|53:165|88:229|134:230|169:201,1,288,6|2,2:0|2:0,2:0:0:0:
340,117,46048,2,0,P|304:101|273:97,1,48,0|0,2:0|2:0,2:0:0:0:
248,159,46448,2,0,L|260:264,2,96,2|0|0,2:0|2:0|2:0,2:0:0:0:
339,35,47648,2,0,L|494:56,1,144,2|0,2:0|2:0,2:0:0:0:
507,127,48448,2,0,L|499:186,1,48,0|0,2:0|2:0,2:0:0:0:
444,226,48848,6,0,P|408:186|365:171,1,96,6|0,2:0|2:0,2:0:0:0:
293,181,49448,2,0,P|345:169|380:140,1,96,0|0,2:0|2:0,2:0:0:0:
399,69,50048,2,0,P|374:147|386:217,1,144,2|0,2:0|2:0,2:0:0:0:
457,226,50848,2,0,L|462:288,1,48,0|0,2:0|2:0,2:0:0:0:
416,337,51248,6,0,L|313:324,1,96,2|0,2:0|2:0,2:0:0:0:
244,336,51848,2,0,L|239:275,1,48,0|0,2:0|2:0,2:0:0:0:
140,171,52448,2,0,P|185:151|277:198,1,144,2|0,2:0|2:0,2:0:0:0:
330,230,53248,2,0,L|389:219,1,48,0|0,2:0|2:0,2:0:0:0:
427,162,53648,6,0,B|458:212|458:212|427:354,1,192,6|0,2:0|2:0,2:0:0:0:
276,341,54848,2,0,B|202:332|202:332|183:300|183:300|99:287,1,192,2|0,2:0|2:0,2:0:0:0:
46,144,56048,2,0,L|146:128,2,96,2|0|0,2:0|2:0|2:0,2:0:0:0:
153,33,57248,2,0,L|294:54,1,120,2|0,2:0|2:0,2:0:0:0:
350,111,58048,2,0,P|363:160|356:197,1,72,0|0,2:0|2:0,2:0:0:0:
324,193,58448,6,0,P|308:251|316:295,1,96,6|0,2:0|2:0,2:0:0:0:
353,351,59048,2,0,P|310:308|268:293,1,96,0|0,2:0|2:0,2:0:0:0:
213,338,59648,2,0,P|246:328|266:311,1,48,2|0,2:0|2:0,2:0:0:0:
213,257,60048,2,0,L|104:269,1,96,0|0,2:0|2:0,2:0:0:0:
50,229,60648,1,0,2:0:0:0:
86,161,60848,6,0,L|208:173,1,120,2|2,2:0|2:0,2:0:0:0:
335,90,62231,2,0,L|457:78,1,120,2|2,2:0|2:0,2:0:0:0:
21,22,65656,6,0,L|28:102,1,60,4|0,1:2|1:0,2:0:0:0:
103,138,65978,2,0,L|96:218,1,60,2|0,1:2|1:0,2:0:0:0:
56,284,66301,2,0,P|109:308|132:302,1,60,2|0,1:2|1:0,2:0:0:0:
188,255,66623,1,2,1:2:0:0:
188,255,66785,1,0,1:0:0:0:
266,310,66946,6,0,P|295:304|318:285,1,60,2|0,1:2|1:0,2:0:0:0:
391,218,67268,2,0,P|361:212|338:193,1,60,2|0,1:2|1:0,2:0:0:0:
340,97,67591,2,0,L|332:59,3,30,12|0|8|0,2:0|1:0|2:0|1:0,2:0:0:0:
375,41,67914,2,0,L|383:3,3,30,8|0|8|0,2:0|1:0|2:0|1:0,2:0:0:0:
429,9,68236,6,0,L|501:23,1,60,4|0,1:2|1:0,2:0:0:0:
508,114,68559,2,0,L|436:128,1,60,2|0,1:2|1:0,2:0:0:0:
410,213,68881,2,0,L|482:227,1,60,2|0,1:2|1:0,2:0:0:0:
503,319,69204,1,2,1:2:0:0:
503,319,69365,1,0,1:0:0:0:
417,361,69526,6,0,P|371:366|345:353,1,60,12|8,2:0|2:0,2:0:0:0:
280,306,69849,2,0,L|233:316,3,30,8|8|8|8,3:0|3:0|3:0|3:0,2:0:0:0:
214,345,70172,2,0,L|167:335,7,30,8|8|8|8|8|8|8|8,1:3|1:3|1:3|1:3|1:3|1:3|1:3|1:3,2:0:0:0:
138,353,70817,6,0,P|125:303|129:273,1,60,4|0,1:2|1:0,2:0:0:0:
198,232,71139,2,0,P|211:182|207:152,1,60,2|0,1:2|1:0,2:0:0:0:
130,120,71462,2,0,L|50:127,1,60,2|0,1:2|1:0,2:0:0:0:
8,51,71785,1,2,1:2:0:0:
8,51,71946,1,0,1:0:0:0:
93,8,72107,6,0,L|173:15,1,60,2|0,1:2|1:0,2:0:0:0:
216,85,72430,2,0,L|296:78,1,60,2|0,1:2|1:0,2:0:0:0:
371,84,72752,2,0,P|390:129|383:165,1,60,12|8,2:0|2:0,2:0:0:0:
355,231,73075,1,8,2:0:0:0:
355,231,73236,1,8,2:0:0:0:
268,190,73397,6,0,L|190:202,1,60,4|0,1:2|1:0,2:0:0:0:
156,279,73720,2,0,L|234:291,1,60,2|0,1:2|1:0,2:0:0:0:
279,360,74043,2,0,L|357:348,1,60,2|0,1:2|1:0,2:0:0:0:
432,369,74365,1,2,1:2:0:0:
432,369,74526,1,0,1:0:0:0:
493,295,74688,6,0,P|505:248|496:213,1,60,8|8,2:0|2:0,2:0:0:0:
423,185,75010,2,0,P|411:138|420:103,1,60,8|8,2:0|2:0,2:0:0:0:
453,39,75333,1,4,1:2:0:0:
360,13,75494,2,0,L|309:24,5,30,0|0|0|0|0|0,1:0|1:0|1:0|1:0|1:0|1:0,2:0:0:0:
297,54,75978,5,0,1:0:0:0:
47,198,76623,6,0,L|51:138,1,45.0000017166138,2|2,1:0|2:0,2:0:0:0:
126,145,76946,2,0,L|130:85,1,45.0000017166138,8|8,2:0|2:0,2:0:0:0:
214,57,77268,5,12,1:2:0:0:
284,122,77430,2,0,L|350:116,2,60,8|0|8,2:0|1:0|2:0,2:0:0:0:
214,189,77914,2,0,P|197:243|240:311,1,120,0|0,1:0|1:0,2:0:0:0:
310,334,78397,2,0,L|390:321,1,60,8|0,2:0|1:0,2:0:0:0:
453,370,78720,5,8,2:0:0:0:
504,289,78881,2,0,L|494:217,1,60,0|8,1:0|2:0,2:0:0:0:
412,181,79204,2,0,L|428:59,1,120,0|0,1:0|1:0,2:0:0:0:
343,16,79688,2,0,P|308:13|281:25,1,60,8|4,2:0|1:2,2:0:0:0:
214,86,80010,5,8,2:0:0:0:
142,21,80172,2,0,P|112:17|84:26,1,60,0|8,1:0|2:0,2:0:0:0:
12,89,80494,2,0,L|18:157,1,60,0|8,1:0|2:0,2:0:0:0:
98,200,80817,1,0,1:0:0:0:
18,253,80978,2,0,L|11:331,1,60,8|0,2:0|1:0,2:0:0:0:
85,376,81301,5,12,2:0:0:0:
150,306,81462,1,8,1:2:0:0:
226,363,81623,1,8,2:0:0:0:
296,297,81785,2,0,L|368:309,1,60,8|8,1:2|2:0,2:0:0:0:
430,365,82107,2,0,L|502:353,1,60,8|8,1:2|2:0,2:0:0:0:
508,260,82430,5,4,1:2:0:0:
508,260,82510,1,0,2:0:0:0:
508,260,82591,2,0,L|499:180,1,60,8|0,2:0|1:0,2:0:0:0:
443,123,82914,2,0,P|409:109|368:112,1,60,8|0,2:0|1:0,2:0:0:0:
324,181,83236,2,0,P|290:195|249:192,1,60,8|0,2:0|1:0,2:0:0:0:
206,120,83559,2,0,L|219:38,1,60,8|0,2:0|1:0,2:0:0:0:
134,8,83881,5,8,2:0:0:0:
55,64,84043,2,0,L|68:146,1,60,0|8,1:0|2:0,2:0:0:0:
136,194,84365,1,0,1:0:0:0:
136,194,84526,2,0,L|123:276,1,60,8|0,2:0|1:0,2:0:0:0:
180,333,84849,2,0,P|218:292|292:291,1,120,8|8,2:0|2:0,2:0:0:0:
361,336,85333,5,0,1:0:0:0:
417,258,85494,1,8,2:0:0:0:
341,199,85655,2,0,L|349:127,1,60,0|8,1:0|2:0,2:0:0:0:
405,62,85978,1,0,1:0:0:0:
405,62,86139,1,8,2:0:0:0:
316,23,86301,6,0,L|234:32,1,60,4|0,1:2|1:0,2:0:0:0:
207,112,86623,2,0,L|125:103,1,60,0|0,1:0|1:0,2:0:0:0:
57,138,86946,2,0,P|39:171|50:213,1,60,8|8,1:2|1:2,2:0:0:0:
121,243,87268,2,0,P|139:276|128:318,1,60,8|8,1:2|1:2,2:0:0:0:
89,369,87591,6,0,L|161:378,1,53.9999983520508,4|8,1:2|2:0,2:0:0:0:
218,333,87914,1,8,2:0:0:0:
218,333,88075,2,0,L|290:324,1,53.9999983520508,8|0,2:0|1:0,2:0:0:0:
343,279,88397,1,8,2:0:0:0:
343,279,88559,2,0,P|357:232|352:212,1,53.9999983520508,8|8,2:0|2:0,2:0:0:0:
310,155,88881,6,0,L|146:169,1,161.999995056153,4|0,1:2|2:0,2:0:0:0:
77,119,89526,2,0,L|88:57,1,53.9999983520508,0|8,1:0|2:0,2:0:0:0:
162,24,89849,2,0,L|173:86,1,53.9999983520508,8|8,2:0|2:0,2:0:0:0:
248,36,90172,2,0,B|313:46|313:46|333:73|333:73|414:88,1,161.999995056153,0|0,1:0|2:0,2:0:0:0:
475,53,90817,6,0,L|467:-2,2,35.9999989013672,0|0|0,1:0|2:0|2:0,2:0:0:0:
508,99,91139,6,0,L|500:154,2,35.9999989013672,8|8|8,2:0|2:0|2:0,2:0:0:0:
469,142,91462,6,0,L|479:241,1,80.9999975280763,0|0,1:0|2:0,2:0:0:0:
440,247,91785,6,0,L|393:234,2,35.9999989013672,8|8|8,2:0|2:0|2:0,2:0:0:0:
434,304,92107,6,0,L|424:378,1,53.9999983520508,0|0,1:0|2:0,2:0:0:0:
343,383,92430,2,0,L|333:309,1,53.9999983520508,8|8,2:0|2:0,2:0:0:0:
292,255,92752,6,0,P|255:239|219:242,1,53.9999983520508,12|8,1:2|2:0,2:0:0:0:
177,296,93075,1,8,2:0:0:0:
177,296,93236,2,0,P|140:312|104:309,1,53.9999983520508,8|0,2:0|1:0,2:0:0:0:
64,252,93559,1,8,3:0:0:0:
64,252,93720,2,0,L|71:183,1,53.9999983520508,8|8,3:0|3:0,2:0:0:0:
17,128,94043,6,0,B|66:110|66:110|190:139,1,161.999995056153,4|0,1:2|2:0,2:0:0:0:
233,196,94688,2,0,L|306:178,1,53.9999983520508,0|8,1:0|2:0,2:0:0:0:
341,117,95010,2,0,L|393:129,1,53.9999983520508,8|8,2:0|2:0,2:0:0:0:
459,185,95333,2,0,B|480:157|480:157|459:17,1,161.999995056153,0|0,1:0|2:0,2:0:0:0:
375,19,95978,6,0,L|322:11,2,35.9999989013672,8|8|8,3:0|3:0|3:0,2:0:0:0:
318,30,96301,6,0,L|265:38,2,35.9999989013672,8|0|0,3:0|1:0|1:0,2:0:0:0:
261,22,96623,6,0,L|175:8,1,80.9999975280763,4|0,1:2|2:0,2:0:0:0:
146,35,96946,6,0,L|155:84,2,35.9999989013672,0|0|0,1:0|1:0|1:0,2:0:0:0:
89,25,97268,5,8,1:2:0:0:
312,337,97914,6,0,L|385:326,1,60,4|0,1:2|1:0,2:0:0:0:
428,252,98236,1,0,1:0:0:0:
428,252,98397,2,0,L|355:241,1,60,0|4,1:0|2:0,2:0:0:0:
321,171,98720,1,0,1:0:0:0:
321,171,98801,1,0,1:0:0:0:
321,171,98881,2,0,L|248:182,1,60,0|0,1:0|1:0,2:0:0:0:
201,254,99204,6,0,B|163:272|113:246|134:223|76:202|22:225,1,180,4|0,1:2|2:0,2:0:0:0:
2,312,99849,2,0,L|11:381,1,60,4|0,1:2|1:0,2:0:0:0:
104,384,100172,2,0,L|113:315,1,60,0|0,1:0|1:0,2:0:0:0:
180,257,100494,2,0,P|272:266|377:276,1,180,4|0,1:2|2:0,2:0:0:0:
439,220,101139,6,0,L|431:170,2,40,4|0|0,1:2|1:0|1:0,2:0:0:0:
487,177,101462,6,0,L|495:127,2,40,0|0|0,1:0|1:0|1:0,2:0:0:0:
439,133,101785,6,0,P|383:108|343:109,1,90,12|0,2:0|2:0,2:0:0:0:
309,121,102107,6,0,L|315:63,2,40,0|0|0,1:0|1:0|1:0,2:0:0:0:
264,166,102430,6,0,L|272:243,1,60,8|0,2:0|1:0,2:0:0:0:
332,298,102752,2,0,L|323:375,1,60,8|0,2:0|1:0,2:0:0:0:
229,370,103075,6,0,P|198:371|164:349,1,60,4|0,1:2|1:0,2:0:0:0:
127,273,103397,1,0,1:0:0:0:
58,341,103559,2,0,L|-3:336,1,60,0|4,1:0|2:0,2:0:0:0:
8,248,103881,1,0,1:0:0:0:
8,248,103962,1,0,1:0:0:0:
8,248,104043,2,0,L|20:170,1,60,0|0,1:0|1:0,2:0:0:0:
80,116,104365,6,0,B|155:130|155:130|176:158|176:158|260:173,1,180,12|0,2:0|2:0,2:0:0:0:
315,106,105010,2,0,L|395:92,1,60,4|0,1:2|1:0,2:0:0:0:
444,29,105333,2,0,L|524:42,1,60,0|0,1:0|1:0,2:0:0:0:
474,130,105655,6,0,B|460:157|452:187|452:187|467:251|490:317,1,180,4|0,1:2|2:0,2:0:0:0:
420,374,106301,6,0,L|366:363,2,40,4|0|0,1:2|1:0|1:0,2:0:0:0:
371,332,106623,6,0,L|317:343,2,40,0|0|0,1:0|1:0|1:0,2:0:0:0:
389,273,106946,5,8,2:0:0:0:
157,101,107591,6,0,L|62:114,1,90.0000034332277,0|0,2:0|2:0,2:0:0:0:
17,318,108236,6,0,P|63:304|101:297,1,66.0000020141602,4|0,1:2|1:0,2:0:0:0:
158,228,108559,2,0,P|204:242|242:249,1,66.0000020141602,8|0,2:0|1:0,2:0:0:0:
311,300,108881,1,0,1:0:0:0:
311,300,109043,1,0,1:0:0:0:
381,221,109204,2,0,P|374:163|372:143,1,66.0000020141602,8|0,2:0|1:0,2:0:0:0:
290,90,109526,6,0,P|392:67|426:59,1,132.00000402832,0|8,1:0|2:0,2:0:0:0:
510,113,110010,1,0,1:0:0:0:
462,207,110172,2,0,L|471:289,1,66.0000020141602,0|0,1:0|1:0,2:0:0:0:
410,360,110494,1,8,2:0:0:0:
333,287,110655,1,0,1:0:0:0:
333,287,110736,1,0,1:0:0:0:
333,287,110817,6,0,L|172:309,1,132.00000402832,4|8,1:2|2:0,2:0:0:0:
108,354,111301,2,0,P|85:322|86:272,1,66.0000020141602,0|0,1:0|1:0,2:0:0:0:
0,227,111623,2,0,P|23:195|22:145,1,66.0000020141602,8|0,2:0|2:0,2:0:0:0:
10,64,111946,6,0,B|54:48|54:48|161:73,1,132.00000402832,12|0,2:0|1:0,2:0:0:0:
202,151,112430,1,8,2:0:0:0:
272,73,112591,1,8,2:0:0:0:
339,154,112752,2,0,L|328:229,1,66.0000020141602,0|0,1:0|1:0,2:0:0:0:
281,313,113075,2,0,L|286:351,2,33.0000010070801,8|8|0,3:0|3:0|1:0,2:0:0:0:
212,232,113397,6,0,P|161:200|69:220,1,132.00000402832,12|0,2:0|1:0,2:0:0:0:
5,268,113881,2,0,L|20:120,1,132.00000402832,8|0,2:0|1:0,2:0:0:0:
83,53,114365,2,0,B|137:58|137:58|160:80|160:80|232:86,1,132.00000402832,12|0,2:0|1:0,2:0:0:0:
302,39,114849,2,0,B|284:81|284:81|308:185,1,132.00000402832,12|0,2:0|1:0,2:0:0:0:
388,229,115333,1,8,2:0:0:0:
447,142,115494,1,0,1:0:0:0:
505,229,115655,2,0,L|501:273,3,33.0000010070801,8|8|0|0,2:0|2:0|1:0|1:0,2:0:0:0:
474,302,115978,5,8,2:0:0:0:
286,257,116301,1,0,2:0:0:0:
425,125,116623,2,0,L|410:200,1,60,0|0,2:0|2:0,2:0:0:0:
332,130,116946,2,0,L|317:55,1,60,0|0,2:0|2:0,2:0:0:0:
251,4,117268,1,4,1:2:0:0:
205,88,117430,2,0,L|246:80,5,30,8|8|8|8|8|8,2:0|2:0|2:0|2:0|2:0|2:0,2:0:0:0:
280,96,117914,5,8,2:0:0:0:
16,374,118559,6,0,L|30:288,1,66.0000020141602,4|8,1:2|2:0,2:0:0:0:
121,263,118881,2,0,L|107:177,1,66.0000020141602,0|8,1:0|2:0,2:0:0:0:
183,121,119204,1,0,1:0:0:0:
87,75,119365,1,8,2:0:0:0:
163,2,119526,2,0,L|253:13,1,66.0000020141602,0|8,1:0|2:0,2:0:0:0:
332,31,119849,5,0,1:0:0:0:
276,122,120010,1,8,2:0:0:0:
276,122,120172,2,0,L|286:213,1,66.0000020141602,0|8,1:0|2:0,2:0:0:0:
376,247,120494,1,0,1:0:0:0:
376,247,120655,2,0,L|386:156,1,66.0000020141602,8|0,2:0|1:0,2:0:0:0:
462,111,120978,1,8,2:0:0:0:
497,211,121139,6,0,L|514:369,1,132.00000402832,4|0,1:2|1:0,2:0:0:0:
410,374,121623,1,8,2:0:0:0:
410,374,121785,2,0,P|360:378|330:357,1,66.0000020141602,0|8,1:0|2:0,2:0:0:0:
269,300,122107,1,0,1:0:0:0:
186,366,122268,1,8,2:0:0:0:
114,287,122430,6,0,L|129:202,1,66.0000020141602,0|8,1:0|2:0,2:0:0:0:
224,186,122752,2,0,L|216:143,3,33.0000010070801,8|8|8|8,3:0|3:0|3:0|3:0,2:0:0:0:
182,113,123075,2,0,L|189:70,3,33.0000010070801,8|8|8|8,3:0|3:0|3:0|3:0,2:0:0:0:
232,51,123397,2,0,L|224:8,3,33.0000010070801,0|0|0|0,3:0|3:0|3:0|3:0,2:0:0:0:
175,1,123720,6,0,L|98:10,1,66.0000020141602,4|8,1:2|2:0,2:0:0:0:
35,84,124043,2,0,L|112:93,1,66.0000020141602,0|8,1:0|2:0,2:0:0:0:
189,148,124365,1,0,1:0:0:0:
110,218,124526,1,8,2:0:0:0:
193,283,124688,2,0,L|270:274,1,66.0000020141602,0|8,1:0|2:0,2:0:0:0:
362,292,125010,6,0,P|354:229|343:130,1,132.00000402832,0|0,1:0|1:0,2:0:0:0:
437,107,125494,1,8,2:0:0:0:
387,13,125655,2,0,L|304:24,1,66.0000020141602,4|8,1:2|2:0,2:0:0:0:
250,100,125978,2,0,L|167:89,1,66.0000020141602,4|8,1:2|2:0,2:0:0:0:
102,24,126301,2,0,B|77:60|77:60|98:171,1,132.00000402832,4|0,1:2|1:0,2:0:0:0:
172,217,126785,5,8,2:0:0:0:
83,274,126946,2,0,L|9:282,1,66.0000020141602,4|8,1:2|2:0,2:0:0:0:
82,364,127268,2,0,L|156:372,1,66.0000020141602,4|8,1:2|2:0,2:0:0:0:
231,306,127591,2,0,P|281:268|357:282,1,132.00000402832,4|0,1:2|1:0,2:0:0:0:
437,330,128075,1,0,1:0:0:0:
437,330,128155,1,0,1:0:0:0:
437,330,128236,6,0,L|478:321,3,30,8|8|8|8,3:0|3:0|3:0|3:0,2:0:0:0:
502,290,128559,2,0,L|491:184,1,90,12|0,2:0|2:0,2:0:0:0:
471,151,128881,6,0,P|438:133|385:137,1,66.0000020141602,4|0,1:2|2:0,2:0:0:0:
332,203,129204,2,0,P|299:221|246:217,1,66.0000020141602,8|0,2:0|2:0,2:0:0:0:
204,141,129526,1,0,1:0:0:0:
204,141,129688,1,0,2:0:0:0:
126,212,129849,2,0,L|135:283,1,66.0000020141602,8|0,2:0|2:0,2:0:0:0:
68,360,130172,5,0,1:0:0:0:
4,283,130333,1,0,2:0:0:0:
4,283,130494,2,0,L|13:212,1,66.0000020141602,8|0,2:0|2:0,2:0:0:0:
69,128,130817,2,0,L|60:57,1,66.0000020141602,0|0,1:0|2:0,2:0:0:0:
146,1,131139,1,8,2:0:0:0:
210,84,131301,1,8,2:0:0:0:
293,19,131462,6,0,B|344:23|344:23|368:46|368:46|440:52,1,132.00000402832,4|8,1:2|2:0,2:0:0:0:
510,107,131946,1,0,2:0:0:0:
510,107,132107,2,0,B|487:148|487:148|514:254,1,132.00000402832,0|8,1:0|2:0,2:0:0:0:
437,309,132591,1,0,2:0:0:0:
437,309,132752,6,0,L|348:298,1,66.0000020141602,0|0,1:0|2:0,2:0:0:0:
301,221,133075,1,8,2:0:0:0:
242,308,133236,1,0,2:0:0:0:
163,238,133397,2,0,L|74:249,1,66.0000020141602,0|8,1:0|2:0,2:0:0:0:
78,350,133720,2,0,L|167:361,1,66.0000020141602,8|8,2:0|2:0,2:0:0:0:
242,308,134043,6,0,L|380:290,1,132.00000402832,4|8,1:2|2:0,2:0:0:0:
454,224,134526,1,0,2:0:0:0:
387,141,134688,2,0,P|353:145|317:149,1,66.0000020141602,0|0,1:0|2:0,2:0:0:0:
238,213,135010,2,0,P|203:208|168:204,1,66.0000020141602,8|0,2:0|2:0,2:0:0:0:
103,124,135333,2,0,P|181:112|260:104,1,132.00000402832,0|8,1:0|2:0,2:0:0:0:
303,26,135817,5,0,2:0:0:0:
396,75,135978,2,0,L|386:145,1,66.0000020141602,8|8,1:2|2:0,2:0:0:0:
306,209,136301,2,0,L|316:279,1,66.0000020141602,8|8,1:2|2:0,2:0:0:0:
376,360,136623,2,0,B|339:348|339:348|231:371,1,132.00000402832,4|0,1:2|1:0,2:0:0:0:
188,279,137107,5,8,2:0:0:0:
117,357,137268,2,0,L|37:342,1,66.0000020141602,0|8,1:0|2:0,2:0:0:0:
12,246,137591,2,0,L|63:236,3,33.0000010070801,8|8|8|8,3:0|3:0|3:0|3:0,2:0:0:0:
76,197,137914,2,0,P|110:203|147:210,1,66.0000020141602,4|8,1:2|2:0,2:0:0:0:
220,277,138236,2,0,P|272:267|328:256,1,99.0000030212403,0|0,1:0|2:0,2:0:0:0:
364,233,138559,5,8,2:0:0:0:
364,233,138720,1,8,2:0:0:0:
291,156,138881,1,8,2:0:0:0:
291,156,139043,1,8,2:0:0:0:
361,90,139204,5,4,2:0:0:0:
48,284,140010,6,0,L|58:360,1,60,4|0,1:2|1:0,2:0:0:0:
223,249,140494,2,0,L|233:173,1,60,4|0,1:2|1:0,2:0:0:0:
8,8,141785,5,4,1:2:0:0:
368,324,142591,6,0,L|453:309,1,60,4|0,1:2|1:0,2:0:0:0:
505,138,143075,1,4,1:2:0:0:
236,33,143720,6,0,L|243:94,1,45.0000017166138,2|2,1:0|2:0,2:0:0:0:
168,103,144043,2,0,L|175:164,1,45.0000017166138,2|2,1:0|2:0,2:0:0:0:
259,190,144365,5,12,1:2:0:0:
186,253,144526,2,0,L|99:241,1,60,8|0,2:0|1:0,2:0:0:0:
61,173,144849,1,8,2:0:0:0:
6,251,145010,2,0,L|17:323,1,60,0|8,1:0|2:0,2:0:0:0:
102,362,145333,1,0,1:0:0:0:
102,362,145494,2,0,P|136:351|177:350,1,60,8|0,2:0|1:0,2:0:0:0:
249,308,145817,5,8,2:0:0:0:
249,308,145978,2,0,P|283:318|324:320,1,60,0|8,1:0|2:0,2:0:0:0:
379,257,146301,1,0,1:0:0:0:
312,188,146462,2,0,L|322:111,1,60,8|0,2:0|1:0,2:0:0:0:
395,69,146785,2,0,L|405:146,1,60,8|4,2:0|1:2,2:0:0:0:
316,47,147107,5,8,2:0:0:0:
239,104,147268,2,0,L|165:93,1,60,0|8,1:0|2:0,2:0:0:0:
111,27,147591,2,0,L|37:38,1,60,0|8,1:0|2:0,2:0:0:0:
5,120,147914,2,0,L|13:190,1,60,0|8,1:0|2:0,2:0:0:0:
79,247,148236,1,0,1:0:0:0:
79,247,148397,5,12,2:0:0:0:
160,195,148559,1,8,1:2:0:0:
204,280,148720,1,8,2:0:0:0:
285,227,148881,2,0,L|363:239,1,60,8|8,1:2|2:0,2:0:0:0:
406,310,149204,2,0,L|484:298,1,60,8|8,1:2|2:0,2:0:0:0:
505,213,149526,5,4,1:2:0:0:
505,213,149607,1,0,2:0:0:0:
505,213,149688,2,0,L|490:138,1,60,8|0,2:0|1:0,2:0:0:0:
424,87,150010,2,0,P|378:74|348:79,1,60,8|0,2:0|1:0,2:0:0:0:
295,139,150333,2,0,P|249:152|219:147,1,60,8|0,2:0|1:0,2:0:0:0:
189,68,150655,2,0,P|143:55|113:60,1,60,8|0,2:0|1:0,2:0:0:0:
35,48,150978,5,8,2:0:0:0:
63,139,151139,2,0,L|54:213,1,60,0|8,1:0|2:0,2:0:0:0:
12,286,151462,1,0,1:0:0:0:
12,286,151623,2,0,L|21:360,1,60,8|0,2:0|1:0,2:0:0:0:
113,366,151946,2,0,B|146:377|177:363|166:352|202:337|240:354,1,120,8|8,2:0|2:0,2:0:0:0:
319,381,152430,5,0,1:0:0:0:
361,295,152591,2,0,L|350:220,1,60,8|0,2:0|1:0,2:0:0:0:
299,154,152914,1,8,2:0:0:0:
377,99,153075,2,0,L|443:106,1,60,0|8,1:0|2:0,2:0:0:0:
493,182,153397,6,0,L|427:189,1,60,4|0,1:2|1:0,2:0:0:0:
364,256,153720,2,0,L|298:249,1,60,0|0,1:0|1:0,2:0:0:0:
220,202,154043,2,0,L|228:173,3,30,0|0|0|0,1:0|1:0|1:0|1:0,2:0:0:0:
252,131,154365,2,0,L|244:102,3,30,0|0|0|0,1:0|1:0|1:0|1:0,2:0:0:0:
225,62,154688,6,0,L|296:74,2,53.9999983520508,8|8|8,2:0|2:0|2:0,2:0:0:0:
148,21,155172,1,8,2:0:0:0:
76,181,155494,1,0,1:0:0:0:
76,181,155575,1,0,1:0:0:0:
76,181,155655,2,0,L|147:169,1,53.9999983520508,0|0,1:0|1:0,2:0:0:0:
209,230,155978,6,0,P|245:237|278:242,1,53.9999983520508,4|0,1:2|1:0,2:0:0:0:
331,301,156301,1,0,1:0:0:0:
331,301,156462,2,0,P|367:293|399:290,1,53.9999983520508,0|4,1:0|2:0,2:0:0:0:
441,226,156785,1,0,1:0:0:0:
441,226,156946,2,0,P|448:189|440:158,1,53.9999983520508,0|0,1:0|1:0,2:0:0:0:
379,117,157268,6,0,B|332:138|293:116|314:99|264:73|210:105,1,161.999995056153,4|0,1:2|2:0,2:0:0:0:
136,132,157914,2,0,L|91:123,3,26.9999991760254,4|8|0|8,1:2|2:0|1:0|2:0,2:0:0:0:
67,99,158236,2,0,L|16:109,3,26.9999991760254,0|8|0|8,1:0|2:0|1:0|2:0,2:0:0:0:
10,136,158559,6,0,P|-14:209|23:288,1,161.999995056153,4|0,1:2|2:0,2:0:0:0:
105,280,159204,6,0,L|97:220,2,35.9999989013672,4|0|0,1:2|1:0|1:0,2:0:0:0:
139,326,159526,6,0,L|131:386,2,35.9999989013672,0|0|0,1:0|1:0|1:0,2:0:0:0:
190,298,159849,6,0,L|288:309,1,80.9999975280763,12|0,2:0|2:0,2:0:0:0:
305,281,160172,6,0,L|359:274,2,35.9999989013672,0|0|0,1:0|1:0|1:0,2:0:0:0:
272,233,160494,6,0,L|287:157,1,53.9999983520508,8|0,2:0|1:0,2:0:0:0:
356,134,160817,2,0,L|341:58,1,53.9999983520508,8|0,2:0|1:0,2:0:0:0:
279,25,161139,6,0,P|245:11|203:11,1,53.9999983520508,4|0,1:2|1:0,2:0:0:0:
165,69,161462,1,0,1:0:0:0:
103,8,161623,2,0,P|76:12|52:24,1,53.9999983520508,0|4,1:0|2:0,2:0:0:0:
14,105,161946,1,0,1:0:0:0:
14,105,162026,1,0,1:0:0:0:
14,105,162107,2,0,L|23:180,1,53.9999983520508,0|0,1:0|1:0,2:0:0:0:
106,189,162430,6,0,L|84:370,1,161.999995056153,12|0,2:0|2:0,2:0:0:0:
183,374,163075,2,0,L|224:364,3,30,4|8|0|8,1:2|2:0|1:0|2:0,2:0:0:0:
247,333,163397,2,0,L|288:343,3,30,0|8|0|8,1:0|2:0|1:0|2:0,2:0:0:0:
312,364,163720,6,0,B|361:381|361:381|480:353,1,161.999995056153,4|0,1:2|2:0,2:0:0:0:
436,275,164365,6,0,L|370:260,2,35.9999989013672,4|0|0,1:2|1:0|1:0,2:0:0:0:
477,234,164688,6,0,L|543:219,2,35.9999989013672,0|0|0,1:0|1:0|1:0,2:0:0:0:
442,188,165010,6,0,L|450:84,1,80.9999975280763,12|0,2:0|2:0,2:0:0:0:
416,76,165333,6,0,L|413:40,2,35.9999989013672,8|0|0,3:0|1:0|1:0,2:0:0:0:
364,101,165655,6,0,L|361:136,2,35.9999989013672,0|0|0,1:0|1:0|1:0,2:0:0:0:
323,59,165978,5,12,2:0:0:0:
231,170,166301,6,0,L|243:278,1,90.0000034332277,0|0,2:0|2:0,2:0:0:0:
57,364,166946,6,0,L|66:273,1,66.0000020141602,4|0,1:2|1:0,2:0:0:0:
149,236,167268,2,0,L|138:142,1,66.0000020141602,8|0,2:0|1:0,2:0:0:0:
58,104,167591,1,0,1:0:0:0:
58,104,167752,1,0,1:0:0:0:
139,36,167913,2,0,P|185:51|220:56,1,66.0000020141602,8|0,2:0|1:0,2:0:0:0:
280,124,168236,6,0,P|351:98|426:82,1,132.00000402832,0|8,1:0|2:0,2:0:0:0:
494,143,168720,1,0,1:0:0:0:
423,221,168881,2,0,L|433:316,1,66.0000020141602,0|0,1:0|1:0,2:0:0:0:
365,371,169204,1,8,2:0:0:0:
289,297,169365,1,0,1:0:0:0:
289,297,169446,1,0,1:0:0:0:
289,297,169526,6,0,P|232:318|157:336,1,132.00000402832,4|8,1:2|2:0,2:0:0:0:
74,275,170010,2,0,P|39:254|5:247,1,66.0000020141602,0|0,1:0|1:0,2:0:0:0:
103,189,170333,2,0,P|138:168|172:161,1,66.0000020141602,8|0,2:0|2:0,2:0:0:0:
260,201,170655,6,0,B|311:196|311:196|332:168|332:168|403:163,1,132.00000402832,12|0,2:0|1:0,2:0:0:0:
483,171,171139,1,8,2:0:0:0:
423,258,171300,1,8,2:0:0:0:
511,315,171462,2,0,L|503:394,1,66.0000020141602,0|0,1:0|1:0,2:0:0:0:
400,359,171784,2,0,L|366:365,2,33.0000010070801,8|8|0,3:0|3:0|1:0,2:0:0:0:
334,276,172107,6,0,L|182:249,1,132.00000402832,12|0,2:0|1:0,2:0:0:0:
98,265,172591,2,0,B|112:247|124:230|124:230|119:186|109:125,1,132.00000402832,8|0,2:0|1:0,2:0:0:0:
169,53,173075,2,0,B|199:39|240:52|225:69|258:88|297:68,1,132.00000402832,12|0,2:0|1:0,2:0:0:0:
365,146,173558,2,0,B|325:153|305:176|305:176|289:159|242:155,1,132.00000402832,12|0,2:0|1:0,2:0:0:0:
171,232,174042,6,0,L|187:300,1,66.0000020141602,8|0,2:0|1:0,2:0:0:0:
287,326,174365,2,0,L|277:378,2,33.0000010070801,8|8|0,2:0|2:0|1:0,2:0:0:0:
315,225,174687,5,8,2:0:0:0:
195,375,175010,1,0,2:0:0:0:
120,194,175333,2,0,L|200:203,1,60,0|0,2:0|2:0,2:0:0:0:
235,126,175655,2,0,L|315:117,1,60,0|0,2:0|2:0,2:0:0:0:
381,145,175978,1,4,1:2:0:0:
330,218,176139,2,0,L|335:265,5,30,8|8|8|8|8|8,2:0|2:0|2:0|2:0|2:0|2:0,2:0:0:0:
377,269,176623,5,8,2:0:0:0:
47,72,177268,6,0,L|137:54,1,66.0000020141602,4|8,1:2|2:0,2:0:0:0:
206,11,177591,2,0,L|296:29,1,66.0000020141602,0|8,1:0|2:0,2:0:0:0:
339,104,177913,1,0,1:0:0:0:
426,45,178075,1,8,2:0:0:0:
493,125,178236,2,0,L|483:204,1,66.0000020141602,0|8,1:0|2:0,2:0:0:0:
410,266,178558,5,0,1:0:0:0:
334,200,178720,1,8,2:0:0:0:
334,200,178881,2,0,P|299:207|254:212,1,66.0000020141602,0|8,1:0|2:0,2:0:0:0:
224,309,179204,1,0,1:0:0:0:
224,309,179365,2,0,P|189:301|144:297,1,66.0000020141602,8|0,2:0|1:0,2:0:0:0:
85,221,179687,1,8,2:0:0:0:
161,148,179849,6,0,B|181:116|181:116|159:2,1,132.00000402832,4|0,1:2|1:0,2:0:0:0:
62,9,180333,1,8,2:0:0:0:
62,9,180494,2,0,L|48:82,1,66.0000020141602,0|8,1:0|2:0,2:0:0:0:
0,167,180816,1,0,1:0:0:0:
90,224,180978,1,8,2:0:0:0:
27,308,181139,6,0,L|39:381,1,66.0000020141602,0|8,1:0|2:0,2:0:0:0:
143,364,181462,2,0,L|181:369,3,33.0000010070801,8|8|8|8,3:0|3:0|3:0|3:0,2:0:0:0:
219,336,181784,2,0,L|257:331,3,33.0000010070801,8|8|8|8,3:0|3:0|3:0|3:0,2:0:0:0:
291,366,182107,2,0,L|329:371,3,33.0000010070801,0|0|0|0,3:0|3:0|3:0|3:0,2:0:0:0:
347,322,182429,6,0,L|336:236,1,66.0000020141602,4|8,1:2|2:0,2:0:0:0:
236,230,182752,2,0,L|247:144,1,66.0000020141602,0|8,1:0|2:0,2:0:0:0:
293,70,183075,1,0,1:0:0:0:
358,152,183236,1,8,2:0:0:0:
426,72,183397,2,0,L|418:5,1,66.0000020141602,0|8,1:0|2:0,2:0:0:0:
509,61,183720,6,0,L|491:205,1,132.00000402832,0|0,1:0|1:0,2:0:0:0:
410,258,184204,1,8,2:0:0:0:
329,190,184365,2,0,P|286:177|243:186,1,66.0000020141602,4|8,1:2|2:0,2:0:0:0:
213,271,184687,2,0,P|170:284|127:275,1,66.0000020141602,4|8,1:2|2:0,2:0:0:0:
70,212,185010,2,0,L|87:73,1,132.00000402832,4|0,1:2|1:0,2:0:0:0:
181,35,185494,1,8,2:0:0:0:
257,113,185655,6,0,L|265:182,1,66.0000020141602,4|8,1:2|2:0,2:0:0:0:
164,213,185978,2,0,L|155:282,1,66.0000020141602,4|8,1:2|2:0,2:0:0:0:
230,353,186300,2,0,P|299:338|390:328,1,132.00000402832,4|0,1:2|1:0,2:0:0:0:
408,246,186784,1,0,1:0:0:0:
412,242,186865,1,0,1:0:0:0:
416,238,186945,6,0,L|405:183,3,30,8|8|8|8,3:0|3:0|3:0|3:0,2:0:0:0:
446,183,187268,2,0,L|455:108,1,60,12|0,2:0|2:0,2:0:0:0:
373,53,187591,6,0,P|335:33|286:32,1,66.0000020141602,4|0,1:2|2:0,2:0:0:0:
241,107,187913,2,0,P|203:127|154:128,1,66.0000020141602,8|0,2:0|2:0,2:0:0:0:
112,50,188236,1,0,1:0:0:0:
112,50,188397,1,0,2:0:0:0:
35,123,188558,2,0,L|50:209,1,66.0000020141602,8|0,2:0|2:0,2:0:0:0:
10,287,188881,5,0,1:0:0:0:
111,318,189042,1,0,2:0:0:0:
111,318,189204,2,0,P|146:308|195:299,1,66.0000020141602,8|0,2:0|2:0,2:0:0:0:
225,210,189526,2,0,P|260:219|309:229,1,66.0000020141602,0|0,1:0|2:0,2:0:0:0:
382,175,189849,1,8,2:0:0:0:
431,268,190010,1,8,2:0:0:0:
503,190,190171,6,0,P|489:127|478:42,1,132.00000402832,4|8,1:2|2:0,2:0:0:0:
389,17,190655,1,0,2:0:0:0:
389,17,190816,2,0,B|351:39|351:39|251:22,1,132.00000402832,0|8,1:0|2:0,2:0:0:0:
168,70,191300,1,0,2:0:0:0:
168,70,191462,6,0,L|179:151,1,66.0000020141602,0|0,1:0|2:0,2:0:0:0:
124,227,191784,1,8,2:0:0:0:
207,291,191945,1,0,2:0:0:0:
120,350,192107,2,0,L|42:339,1,66.0000020141602,0|8,1:0|2:0,2:0:0:0:
58,236,192429,2,0,L|136:225,1,66.0000020141602,8|8,2:0|2:0,2:0:0:0:
176,135,192752,6,0,L|325:156,1,132.00000402832,4|8,1:2|2:0,2:0:0:0:
397,207,193236,1,0,2:0:0:0:
473,134,193397,2,0,L|463:54,1,66.0000020141602,0|0,1:0|2:0,2:0:0:0:
377,7,193720,2,0,L|367:87,1,66.0000020141602,8|0,2:0|2:0,2:0:0:0:
306,153,194042,2,0,L|324:297,1,132.00000402832,0|8,1:0|2:0,2:0:0:0:
256,366,194526,5,0,2:0:0:0:
175,297,194687,2,0,P|139:304|92:310,1,66.0000020141602,8|8,1:2|2:0,2:0:0:0:
64,211,195010,2,0,P|27:206|-19:198,1,66.0000020141602,8|8,1:2|2:0,2:0:0:0:
38,103,195333,2,0,P|114:93|191:78,1,132.00000402832,4|0,1:2|1:0,2:0:0:0:
236,2,195816,5,8,2:0:0:0:
309,76,195978,2,0,L|299:151,1,66.0000020141602,0|8,1:0|2:0,2:0:0:0:
204,187,196300,2,0,L|210:236,3,33.0000010070801,8|8|8|8,3:0|3:0|3:0|3:0,2:0:0:0:
245,257,196623,2,0,L|335:245,1,66.0000020141602,4|8,1:2|2:0,2:0:0:0:
386,174,196945,2,0,L|496:188,1,99.0000030212403,0|0,1:0|2:0,2:0:0:0:
512,237,197268,5,8,2:0:0:0:
512,237,197429,1,8,2:0:0:0:
438,312,197591,1,8,2:0:0:0:
438,312,197752,1,8,2:0:0:0:
353,265,197913,6,0,L|277:272,1,60,4|0,1:2|1:0,2:0:0:0:
225,337,198236,2,0,L|149:330,1,60,0|0,1:0|1:0,2:0:0:0:
102,258,198558,2,0,L|26:265,1,60,4|0,1:2|1:0,2:0:0:0:
2,176,198881,1,0,1:0:0:0:
2,176,199042,1,0,1:0:0:0:
74,106,199204,6,0,B|193:120|193:120|215:169|215:169|347:182,1,288,12|0,2:0|2:0,2:0:0:0:
450,31,200494,6,0,P|419:40|376:51,1,60,4|0,1:2|1:0,2:0:0:0:
299,73,200816,2,0,P|268:64|225:53,1,60,0|0,1:0|1:0,2:0:0:0:
154,16,201139,2,0,P|124:23|96:32,1,60,4|0,1:2|1:0,2:0:0:0:
36,108,201462,1,0,1:0:0:0:
36,108,201623,1,0,1:0:0:0:
93,178,201784,6,0,B|114:213|112:273|89:324|58:338|58:338|30:303|39:272,1,240,12|4,2:0|1:2,2:0:0:0:
33,187,202591,1,8,3:0:0:0:
33,187,202752,2,0,L|104:176,1,60,8|0,3:0|1:0,2:0:0:0:
181,142,203075,6,0,P|228:170|256:174,1,60,4|0,2:0|1:0,2:0:0:0:
288,248,203397,2,0,P|335:220|363:216,1,60,0|0,1:0|1:0,2:0:0:0:
412,156,203720,2,0,P|439:166|463:185,1,60,4|0,1:2|1:0,2:0:0:0:
507,271,204042,1,0,1:0:0:0:
507,271,204204,1,0,1:0:0:0:
432,338,204365,6,0,B|359:373|266:338|333:288|231:245|158:298,1,288,12|0,2:0|2:0,2:0:0:0:
0,380,205655,6,0,L|11:308,1,60,4|0,1:2|1:0,2:0:0:0:
83,258,205978,2,0,L|72:186,1,60,0|0,1:0|1:0,2:0:0:0:
6,129,206300,2,0,L|17:57,1,60,4|0,1:2|1:0,2:0:0:0:
87,7,206623,1,0,1:0:0:0:
87,7,206784,1,0,1:0:0:0:
148,80,206945,6,0,P|239:68|334:58,1,180,12|0,2:0|2:0,2:0:0:0:
403,0,207591,1,4,2:0:0:0:
474,63,207752,1,0,1:0:0:0:
474,63,207913,2,0,L|481:111,2,30,8|8|0,2:0|2:0|1:0,2:0:0:0:
399,122,208236,6,0,L|392:170,7,30,4|0|0|0|0|0|0|0,1:2|1:0|1:0|1:0|1:0|1:0|1:0|1:0,2:0:0:0:
426,188,208881,2,0,L|433:236,7,30,4|0|0|0|0|0|0|0,1:2|1:0|1:0|1:0|1:0|1:0|1:0|1:0,2:0:0:0:
403,257,209526,2,0,B|375:282|317:299|317:299|226:288|121:225,1,288,12|0,2:0|2:0,2:0:0:0:
61,100,210816,6,0,L|93:90,7,24,4|0|0|0|0|0|0|0,1:2|1:0|1:0|1:0|1:0|1:0|1:0|1:0,2:0:0:0:
119,77,211462,2,0,L|151:87,7,24,4|0|0|0|0|0|0|0,1:2|1:0|1:0|1:0|1:0|1:0|1:0|1:0,2:0:0:0:
169,123,212107,2,0,P|244:78|346:80,1,180,12|0,2:0|1:0,2:0:0:0:
420,119,212752,1,12,2:0:0:0:
360,194,212913,1,0,2:0:0:0:
436,252,213075,2,0,L|479:242,3,30,8|8|8|8,3:0|3:0|3:0|3:0,2:0:0:0:
507,269,213397,6,0,L|512:311,7,30,4|0|0|0|0|0|0|0,1:2|1:0|1:0|1:0|1:0|1:0|1:0|1:0,2:0:0:0:
474,332,214042,2,0,L|469:374,7,30,4|0|0|0|0|0|0|0,1:2|1:0|1:0|1:0|1:0|1:0|1:0|1:0,2:0:0:0:
432,364,214687,2,0,B|396:325|349:324|349:324|321:351|251:344,1,192,12|4,2:0|2:0,2:0:0:0:
185,209,215655,2,0,L|176:246,3,24,8|8|8|8,3:0|3:0|3:0|3:0,2:0:0:0:
144,266,215978,6,0,L|100:251,7,30,4|0|0|0|0|0|0|0,1:2|1:0|1:0|1:0|1:0|1:0|1:0|1:0,2:0:0:0:
71,275,216623,2,0,L|30:290,7,30,4|0|0|0|0|0|0|0,1:2|1:0|1:0|1:0|1:0|1:0|1:0|1:0,2:0:0:0:
8,251,217268,2,0,L|22:177,1,60,12|8,2:0|3:0,2:0:0:0:
85,121,217591,1,8,3:0:0:0:
150,190,217752,1,0,1:0:0:0:
150,190,217833,1,0,1:0:0:0:
150,190,217913,6,0,L|231:173,1,60,12|0,2:0|1:0,2:0:0:0:
270,104,218236,1,0,1:0:0:0:
270,104,218397,1,0,1:0:0:0:
335,174,218558,6,0,L|393:186,1,60,4|0,1:2|1:0,2:0:0:0:
458,257,218881,2,0,L|399:269,1,60,0|0,1:0|1:0,2:0:0:0:
338,344,219204,2,0,L|279:331,1,60,4|0,1:2|1:0,2:0:0:0:
248,246,219526,1,0,1:0:0:0:
248,246,219687,1,0,1:0:0:0:
164,297,219849,6,0,B|147:328|163:371|163:371|117:328|128:255|157:276|166:223|125:170,1,288,12|0,2:0|2:0,2:0:0:0:
42,47,221139,6,0,L|106:66,1,60,4|0,1:2|1:0,2:0:0:0:
185,108,221462,2,0,L|249:89,1,60,0|0,1:0|1:0,2:0:0:0:
314,26,221784,2,0,L|371:43,1,60,4|0,1:2|1:0,2:0:0:0:
440,109,222107,1,0,1:0:0:0:
440,109,222268,1,0,1:0:0:0:
355,154,222429,6,0,B|331:221|331:221|379:384,1,240,12|4,2:0|1:2,2:0:0:0:
459,331,223236,1,8,3:0:0:0:
459,331,223397,2,0,L|480:255,1,60,8|0,3:0|1:0,2:0:0:0:
416,197,223720,6,0,P|373:168|348:167,1,60,4|0,2:0|1:0,2:0:0:0:
294,231,224042,2,0,P|251:260|226:261,1,60,0|0,1:0|1:0,2:0:0:0:
169,321,224365,2,0,P|126:292|101:291,1,60,4|0,1:2|1:0,2:0:0:0:
36,251,224687,1,0,1:0:0:0:
36,251,224849,1,0,1:0:0:0:
100,184,225010,6,0,B|130:166|155:117|128:75|86:57|86:57|112:14|166:12|208:31,1,288,12|0,2:0|2:0,2:0:0:0:
342,157,226300,6,0,P|375:149|410:139,1,60,4|0,1:2|1:0,2:0:0:0:
453,221,226623,2,0,P|486:228|521:239,1,60,0|0,1:0|1:0,2:0:0:0:
460,317,226945,2,0,P|426:324|392:335,1,60,4|0,1:2|1:0,2:0:0:0:
327,271,227268,1,0,1:0:0:0:
327,271,227429,1,0,1:0:0:0:
267,346,227591,6,0,P|179:318|74:294,1,180,12|0,2:0|2:0,2:0:0:0:
20,236,228236,1,4,2:0:0:0:
73,156,228397,1,0,1:0:0:0:
73,156,228558,2,0,L|68:113,2,30,0|0|0,1:0|1:0|1:0,2:0:0:0:
163,188,228881,6,0,L|204:179,7,30,4|0|0|0|0|0|0|0,1:2|1:0|1:0|1:0|1:0|1:0|1:0|1:0,2:0:0:0:
231,153,229526,2,0,L|272:162,7,30,4|0|0|0|0|0|0|0,1:2|1:0|1:0|1:0|1:0|1:0|1:0|1:0,2:0:0:0:
287,187,230171,2,0,P|323:208|294:98,1,288,12|0,2:0|2:0,2:0:0:0:
210,261,231462,6,0,L|219:313,7,30,4|0|0|0|0|0|0|0,1:2|1:0|1:0|1:0|1:0|1:0|1:0|1:0,2:0:0:0:
258,311,232107,2,0,L|249:363,7,30,4|0|0|0|0|0|0|0,1:2|1:0|1:0|1:0|1:0|1:0|1:0|1:0,2:0:0:0:
284,358,232752,2,0,P|381:338|463:324,1,180,12|0,2:0|1:0,2:0:0:0:
509,241,233397,1,12,2:0:0:0:
424,194,233558,1,0,2:0:0:0:
475,113,233720,2,0,L|466:65,3,30,8|8|8|8,3:0|3:0|3:0|3:0,2:0:0:0:
426,60,234042,6,0,L|374:73,7,30,4|0|0|0|0|0|0|0,1:2|1:0|1:0|1:0|1:0|1:0|1:0|1:0,2:0:0:0:
357,95,234687,2,0,L|305:82,7,30,4|0|0|0|0|0|0|0,1:2|1:0|1:0|1:0|1:0|1:0|1:0|1:0,2:0:0:0:
292,71,235333,2,0,B|252:42|252:42|179:42|107:69,1,192,12|4,2:0|2:0,2:0:0:0:
37,243,236300,2,0,L|43:292,3,30,8|8|8|8,3:0|3:0|3:0|3:0,2:0:0:0:
74,306,236623,6,0,L|126:298,7,30,4|0|0|0|0|0|0|0,1:2|1:0|1:0|1:0|1:0|1:0|1:0|1:0,2:0:0:0:
147,321,237268,2,0,L|199:329,7,30,4|0|0|0|0|0|0|0,1:2|1:0|1:0|1:0|1:0|1:0|1:0|1:0,2:0:0:0:
215,296,237913,6,0,L|267:288,2,30,12|8|0,2:0|2:0|1:0,2:0:0:0:
236,208,238236,1,8,3:0:0:0:
236,208,238316,1,8,3:0:0:0:
236,208,238397,1,0,1:0:0:0:
146,173,238558,2,0,L|102:180,3,30,12|8|0|0,2:0|2:0|1:0|1:0,2:0:0:0:
87,138,238881,2,0,L|48:131,3,30,8|8|8|8,2:0|2:0|2:0|2:0,2:0:0:0:
38,101,239204,22,0,B|173:126|173:126|246:119|300:66|300:66|326:136|382:174|382:174|509:208|509:208|384:329|384:329|107:269|107:269|79:206,1,1075.200013125,12|0,2:0|2:0,2:0:0:0:
256,192,244445,12,0,249526,2:0:0:0:
