osu file format v14

[General]
AudioFilename: audio.mp3
AudioLeadIn: 0
PreviewTime: 30475
Countdown: 0
SampleSet: Soft
StackLeniency: 0.7
Mode: 0
LetterboxInBreaks: 0
WidescreenStoryboard: 1

[Editor]
DistanceSpacing: 1
BeatDivisor: 6
GridSize: 4
TimelineZoom: 1

[Metadata]
Title:Hip To Be Scared feat. Jacoby Shaddix
TitleUnicode:Hip To Be Scared feat. Jacoby Shaddix
Artist:Ice Nine Kills
ArtistUnicode:Ice Nine Kills
Creator:Blitzifyyy
Version:Normal
Source:
Tags:Washedup player Kang Sae-byeok Nymphe Kiyoshi Guarden The Silver Scream 2 Welcome to Horrorwood Metalcore Metal English Horror Slasher American Psycho Papa Roach
BeatmapID:3103364
BeatmapSetID:1515810

[Difficulty]
HPDrainRate:4
CircleSize:3
OverallDifficulty:5
ApproachRate:6
SliderMultiplier:0.999999999999999
SliderTickRate:1

[Events]
//Background and Video events
0,0,"htbs.jpg",0,0
//Break Periods
2,48642,54315
2,160750,163326
//Storyboard Layer 0 (Background)
//Storyboard Layer 1 (Fail)
//Storyboard Layer 2 (Pass)
//Storyboard Layer 3 (Foreground)
//Storyboard Layer 4 (Overlay)
//Storyboard Sound Samples

[TimingPoints]
-19,329.67032967033,3,2,1,60,1,0
805,-100,3,2,1,60,0,0
8882,-100,3,2,1,65,0,0
24706,-100,3,2,1,75,0,0
32618,-100,3,2,1,85,0,1
48442,-100,3,2,1,60,0,0
56354,-100,3,2,1,65,0,0
64266,329.67032967033,4,2,1,75,1,0
64266,-100,4,2,1,75,0,0
74815,329.67032967033,3,2,1,85,1,0
74815,-100,3,2,1,85,0,1
90556,-100,3,2,1,85,0,0
90639,-100,3,2,1,85,0,1
106463,480,4,2,2,75,1,0
132863,480,4,2,1,85,1,1
134063,-100,4,2,2,85,0,1
134543,-100,4,2,1,85,0,1
137903,-100,4,2,2,85,0,1
138383,-100,4,2,1,85,0,1
138863,-100,4,2,2,85,0,1
139103,-100,4,2,1,85,0,1
139583,-100,4,2,2,85,0,1
140543,-100,4,2,1,85,0,1
142703,-100,4,2,2,85,0,1
142943,-100,4,2,1,85,0,1
143663,-100,4,2,2,85,0,1
144383,-100,4,2,1,85,0,1
147263,-100,4,2,2,85,0,1
148223,329.67032967033,4,2,1,75,1,0
158772,329.67032967033,3,2,1,60,1,0
158772,-100,3,2,1,60,0,0
164706,-100,3,2,1,65,0,0
165200,-100,3,2,1,70,0,0
165695,-100,3,2,1,75,0,0
166189,-100,3,2,1,80,0,0
166684,-100,3,2,1,85,0,1
174513,-100,3,2,1,85,0,0
174596,-100,3,2,1,85,0,1
192398,-100,3,2,1,60,0,0

[Colours]
Combo1 : 108,108,108
Combo2 : 0,49,98
Combo3 : 53,53,53

[HitObjects]
72,38,8222,1,10,0:3:0:0:
155,93,8552,1,10,0:3:0:0:
228,27,8882,6,0,L|339:23,1,99.9999999999999,10|2,1:3|0:0,0:0:0:0:
373,3,9376,1,2,0:0:0:0:
504,76,9871,2,0,B|520:113|520:113|512:177,1,99.9999999999999,2|2,0:0|0:0,0:0:0:0:
428,226,10530,2,0,L|377:223,1,50,2|0,0:0|0:0,0:0:0:0:
330,206,10860,6,0,B|278:209|278:209|268:218|268:218|224:222,1,99.9999999999999,2|2,0:0|0:0,0:0:0:0:
139,186,11519,1,2,0:0:0:0:
80,267,11849,2,0,B|60:318|60:318|78:374,2,99.9999999999999,2|2|10,0:0|0:0|0:3,0:0:0:0:
169,312,12838,6,0,B|234:300|213:338|274:333,1,99.9999999999999,10|2,1:3|0:0,0:0:0:0:
308,312,13332,1,2,0:0:0:0:
420,213,13827,2,0,L|416:155,1,50,2|0,0:0|0:0,0:0:0:0:
432,115,14156,2,0,B|400:99|400:99|331:120,1,99.9999999999999,2|0,0:0|0:0,0:0:0:0:
304,154,14651,6,0,L|142:146,1,150,2|0,0:0|0:0,0:0:0:0:
60,181,15475,1,0,0:0:0:0:
8,95,15805,1,0,0:0:0:0:
74,20,16134,2,0,L|128:22,1,50,10|10,0:3|0:3,0:0:0:0:
169,42,16464,2,0,L|223:40,1,50,10|10,0:3|0:3,0:0:0:0:
262,66,16794,6,0,B|248:118|248:118|266:173,2,99.9999999999999,10|2|2,1:3|0:0|0:0,0:0:0:0:
347,13,17783,1,2,0:0:0:0:
420,80,18112,2,0,L|416:181,1,99.9999999999999,2|2,0:0|0:0,0:0:0:0:
349,254,18772,6,0,B|307:237|310:291|252:275,2,99.9999999999999,2|2|2,0:0|0:0|0:0,0:0:0:0:
423,323,19761,2,0,P|474:344|512:326,1,99.9999999999999,2|0,0:0|0:0,0:0:0:0:
472,234,20420,1,10,0:3:0:0:
256,192,20750,12,2,22728,0:0:0:0:
33,53,24706,5,10,0:3:0:0:
33,53,24871,1,10,0:3:0:0:
159,275,25695,1,10,0:3:0:0:
159,275,25860,1,10,0:3:0:0:
286,61,26684,5,10,0:3:0:0:
286,61,26849,1,10,0:3:0:0:
412,283,27673,2,0,P|385:276|356:284,1,50,10|10,0:3|0:3,0:0:0:0:
328,315,28002,2,0,P|301:322|272:314,1,50,2|10,1:2|0:3,0:0:0:0:
243,282,28332,2,0,L|245:218,1,50,10|2,0:3|1:2,0:0:0:0:
248,181,28662,5,14,0:0:0:0:
248,181,28827,1,6,1:2:0:0:
97,49,29486,1,2,1:2:0:0:
97,49,29651,2,0,B|70:44|70:44|44:50,1,50,10|10,0:0|0:3,0:0:0:0:
15,87,29981,2,0,L|19:153,1,50,10|10,0:3|0:3,0:0:0:0:
39,182,30310,2,0,L|35:248,1,50,10|10,0:3|0:3,0:0:0:0:
19,279,30640,6,0,B|58:268|58:268|88:280|88:280|127:267|173:284,2,150,10|2|2,0:0|0:0|0:0,0:0:0:0:
124,384,32123,1,2,0:0:0:0:
252,306,32618,6,0,B|365:270|330:358|456:324,1,200,6|0,1:2|0:0,0:0:0:0:
507,250,33607,2,0,B|512:224|512:224|506:195,1,50,10|0,0:0|0:0,0:0:0:0:
475,162,33937,2,0,B|470:136|470:136|476:107,1,50,2|0,0:0|0:0,0:0:0:0:
504,72,34266,1,2,1:2:0:0:
432,1,34596,6,0,B|364:33|366:-33|288:-1,1,150,2|0,1:2|0:0,0:0:0:0:
256,37,35255,2,0,L|259:92,1,50,2|2,0:0|1:2,0:0:0:0:
266,136,35585,1,10,0:0:0:0:
301,229,35915,2,0,L|359:227,1,50,6|0,1:2|0:0,0:0:0:0:
394,202,36244,2,0,L|452:204,1,50,6|0,1:2|0:0,0:0:0:0:
488,226,36574,6,0,B|506:217|516:189|516:189|513:260|513:260|510:267|510:267|509:347,1,200,6|0,1:2|0:0,0:0:0:0:
418,382,37563,2,0,L|362:379,1,50,10|0,0:0|0:0,0:0:0:0:
323,355,37893,2,0,L|267:358,1,50,2|0,0:0|0:0,0:0:0:0:
229,382,38222,1,2,1:2:0:0:
153,316,38552,6,0,B|103:302|103:302|49:317,1,99.9999999999999,6|0,1:2|0:0,0:0:0:0:
11,335,39046,2,0,L|3:232,1,99.9999999999999,6|0,1:2|0:0,0:0:0:0:
4,184,39541,2,0,P|57:200|97:180,1,99.9999999999999,14|0,0:0|0:0,0:0:0:0:
125,141,40035,1,6,1:2:0:0:
252,60,40530,6,0,B|296:73|340:59|340:59|360:68|360:68|402:52|451:68,1,200,6|0,1:2|0:0,0:0:0:0:
492,98,41354,1,2,1:2:0:0:
492,98,41519,1,10,0:0:0:0:
509,195,41849,2,0,P|514:224|507:252,1,50,2|0,1:2|0:0,0:0:0:0:
474,279,42178,2,0,P|469:308|476:336,1,50,2|0,1:2|0:0,0:0:0:0:
501,369,42508,6,0,B|450:349|450:349|355:369,1,150,6|2,1:2|0:0,0:0:0:0:
256,374,43332,1,2,1:2:0:0:
256,374,43497,2,0,P|248:340|252:311,1,50,10|10,0:0|0:0,0:0:0:0:
279,285,43827,2,0,P|287:251|283:222,1,50,2|10,1:2|0:3,0:0:0:0:
257,195,44156,1,10,0:3:0:0:
218,102,44486,6,0,B|151:83|139:44|139:44|141:120|86:130,1,200,6|0,1:2|0:0,0:0:0:0:
54,139,45310,1,2,1:2:0:0:
54,139,45475,1,10,0:0:0:0:
10,231,45805,1,2,1:2:0:0:
10,231,45970,2,0,P|5:257|13:287,1,50,2|2,0:0|1:2,0:0:0:0:
41,325,46299,1,2,0:0:0:0:
41,325,46464,6,0,B|86:302|86:302|189:324,1,150,6|6,1:2|1:2,0:0:0:0:
266,384,47288,1,2,1:2:0:0:
266,384,47453,2,0,P|240:344|252:291,1,99.9999999999999,14|0,0:0|0:0,0:0:0:0:
287,261,47948,2,0,L|348:265,2,50,2|10|10,1:2|0:0|0:0,0:0:0:0:
262,217,48442,5,6,1:2:0:0:
54,358,55365,6,0,L|50:295,1,50,8|0,0:0|1:0,0:0:0:0:
29,262,55695,2,0,L|33:199,1,50,8|8,0:0|0:3,0:0:0:0:
57,168,56024,1,2,1:2:0:0:
138,109,56354,6,0,B|163:104|163:104|200:112,1,50,6|0,1:2|1:2,0:0:0:0:
229,146,56684,1,10,0:3:0:0:
229,146,56849,2,0,B|254:150|254:150|328:133,1,99.9999999999999,8|0,0:3|1:2,0:0:0:0:
370,109,57343,2,0,P|341:154|350:198,2,99.9999999999999,10|2|2,0:0|0:0|0:0,0:0:0:0:
305,32,58332,6,0,L|253:34,1,50,2|0,1:2|1:2,0:0:0:0:
213,58,58662,1,10,0:3:0:0:
213,58,58827,2,0,L|111:53,1,99.9999999999999,8|0,0:3|1:2,0:0:0:0:
63,51,59321,1,10,0:0:0:0:
14,138,59651,2,0,P|7:169|13:197,1,50,6|0,1:2|0:0,0:0:0:0:
37,228,59981,1,6,1:2:0:0:
132,199,60310,6,0,B|215:181|194:247|284:218,1,150,6|10,1:2|0:3,0:0:0:0:
312,186,60970,2,0,P|339:180|370:189,1,50,10|0,0:3|1:2,0:0:0:0:
410,190,61299,2,0,L|401:85,2,99.9999999999999,10|2|2,0:0|0:0|0:0,0:0:0:0:
469,270,62288,2,0,L|464:326,1,50,10|2,0:3|1:2,0:0:0:0:
437,362,62618,2,0,P|408:369|374:356,1,50,10|2,0:3|1:2,0:0:0:0:
347,335,62948,2,0,P|318:328|284:341,1,50,10|2,0:3|1:2,0:0:0:0:
259,363,63277,5,10,0:0:0:0:
50,146,64266,5,2,1:2:0:0:
50,146,64430,2,0,P|78:141|107:152,1,50,10|0,0:0|1:2,0:0:0:0:
129,193,64760,1,10,0:0:0:0:
129,193,64925,2,0,P|157:198|186:187,1,50,2|10,1:2|0:0,0:0:0:0:
261,136,65419,2,0,P|290:131|315:137,1,50,10|2,0:0|1:2,0:0:0:0:
344,171,65749,2,0,L|341:227,1,50,10|0,0:0|1:2,0:0:0:0:
318,267,66079,1,10,0:0:0:0:
318,267,66244,2,0,L|321:323,1,50,2|10,1:2|0:0,0:0:0:0:
407,376,66738,1,10,0:0:0:0:
407,376,66903,6,0,P|440:382|466:373,1,50,2|8,1:2|0:0,0:0:0:0:
493,345,67233,1,2,0:0:0:0:
493,345,67397,2,0,L|492:283,1,50,10|2,0:0|1:2,0:0:0:0:
493,244,67727,1,10,0:0:0:0:
443,163,68057,1,8,0:0:0:0:
443,163,68222,2,0,P|416:155|388:162,1,50,10|8,0:0|0:0,0:0:0:0:
348,179,68551,2,0,P|321:187|293:180,1,50,2|8,1:2|0:0,0:0:0:0:
267,144,68881,2,0,L|268:88,2,50,10|0|8,0:0|1:2|0:0,0:0:0:0:
192,209,69540,5,10,0:3:0:0:
192,209,69705,1,10,0:3:0:0:
263,278,70035,2,0,L|316:276,2,50,10|10|10,0:3|0:3|0:3,0:0:0:0:
183,339,70694,1,10,0:3:0:0:
183,339,70859,2,0,L|124:335,1,50,10|10,0:3|0:3,0:0:0:0:
50,279,71353,2,0,L|-9:283,2,50,10|10|10,0:3|0:3|0:3,0:0:0:0:
124,211,72013,1,10,0:3:0:0:
124,211,72178,6,0,L|194:215,2,66.6666666666666,10|10|10,0:3|0:3|0:3,0:0:0:0:
65,178,72837,6,0,L|-5:182,2,66.6666666666666,10|10|10,0:3|0:3|0:3,0:0:0:0:
109,126,73496,5,10,0:0:0:0:
493,16,74815,6,0,B|502:45|527:57|527:57|495:63|477:93|477:93|503:127|488:172,1,200,6|0,1:2|0:0,0:0:0:0:
412,237,75804,2,0,B|387:243|387:243|359:237,1,50,10|0,0:0|0:0,0:0:0:0:
329,201,76133,2,0,B|304:195|304:195|276:201,1,50,2|0,0:0|0:0,0:0:0:0:
236,224,76463,1,2,1:2:0:0:
164,153,76793,6,0,B|119:127|119:127|24:157,1,150,2|0,1:2|0:0,0:0:0:0:
0,200,77452,2,0,L|4:264,1,50,2|2,0:0|1:2,0:0:0:0:
7,300,77782,1,10,0:0:0:0:
80,368,78111,2,0,P|107:375|133:369,1,50,6|0,1:2|0:0,0:0:0:0:
169,341,78441,2,0,P|196:334|222:340,1,50,6|0,1:2|0:0,0:0:0:0:
263,357,78771,6,0,B|312:292|268:215|268:215|272:250|250:270,1,200,6|0,1:2|0:0,0:0:0:0:
169,215,79760,2,0,P|143:210|111:217,1,50,10|0,0:0|0:0,0:0:0:0:
85,249,80089,2,0,P|59:254|27:247,1,50,2|0,0:0|0:0,0:0:0:0:
1,213,80419,1,2,1:2:0:0:
55,129,80749,6,0,P|73:95|46:38,1,99.9999999999999,6|0,1:2|0:0,0:0:0:0:
10,11,81243,2,0,B|61:8|61:8|75:13|75:13|124:12,1,99.9999999999999,6|0,1:2|0:0,0:0:0:0:
158,0,81738,2,0,B|171:27|171:27|170:107,1,99.9999999999999,14|0,0:0|0:0,0:0:0:0:
167,147,82232,1,6,1:2:0:0:
288,235,82727,6,0,B|337:270|392:240|375:240|435:195|491:233,1,200,6|0,1:2|0:0,0:0:0:0:
512,269,83551,1,2,1:2:0:0:
512,269,83716,1,10,0:0:0:0:
461,355,84045,2,0,L|409:353,1,50,2|0,1:2|0:0,0:0:0:0:
369,324,84375,2,0,L|317:326,1,50,2|0,1:2|0:0,0:0:0:0:
276,353,84705,6,0,B|124:348|277:348|124:341,1,150,6|2,1:2|0:0,0:0:0:0:
47,292,85529,1,2,1:2:0:0:
47,292,85694,2,0,B|40:268|40:268|47:241,1,50,10|10,0:0|0:0,0:0:0:0:
78,205,86023,2,0,B|85:181|85:181|78:154,1,50,2|10,1:2|0:3,0:0:0:0:
43,120,86353,1,10,0:3:0:0:
113,49,86683,6,0,P|139:40|166:45,1,50,6|0,1:2|0:0,0:0:0:0:
199,74,87012,1,2,1:2:0:0:
199,74,87177,2,0,P|225:83|252:78,1,50,2|0,1:2|0:0,0:0:0:0:
297,64,87507,1,2,1:2:0:0:
297,64,87672,2,0,B|312:93|312:93|302:174,2,99.9999999999999,14|6|6,0:0|1:2|1:2,0:0:0:0:
385,14,88661,5,10,0:0:0:0:
385,14,88825,2,0,L|492:16,2,99.9999999999999,6|6|2,1:2|1:2|1:2,0:0:0:0:
344,43,89650,1,10,0:0:0:0:
344,43,89815,2,0,L|237:39,1,99.9999999999999,6|2,1:2|1:2,0:0:0:0:
194,33,90309,1,10,0:0:0:0:
138,116,90639,6,0,P|130:141|134:169,1,50,6|2,1:2|1:2,0:0:0:0:
165,201,90968,2,0,P|173:226|169:254,1,50,2|2,1:2|1:2,0:0:0:0:
137,287,91298,2,0,P|129:312|133:340,1,50,2|2,1:2|1:2,0:0:0:0:
157,378,91628,2,0,B|192:390|223:375|223:375|238:379|238:379|270:362|312:375,1,150,10|2,0:0|0:0,0:0:0:0:
452,374,92617,6,0,B|457:349|457:349|448:326,1,50,2|2,1:2|1:2,0:0:0:0:
415,288,92946,2,0,B|410:263|410:263|419:240,1,50,2|2,1:2|1:2,0:0:0:0:
454,204,93276,2,0,B|459:179|459:179|450:156,1,50,2|2,1:2|1:2,0:0:0:0:
411,123,93606,2,0,B|256:127|411:126|256:131,1,150,10|6,0:0|1:2,0:0:0:0:
117,87,94595,6,0,P|111:65|117:36,1,50,2|0,1:2|0:0,0:0:0:0:
157,10,94924,1,2,1:2:0:0:
157,10,95089,2,0,L|214:15,1,50,2|0,1:2|0:0,0:0:0:0:
256,39,95419,1,2,1:2:0:0:
256,39,95584,2,0,L|362:30,2,99.9999999999999,10|2|2,0:0|1:2|1:2,0:0:0:0:
198,120,96573,6,0,P|191:145|195:169,1,50,10|10,0:0|0:3,0:0:0:0:
230,203,96902,2,0,P|237:228|233:252,1,50,10|2,0:3|1:2,0:0:0:0:
205,293,97232,1,10,0:3:0:0:
279,359,97562,2,0,L|338:358,2,50,10|0|0,0:0|0:0|0:0,0:0:0:0:
181,382,98221,1,0,0:0:0:0:
200,283,98551,6,0,B|213:250|256:186|157:191|207:135|207:135|202:106|214:82,1,200,6|0,1:2|0:0,0:0:0:0:
237,55,99375,1,2,1:2:0:0:
237,55,99540,1,10,0:0:0:0:
146,12,99869,2,0,P|123:5|91:12,1,50,2|0,1:2|0:0,0:0:0:0:
65,47,100199,2,0,L|66:111,1,50,2|0,1:2|0:0,0:0:0:0:
85,143,100529,6,0,B|57:212|57:212|85:290,1,150,2|0,1:2|0:0,0:0:0:0:
117,319,101188,2,0,L|179:315,1,50,2|2,0:0|1:2,0:0:0:0:
217,312,101518,1,10,0:0:0:0:
360,172,102177,1,2,0:0:0:0:
422,250,102507,6,0,P|427:276|421:304,1,50,6|2,1:2|1:2,0:0:0:0:
393,339,102836,2,0,L|334:336,1,50,2|6,1:2|1:2,0:0:0:0:
298,312,103166,2,0,L|239:315,1,50,2|2,1:2|1:2,0:0:0:0:
203,337,103496,1,14,0:0:0:0:
131,275,103825,1,2,1:2:0:0:
131,275,103990,2,0,B|122:249|122:249|129:217,1,50,2|2,1:2|1:2,0:0:0:0:
160,190,104320,1,2,1:2:0:0:
160,190,104485,6,0,B|204:207|204:207|263:183,1,99.9999999999999,10|0,0:0|0:0,0:0:0:0:
295,160,104979,2,0,P|279:115|295:60,1,99.9999999999999,6|2,1:2|1:2,0:0:0:0:
329,32,105474,1,10,0:0:0:0:
415,82,105804,2,0,P|421:106|415:135,1,50,10|2,0:3|1:2,0:0:0:0:
388,171,106133,1,10,0:0:0:0:
295,160,106463,6,0,L|195:160,1,99.9999999999999,4|8,3:2|0:0,0:0:0:0:
150,138,107183,2,0,L|91:138,1,50,0|0,0:0|3:0,0:0:0:0:
58,165,107663,1,2,3:2:0:0:
10,254,108143,1,0,0:0:0:0:
10,254,108383,2,0,L|10:308,1,50,0|0,3:0|0:0,0:0:0:0:
34,347,108863,2,0,L|140:347,1,99.9999999999999,8|0,0:0|3:0,0:0:0:0:
226,308,109823,2,0,L|286:308,1,50,8|2,0:0|0:0,0:0:0:0:
323,322,110303,6,0,L|323:205,1,99.9999999999999,0|8,3:0|0:0,0:0:0:0:
303,175,111023,2,0,L|303:116,1,50,0|0,0:0|3:0,0:0:0:0:
323,79,111503,1,2,3:2:0:0:
404,136,111983,1,0,0:0:0:0:
404,136,112223,2,0,L|404:195,1,50,8|0,0:3|0:0,0:0:0:0:
432,233,112703,1,8,0:0:0:0:
432,233,112943,2,0,L|432:292,1,50,8|0,0:3|0:0,0:0:0:0:
366,358,113663,2,0,L|307:358,1,50,8|8,1:0|1:0,0:0:0:0:
272,332,114143,6,0,L|170:332,1,99.9999999999999,4|8,3:2|0:0,0:0:0:0:
128,356,114863,2,0,L|71:356,1,50,0|0,0:0|3:0,0:0:0:0:
34,331,115343,1,2,3:2:0:0:
7,234,115823,1,0,0:0:0:0:
7,234,116063,2,0,L|7:172,1,50,0|0,3:0|0:0,0:0:0:0:
22,136,116543,1,8,0:0:0:0:
71,49,117023,2,0,L|71:-10,2,50,0|2|8,3:0|3:2|0:0,0:0:0:0:
153,105,117983,6,0,L|260:105,1,99.9999999999999,0|8,3:0|0:0,0:0:0:0:
296,81,118703,2,0,L|363:81,1,50,0|0,0:0|3:0,0:0:0:0:
389,106,119183,1,2,3:2:0:0:
329,187,119663,1,0,0:0:0:0:
329,187,119903,2,0,L|261:187,1,50,8|0,0:3|0:0,0:0:0:0:
238,168,120383,1,8,0:0:0:0:
238,168,120623,2,0,L|170:168,1,50,8|0,0:3|0:0,0:0:0:0:
108,228,121343,2,0,L|108:296,1,50,8|8,1:0|1:0,0:0:0:0:
133,320,121823,6,0,L|241:320,1,99.9999999999999,4|8,3:2|0:0,0:0:0:0:
275,294,122543,2,0,L|340:294,1,50,0|0,0:0|3:0,0:0:0:0:
368,318,123023,1,2,3:2:0:0:
438,246,123503,1,0,0:0:0:0:
438,246,123743,2,0,L|438:185,1,50,0|0,3:0|0:0,0:0:0:0:
456,149,124223,2,0,L|355:149,1,99.9999999999999,8|0,0:0|3:0,0:0:0:0:
264,188,125183,2,0,L|212:188,1,50,8|2,0:0|0:0,0:0:0:0:
167,207,125663,6,0,L|167:100,1,99.9999999999999,0|8,3:0|0:0,0:0:0:0:
192,64,126383,2,0,L|259:64,1,50,0|0,0:0|3:0,0:0:0:0:
288,82,126863,1,2,3:2:0:0:
362,157,127343,1,0,0:0:0:0:
362,157,127583,2,0,L|362:225,1,50,8|0,0:3|0:0,0:0:0:0:
387,256,128063,1,8,0:0:0:0:
387,256,128303,2,0,L|387:324,1,50,8|0,0:3|0:0,0:0:0:0:
307,366,129023,2,0,L|252:366,1,50,8|8,1:0|1:0,0:0:0:0:
40,42,132863,6,0,B|80:39|80:39|104:51|104:51|148:48,1,99.9999999999999,4|0,1:2|0:0,0:0:0:0:
182,81,133583,1,0,1:2:0:0:
182,81,133823,2,0,B|187:107|187:107|177:135,1,50,12|2,0:0|1:2,0:0:0:0:
116,207,134543,1,0,1:2:0:0:
116,207,134783,2,0,L|62:206,1,50,4|4,1:2|1:2,0:0:0:0:
16,196,135263,2,0,B|29:222|29:222|19:304,1,99.9999999999999,4|8,1:2|0:0,0:0:0:0:
88,366,136223,2,0,L|144:365,1,50,8|8,0:3|0:3,0:0:0:0:
184,345,136703,6,0,B|205:340|205:340|228:348|228:348|257:336|292:349,1,99.9999999999999,4|0,1:2|0:0,0:0:0:0:
330,355,137423,1,0,1:2:0:0:
330,355,137663,2,0,L|331:304,1,50,12|2,0:0|1:2,0:0:0:0:
291,213,138383,1,0,1:2:0:0:
291,213,138623,2,0,B|266:204|266:204|235:214,1,50,4|12,1:2|0:0,0:0:0:0:
210,248,139103,2,0,B|101:240|210:252|100:245,1,99.9999999999999,4|8,1:2|0:0,0:0:0:0:
34,181,140063,2,0,B|25:159|25:159|32:125,1,50,8|8,0:0|0:0,0:0:0:0:
61,93,140543,6,0,L|166:97,1,99.9999999999999,4|0,1:2|0:0,0:0:0:0:
195,133,141263,2,0,L|255:131,1,50,0|4,1:2|0:0,0:0:0:0:
287,104,141743,1,0,1:2:0:0:
364,167,142223,1,0,1:2:0:0:
364,167,142463,2,0,L|362:225,1,50,12|4,0:0|1:2,0:0:0:0:
357,266,142943,2,0,B|322:251|322:251|254:266,1,99.9999999999999,4|4,1:2|0:0,0:0:0:0:
217,287,143663,1,2,0:0:0:0:
127,242,144143,1,2,0:0:0:0:
127,242,144383,6,0,B|109:242|95:231|95:231|76:226|59:232|59:232|52:243|34:248|34:248|45:260|48:273|48:273|50:286|38:299|38:299|31:323|43:348,1,200,4|0,1:2|0:0,0:0:0:0:
71,377,145583,1,0,1:2:0:0:
173,360,146063,1,0,1:2:0:0:
173,360,146303,2,0,B|200:352|200:352|221:364|221:364|261:370,2,74.9999999999999,8|8|8,0:0|0:3|0:3,0:0:0:0:
134,327,147263,1,8,0:0:0:0:
279,74,148223,5,6,1:2:0:0:
279,74,148387,2,0,B|303:66|303:66|335:72,1,50,10|0,0:0|1:2,0:0:0:0:
371,105,148717,1,10,0:0:0:0:
371,105,148882,2,0,L|370:165,1,50,2|10,1:2|0:0,0:0:0:0:
300,226,149376,1,10,0:0:0:0:
300,226,149541,2,0,L|198:223,1,99.9999999999999,2|0,1:2|1:2,0:0:0:0:
159,193,150036,1,10,0:0:0:0:
159,193,150201,2,0,L|102:195,1,50,2|10,1:2|0:0,0:0:0:0:
23,246,150695,1,10,0:0:0:0:
23,246,150860,6,0,B|12:275|12:275|30:345,1,99.9999999999999,2|2,1:2|0:0,0:0:0:0:
69,371,151354,1,10,0:0:0:0:
69,371,151519,2,0,L|129:369,1,50,2|8,1:2|0:0,0:0:0:0:
167,354,151849,1,2,0:0:0:0:
227,274,152179,1,2,1:2:0:0:
227,274,152343,2,0,B|231:247|231:247|225:222,1,50,2|2,0:0|0:0,0:0:0:0:
201,187,152673,1,2,0:0:0:0:
201,187,152838,2,0,B|197:160|197:160|203:135,1,50,2|2,0:0|0:0,0:0:0:0:
232,97,153168,1,2,0:0:0:0:
312,37,153497,6,0,L|364:39,1,50,10|10,0:3|0:3,0:0:0:0:
440,110,153992,1,10,0:3:0:0:
440,110,154157,2,0,P|444:135|438:162,1,50,10|10,0:3|0:3,0:0:0:0:
380,240,154651,2,0,P|376:265|382:292,2,50,10|10|10,0:3|0:3|0:3,0:0:0:0:
304,174,155310,2,0,P|271:165|243:174,1,50,10|10,0:3|0:3,0:0:0:0:
211,191,155640,1,8,0:3:0:0:
138,260,155970,1,10,0:3:0:0:
138,260,156135,6,0,B|111:264|111:264|79:257,1,50,10|10,0:3|0:3,0:0:0:0:
51,226,156464,2,0,L|54:172,1,50,10|10,0:3|0:0,0:0:0:0:
86,137,156794,2,0,L|83:83,1,50,10|10,0:3|0:3,0:0:0:0:
53,46,157124,1,10,0:3:0:0:
143,3,157453,2,0,B|187:2|187:2|203:13|203:13|250:12,2,99.9999999999999,10|2|2,0:0|0:0|0:0,0:0:0:0:
3,147,158772,5,10,1:3:0:0:
58,329,164376,5,2,0:0:0:0:
140,271,164706,2,0,B|186:255|186:255|238:273,1,99.9999999999999,6|0,1:2|0:0,0:0:0:0:
263,312,165200,2,0,P|309:328|361:310,1,99.9999999999999,6|0,1:2|0:0,0:0:0:0:
388,274,165695,2,0,L|384:168,1,99.9999999999999,14|0,0:0|0:0,0:0:0:0:
379,124,166189,1,6,1:2:0:0:
249,48,166684,6,0,B|223:51|205:75|205:75|182:36|132:16|132:16|121:40|88:46,1,200,6|0,1:2|0:0,0:0:0:0:
47,60,167508,1,2,1:2:0:0:
47,60,167673,1,10,0:0:0:0:
69,157,168002,2,0,L|67:209,1,50,2|0,1:2|0:0,0:0:0:0:
38,249,168332,2,0,L|40:301,1,50,2|0,1:2|0:0,0:0:0:0:
60,344,168662,6,0,B|98:353|212:339|59:339|168:322|212:332,1,150,6|2,1:2|0:0,0:0:0:0:
303,368,169486,1,2,1:2:0:0:
303,368,169651,2,0,B|327:375|327:375|354:368,1,50,10|10,0:0|0:0,0:0:0:0:
392,340,169980,2,0,B|416:333|416:333|443:340,1,50,2|10,1:2|0:3,0:0:0:0:
477,373,170310,1,10,0:3:0:0:
506,277,170640,6,0,P|515:251|510:224,1,50,6|0,1:2|1:0,0:0:0:0:
480,191,170969,2,0,P|471:165|476:138,1,50,2|0,1:2|1:2,0:0:0:0:
494,96,171299,6,0,L|429:91,1,50,0|0,1:0|1:2,0:0:0:0:
400,67,171629,1,12,0:0:0:0:
303,90,171958,1,2,1:2:0:0:
303,90,172123,2,0,L|244:88,1,50,2|0,1:2|1:2,0:0:0:0:
167,137,172618,5,10,0:0:0:0:
167,137,172782,2,0,L|60:135,2,99.9999999999999,4|6|2,1:2|1:2|1:2,0:0:0:0:
205,177,173607,1,10,0:0:0:0:
205,177,173772,2,0,B|222:224|222:224|209:284,1,99.9999999999999,6|10,1:2|0:3,0:0:0:0:
192,319,174266,1,10,0:0:0:0:
105,368,174596,6,0,P|80:376|52:372,1,50,6|2,1:2|1:2,0:0:0:0:
22,336,174925,2,0,L|18:283,1,50,2|2,1:2|1:2,0:0:0:0:
50,250,175255,2,0,L|54:197,1,50,2|2,1:2|1:2,0:0:0:0:
34,153,175585,2,0,B|64:144|64:144|98:160|98:160|136:142|186:158,1,150,10|2,0:0|0:0,0:0:0:0:
288,256,176574,6,0,B|313:261|313:261|336:252,1,50,2|2,1:2|1:2,0:0:0:0:
376,222,176903,2,0,B|401:217|401:217|424:226,1,50,2|2,1:2|1:2,0:0:0:0:
451,268,177233,2,0,B|450:333,1,50,2|2,1:2|1:2,0:0:0:0:
425,362,177563,1,10,0:0:0:0:
327,381,177892,2,0,L|270:378,1,50,10|10,0:3|0:3,0:0:0:0:
226,374,178222,1,10,0:0:0:0:
176,286,178552,6,0,P|170:264|176:235,1,50,6|0,1:2|0:0,0:0:0:0:
206,198,178881,1,2,1:2:0:0:
206,198,179046,2,0,P|212:176|206:147,1,50,2|0,1:2|0:0,0:0:0:0:
176,117,179376,1,2,1:2:0:0:
176,117,179541,2,0,L|70:126,2,99.9999999999999,10|2|2,0:0|1:2|1:2,0:0:0:0:
244,43,180530,6,0,P|269:36|293:40,1,50,0|0,1:0|1:0,0:0:0:0:
327,75,180859,2,0,P|352:82|376:78,1,50,0|0,1:0|1:0,0:0:0:0:
417,50,181189,1,0,1:0:0:0:
484,123,181519,2,0,L|484:172,2,50,8|0|0,0:0|0:0|0:0,0:0:0:0:
509,26,182178,1,0,0:0:0:0:
409,15,182508,6,0,B|353:20|320:54|320:54|285:15|208:22,1,200,6|0,1:2|0:0,0:0:0:0:
189,51,183332,1,2,1:2:0:0:
189,51,183497,1,10,0:0:0:0:
216,146,183826,2,0,P|223:169|216:201,1,50,2|0,1:2|0:0,0:0:0:0:
184,230,184156,2,0,P|177:253|184:285,1,50,2|0,1:2|0:0,0:0:0:0:
211,318,184486,6,0,B|142:290|142:290|64:318,1,150,2|0,1:2|0:0,0:0:0:0:
30,345,185145,2,0,L|26:283,1,50,2|2,0:0|1:2,0:0:0:0:
23,245,185475,1,10,0:0:0:0:
172,112,186134,1,2,0:0:0:0:
257,163,186464,6,0,P|283:168|311:162,1,50,6|2,1:2|1:2,0:0:0:0:
347,136,186793,2,0,P|373:131|401:136,1,50,2|6,1:2|1:2,0:0:0:0:
430,171,187123,2,0,L|427:230,1,50,2|2,1:2|1:2,0:0:0:0:
425,271,187453,1,14,0:0:0:0:
346,331,187782,1,2,1:2:0:0:
346,331,187947,2,0,B|290:329,1,50,2|2,1:2|1:2,0:0:0:0:
260,302,188277,1,2,1:2:0:0:
260,302,188442,6,0,B|277:258|277:258|253:199,1,99.9999999999999,10|0,0:0|0:0,0:0:0:0:
218,176,188936,2,0,B|201:132|201:132|225:73,1,99.9999999999999,6|2,1:2|1:2,0:0:0:0:
251,42,189431,1,10,0:0:0:0:
158,3,189761,2,0,P|134:-3|105:3,1,50,10|2,0:3|1:2,0:0:0:0:
68,30,190090,1,10,0:0:0:0:
21,118,190420,6,0,B|20:225|25:118|25:225,1,99.9999999999999,6|0,1:2|0:0,0:0:0:0:
25,267,190914,2,0,B|44:262|57:250|57:250|96:255|119:282,1,99.9999999999999,6|0,1:2|0:0,0:0:0:0:
141,317,191409,2,0,B|164:306|164:306|191:317|191:317|217:305|250:316,1,99.9999999999999,14|0,0:0|0:0,0:0:0:0:
283,324,191903,2,0,B|278:298|278:298|281:288|281:288|277:281|277:281|279:255|279:255|276:250|276:250|279:245|279:245|277:225,1,99.9999999999999,6|0,1:2|0:0,0:0:0:0:
274,177,192398,5,6,1:2:0:0:
256,192,192480,12,8,200310,1:3:0:0:
