osu file format v14

[General]
AudioFilename: audio.mp3
AudioLeadIn: 0
PreviewTime: 181015
Countdown: 0
SampleSet: Soft
StackLeniency: 0.5
Mode: 0
LetterboxInBreaks: 0
WidescreenStoryboard: 1

[Editor]
Bookmarks: 18358,30358,36358,48358,54632,60707,75919
DistanceSpacing: 0.8
BeatDivisor: 8
GridSize: 32
TimelineZoom: 2.2

[Metadata]
Title:Funeral Derangements
TitleUnicode:Funeral Derangements
Artist:Ice Nine Kills
ArtistUnicode:Ice Nine Kills
Creator:Blitzifyyy
Version:WashedUp's Insane
Source:
Tags:ajitani hifumi we vibing we_vibing themefisto washedup player INK Metal Metalcore English Welcome to Horrorwood The Silver Scream 2 Pet Sematary cemetery Horror
BeatmapID:3651943
BeatmapSetID:1601336

[Difficulty]
HPDrainRate:4.5
CircleSize:4
OverallDifficulty:8
ApproachRate:8.5
SliderMultiplier:1.8
SliderTickRate:1

[Events]
//Background and Video events
0,0,"545127850ba4fae5772b49a21f5cbc4d.jpg",0,0
//Break Periods
//Storyboard Layer 0 (Background)
//Storyboard Layer 1 (Fail)
//Storyboard Layer 2 (Pass)
//Storyboard Layer 3 (Foreground)
//Storyboard Layer 4 (Overlay)
//Storyboard Sound Samples

[TimingPoints]
184,379.746835443039,4,2,1,75,1,0
943,-66.6666666666667,4,2,1,65,0,0
1037,-66.6666666666667,4,2,1,5,0,0
1133,-66.6666666666667,4,2,1,65,0,0
1227,-66.6666666666667,4,2,1,5,0,0
1323,-66.6666666666667,4,2,1,65,0,0
1417,-66.6666666666667,4,2,1,5,0,0
1513,-66.6666666666667,4,2,1,65,0,0
1607,-66.6666666666667,4,2,1,5,0,0
1702,-100,4,2,1,75,0,0
2462,-66.6666666666667,4,2,1,65,0,0
2556,-66.6666666666667,4,2,1,5,0,0
2652,-66.6666666666667,4,2,1,65,0,0
2746,-66.6666666666667,4,2,1,5,0,0
2842,-66.6666666666667,4,2,1,65,0,0
2936,-66.6666666666667,4,2,1,5,0,0
3033,-66.6666666666667,4,2,1,65,0,0
5310,-66.6666666666667,4,2,1,45,0,0
6070,384.615384615385,4,2,1,75,1,0
6646,-83.3333333333333,4,2,1,75,0,0
7126,-83.3333333333333,4,2,1,5,0,0
7223,-83.3333333333333,4,2,1,75,0,0
8280,-83.3333333333333,4,2,1,5,0,0
8377,-83.3333333333333,4,2,1,75,0,0
11454,-66.6666666666667,4,2,1,65,0,0
11550,-66.6666666666667,4,2,1,5,0,0
11646,-66.6666666666667,4,2,1,65,0,0
11742,-66.6666666666667,4,2,1,5,0,0
11839,-66.6666666666667,4,2,1,65,0,0
11935,-66.6666666666667,4,2,1,5,0,0
12031,-66.6666666666667,4,2,1,65,0,0
12127,-66.6666666666667,4,2,1,5,0,0
12223,-66.6666666666667,4,2,1,75,0,0
12800,-83.3333333333333,4,2,1,75,0,0
13280,-83.3333333333333,4,2,1,5,0,0
13377,-83.3333333333333,4,2,1,75,0,0
14434,-83.3333333333333,4,2,1,5,0,0
14531,-83.3333333333333,4,2,1,75,0,0
15204,-83.3333333333333,4,2,1,5,0,0
15300,-83.3333333333333,4,2,1,75,0,0
16357,-83.3333333333333,4,2,1,5,0,0
16454,-83.3333333333333,4,2,1,75,0,0
17608,375,4,2,1,55,1,0
17608,-333.333333333333,4,2,1,55,0,0
18358,375,4,2,1,65,1,0
25013,-100,4,2,1,5,0,0
25108,-100,4,2,1,65,0,0
28858,-100,4,2,1,45,0,0
30264,-100,4,2,1,5,0,0
30358,-100,4,2,1,75,0,0
34858,-41.6666666666667,4,2,1,75,0,0
36358,-41.6666666666667,4,2,1,65,0,0
38795,-66.6666666666667,4,2,1,65,0,0
38888,-66.6666666666667,4,2,1,5,0,0
38983,-66.6666666666667,4,2,1,65,0,0
42451,-66.6666666666667,4,2,1,5,0,0
43108,-66.6666666666667,4,2,1,65,0,0
43576,-66.6666666666667,4,2,1,5,0,0
44608,-66.6666666666667,4,2,1,65,0,0
44888,-66.6666666666667,4,2,1,5,0,0
44983,-66.6666666666667,4,2,1,65,0,0
46858,-76.9230769230769,4,2,1,65,0,0
46951,-76.9230769230769,4,2,1,5,0,0
47045,-76.9230769230769,4,2,1,65,0,0
47138,-76.9230769230769,4,2,1,5,0,0
47233,-76.9230769230769,4,2,1,65,0,0
47326,-76.9230769230769,4,2,1,5,0,0
47420,-76.9230769230769,4,2,1,65,0,0
47513,-76.9230769230769,4,2,1,5,0,0
47608,-76.9230769230769,4,2,1,65,0,0
47888,-76.9230769230769,4,2,1,5,0,0
47983,-76.9230769230769,4,2,1,65,0,0
48076,-76.9230769230769,4,2,1,5,0,0
48170,-76.9230769230769,4,2,1,65,0,0
48263,-76.9230769230769,4,2,1,5,0,0
48358,392.156862745098,4,2,1,45,1,0
48358,-666.666666666667,4,2,1,45,0,0
54534,-666.666666666667,4,2,1,5,0,0
54632,379.746835443038,4,2,1,65,1,0
54916,-100,4,2,1,5,0,0
55011,-100,4,2,1,65,0,0
56434,-100,4,2,1,5,0,0
56530,-100,4,2,1,65,0,0
57953,-100,4,2,1,5,0,0
58049,-100,4,2,1,65,0,0
60613,-100,4,2,1,5,0,0
60707,-83.3333333333333,4,2,1,85,0,1
62510,-83.3333333333333,4,2,1,5,0,1
62606,-83.3333333333333,4,2,1,85,0,1
68396,-83.3333333333333,4,2,1,5,0,1
68492,-83.3333333333333,4,2,1,85,0,1
68586,-83.3333333333333,4,2,1,5,0,1
68682,-83.3333333333333,4,2,1,85,0,1
69915,-83.3333333333333,4,2,1,5,0,1
70011,-83.3333333333333,4,2,1,85,0,1
70105,-83.3333333333333,4,2,1,5,0,1
70201,-83.3333333333333,4,2,1,85,0,1
74283,-83.3333333333333,4,2,1,85,0,0
75138,-83.3333333333333,4,2,1,45,0,0
75802,-83.3333333333333,4,2,1,5,0,0
75919,384.615384615385,4,2,1,75,1,0
76495,-83.3333333333333,4,2,1,75,0,0
76975,-83.3333333333333,4,2,1,5,0,0
77072,-83.3333333333333,4,2,1,75,0,0
78129,-83.3333333333333,4,2,1,5,0,0
78226,-83.3333333333333,4,2,1,75,0,0
83129,-83.3333333333333,4,2,1,5,0,0
83226,-83.3333333333333,4,2,1,75,0,0
84283,-83.3333333333333,4,2,1,5,0,0
84380,-83.3333333333333,4,2,1,75,0,0
86206,-83.3333333333333,4,2,1,5,0,0
86303,-83.3333333333333,4,2,1,75,0,0
87457,-83.3333333333333,4,2,1,55,0,0
88226,-33.3333333333333,4,2,1,65,0,0
88322,-33.3333333333333,4,2,1,5,0,0
88419,-33.3333333333333,4,2,1,65,0,0
89668,-33.3333333333333,4,2,1,5,0,0
89861,-33.3333333333333,4,2,1,65,0,0
90726,-76.9230769230769,4,2,1,65,0,0
93995,-19.2307692307692,4,2,1,65,0,0
94380,-76.9230769230769,4,2,1,75,0,0
96303,-100,4,2,1,75,0,0
96688,-133.333333333333,4,2,1,75,0,0
97072,-76.9230769230769,4,2,1,75,0,0
99765,-76.9230769230769,4,2,1,45,0,0
100534,-76.9230769230769,4,2,1,65,0,0
103995,-133.333333333333,4,2,1,65,0,0
104187,-133.333333333333,4,2,1,5,0,0
104380,-133.333333333333,4,2,1,65,0,0
105919,-83.3333333333333,4,2,1,65,0,0
106688,-83.3333333333333,4,2,1,75,0,0
112842,-83.3333333333333,4,2,1,45,0,0
114359,379.746835443038,4,2,1,85,1,0
114359,-83.3333333333333,4,2,1,85,0,1
120528,-83.3333333333333,4,2,1,5,0,1
120624,-83.3333333333333,4,2,1,85,0,1
120718,-83.3333333333333,4,2,1,5,0,1
120814,-83.3333333333333,4,2,1,85,0,1
122047,-83.3333333333333,4,2,1,5,0,1
122143,-83.3333333333333,4,2,1,85,0,1
122237,-83.3333333333333,4,2,1,5,0,1
122333,-83.3333333333333,4,2,1,85,0,1
124944,-83.3333333333333,4,2,1,85,0,0
124991,-83.3333333333333,4,2,1,85,0,1
132680,-83.3333333333333,4,2,1,5,0,1
132776,-83.3333333333333,4,2,1,85,0,1
132870,-83.3333333333333,4,2,1,5,0,1
132966,-83.3333333333333,4,2,1,85,0,1
138662,-83.3333333333333,4,2,1,55,0,0
150719,-83.3333333333333,4,2,1,5,0,0
150814,-83.3333333333333,4,2,1,55,0,0
151194,-83.3333333333333,4,2,1,45,0,0
153093,-83.3333333333333,4,2,1,65,0,0
153187,-83.3333333333333,4,2,1,5,0,0
153283,-83.3333333333333,4,2,1,65,0,0
153377,-83.3333333333333,4,2,1,5,0,0
153472,-83.3333333333333,4,2,1,65,0,0
154232,-83.3333333333333,4,2,1,45,0,0
156131,-83.3333333333333,4,2,1,65,0,0
157270,-83.3333333333333,4,2,1,45,0,0
159169,-83.3333333333333,4,2,1,65,0,0
159928,-83.3333333333333,4,2,1,45,0,0
162966,-83.3333333333333,4,2,1,85,0,0
163915,-500,4,2,1,85,0,0
165245,-83.3333333333333,4,2,1,85,0,0
167143,-500,4,2,1,85,0,0
168472,-100,4,2,1,85,0,0
168946,-100,4,2,1,5,0,0
169042,-100,4,2,1,85,0,0
169991,-500,4,2,1,85,0,0
171321,-83.3333333333333,4,2,1,85,0,0
172840,-500,4,2,1,85,0,0
174612,-142.857142857143,4,2,1,85,0,0
175592,-142.857142857143,4,2,1,5,0,0
175688,-142.857142857143,4,2,1,85,0,0
175782,-142.857142857143,4,2,1,5,0,0
175877,-142.857142857143,4,2,1,85,0,0
176731,-142.857142857143,4,2,1,5,0,0
176827,-142.857142857143,4,2,1,85,0,0
176921,-142.857142857143,4,2,1,5,0,0
177017,-142.857142857143,4,2,1,85,0,0
177111,-142.857142857143,4,2,1,5,0,0
177207,-142.857142857143,4,2,1,85,0,0
177301,-142.857142857143,4,2,1,5,0,0
177396,-142.857142857143,4,2,1,85,0,0
177870,-142.857142857143,4,2,1,5,0,0
177966,-142.857142857143,4,2,1,85,0,0
178060,-142.857142857143,4,2,1,5,0,0
178156,-142.857142857143,4,2,1,85,0,0
178630,-142.857142857143,4,2,1,5,0,0
178726,-142.857142857143,4,2,1,85,0,0
178820,-142.857142857143,4,2,1,5,0,0
178915,-142.857142857143,4,2,1,85,0,0
179009,-142.857142857143,4,2,1,5,0,0
179105,-142.857142857143,4,2,1,85,0,0
179199,-142.857142857143,4,2,1,5,0,0
179295,-142.857142857143,4,2,1,85,0,0
179675,-142.857142857143,4,2,1,55,0,0
181194,-76.9230769230769,4,2,1,75,0,1
182713,-83.3333333333333,4,2,1,75,0,1
185751,-833.333333333333,4,2,1,75,0,1
186510,-76.9230769230769,4,2,1,45,0,0
187270,-76.9230769230769,4,2,1,85,0,1
188883,-76.9230769230769,4,2,1,5,0,1
188979,-76.9230769230769,4,2,1,85,0,1
189073,-76.9230769230769,4,2,1,5,0,1
189169,-76.9230769230769,4,2,1,85,0,1
193298,-76.9230769230769,4,2,1,85,0,0
193346,-76.9230769230769,4,2,1,85,0,1
198756,-76.9230769230769,4,2,1,5,0,1
198852,-76.9230769230769,4,2,1,85,0,1
199042,-133.333333333333,4,2,1,85,0,1
199374,-76.9230769230769,4,2,1,85,0,0
199422,-76.9230769230769,4,2,1,85,0,1
199611,-76.9230769230769,4,2,1,5,0,1
199707,-76.9230769230769,4,2,1,85,0,1
199896,-76.9230769230769,4,2,1,5,0,1
199991,-38.4615384615385,4,2,1,85,0,1
200085,-38.4615384615385,4,2,1,5,0,1
200181,-76.9230769230769,4,2,1,85,0,0
200941,-76.9230769230769,4,2,1,85,0,1
201130,-76.9230769230769,4,2,1,5,0,1
201226,-76.9230769230769,4,2,1,85,0,1
201415,-76.9230769230769,4,2,1,5,0,1
201510,-38.4615384615385,4,2,1,85,0,1
201604,-38.4615384615385,4,2,1,5,0,1
201700,-76.9230769230769,4,2,1,85,0,0
202460,-76.9230769230769,4,2,1,85,0,1
206969,-76.9230769230769,4,2,1,85,0,0
207017,-76.9230769230769,4,2,1,85,0,1
208536,-333.333333333333,4,2,1,45,0,0
210074,384.615384615385,4,2,1,75,1,0
211612,-133.333333333333,4,2,1,75,0,0
212573,-133.333333333333,4,2,1,5,0,0
212766,-100,4,2,1,75,0,0
213438,-100,4,2,1,5,0,0
213535,-100,4,2,1,75,0,0
213920,-100,4,2,1,65,0,0
214016,-100,4,2,1,5,0,0
214112,-100,4,2,1,65,0,0
214208,-100,4,2,1,5,0,0
214304,-100,4,2,1,65,0,0
214400,-100,4,2,1,5,0,0
214497,-100,4,2,1,65,0,0
214593,-100,4,2,1,5,0,0
214689,-100,4,2,1,75,0,0
217189,-100,4,2,1,5,0,0
217285,-100,4,2,1,75,0,0
217477,-100,4,2,1,5,0,0
217574,-100,4,2,1,75,0,0
217766,-153.846153846154,4,2,1,75,0,0
218727,-153.846153846154,4,2,1,5,0,0
218920,-100,4,2,1,75,0,0
219352,-100,4,2,1,35,0,0
223920,-100,4,2,1,5,0,0

[Colours]
Combo1 : 143,143,143
Combo2 : 183,0,0
Combo3 : 60,60,60

[HitObjects]
402,66,184,6,0,P|455:85|479:119,3,90,10|10|10|10,0:3|0:3|0:3|0:3,0:0:0:0:
336,334,943,6,0,L|342:255,1,67.5000025749208,2|0,0:0|0:0,0:0:0:0:
398,210,1133,2,0,L|404:131,1,67.5000025749208,2|0,0:0|0:0,0:0:0:0:
345,345,1323,6,0,L|351:266,1,67.5000025749208,2|0,0:0|0:0,0:0:0:0:
407,221,1513,2,0,L|413:142,1,67.5000025749208,2|0,0:0|0:0,0:0:0:0:
260,92,1702,5,10,0:3:0:0:
237,88,1797,1,8,0:3:0:0:
214,84,1892,1,2,1:2:0:0:
191,80,1987,1,0,1:2:0:0:
154,97,2082,5,10,0:3:0:0:
169,119,2176,1,8,0:3:0:0:
180,148,2271,1,2,1:2:0:0:
182,179,2366,1,0,1:2:0:0:
172,206,2462,6,0,L|88:193,1,67.5000025749208,2|0,0:0|0:0,0:0:0:0:
296,282,2652,2,0,L|212:269,1,67.5000025749208,2|0,0:0|0:0,0:0:0:0:
189,196,2842,2,0,L|105:183,1,67.5000025749208,2|0,0:0|0:0,0:0:0:0:
313,272,3033,5,10,0:3:0:0:
279,266,3127,1,8,0:3:0:0:
246,261,3222,1,0,1:2:0:0:
395,332,3411,1,10,0:3:0:0:
412,295,3505,1,8,0:3:0:0:
409,254,3600,1,0,1:2:0:0:
331,97,3791,1,10,1:2:0:0:
327,134,3886,1,8,0:0:0:0:
344,169,3981,6,0,L|416:163,1,67.5000025749208,8|8,0:0|0:0,0:0:0:0:
445,85,4171,2,0,L|518:91,1,67.5000025749208,0|0,1:2|1:2,0:0:0:0:
384,37,4361,1,8,0:0:0:0:
382,29,4456,1,8,0:0:0:0:
380,21,4551,5,10,0:0:0:0:
334,12,4646,1,8,0:0:0:0:
288,23,4740,1,0,1:2:0:0:
256,59,4835,1,0,1:2:0:0:
214,80,4930,1,10,0:3:0:0:
166,86,5025,1,8,0:3:0:0:
121,69,5120,1,0,1:2:0:0:
119,61,5215,1,0,1:2:0:0:
15,275,6070,5,4,1:2:0:0:
53,259,6166,1,0,1:2:0:0:
88,259,6262,1,0,1:2:0:0:
119,275,6358,1,0,1:2:0:0:
150,291,6454,1,0,1:2:0:0:
185,291,6550,1,0,1:2:0:0:
217,275,6646,2,0,B|276:244|283:156|233:115|233:115|177:137|182:185,1,269.999991760254,0|0,1:2|0:0,0:0:0:0:
291,220,7223,5,0,1:2:0:0:
323,217,7320,1,0,1:2:0:0:
355,215,7416,1,0,1:2:0:0:
387,212,7512,1,0,1:2:0:0:
419,209,7608,2,0,L|486:205,1,53.9999983520508,4|0,1:2|1:2,0:0:0:0:
433,97,7800,2,0,B|365:46|305:103|305:103|282:92|282:92|248:136|166:114,1,269.999991760254,0|0,1:2|0:0,0:0:0:0:
35,21,8377,5,14,0:0:0:0:
36,42,8473,1,0,1:2:0:0:
40,63,8570,1,0,1:2:0:0:
44,84,8666,1,0,1:2:0:0:
46,105,8762,2,0,L|54:173,2,53.9999983520508,0|0|0,1:2|1:2|1:2,0:0:0:0:
1,275,9146,5,4,1:2:0:0:
29,259,9243,1,0,1:2:0:0:
61,254,9339,1,0,1:2:0:0:
92,260,9435,1,0,1:2:0:0:
121,274,9531,1,2,1:2:0:0:
152,280,9627,1,0,1:2:0:0:
184,275,9723,2,0,P|131:303|147:363,2,107.999996704102,0|14|0,1:2|0:0|0:0,0:0:0:0:
301,335,10300,5,0,1:2:0:0:
301,324,10396,1,0,1:2:0:0:
301,313,10493,1,0,1:2:0:0:
302,302,10589,1,0,1:2:0:0:
303,291,10685,5,14,0:0:0:0:
342,308,10781,1,8,0:0:0:0:
387,310,10877,1,0,1:2:0:0:
432,288,10973,1,0,1:2:0:0:
456,251,11070,1,10,0:3:0:0:
461,208,11166,1,8,0:3:0:0:
446,167,11262,1,0,1:2:0:0:
415,136,11358,1,0,1:2:0:0:
362,125,11454,6,0,L|343:234,1,67.5000025749208,10|0,0:0|0:0,0:0:0:0:
274,108,11646,2,0,L|255:217,1,67.5000025749208,2|0,0:0|0:0,0:0:0:0:
379,121,11839,2,0,L|360:230,1,67.5000025749208,2|0,0:0|0:0,0:0:0:0:
256,92,12031,2,0,L|237:201,1,67.5000025749208,2|0,0:0|0:0,0:0:0:0:
294,262,12223,5,4,1:2:0:0:
269,294,12320,1,0,1:2:0:0:
230,307,12416,1,0,1:2:0:0:
190,300,12512,1,0,1:2:0:0:
157,276,12608,1,0,1:2:0:0:
117,267,12704,1,0,1:2:0:0:
85,275,12800,2,0,B|50:300|34:337|34:337|-30:253|69:228|25:130,1,269.999991760254,0|0,1:2|0:0,0:0:0:0:
125,85,13377,5,0,1:2:0:0:
157,82,13473,1,0,1:2:0:0:
191,80,13570,1,0,1:2:0:0:
224,78,13666,1,0,1:2:0:0:
257,76,13762,2,0,L|329:73,1,53.9999983520508,4|0,1:2|1:2,0:0:0:0:
462,28,13954,2,0,P|375:31|409:177,1,269.999991760254,0|0,1:2|0:0,0:0:0:0:
499,301,14531,5,12,0:0:0:0:
472,303,14627,1,0,1:2:0:0:
447,313,14723,1,0,1:2:0:0:
431,335,14820,1,0,1:2:0:0:
410,317,14916,1,0,1:2:0:0:
385,306,15012,1,0,1:2:0:0:
375,274,15108,2,0,P|325:267|288:273,1,53.9999983520508,0|0,1:2|0:0,0:0:0:0:
210,362,15300,5,4,1:2:0:0:
215,335,15396,1,0,1:2:0:0:
208,308,15493,1,0,1:2:0:0:
195,283,15589,1,0,1:2:0:0:
176,264,15684,1,0,1:2:0:0:
169,237,15781,1,0,1:2:0:0:
165,210,15877,2,0,B|89:199|58:272|58:272|118:333|185:288|185:288,1,269.999991760254,0|0,1:2|0:0,0:0:0:0:
234,161,16454,5,0,1:2:0:0:
234,150,16550,1,0,1:2:0:0:
234,139,16646,1,0,1:2:0:0:
235,128,16743,1,0,1:2:0:0:
236,117,16839,5,12,0:0:0:0:
274,97,16935,1,8,0:0:0:0:
317,94,17031,1,0,1:2:0:0:
355,112,17127,5,0,1:2:0:0:
356,123,17223,1,8,0:3:0:0:
356,134,17319,1,8,0:3:0:0:
356,145,17415,5,0,1:2:0:0:
387,175,17512,1,0,1:2:0:0:
423,172,17608,2,0,P|436:167|452:166,3,26.9999991760254,8|10|10|10,0:0|0:0|0:0|0:0,0:0:0:0:
499,340,18358,5,6,1:2:0:0:
464,360,18451,1,0,1:2:0:0:
423,362,18545,1,8,1:2:0:0:
384,349,18639,1,2,1:2:0:0:
354,320,18733,2,0,P|332:295|303:289,2,45,0|0|10,1:2|1:2|1:2,0:0:0:0:
63,236,19295,5,10,0:0:0:0:
99,311,19483,1,2,1:2:0:0:
128,285,19576,1,0,1:2:0:0:
144,250,19670,1,10,1:2:0:0:
142,211,19764,1,0,1:2:0:0:
122,177,19858,1,2,1:2:0:0:
111,139,19951,1,0,1:2:0:0:
120,101,20045,2,0,P|126:74|123:43,5,45,10|2|2|2|10|2,1:2|0:0|0:0|0:0|0:0|0:0,0:0:0:0:
205,9,20608,5,0,1:2:0:0:
234,35,20701,1,0,1:2:0:0:
272,47,20795,1,10,1:2:0:0:
312,43,20889,1,0,1:2:0:0:
349,28,20983,1,2,1:2:0:0:
389,29,21076,1,0,1:2:0:0:
424,48,21170,1,10,1:2:0:0:
438,85,21264,1,0,1:2:0:0:
434,125,21358,5,2,1:2:0:0:
420,125,21451,1,0,1:2:0:0:
406,126,21545,1,8,1:2:0:0:
392,126,21639,1,2,1:2:0:0:
378,127,21733,2,0,L|319:129,2,45,0|0|10,1:2|1:2|1:2,0:0:0:0:
399,286,22295,5,10,0:0:0:0:
477,337,22483,1,2,1:2:0:0:
451,366,22576,1,0,1:2:0:0:
416,382,22670,1,10,1:2:0:0:
377,380,22764,1,0,1:2:0:0:
343,360,22858,1,2,1:2:0:0:
306,342,22951,1,0,1:2:0:0:
265,345,23045,2,0,P|237:357|213:376,5,45,10|2|2|2|2|2,1:2|0:0|0:0|0:0|0:0|0:0,0:0:0:0:
78,342,23608,5,8,0:0:0:0:
153,335,23795,1,8,0:0:0:0:
78,342,23983,5,8,0:0:0:0:
60,343,24076,1,8,0:0:0:0:
42,345,24170,1,10,0:0:0:0:
24,346,24264,1,8,0:0:0:0:
6,348,24358,5,6,1:2:0:0:
6,316,24451,1,0,1:2:0:0:
6,284,24545,1,10,1:2:0:0:
6,252,24639,1,0,1:2:0:0:
6,220,24733,6,0,L|10:149,1,45,2|0,1:2|1:2,0:0:0:0:
105,139,24920,2,0,L|102:183,1,45,10|0,1:2|0:0,0:0:0:0:
26,89,25108,6,0,L|32:-7,1,90,2|10,0:0|0:0,0:0:0:0:
236,4,25483,5,2,1:2:0:0:
209,20,25576,1,0,1:2:0:0:
195,48,25670,1,10,1:2:0:0:
190,79,25764,1,0,1:2:0:0:
195,110,25858,2,0,L|256:105,1,45,2|0,1:2|1:2,0:0:0:0:
342,26,26045,6,0,P|316:77|318:81,4,45,10|2|2|2|10,1:2|0:0|0:0|0:0|0:0,0:0:0:0:
446,46,26608,5,2,1:2:0:0:
452,71,26701,1,0,1:2:0:0:
458,97,26795,1,10,1:2:0:0:
464,123,26889,1,0,1:2:0:0:
470,149,26983,1,2,1:2:0:0:
464,175,27077,1,0,1:2:0:0:
458,201,27171,1,10,1:2:0:0:
452,227,27264,1,0,1:2:0:0:
446,253,27358,6,0,L|429:312,1,45,2|0,1:2|1:2,0:0:0:0:
333,275,27545,2,0,L|352:333,1,45,10|0,1:2|1:2,0:0:0:0:
253,358,27733,2,0,L|302:394,1,45,2|0,1:2|1:2,0:0:0:0:
209,291,27920,2,0,B|251:246|251:246|109:273,1,180,10|10,1:2|0:0,0:0:0:0:
2,381,28483,1,10,0:0:0:0:
46,372,28576,1,8,0:0:0:0:
90,364,28670,1,8,0:3:0:0:
134,356,28764,1,8,0:3:0:0:
256,192,28858,12,0,30264,0:0:0:0:
374,73,30358,5,14,0:0:0:0:
387,71,30451,1,0,1:2:0:0:
401,72,30545,1,8,0:0:0:0:
415,75,30639,1,0,1:2:0:0:
428,81,30733,1,8,0:0:0:0:
440,88,30826,1,0,1:2:0:0:
450,98,30920,1,8,0:0:0:0:
458,109,31014,1,0,1:2:0:0:
464,122,31108,1,8,0:0:0:0:
468,136,31201,1,0,1:2:0:0:
469,150,31295,1,8,0:0:0:0:
468,164,31389,1,0,1:2:0:0:
465,177,31483,1,8,0:0:0:0:
459,190,31576,1,0,1:2:0:0:
451,201,31670,1,8,0:0:0:0:
441,211,31764,1,0,1:2:0:0:
430,219,31858,5,8,0:0:0:0:
410,209,31951,1,0,1:2:0:0:
388,203,32045,1,8,0:0:0:0:
365,201,32139,1,0,1:2:0:0:
342,202,32233,1,8,0:0:0:0:
320,207,32326,1,0,1:2:0:0:
298,214,32420,1,8,0:0:0:0:
278,225,32514,1,0,1:2:0:0:
260,239,32608,6,0,L|264:299,3,45,8|0|0|0,0:0|1:2|0:0|0:0,0:0:0:0:
184,350,32983,2,0,L|181:305,3,45,8|0|0|0,0:0|1:2|0:0|0:0,0:0:0:0:
95,322,33358,5,12,0:0:0:0:
94,311,33451,1,0,1:2:0:0:
94,300,33545,1,8,0:0:0:0:
93,289,33639,1,0,1:2:0:0:
93,277,33733,1,8,0:0:0:0:
93,266,33826,1,0,1:2:0:0:
92,255,33920,1,8,0:0:0:0:
92,244,34014,1,0,1:2:0:0:
71,230,34108,5,8,0:0:0:0:
70,218,34201,1,0,1:2:0:0:
70,207,34295,1,8,0:0:0:0:
69,196,34389,1,0,1:2:0:0:
69,185,34483,1,8,0:0:0:0:
69,173,34576,1,0,1:2:0:0:
68,162,34670,1,8,0:0:0:0:
68,151,34764,1,0,1:2:0:0:
67,140,34858,6,0,B|9:115|9:115|64:99|64:99|54:123,5,143.999995605469,8|8|8|8|8|8,0:2|1:2|1:2|1:2|1:2|1:2,0:0:0:0:
144,81,35608,2,0,B|165:113|165:113|213:70|213:70|204:117|204:117|276:102,2,143.999995605469,8|8|8,1:2|1:2|1:2,0:0:0:0:
88,24,35983,5,8,1:3:0:0:
491,191,36358,5,4,1:2:0:0:
489,200,38608,1,12,0:0:0:0:
511,346,38795,2,0,P|499:317|447:280,1,67.5000025749208,0|0,1:2|0:0,0:0:0:0:
402,376,38983,2,0,L|353:380,5,45.0000017166138,4|0|0|0|0|0,1:2|1:2|1:2|1:2|1:2|1:2,0:0:0:0:
248,380,39358,6,0,L|243:294,1,67.5000025749208,4|0,1:2|1:2,0:0:0:0:
232,360,39545,2,0,L|227:274,1,67.5000025749208,0|0,1:2|1:2,0:0:0:0:
216,340,39733,2,0,L|211:254,4,67.5000025749208,4|0|0|0|12,1:2|1:2|1:2|1:2|0:0,0:0:0:0:
0,86,40858,5,8,0:0:0:0:
34,64,40951,1,8,0:0:0:0:
74,57,41045,1,8,0:0:0:0:
114,59,41139,1,8,0:0:0:0:
153,67,41233,5,0,1:2:0:0:
150,80,41326,1,0,1:2:0:0:
147,93,41420,1,0,1:2:0:0:
143,106,41514,1,0,1:2:0:0:
140,118,41608,5,8,0:0:0:0:
179,127,41702,1,8,0:0:0:0:
219,129,41796,1,8,0:0:0:0:
259,122,41890,1,8,0:0:0:0:
294,100,41983,6,0,P|314:95|346:93,5,45.0000017166138,8|8|8|0|0|0,0:3|0:3|0:3|1:2|1:0|1:0,0:0:0:0:
441,150,42358,2,0,P|426:119|430:88,1,67.5000025749208,4|0,1:2|0:0,0:0:0:0:
471,363,43108,5,12,0:0:0:0:
227,365,43483,2,0,P|280:337|344:355,1,67.5000025749208,4|0,1:2|0:0,0:0:0:0:
108,16,44608,1,12,0:0:0:0:
12,159,44795,2,0,P|43:133|87:124,1,67.5000025749208,0|0,1:2|0:0,0:0:0:0:
166,283,44983,5,4,1:2:0:0:
147,280,45108,5,0,1:2:0:0:
129,278,45233,5,0,1:2:0:0:
111,275,45358,6,0,L|27:264,1,67.5000025749208,4|0,1:2|1:2,0:0:0:0:
25,340,45545,2,0,L|92:348,1,67.5000025749208,0|0,1:2|1:2,0:0:0:0:
113,265,45733,2,0,L|45:256,1,67.5000025749208,4|0,1:2|1:2,0:0:0:0:
23,350,45920,5,0,1:2:0:0:
56,354,46013,1,0,1:2:0:0:
90,358,46107,1,12,0:0:0:0:
312,375,46717,6,0,L|306:331,2,33.7500012874604,0|0|0,1:2|1:2|1:2,0:0:0:0:
303,328,46858,2,0,P|303:281|311:263,1,58.4999973220826,12|0,0:0|0:0,0:0:0:0:
402,271,47045,2,0,P|400:242|387:216,1,58.4999973220826,4|0,1:2|0:0,0:0:0:0:
214,247,47233,2,0,P|231:224|256:209,1,58.4999973220826,4|0,1:2|0:0,0:0:0:0:
480,182,47420,2,0,P|441:155|421:152,1,58.4999973220826,4|0,1:2|0:0,0:0:0:0:
330,150,47608,1,12,0:0:0:0:
111,115,47795,6,0,L|101:207,1,58.4999973220826,0|0,1:2|0:0,0:0:0:0:
104,173,47983,2,0,L|94:265,1,58.4999973220826,0|0,1:2|0:0,0:0:0:0:
97,231,48170,2,0,L|87:323,1,58.4999973220826,0|0,1:2|0:0,0:0:0:0:
0,359,48358,6,0,B|75:362|72:286|153:324|153:324|178:305|178:305|217:362|288:342,1,323.999990112305,0|2,0:0|0:0,0:0:0:0:
256,192,53161,12,0,54534,0:0:0:0:
39,186,54632,6,0,B|81:192|81:192|106:166|106:166|161:174,1,135,8|0,1:3|0:0,0:0:0:0:
6,180,55011,2,0,B|72:170|72:170|103:201|103:201|171:192,1,180,10|2,1:3|0:0,0:0:0:0:
431,45,56150,6,0,B|412:79|431:112|431:112|444:147|430:175,1,135,8|0,1:3|0:0,0:0:0:0:
429,30,56530,2,0,B|454:75|429:119|429:119|411:166|429:204,1,180,10|2,1:3|0:0,0:0:0:0:
375,357,57669,6,0,L|230:344,1,135,8|0,1:3|0:0,0:0:0:0:
397,344,58049,2,0,L|204:361,1,180,10|2,1:3|0:0,0:0:0:0:
256,192,59188,12,0,60613,0:0:0:0:
356,116,60707,5,4,1:2:0:0:
170,94,60897,1,8,0:0:0:0:
373,201,61087,2,0,P|430:164|436:151,2,53.9999983520508,2|0|8,1:2|1:0|0:0,0:0:0:0:
246,268,61467,2,0,P|262:209|296:173,1,107.999996704102,2|8,1:2|0:0,0:0:0:0:
362,336,61847,1,2,1:2:0:0:
362,336,61942,1,0,1:0:0:0:
362,336,62037,1,8,0:0:0:0:
211,337,62226,6,0,B|125:310|135:380|45:349,1,161.999995056153,4|0,1:2|0:0,0:0:0:0:
13,290,62606,1,2,1:2:0:0:
11,281,62701,1,0,1:0:0:0:
9,272,62796,1,8,0:0:0:0:
110,127,62986,5,2,1:2:0:0:
108,136,63081,1,0,1:2:0:0:
106,145,63176,1,8,1:2:0:0:
118,168,63270,1,0,1:2:0:0:
138,186,63365,1,2,1:2:0:0:
163,196,63460,1,0,1:2:0:0:
190,196,63556,2,0,P|249:181|280:181,1,53.9999983520508,8|0,1:2|1:2,0:0:0:0:
301,247,63745,5,0,1:2:0:0:
330,57,63935,1,8,0:0:0:0:
476,152,64125,2,0,L|413:144,2,53.9999983520508,2|0|10,1:2|1:2|0:0,0:0:0:0:
346,321,64505,2,0,P|382:277|379:210,1,107.999996704102,2|10,1:2|0:0,0:0:0:0:
200,380,64885,1,2,1:2:0:0:
200,380,64980,1,0,1:2:0:0:
200,380,65075,1,10,0:0:0:0:
78,372,65264,5,0,1:2:0:0:
73,345,65358,1,0,1:2:0:0:
79,319,65453,1,8,1:2:0:0:
95,296,65548,1,0,1:2:0:0:
117,280,65643,5,2,1:2:0:0:
91,272,65739,1,0,1:2:0:0:
69,255,65834,1,10,1:2:0:0:
55,232,65929,1,0,1:2:0:0:
51,206,66023,5,0,1:2:0:0:
55,232,66118,1,0,1:2:0:0:
49,258,66213,1,10,1:2:0:0:
34,281,66308,1,0,1:2:0:0:
12,297,66403,5,0,1:2:0:0:
38,305,66499,1,0,1:2:0:0:
59,322,66594,1,8,1:2:0:0:
73,345,66689,1,0,1:2:0:0:
78,372,66783,5,4,1:2:0:0:
51,206,66973,1,8,0:0:0:0:
182,281,67163,2,0,L|120:278,2,53.9999983520508,2|0|8,1:2|1:2|0:0,0:0:0:0:
95,83,67543,2,0,P|141:146|136:200,1,107.999996704102,2|8,1:2|0:0,0:0:0:0:
19,8,67923,1,2,1:2:0:0:
19,8,68018,1,0,1:2:0:0:
19,8,68113,1,8,0:2:0:0:
266,4,68302,6,0,L|184:-3,1,53.9999983520508,0|0,1:2|0:0,0:0:0:0:
200,78,68492,2,0,L|253:82,1,53.9999983520508,8|0,0:2|0:0,0:0:0:0:
342,54,68682,1,2,1:2:0:0:
368,56,68776,1,0,1:2:0:0:
395,58,68871,1,8,0:2:0:0:
511,111,69062,5,2,1:2:0:0:
492,130,69157,1,0,1:2:0:0:
480,154,69252,1,8,1:2:0:0:
474,180,69347,1,0,1:2:0:0:
475,206,69442,5,2,1:2:0:0:
494,225,69537,1,0,1:2:0:0:
506,249,69632,1,8,1:2:0:0:
512,275,69727,1,0,1:2:0:0:
511,301,69821,6,0,L|438:295,1,53.9999983520508,4|0,1:2|0:0,0:0:0:0:
432,308,70011,2,0,L|359:302,1,53.9999983520508,8|0,0:0|0:0,0:0:0:0:
266,350,70201,1,0,1:2:0:0:
267,323,70296,1,0,1:0:0:0:
268,296,70391,1,10,0:0:0:0:
350,384,70581,1,2,1:2:0:0:
115,363,70771,1,10,0:0:0:0:
182,283,70961,2,0,L|177:229,2,53.9999983520508,0|0|10,1:2|1:0|0:0,0:0:0:0:
26,93,71340,5,4,1:2:0:0:
36,134,71435,1,0,1:2:0:0:
74,154,71530,1,8,1:2:0:0:
117,151,71625,1,0,1:2:0:0:
150,123,71720,5,2,1:2:0:0:
183,151,71815,1,0,1:2:0:0:
226,154,71910,1,10,1:2:0:0:
264,134,72005,1,0,1:2:0:0:
274,93,72100,5,0,1:2:0:0:
264,52,72194,1,0,1:2:0:0:
226,32,72289,1,10,1:2:0:0:
183,35,72384,1,0,1:2:0:0:
150,63,72479,5,0,1:2:0:0:
117,35,72574,1,0,1:2:0:0:
74,32,72669,1,8,1:2:0:0:
36,52,72764,1,0,1:2:0:0:
26,93,72859,6,0,P|63:148|63:179,3,53.9999983520508,4|8|8|8,1:2|0:0|0:0|0:0,0:0:0:0:
153,149,73239,2,0,P|145:214|126:238,3,53.9999983520508,6|8|8|8,1:2|0:0|0:0|0:0,0:0:0:0:
214,273,73619,2,0,P|166:318|135:324,3,53.9999983520508,6|8|8|8,1:2|0:0|0:0|0:0,0:0:0:0:
131,384,73999,5,4,1:2:0:0:
88,379,74093,1,8,0:0:0:0:
44,374,74188,1,8,1:2:0:0:
0,369,74283,1,0,0:0:0:0:
256,192,75138,12,0,75802,0:0:0:0:
4,85,75919,5,4,1:2:0:0:
42,101,76015,1,0,1:2:0:0:
77,101,76111,1,0,1:2:0:0:
108,85,76207,1,0,1:2:0:0:
139,69,76303,1,0,1:2:0:0:
174,69,76399,1,0,1:2:0:0:
206,85,76495,2,0,B|265:116|272:204|222:245|222:245|166:223|171:175,1,269.999991760254,0|0,1:2|0:0,0:0:0:0:
287,167,77072,5,0,1:2:0:0:
326,186,77169,1,0,1:2:0:0:
369,188,77265,1,0,1:2:0:0:
411,183,77361,1,0,1:2:0:0:
447,160,77457,2,0,L|443:96,1,53.9999983520508,4|0,1:2|1:2,0:0:0:0:
500,297,77649,2,0,P|375:269|196:265,1,269.999991760254,0|0,1:2|0:0,0:0:0:0:
128,384,78226,5,14,0:0:0:0:
125,353,78322,1,0,1:2:0:0:
122,322,78419,1,0,1:2:0:0:
119,292,78515,1,0,1:2:0:0:
116,261,78611,2,0,L|111:191,2,53.9999983520508,0|0|0,1:2|1:2|1:2,0:0:0:0:
14,107,78995,5,4,1:2:0:0:
48,80,79092,1,0,1:2:0:0:
91,78,79188,1,0,1:2:0:0:
129,96,79284,1,0,1:2:0:0:
162,123,79380,1,2,1:2:0:0:
204,127,79476,1,0,1:2:0:0:
243,109,79572,2,0,P|282:43|330:39,2,107.999996704102,0|14|0,1:2|0:0|0:0,0:0:0:0:
406,182,80149,5,0,1:2:0:0:
407,170,80245,1,0,1:2:0:0:
408,159,80342,1,0,1:2:0:0:
409,147,80438,1,0,1:2:0:0:
410,136,80535,5,14,0:0:0:0:
416,178,80630,1,8,0:0:0:0:
422,220,80726,1,0,1:2:0:0:
428,262,80822,1,0,1:2:0:0:
434,304,80919,6,0,L|444:383,1,53.9999983520508,10|8,0:3|0:3,0:0:0:0:
332,264,81111,2,0,L|325:317,1,53.9999983520508,0|0,1:2|1:2,0:0:0:0:
218,349,81303,1,10,0:0:0:0:
294,122,82072,5,4,1:2:0:0:
269,90,82169,1,0,1:2:0:0:
230,77,82265,1,0,1:2:0:0:
190,84,82361,1,0,1:2:0:0:
157,108,82457,1,0,1:2:0:0:
117,117,82553,1,0,1:2:0:0:
85,109,82649,2,0,B|33:74|33:74|33:166|33:166|42:180|42:180|44:283,1,269.999991760254,0|0,1:2|0:0,0:0:0:0:
114,379,83226,5,0,1:2:0:0:
145,376,83322,1,0,1:2:0:0:
178,374,83419,1,0,1:2:0:0:
210,373,83515,1,0,1:2:0:0:
242,372,83611,2,0,L|314:367,1,53.9999983520508,4|0,1:2|1:2,0:0:0:0:
418,384,83803,2,0,P|367:334|480:219,1,269.999991760254,0|0,1:2|0:0,0:0:0:0:
478,87,84380,5,12,0:0:0:0:
430,55,84508,5,0,1:2:0:0:
372,57,84636,5,0,1:2:0:0:
326,92,84765,6,0,L|236:90,2,71.9999978027344,0|0|0,1:2|1:2|1:2,0:0:0:0:
149,25,85149,5,4,1:2:0:0:
111,21,85245,1,0,1:2:0:0:
72,19,85342,1,0,1:2:0:0:
34,18,85438,5,0,1:2:0:0:
35,39,85534,1,0,1:2:0:0:
36,60,85630,1,0,1:2:0:0:
39,82,85726,2,0,B|46:152|46:152|102:118|171:144|125:170|199:190|258:171,1,269.999991760254,0|0,1:2|0:0,0:0:0:0:
342,207,86303,5,0,1:2:0:0:
343,196,86399,1,0,1:2:0:0:
344,185,86495,1,0,1:2:0:0:
345,174,86592,1,0,1:2:0:0:
346,163,86688,5,12,0:0:0:0:
379,179,86784,1,8,0:0:0:0:
399,210,86880,1,0,1:2:0:0:
407,246,86976,1,0,1:2:0:0:
398,282,87072,5,8,0:3:0:0:
359,261,87169,1,8,0:3:0:0:
315,259,87265,1,0,1:2:0:0:
278,282,87361,1,0,1:2:0:0:
255,318,87457,1,8,1:3:0:0:
226,15,88226,6,0,P|218:64|219:15,1,135.000005149842,6|0,1:2|0:0,0:0:0:0:
215,10,88419,1,8,0:0:0:0:
136,25,88803,1,10,0:0:0:0:
62,38,89188,5,10,0:0:0:0:
62,64,89284,1,0,1:2:0:0:
62,90,89380,1,2,1:2:0:0:
62,116,89476,1,0,1:2:0:0:
62,142,89572,6,0,P|39:185|42:136,1,135.000005149842,10|0,0:0|0:0,0:0:0:0:
97,260,89861,5,0,1:2:0:0:
97,260,89957,1,8,0:0:0:0:
62,345,90245,1,0,1:2:0:0:
62,345,90342,1,10,0:0:0:0:
89,346,90438,1,0,1:2:0:0:
115,347,90534,1,0,1:2:0:0:
141,349,90630,1,0,1:2:0:0:
167,351,90726,2,0,B|184:336|184:336|236:340,1,58.4999973220826,10|0,0:0|1:2,0:0:0:0:
301,311,90919,5,2,1:2:0:0:
327,313,91015,1,0,1:2:0:0:
353,315,91111,2,0,B|370:300|370:300|422:304,1,58.4999973220826,10|0,0:0|1:2,0:0:0:0:
477,247,91303,5,2,1:2:0:0:
471,211,91399,1,0,1:2:0:0:
472,176,91495,1,8,0:0:0:0:
484,142,91592,1,2,1:2:0:0:
504,113,91688,1,0,1:2:0:0:
507,77,91784,1,0,1:2:0:0:
495,44,91880,1,10,0:0:0:0:
469,21,91976,1,0,1:2:0:0:
433,15,92072,1,0,1:2:0:0:
400,27,92169,1,0,1:2:0:0:
377,52,92265,6,0,P|386:104|398:133,1,58.4999973220826,10|0,0:0|1:2,0:0:0:0:
310,158,92457,2,0,P|353:188|382:200,1,58.4999973220826,2|0,1:2|1:2,0:0:0:0:
337,280,92649,2,0,P|389:271|417:259,1,58.4999973220826,10|0,0:0|1:2,0:0:0:0:
63,337,93995,6,0,L|58:257,1,58.4999973220826,8|0,0:0|0:0,0:0:0:0:
431,231,94380,5,10,0:0:0:0:
429,283,94476,1,0,1:2:0:0:
427,335,94572,1,0,1:2:0:0:
294,141,94765,5,10,0:0:0:0:
311,144,94861,1,0,1:2:0:0:
328,147,94957,1,10,0:0:0:0:
345,150,95053,1,0,1:2:0:0:
361,154,95149,5,10,0:0:0:0:
359,206,95245,1,0,1:2:0:0:
357,258,95341,1,10,0:0:0:0:
229,76,95534,5,10,0:0:0:0:
246,79,95630,1,0,1:2:0:0:
263,82,95726,1,10,0:0:0:0:
280,85,95822,1,0,1:2:0:0:
296,89,95919,5,10,0:0:0:0:
294,141,96014,1,0,1:2:0:0:
292,193,96111,2,0,L|288:271,1,58.4999973220826,10|0,0:0|1:2,0:0:0:0:
380,174,96303,5,10,0:0:0:0:
378,212,96398,1,0,1:2:0:0:
377,251,96495,2,0,L|374:309,1,45,10|0,0:0|1:2,0:0:0:0:
464,255,96688,5,10,0:0:0:0:
463,277,96783,1,0,1:2:0:0:
462,298,96880,2,0,L|458:358,1,33.7500012874604,10|0,0:0|1:0,0:0:0:0:
382,377,97072,6,0,L|329:381,5,38.9999982147218,10|8|8|10|8|8,0:3|1:3|1:3|1:3|1:3|1:3,0:0:0:0:
219,351,97457,5,10,1:2:0:0:
184,347,97553,1,0,1:2:0:0:
149,344,97649,1,10,1:2:0:0:
114,340,97745,1,0,1:2:0:0:
78,336,97842,2,0,L|7:327,3,58.4999973220826,10|0|10|0,1:2|1:2|1:2|1:2,0:0:0:0:
102,226,98226,5,10,1:2:0:0:
119,195,98322,1,0,1:2:0:0:
128,160,98419,1,10,1:2:0:0:
129,124,98515,1,0,1:2:0:0:
123,89,98611,2,0,P|106:58|103:29,3,58.4999973220826,10|0|10|0,1:2|1:2|1:2|1:2,0:0:0:0:
229,32,98995,22,0,L|236:71,1,29.2499986610413,2|0,1:2|1:2,0:0:0:0:
248,24,99092,2,0,L|251:63,1,29.2499986610413,0|0,1:2|1:2,0:0:0:0:
267,22,99188,2,0,L|267:61,1,29.2499986610413,2|0,1:2|1:2,0:0:0:0:
286,22,99284,2,0,L|282:61,1,29.2499986610413,0|0,1:2|1:2,0:0:0:0:
305,25,99380,2,0,L|298:64,1,29.2499986610413,2|0,1:2|1:2,0:0:0:0:
323,32,99476,2,0,L|312:70,1,29.2499986610413,0|0,1:2|1:2,0:0:0:0:
342,39,99572,2,0,L|328:76,1,29.2499986610413,2|0,1:2|1:2,0:0:0:0:
361,49,99669,2,0,L|344:84,1,29.2499986610413,0|0,1:2|1:2,0:0:0:0:
376,69,99765,1,10,1:3:0:0:
400,323,100534,5,4,1:2:0:0:
402,271,100630,1,0,1:2:0:0:
404,219,100726,1,0,1:2:0:0:
256,192,100919,1,2,0:0:0:0:
175,369,101303,5,4,1:2:0:0:
225,355,101399,1,0,1:2:0:0:
276,341,101495,1,0,1:2:0:0:
256,192,101688,1,2,0:0:0:0:
62,170,102072,5,4,1:2:0:0:
91,213,102168,1,0,1:2:0:0:
120,257,102264,1,0,1:2:0:0:
256,192,102457,1,2,0:0:0:0:
216,1,102842,5,12,1:3:0:0:
184,42,102938,1,8,1:3:0:0:
152,83,103034,1,8,1:3:0:0:
256,192,103226,1,2,0:0:0:0:
425,95,103611,5,4,1:2:0:0:
376,77,103707,1,0,1:2:0:0:
327,59,103803,1,0,1:2:0:0:
256,192,103995,2,0,B|247:212|247:212|263:237|263:237|257:269,1,67.5000025749208,2|0,0:0|0:0,0:0:0:0:
175,369,104380,5,8,0:0:0:0:
276,341,104572,1,0,1:2:0:0:
256,192,104765,2,0,B|258:176|258:176|242:151|242:151|251:131,1,67.5000025749208,2|2,0:0|0:0,0:0:0:0:
377,313,105149,5,0,1:2:0:0:
379,296,105245,1,0,1:2:0:0:
381,279,105342,1,2,1:2:0:0:
383,262,105438,1,0,1:2:0:0:
410,243,105534,5,0,1:2:0:0:
412,226,105630,1,0,1:2:0:0:
414,209,105727,1,2,1:2:0:0:
416,192,105823,1,0,1:2:0:0:
443,170,105919,6,0,L|447:94,2,71.9999978027344,8|8|2,0:0|0:3|1:2,0:0:0:0:
512,260,106303,1,8,0:0:0:0:
291,41,106688,5,4,1:2:0:0:
264,38,106784,1,0,1:2:0:0:
237,36,106880,1,0,1:2:0:0:
29,115,107457,5,12,1:2:0:0:
56,112,107553,1,0,1:2:0:0:
83,110,107649,1,0,1:2:0:0:
297,129,108226,5,4,1:2:0:0:
270,126,108322,1,0,1:2:0:0:
243,124,108419,2,0,B|211:185|239:238|239:238|221:270|221:270|254:323|232:379,1,269.999991760254,0|2,1:2|0:0,0:0:0:0:
158,335,108995,5,12,1:2:0:0:
131,332,109091,1,0,1:2:0:0:
104,330,109187,1,0,1:2:0:0:
316,269,109765,5,4,1:2:0:0:
343,266,109861,1,0,1:2:0:0:
370,264,109957,1,0,1:2:0:0:
149,233,110534,5,12,1:2:0:0:
122,230,110630,1,0,1:2:0:0:
95,228,110726,1,0,1:2:0:0:
247,106,110919,5,8,0:0:0:0:
234,198,111111,1,8,0:0:0:0:
221,290,111303,2,0,B|252:285|252:285|298:315,1,53.9999983520508,12|2,1:2|1:2,0:0:0:0:
309,373,111495,1,0,1:2:0:0:
309,373,111592,1,8,0:0:0:0:
402,340,111784,5,0,1:2:0:0:
402,340,111880,1,8,0:0:0:0:
419,306,111976,1,8,0:0:0:0:
423,268,112072,1,8,0:0:0:0:
412,231,112169,1,0,1:2:0:0:
390,199,112265,1,0,1:2:0:0:
384,161,112361,1,0,1:2:0:0:
393,124,112457,1,8,0:0:0:0:
410,108,112553,1,8,0:3:0:0:
427,106,112649,1,8,1:3:0:0:
434,113,112745,1,8,1:3:0:0:
249,100,114359,5,2,1:2:0:0:
228,275,114548,1,8,0:2:0:0:
127,133,114738,2,0,L|181:139,2,53.9999983520508,2|0|10,0:0|1:2|0:2,0:0:0:0:
317,58,115118,5,0,1:2:0:0:
354,52,115213,1,0,1:2:0:0:
391,56,115308,1,10,1:2:0:0:
424,74,115403,1,0,1:2:0:0:
448,102,115498,1,0,1:2:0:0:
459,138,115593,1,0,1:2:0:0:
454,175,115688,2,0,P|443:217|441:240,1,53.9999983520508,10|0,1:2|1:2,0:0:0:0:
498,301,115877,5,4,1:2:0:0:
346,245,116067,1,10,0:0:0:0:
413,382,116257,2,0,L|417:319,2,53.9999983520508,2|0|8,1:2|1:0|0:0,0:0:0:0:
223,373,116637,2,0,P|292:340|357:331,1,107.999996704102,2|8,1:2|0:0,0:0:0:0:
144,336,117017,1,2,1:2:0:0:
144,336,117112,1,0,1:0:0:0:
144,336,117207,1,8,0:0:0:0:
35,272,117396,5,6,1:2:0:0:
33,245,117491,1,0,1:2:0:0:
32,218,117586,1,8,1:2:0:0:
31,191,117681,1,0,1:2:0:0:
57,163,117776,5,2,1:2:0:0:
84,163,117871,1,0,1:2:0:0:
111,165,117966,1,8,1:2:0:0:
138,166,118061,1,0,1:2:0:0:
167,141,118156,5,2,1:2:0:0:
165,113,118251,1,0,1:2:0:0:
164,86,118346,1,8,1:2:0:0:
163,59,118441,1,0,1:2:0:0:
136,32,118536,5,2,1:2:0:0:
109,31,118631,1,0,1:2:0:0:
82,29,118726,1,10,1:2:0:0:
55,29,118821,1,0,1:2:0:0:
22,47,118915,5,4,1:2:0:0:
230,16,119105,1,8,0:0:0:0:
91,156,119295,2,0,L|89:88,2,53.9999983520508,2|0|8,1:2|1:0|0:0,0:0:0:0:
184,271,119675,2,0,P|192:195|167:135,1,107.999996704102,2|8,1:2|0:0,0:0:0:0:
39,335,120055,1,2,1:2:0:0:
39,335,120150,1,0,1:0:0:0:
39,335,120245,1,8,0:0:0:0:
184,271,120434,6,0,L|237:267,1,53.9999983520508,4|0,1:2|0:0,0:0:0:0:
250,345,120624,2,0,L|196:349,1,53.9999983520508,8|0,0:0|0:0,0:0:0:0:
326,295,120814,1,2,1:2:0:0:
352,293,120908,1,0,1:0:0:0:
379,291,121003,1,8,0:0:0:0:
495,248,121194,5,2,1:2:0:0:
476,229,121289,1,0,1:2:0:0:
464,205,121384,1,8,1:2:0:0:
458,179,121479,1,0,1:2:0:0:
459,153,121574,5,2,1:2:0:0:
478,134,121669,1,0,1:2:0:0:
490,110,121764,1,8,1:2:0:0:
496,84,121859,1,0,1:2:0:0:
495,58,121953,6,0,L|422:64,1,53.9999983520508,0|0,1:2|0:0,0:0:0:0:
416,51,122143,2,0,L|343:57,1,53.9999983520508,8|0,0:0|0:0,0:0:0:0:
265,44,122333,1,0,1:0:0:0:
263,22,122428,1,0,1:2:0:0:
261,0,122523,1,10,0:0:0:0:
143,69,122713,5,2,1:2:0:0:
338,107,122903,1,10,0:0:0:0:
212,173,123093,2,0,L|216:104,2,53.9999983520508,0|0|10,1:2|1:2|0:0,0:0:0:0:
277,317,123472,5,0,1:2:0:0:
239,313,123567,1,0,1:2:0:0:
201,309,123662,1,8,1:2:0:0:
163,305,123757,1,0,1:2:0:0:
165,266,123852,5,0,1:2:0:0:
203,270,123947,1,0,1:2:0:0:
241,274,124042,1,8,1:2:0:0:
279,278,124137,1,0,1:2:0:0:
277,317,124232,5,0,1:2:0:0:
239,313,124327,1,0,1:2:0:0:
201,309,124422,1,8,1:2:0:0:
163,305,124517,1,0,1:2:0:0:
165,266,124612,5,0,1:2:0:0:
203,270,124707,1,0,1:2:0:0:
241,274,124802,1,8,1:2:0:0:
279,278,124897,1,0,1:2:0:0:
277,317,124991,5,4,1:2:0:0:
327,144,125181,1,8,0:0:0:0:
411,277,125371,2,0,L|349:267,2,53.9999983520508,2|0|8,1:2|1:0|0:0,0:0:0:0:
320,62,125751,6,0,P|257:96|245:133,1,107.999996704102,2|8,1:2|0:0,0:0:0:0:
404,20,126131,1,2,1:2:0:0:
404,20,126226,1,0,1:0:0:0:
404,20,126321,1,8,0:0:0:0:
320,62,126510,5,4,1:2:0:0:
133,24,126700,1,8,0:0:0:0:
243,181,126890,2,0,L|246:104,2,53.9999983520508,2|0|8,1:2|1:0|0:0,0:0:0:0:
80,193,127270,5,2,1:2:0:0:
73,230,127365,1,0,1:2:0:0:
44,254,127460,1,8,1:2:0:0:
23,285,127554,1,0,1:2:0:0:
15,321,127649,1,2,1:2:0:0:
24,357,127744,1,0,1:2:0:0:
55,377,127840,1,8,1:2:0:0:
92,374,127934,1,0,1:2:0:0:
121,350,128029,5,0,1:2:0:0:
80,193,128219,1,8,0:0:0:0:
226,286,128409,2,0,L|138:272,2,53.9999983520508,2|0|10,1:2|1:2|0:0,0:0:0:0:
83,103,128789,2,0,P|144:132|164:209,1,107.999996704102,2|10,1:2|0:0,0:0:0:0:
255,74,129169,1,2,1:2:0:0:
255,74,129264,1,0,1:2:0:0:
255,74,129359,1,10,0:0:0:0:
396,21,129548,5,0,1:2:0:0:
413,41,129642,1,0,1:2:0:0:
425,65,129737,1,8,1:2:0:0:
431,91,129832,1,0,1:2:0:0:
431,118,129927,5,2,1:2:0:0:
413,138,130023,1,0,1:2:0:0:
401,162,130118,1,10,1:2:0:0:
395,188,130213,1,0,1:2:0:0:
392,216,130308,2,0,P|444:212|461:219,3,53.9999983520508,0|0|10|0,1:2|1:2|1:2|1:2,0:0:0:0:
403,298,130688,6,0,L|331:288,1,53.9999983520508,0|0,1:2|1:2,0:0:0:0:
279,321,130877,2,0,L|207:311,1,53.9999983520508,8|0,1:2|1:2,0:0:0:0:
147,364,131067,5,4,1:2:0:0:
170,182,131257,1,8,0:0:0:0:
50,295,131447,2,0,L|120:286,2,53.9999983520508,2|0|8,1:2|1:2|0:0,0:0:0:0:
113,106,131827,2,0,P|76:175|81:212,1,107.999996704102,2|8,1:2|0:0,0:0:0:0:
176,43,132207,1,2,1:2:0:0:
176,43,132302,1,0,1:2:0:0:
176,43,132397,1,8,0:2:0:0:
341,106,132586,6,0,L|352:37,1,53.9999983520508,0|0,1:2|0:0,0:0:0:0:
268,37,132776,2,0,L|259:90,1,53.9999983520508,8|0,0:2|0:0,0:0:0:0:
399,170,132966,1,2,1:2:0:0:
401,197,133061,1,0,1:2:0:0:
403,223,133155,1,8,0:2:0:0:
472,340,133346,5,2,1:2:0:0:
434,337,133441,1,0,1:2:0:0:
396,334,133536,1,8,1:2:0:0:
358,331,133631,1,0,1:2:0:0:
320,328,133726,1,2,1:2:0:0:
282,326,133821,1,0,1:2:0:0:
244,324,133915,2,0,L|171:320,1,53.9999983520508,8|0,1:2|1:2,0:0:0:0:
125,369,134105,5,4,1:2:0:0:
154,196,134295,1,8,0:0:0:0:
24,305,134485,2,0,L|85:298,2,53.9999983520508,0|0|10,1:2|1:0|0:0,0:0:0:0:
179,119,134865,2,0,P|99:138|81:165,1,107.999996704102,2|10,1:2|0:0,0:0:0:0:
241,187,135245,1,0,1:2:0:0:
241,187,135340,1,0,1:0:0:0:
241,187,135434,1,10,0:0:0:0:
333,260,135624,5,4,1:2:0:0:
357,236,135719,1,0,1:2:0:0:
371,198,135814,1,8,1:2:0:0:
357,162,135909,1,0,1:2:0:0:
371,161,136004,5,2,1:2:0:0:
385,197,136099,1,0,1:2:0:0:
371,235,136194,1,10,1:2:0:0:
347,259,136289,1,0,1:2:0:0:
361,258,136384,5,0,1:2:0:0:
385,234,136479,1,0,1:2:0:0:
399,196,136574,1,10,1:2:0:0:
385,160,136669,1,0,1:2:0:0:
399,159,136764,5,0,1:2:0:0:
413,195,136859,1,0,1:2:0:0:
399,233,136954,1,8,1:2:0:0:
375,257,137049,1,0,1:2:0:0:
366,293,137143,6,0,L|379:358,3,53.9999983520508,4|8|8|8,1:2|0:0|0:0|0:0,0:0:0:0:
246,328,137523,2,0,L|209:383,3,53.9999983520508,6|8|8|8,1:2|0:0|0:0|0:0,0:0:0:0:
136,267,137903,2,0,L|70:280,3,53.9999983520508,6|8|8|8,1:2|0:0|0:0|0:0,0:0:0:0:
255,164,138283,5,4,1:2:0:0:
256,123,138377,1,8,0:0:0:0:
258,83,138472,1,8,1:2:0:0:
260,42,138567,1,0,1:2:0:0:
262,3,138662,5,10,1:2:0:0:
249,244,138852,1,10,1:2:0:0:
63,265,141131,5,8,1:2:0:0:
122,260,141226,1,0,1:2:0:0:
181,255,141321,1,8,1:2:0:0:
96,118,141700,5,8,1:2:0:0:
66,364,141890,1,8,1:2:0:0:
368,297,144738,5,8,1:2:0:0:
345,66,144928,1,8,1:2:0:0:
129,105,147207,5,8,1:2:0:0:
136,164,147302,1,0,1:2:0:0:
143,222,147396,1,8,1:2:0:0:
193,47,147776,5,8,1:2:0:0:
101,294,147966,1,8,1:2:0:0:
193,47,148156,1,8,1:2:0:0:
101,294,148346,1,8,1:2:0:0:
185,295,148536,5,8,0:0:0:0:
190,294,148631,1,8,0:0:0:0:
195,293,148726,1,8,0:0:0:0:
200,292,148821,1,8,0:0:0:0:
223,301,148915,5,8,0:0:0:0:
228,300,149010,1,8,0:0:0:0:
233,299,149105,1,8,0:0:0:0:
238,298,149200,1,8,0:0:0:0:
255,307,149295,5,8,0:0:0:0:
256,192,149865,12,0,150719,0:0:0:0:
378,145,150814,5,8,1:2:0:0:
374,198,150909,1,0,1:2:0:0:
371,251,151004,1,10,1:2:0:0:
429,312,151194,5,2,0:0:0:0:
429,312,151574,5,2,0:0:0:0:
429,312,151953,5,2,0:0:0:0:
429,312,152333,5,2,0:0:0:0:
429,312,152713,5,2,0:0:0:0:
280,353,152903,6,0,L|278:310,1,26.9999991760254,2|0,1:2|1:2,0:0:0:0:
268,359,152998,2,0,L|266:316,1,26.9999991760254,0|0,1:2|1:2,0:0:0:0:
256,365,153093,6,0,L|252:279,1,53.9999983520508,8|0,0:0|0:0,0:0:0:0:
196,224,153283,2,0,L|169:141,1,53.9999983520508,10|0,1:2|0:0,0:0:0:0:
23,296,153472,5,0,1:2:0:0:
45,307,153567,1,0,1:2:0:0:
83,315,153662,1,8,0:0:0:0:
124,292,153757,1,0,1:2:0:0:
176,320,153852,2,0,L|177:375,2,53.9999983520508,8|0|10,1:2|1:2|1:2,0:0:0:0:
196,224,154232,5,2,0:0:0:0:
196,224,154612,5,2,0:0:0:0:
196,224,154991,5,2,0:0:0:0:
196,224,155371,5,2,0:0:0:0:
196,224,155751,5,2,0:0:0:0:
216,114,156131,5,8,1:2:0:0:
151,296,156321,2,0,B|208:320|253:285|253:285|268:298|268:298|305:270|352:292,1,215.999993408203,10|8,1:2|1:2,0:0:0:0:
110,220,156890,5,8,1:2:0:0:
302,118,157080,1,10,1:2:0:0:
315,358,157270,1,10,1:2:0:0:
506,299,157650,5,2,0:0:0:0:
506,299,158029,5,2,0:0:0:0:
506,299,158409,5,2,0:0:0:0:
506,299,158789,5,2,0:0:0:0:
451,93,159169,5,8,1:2:0:0:
396,299,159359,1,10,1:2:0:0:
185,244,159548,5,8,1:2:0:0:
391,189,159738,1,10,1:2:0:0:
43,160,162966,5,4,1:2:0:0:
19,199,163061,1,0,1:2:0:0:
43,234,163156,1,0,1:2:0:0:
59,342,163726,5,4,0:0:0:0:
59,342,163915,2,0,L|126:337,1,53.9999983520508,8|12,0:0|0:0,0:0:0:0:
433,373,165245,6,0,L|433:344,1,26.9999991760254,4|0,1:2|1:2,0:0:0:0:
418,359,165340,2,0,L|418:330,1,26.9999991760254,0|0,1:2|1:2,0:0:0:0:
403,345,165434,1,0,1:2:0:0:
256,193,165814,1,8,0:0:0:0:
398,90,166004,6,0,L|398:119,1,26.9999991760254,4|0,1:2|1:2,0:0:0:0:
383,104,166099,2,0,L|383:133,1,26.9999991760254,0|0,1:2|1:2,0:0:0:0:
368,118,166193,1,2,1:2:0:0:
118,64,166764,5,6,0:0:0:0:
118,64,167143,6,0,L|121:43,3,12,10|10|10|14,0:0|0:0|0:0|0:0,0:0:0:0:
187,167,168283,5,6,1:2:0:0:
182,219,168377,1,0,1:2:0:0:
177,271,168472,2,0,B|237:296|285:259|285:259|300:273|300:273|340:243|389:266,1,225,2|0,1:2|0:0,0:0:0:0:
288,376,169042,5,4,1:2:0:0:
236,371,169136,1,0,1:2:0:0:
184,366,169232,1,0,1:2:0:0:
28,320,169802,5,4,0:0:0:0:
28,320,169991,2,0,L|23:253,1,53.9999983520508,8|12,0:0|0:0,0:0:0:0:
78,12,171321,6,0,L|78:41,1,26.9999991760254,4|0,1:2|1:2,0:0:0:0:
93,26,171415,2,0,L|93:55,1,26.9999991760254,0|0,1:2|1:2,0:0:0:0:
108,40,171510,1,0,1:2:0:0:
255,192,171890,5,10,0:0:0:0:
113,295,172080,6,0,L|113:266,1,26.9999991760254,6|0,1:2|1:2,0:0:0:0:
128,281,172175,2,0,L|128:252,1,26.9999991760254,0|0,1:2|1:2,0:0:0:0:
143,267,172270,1,2,1:2:0:0:
372,350,172840,5,4,0:0:0:0:
372,350,173219,2,0,L|388:349,3,12,8|8|8|14,0:0|0:0|0:0|0:0,0:0:0:0:
472,103,174359,5,6,1:2:0:0:
468,165,174485,5,0,1:2:0:0:
458,225,174612,6,0,B|444:224|425:227|425:227|409:242|409:242|400:243|384:263|384:263|361:251|321:252,1,125.999996154785,0|0,1:2|0:0,0:0:0:0:
258,335,175118,5,4,1:2:0:0:
298,333,175213,1,0,1:2:0:0:
338,331,175308,1,0,1:2:0:0:
438,375,175498,6,0,L|437:333,1,31.4999990386963,2|0,0:0|0:0,0:0:0:0:
461,352,175688,2,0,L|430:323,1,31.4999990386963,2|0,0:0|0:0,0:0:0:0:
473,313,175877,2,0,L|406:322,3,62.9999980773926,6|2|2|2,0:0|0:0|0:0|0:0,0:0:0:0:
435,141,176637,6,0,L|466:163,1,31.4999990386963,12|0,0:0|0:0,0:0:0:0:
419,143,176827,2,0,L|425:180,1,31.4999990386963,2|0,0:0|0:0,0:0:0:0:
406,133,177017,2,0,L|377:166,1,31.4999990386963,2|0,0:0|0:0,0:0:0:0:
403,116,177207,2,0,L|359:119,1,31.4999990386963,2|0,0:0|0:0,0:0:0:0:
320,45,177396,1,4,1:2:0:0:
300,38,177491,1,0,1:2:0:0:
280,31,177586,1,0,1:2:0:0:
157,56,177776,6,0,L|113:53,1,31.4999990386963,2|0,0:0|0:0,0:0:0:0:
127,68,177966,2,0,L|158:70,1,31.4999990386963,2|0,0:0|0:0,0:0:0:0:
65,119,178156,5,4,1:2:0:0:
58,139,178251,1,0,1:2:0:0:
51,159,178346,1,0,1:2:0:0:
67,264,178536,6,0,L|100:261,1,31.4999990386963,2|0,0:0|0:0,0:0:0:0:
88,309,178726,2,0,L|109:283,1,31.4999990386963,2|0,0:0|0:0,0:0:0:0:
134,325,178915,2,0,L|130:291,1,31.4999990386963,6|0,0:0|0:0,0:0:0:0:
134,275,179105,2,0,L|90:275,1,31.4999990386963,2|0,0:0|0:0,0:0:0:0:
203,366,179295,5,0,1:2:0:0:
232,364,179422,5,0,1:2:0:0:
261,362,179548,5,0,1:2:0:0:
290,360,179675,5,12,0:0:0:0:
384,20,181194,6,0,B|438:116|377:220|350:150|242:279|324:434|483:433|540:284|413:43,1,701.999967864992,4|2,1:2|0:0,0:0:0:0:
77,170,182713,6,0,B|96:153|126:158|163:181|173:207|181:255|164:315|90:347|3:328|-44:258|-42:192|-26:143|10:84|111:64|203:61|246:106|130:209|258:233|337:234|384:190,1,755.999976928712,6|2,1:2|0:0,0:0:0:0:
289,111,184232,6,0,P|395:323|404:77,1,647.99998022461,4|2,1:2|0:0,0:0:0:0:
377,199,185751,6,0,L|375:241,1,43.2000010546875,6|2,1:2|0:0,0:0:0:0:
57,216,187270,5,4,1:2:0:0:
96,22,187460,1,8,0:0:0:0:
188,165,187650,2,0,L|116:155,2,58.4999973220826,2|0|8,1:2|1:0|0:0,0:0:0:0:
294,207,188029,2,0,P|295:128|278:93,1,116.999994644165,2|8,1:2|0:0,0:0:0:0:
210,274,188409,1,2,1:2:0:0:
210,274,188504,1,0,1:0:0:0:
210,274,188599,1,8,0:0:0:0:
394,283,188789,6,0,L|325:277,1,58.4999973220826,4|0,1:2|0:0,0:0:0:0:
329,360,188979,2,0,L|387:364,1,58.4999973220826,8|0,0:0|0:0,0:0:0:0:
475,335,189169,1,2,1:2:0:0:
492,336,189264,1,0,1:0:0:0:
509,338,189359,1,8,0:0:0:0:
485,229,189548,5,2,1:2:0:0:
466,192,189643,1,0,1:2:0:0:
464,148,189738,1,8,1:2:0:0:
478,109,189833,1,0,1:2:0:0:
472,68,189928,1,2,1:2:0:0:
446,35,190023,1,0,1:2:0:0:
406,23,190118,1,8,1:2:0:0:
366,34,190213,1,0,1:2:0:0:
338,64,190308,5,0,1:2:0:0:
512,0,190498,1,8,0:0:0:0:
402,100,190688,2,0,L|394:158,2,58.4999973220826,0|0|10,1:2|1:2|0:0,0:0:0:0:
251,3,191067,1,2,1:2:0:0:
156,142,191257,2,0,P|175:69|164:25,1,116.999994644165,10|0,0:0|1:2,0:0:0:0:
152,18,191542,1,0,1:2:0:0:
152,18,191637,1,10,0:0:0:0:
24,114,191827,5,0,1:2:0:0:
46,142,191921,1,0,1:2:0:0:
59,176,192016,1,8,1:2:0:0:
58,212,192111,1,0,1:2:0:0:
45,246,192206,5,0,1:2:0:0:
58,212,192302,1,0,1:2:0:0:
81,184,192397,1,8,1:2:0:0:
113,166,192492,1,0,1:2:0:0:
148,160,192586,6,0,P|182:157|218:162,3,58.4999973220826,8|8|8|8,0:0|0:0|0:3|0:3,0:0:0:0:
148,257,192966,5,8,0:0:0:0:
147,262,193061,1,8,0:0:0:0:
146,267,193156,1,8,0:0:0:0:
144,272,193251,1,8,0:0:0:0:
142,277,193346,5,0,1:2:0:0:
166,302,193441,1,0,1:2:0:0:
200,310,193536,1,8,1:2:0:0:
234,302,193631,1,0,1:2:0:0:
265,286,193726,1,2,1:2:0:0:
298,276,193821,1,0,1:2:0:0:
332,278,193915,1,8,1:2:0:0:
363,292,194010,1,0,1:2:0:0:
389,314,194105,6,0,P|395:378|395:383,3,58.4999973220826,2|0|8|0,1:2|1:2|1:2|1:2,0:0:0:0:
447,234,194485,2,0,P|479:289|481:293,3,58.4999973220826,2|0|8|0,1:2|1:2|1:2|1:2,0:0:0:0:
481,143,194865,5,2,1:2:0:0:
481,90,194960,1,0,1:2:0:0:
450,47,195055,1,8,1:2:0:0:
400,30,195150,1,0,1:2:0:0:
351,35,195245,1,2,1:2:0:0:
317,54,195340,1,0,1:2:0:0:
301,73,195434,6,0,L|229:66,3,58.4999973220826,10|0|0|0,1:2|1:2|1:2|1:2,0:0:0:0:
178,144,195814,2,0,L|132:88,3,58.4999973220826,10|0|0|0,1:2|1:2|1:2|1:2,0:0:0:0:
39,122,196194,5,10,1:2:0:0:
34,165,196288,1,0,1:2:0:0:
30,209,196383,1,0,1:2:0:0:
26,253,196478,1,0,1:2:0:0:
22,296,196573,1,8,1:2:0:0:
18,340,196669,1,0,1:2:0:0:
14,383,196764,6,0,L|88:375,3,58.4999973220826,2|0|8|0,1:2|1:2|1:2|1:2,0:0:0:0:
106,296,197143,2,0,L|180:304,3,58.4999973220826,2|0|8|0,1:2|1:2|1:2|1:2,0:0:0:0:
254,339,197523,5,2,1:2:0:0:
255,344,197618,1,0,1:2:0:0:
255,349,197713,1,10,1:2:0:0:
256,354,197808,1,0,1:2:0:0:
256,359,197903,5,0,1:2:0:0:
294,343,197998,1,0,1:2:0:0:
334,340,198093,1,10,1:2:0:0:
373,349,198188,1,0,1:2:0:0:
410,365,198283,1,0,1:2:0:0:
450,368,198377,1,0,1:2:0:0:
489,356,198472,1,8,1:2:0:0:
509,320,198567,1,0,1:2:0:0:
500,279,198662,6,0,P|465:226|441:213,1,58.4999973220826,10|0,1:2|0:0,0:0:0:0:
335,316,198852,1,8,0:3:0:0:
394,160,199042,5,10,1:2:0:0:
394,156,199137,1,8,0:2:0:0:
394,152,199232,1,10,0:2:0:0:
394,148,199327,1,8,0:2:0:0:
394,144,199422,6,0,B|381:117|381:117|343:108|341:92|331:102|290:108,1,116.999994644165,4|0,1:2|0:0,0:0:0:0:
239,158,199707,2,0,B|207:183|209:192|209:193|209:193|171:206|141:183|99:192,1,116.999994644165,4|0,1:2|0:0,0:0:0:0:
68,155,199991,2,0,B|66:141|86:121|82:121|82:121|74:78|83:77|96:73|56:61|39:97,1,116.999994644165,4|0,1:2|0:0,0:0:0:0:
504,229,200941,6,0,B|453:249|453:249|460:213|427:177,1,116.999994644165,4|0,1:2|0:0,0:0:0:0:
292,270,201226,2,0,B|312:290|369:268|369:268|368:244|368:244|384:231|420:226,1,116.999994644165,4|0,1:2|0:0,0:0:0:0:
439,384,201510,2,0,B|435:365|451:361|462:341|449:305|415:306|396:358|424:367,1,116.999994644165,4|0,1:2|0:0,0:0:0:0:
28,30,202080,6,0,L|26:1,1,29.2499986610413,10|8,0:0|0:0,0:0:0:0:
61,373,202460,5,4,1:2:0:0:
101,191,202650,1,8,0:0:0:0:
183,324,202840,2,0,L|113:312,2,58.4999973220826,0|0|10,1:2|1:0|0:0,0:0:0:0:
17,230,203219,5,2,1:2:0:0:
251,251,203409,2,0,P|278:317|268:370,1,116.999994644165,10|0,0:0|1:2,0:0:0:0:
264,384,203694,1,0,1:0:0:0:
264,384,203789,1,10,0:0:0:0:
431,343,203979,5,0,1:2:0:0:
429,331,204074,1,0,1:2:0:0:
427,319,204169,1,8,1:2:0:0:
425,307,204264,1,0,1:2:0:0:
395,275,204359,5,2,1:2:0:0:
397,264,204454,1,0,1:2:0:0:
398,253,204549,1,10,1:2:0:0:
400,242,204644,1,0,1:2:0:0:
427,218,204738,5,0,1:2:0:0:
425,209,204833,1,0,1:2:0:0:
424,200,204928,1,10,1:2:0:0:
422,191,205023,1,0,1:2:0:0:
400,156,205118,5,0,1:2:0:0:
401,150,205213,1,0,1:2:0:0:
402,144,205308,1,8,1:2:0:0:
403,138,205403,1,0,1:2:0:0:
411,123,205498,6,0,L|408:50,3,58.4999973220826,0|0|8|0,1:2|1:2|1:2|1:2,0:0:0:0:
283,176,205877,2,0,L|332:122,3,58.4999973220826,2|0|8|0,1:2|1:2|1:2|1:2,0:0:0:0:
143,136,206257,2,0,L|215:132,3,58.4999973220826,2|0|8|0,1:2|1:2|1:2|1:2,0:0:0:0:
73,71,206637,5,0,1:2:0:0:
74,65,206732,1,0,1:2:0:0:
76,59,206827,1,8,1:2:0:0:
77,53,206922,1,0,1:2:0:0:
79,47,207017,5,0,1:2:0:0:
55,73,207112,1,0,1:2:0:0:
43,106,207207,1,8,1:2:0:0:
40,141,207302,1,0,1:2:0:0:
47,174,207396,5,10,1:2:0:0:
71,200,207491,1,0,1:2:0:0:
83,233,207586,1,8,1:2:0:0:
86,268,207681,1,0,1:2:0:0:
79,301,207775,5,10,1:2:0:0:
118,287,207871,1,0,1:2:0:0:
158,285,207966,1,8,1:2:0:0:
197,296,208061,1,0,1:2:0:0:
224,325,208156,5,8,1:2:0:0:
272,346,208251,1,0,1:2:0:0:
325,342,208346,1,0,1:2:0:0:
374,316,208441,1,0,1:2:0:0:
402,262,208536,6,0,L|400:202,3,53.9999983520508,6|2|2|0,1:2|0:0|0:0|0:0,0:0:0:0:
209,76,210650,6,0,L|212:110,1,22.5,0|0,1:2|1:2,0:0:0:0:
201,67,210747,2,0,L|204:101,1,22.5,0|0,1:2|1:2,0:0:0:0:
194,58,210843,2,0,B|137:53|137:53|113:31|113:31|33:27,2,135,8|8|8,0:0|0:0|0:0,0:0:0:0:
24,201,211612,6,0,B|49:260|34:330|-7:260|-35:366|15:418|73:415|146:384|131:308|105:284,1,337.500012874604,4|0,1:2|0:0,0:0:0:0:
242,284,212766,6,0,L|238:249,1,22.5,0|0,1:2|1:2,0:0:0:0:
250,293,212863,2,0,L|246:258,1,22.5,0|0,1:2|1:2,0:0:0:0:
258,302,212958,2,0,L|254:267,1,22.5,0|0,1:2|1:2,0:0:0:0:
266,311,213054,2,0,L|262:276,1,22.5,0|0,1:2|1:2,0:0:0:0:
274,320,213150,2,0,B|315:347|350:336|339:318|375:310|409:331,1,135,8|0,0:0|0:0,0:0:0:0:
484,265,213535,5,8,0:3:0:0:
488,243,213631,1,8,0:3:0:0:
493,221,213727,1,0,1:2:0:0:
497,199,213824,1,0,1:2:0:0:
502,177,213920,22,0,L|498:115,1,45,8|0,0:0|0:0,0:0:0:0:
385,13,214112,2,0,L|382:57,1,45,8|0,0:0|0:0,0:0:0:0:
512,113,214304,2,0,L|508:51,1,45,8|0,0:0|0:0,0:0:0:0:
371,76,214497,2,0,L|368:120,1,45,8|0,0:0|0:0,0:0:0:0:
412,250,214689,6,0,B|418:218|390:199|337:225,1,90,4|2,1:2|0:0,0:0:0:0:
301,278,214977,1,0,1:2:0:0:
291,284,215074,1,0,1:2:0:0:
280,287,215170,1,0,1:2:0:0:
269,289,215266,6,0,B|113:254|242:349|114:321,1,180,0|0,1:2|1:2,0:0:0:0:
240,364,215843,1,0,1:2:0:0:
121,242,216035,5,0,1:2:0:0:
115,223,216131,1,0,1:2:0:0:
109,204,216227,5,8,0:0:0:0:
145,199,216324,1,0,1:2:0:0:
180,194,216420,1,0,1:2:0:0:
44,101,216612,6,0,L|16:106,1,22.5,0|0,1:2|1:2,0:0:0:0:
38,120,216708,2,0,L|10:125,1,22.5,0|0,1:2|1:2,0:0:0:0:
32,139,216804,1,0,1:2:0:0:
131,12,216997,6,0,L|229:9,1,90,8|0,0:0|0:0,0:0:0:0:
290,72,217285,2,0,L|388:75,1,90,8|0,0:0|0:0,0:0:0:0:
465,24,217574,1,8,0:0:0:0:
505,191,217766,6,0,B|427:151|362:244|425:322|483:262|522:308|502:376,1,292.499986610413,4|0,1:2|0:0,0:0:0:0:
323,371,218920,6,0,L|326:333,1,22.5,0|0,1:2|1:2,0:0:0:0:
282,366,219016,2,0,L|285:328,1,22.5,0|0,1:2|1:2,0:0:0:0:
241,361,219112,2,0,L|244:323,1,22.5,0|0,1:2|1:2,0:0:0:0:
200,356,219208,2,0,L|203:318,1,22.5,0|0,1:2|1:2,0:0:0:0:
159,351,219304,1,8,0:0:0:0:
256,192,219352,12,0,223920,0:0:0:0:
