osu file format v14

[General]
AudioFilename: audio.mp3
AudioLeadIn: 0
PreviewTime: 181015
Countdown: 0
SampleSet: Soft
StackLeniency: 0.4
Mode: 0
LetterboxInBreaks: 0
WidescreenStoryboard: 1

[Editor]
Bookmarks: 80919
DistanceSpacing: 0.9
BeatDivisor: 4
GridSize: 8
TimelineZoom: 2.2

[Metadata]
Title:Funeral Derangements
TitleUnicode:Funeral Derangements
Artist:Ice Nine Kills
ArtistUnicode:Ice Nine Kills
Creator:Blitzifyyy
Version:TheMefisto's Extra
Source:
Tags:ajitani hifumi we vibing we_vibing themefisto washedup player INK Metal Metalcore English Welcome to Horrorwood The Silver Scream 2 Pet Sematary cemetery Horror
BeatmapID:3651944
BeatmapSetID:1601336

[Difficulty]
HPDrainRate:5
CircleSize:4
OverallDifficulty:9
ApproachRate:9.3
SliderMultiplier:2.2
SliderTickRate:1

[Events]
//Background and Video events
0,0,"545127850ba4fae5772b49a21f5cbc4d.jpg",0,0
//Break Periods
//Storyboard Layer 0 (Background)
//Storyboard Layer 1 (Fail)
//Storyboard Layer 2 (Pass)
//Storyboard Layer 3 (Foreground)
//Storyboard Layer 4 (Overlay)
//Storyboard Sound Samples

[TimingPoints]
184,379.746835443039,4,2,1,75,1,0
278,-100,4,2,1,5,0,0
373,-100,4,2,1,75,0,0
467,-100,4,2,1,5,0,0
563,-100,4,2,1,75,0,0
657,-100,4,2,1,5,0,0
753,-100,4,2,1,75,0,0
848,-100,4,2,1,5,0,0
943,-55.5555555555556,4,2,1,65,0,0
1037,-55.5555555555556,4,2,1,5,0,0
1133,-55.5555555555556,4,2,1,65,0,0
1227,-55.5555555555556,4,2,1,5,0,0
1323,-55.5555555555556,4,2,1,65,0,0
1417,-55.5555555555556,4,2,1,5,0,0
1513,-55.5555555555556,4,2,1,65,0,0
1607,-55.5555555555556,4,2,1,5,0,0
1702,-100,4,2,1,75,0,0
2462,-57.1428571428571,4,2,1,65,0,0
2556,-57.1428571428571,4,2,1,5,0,0
2652,-57.1428571428571,4,2,1,65,0,0
2746,-57.1428571428571,4,2,1,5,0,0
2842,-57.1428571428571,4,2,1,65,0,0
2936,-57.1428571428571,4,2,1,5,0,0
3032,-57.1428571428571,4,2,1,65,0,0
3221,-100,4,2,1,65,0,0
5310,-100,4,2,1,45,0,0
6070,384.615384615385,4,2,1,75,1,0
6839,-133.333333333333,4,2,1,75,0,0
7031,-133.333333333333,4,2,1,5,0,0
7223,-100,4,2,1,75,0,0
7800,-133.333333333333,4,2,1,75,0,0
8185,-133.333333333333,4,2,1,5,0,0
8377,-100,4,2,1,75,0,0
9146,-100,4,2,1,75,0,0
9916,-133.333333333333,4,2,1,75,0,0
10108,-133.333333333333,4,2,1,5,0,0
10300,-100,4,2,1,75,0,0
11454,-57.1428571428571,4,2,1,65,0,0
11550,-57.1428571428571,4,2,1,5,0,0
11646,-57.1428571428571,4,2,1,65,0,0
11742,-57.1428571428571,4,2,1,5,0,0
11839,-57.1428571428571,4,2,1,65,0,0
11935,-57.1428571428571,4,2,1,5,0,0
12031,-57.1428571428571,4,2,1,65,0,0
12127,-57.1428571428571,4,2,1,5,0,0
12223,-100,4,2,1,75,0,0
12993,-133.333333333333,4,2,1,75,0,0
13185,-133.333333333333,4,2,1,5,0,0
13377,-100,4,2,1,75,0,0
13954,-133.333333333333,4,2,1,75,0,0
14339,-133.333333333333,4,2,1,5,0,0
14531,-100,4,2,1,75,0,0
15300,-100,4,2,1,75,0,0
16070,-133.333333333333,4,2,1,75,0,0
16262,-133.333333333333,4,2,1,5,0,0
16454,-133.333333333333,4,2,1,75,0,0
16839,-100,4,2,1,75,0,0
17608,375,4,2,1,55,1,0
18358,375,4,2,1,65,1,0
19201,-100,4,2,1,5,0,0
19295,-100,4,2,1,65,0,0
19483,-100,4,2,1,65,0,0
22201,-100,4,2,1,5,0,0
22295,-100,4,2,1,65,0,0
22483,-100,4,2,1,65,0,0
25013,-100,4,2,1,5,0,0
25108,-100,4,2,1,65,0,0
25201,-100,4,2,1,5,0,0
25295,-100,4,2,1,65,0,0
27358,-80,4,2,1,65,0,0
28013,-80,4,2,1,5,0,0
28108,-80,4,2,1,65,0,0
28201,-80,4,2,1,5,0,0
28295,-80,4,2,1,65,0,0
28858,-100,4,2,1,45,0,0
30264,-100,4,2,1,5,0,0
30358,-100,4,2,1,75,0,0
34858,-50,4,2,1,75,0,0
36358,-200,4,2,1,65,0,0
37483,-200,4,2,1,65,0,0
38608,-200,4,2,1,65,0,0
38983,-142.857142857143,4,2,1,65,0,0
40108,-200,4,2,1,65,0,0
40483,-200,4,2,1,65,0,0
40858,-200,4,2,1,65,0,0
43014,-200,4,2,1,5,0,0
43108,-200,4,2,1,65,0,0
43858,-200,4,2,1,65,0,0
44608,-200,4,2,1,65,0,0
44795,-200,4,2,1,65,0,0
44983,-100,4,2,1,65,0,0
45358,-142.857142857143,4,2,1,65,0,0
46483,-142.857142857143,4,2,1,65,0,0
46670,-142.857142857143,4,2,1,5,0,0
46717,-111.111111111111,4,2,1,65,0,0
47795,-58.8235294117647,4,2,1,65,0,0
47888,-58.8235294117647,4,2,1,5,0,0
47983,-58.8235294117647,4,2,1,65,0,0
48076,-58.8235294117647,4,2,1,5,0,0
48170,-58.8235294117647,4,2,1,65,0,0
48263,-58.8235294117647,4,2,1,5,0,0
48358,392.156862745098,4,2,1,30,1,0
48358,-250,4,2,1,30,0,0
49828,-250,4,2,1,5,0,0
49926,-250,4,2,1,45,0,0
51397,-250,4,2,1,5,0,0
51495,-250,4,2,1,30,0,0
52965,-250,4,2,1,5,0,0
53063,-250,4,2,1,45,0,0
53358,-250,4,2,1,5,0,0
53456,-250,4,2,1,45,0,0
53587,-250,4,2,1,40,0,0
53848,-250,4,2,1,45,0,0
53978,-250,4,2,1,48,0,0
54240,-250,4,2,1,45,0,0
54371,-250,4,2,1,56,0,0
54632,379.746835443038,4,2,1,65,1,0
54916,-100,4,2,1,5,0,0
55011,-133.333333333333,4,2,1,65,0,0
55391,-133.333333333333,4,2,1,65,0,0
56150,-100,4,2,1,65,0,0
56434,-100,4,2,1,5,0,0
56530,-133.333333333333,4,2,1,65,0,0
56910,-133.333333333333,4,2,1,65,0,0
57669,-100,4,2,1,65,0,0
57953,-133.333333333333,4,2,1,5,0,0
58049,-133.333333333333,4,2,1,65,0,0
58239,-133.333333333333,4,2,1,65,0,0
59188,-166.666666666667,4,2,1,65,0,0
59473,-166.666666666667,4,2,1,5,0,0
59568,-200,4,2,1,65,0,0
59853,-200,4,2,1,5,0,0
59948,-250,4,2,1,65,0,0
60233,-250,4,2,1,5,0,0
60328,-333.333333333333,4,2,1,65,0,0
60613,-333.333333333333,4,2,1,5,0,0
60707,-100,4,2,1,85,0,1
74378,-200,4,2,1,85,0,1
75138,-90.9090909090909,4,2,1,45,0,1
75919,384.615384615385,4,2,1,75,1,0
76688,-133.333333333333,4,2,1,75,0,0
76880,-133.333333333333,4,2,1,5,0,0
77072,-100,4,2,1,75,0,0
77649,-133.333333333333,4,2,1,75,0,0
78034,-133.333333333333,4,2,1,5,0,0
78226,-100,4,2,1,75,0,0
78995,-100,4,2,1,75,0,0
79765,-133.333333333333,4,2,1,75,0,0
79957,-133.333333333333,4,2,1,5,0,0
80149,-100,4,2,1,75,0,0
81303,-66.6666666666667,4,2,1,75,0,0
81399,-66.6666666666667,4,2,1,5,0,0
81495,-66.6666666666667,4,2,1,75,0,0
81592,-66.6666666666667,4,2,1,5,0,0
81688,-66.6666666666667,4,2,1,75,0,0
81784,-66.6666666666667,4,2,1,5,0,0
81880,-66.6666666666667,4,2,1,75,0,0
81976,-66.6666666666667,4,2,1,5,0,0
82072,-66.6666666666667,4,2,1,75,0,0
82842,-133.333333333333,4,2,1,75,0,0
83034,-133.333333333333,4,2,1,5,0,0
83226,-100,4,2,1,75,0,0
83803,-133.333333333333,4,2,1,75,0,0
84188,-133.333333333333,4,2,1,5,0,0
84380,-100,4,2,1,75,0,0
85919,-133.333333333333,4,2,1,75,0,0
86111,-133.333333333333,4,2,1,5,0,0
86303,-100,4,2,1,75,0,0
87457,-100,4,2,1,55,0,0
87649,-100,4,2,1,55,0,0
88226,-125,4,2,1,65,0,0
88322,-125,4,2,1,5,0,0
88419,-125,4,2,1,65,0,0
88995,-125,4,2,1,5,0,0
89188,-125,4,2,1,65,0,0
92842,-166.666666666667,4,2,1,65,0,0
93899,-166.666666666667,4,2,1,5,0,0
93995,-166.666666666667,4,2,1,65,0,0
94284,-100,4,2,1,65,0,0
94380,-100,4,2,1,75,0,0
94668,-100,4,2,1,5,0,0
94765,-100,4,2,1,75,0,0
95438,-100,4,2,1,5,0,0
95534,-100,4,2,1,75,0,0
96688,-80,4,2,1,75,0,0
97072,-100,4,2,1,75,0,0
98995,-83.3333333333333,4,2,1,75,0,0
99765,-83.3333333333333,4,2,1,45,0,0
100534,-166.666666666667,4,2,1,65,0,0
101207,-166.666666666667,4,2,1,5,0,0
101303,-166.666666666667,4,2,1,65,0,0
101976,-166.666666666667,4,2,1,5,0,0
102072,-166.666666666667,4,2,1,65,0,0
102745,-166.666666666667,4,2,1,5,0,0
102842,-166.666666666667,4,2,1,65,0,0
103515,-166.666666666667,4,2,1,5,0,0
103610,-166.666666666667,4,2,1,65,0,0
103899,-100,4,2,1,5,0,0
103995,-83.3333333333333,4,2,1,65,0,0
104283,-83.3333333333333,4,2,1,5,0,0
104380,-100,4,2,1,65,0,0
104476,-100,4,2,1,5,0,0
104572,-100,4,2,1,65,0,0
104668,-100,4,2,1,5,0,0
104765,-83.3333333333333,4,2,1,65,0,0
105053,-83.3333333333333,4,2,1,5,0,0
105149,-100,4,2,1,65,0,0
106688,-125,4,2,1,75,0,0
112842,-100,4,2,1,45,0,0
113226,-222.222222222222,4,2,1,45,0,0
114359,379.746835443038,4,2,1,85,1,1
114359,-100,4,2,1,85,0,1
124896,-100,4,2,1,85,0,0
124991,-100,4,2,1,85,0,1
138662,-100,4,2,1,55,0,0
148536,-100,4,2,1,55,0,0
148915,-100,4,2,1,55,0,0
149295,-250,4,2,1,55,0,0
150719,-250,4,2,1,5,0,0
150814,-250,4,2,1,55,0,0
151194,-166.666666666667,4,2,1,45,0,0
151763,-166.666666666667,4,2,1,5,0,0
151953,-166.666666666667,4,2,1,45,0,0
152903,-83.3333333333333,4,2,1,45,0,0
153093,-166.666666666667,4,2,1,65,0,0
154232,-166.666666666667,4,2,1,45,0,0
155561,-166.666666666667,4,2,1,5,0,0
155656,-166.666666666667,4,2,1,45,0,0
156131,-125,4,2,1,65,0,0
156321,-166.666666666667,4,2,1,65,0,0
156605,-166.666666666667,4,2,1,5,0,0
156700,-166.666666666667,4,2,1,65,0,0
157270,-166.666666666667,4,2,1,45,0,0
158409,-133.333333333333,4,2,1,45,0,0
158598,-133.333333333333,4,2,1,5,0,0
158789,-133.333333333333,4,2,1,45,0,0
159169,-166.666666666667,4,2,1,65,0,0
159928,-166.666666666667,4,2,1,45,0,0
160117,-166.666666666667,4,2,1,30,0,0
160498,-166.666666666667,4,2,1,45,0,0
162966,-166.666666666667,4,2,1,85,0,0
163156,-250,4,2,1,85,0,0
164389,-250,4,2,1,5,0,0
164485,-333.333333333333,4,2,1,85,0,0
165245,-83.3333333333333,4,2,1,85,0,0
165434,-133.333333333333,4,2,1,85,0,0
166004,-83.3333333333333,4,2,1,85,0,0
166194,-133.333333333333,4,2,1,85,0,0
168187,-133.333333333333,4,2,1,5,0,0
168283,-200,4,2,1,85,0,0
168851,-200,4,2,1,5,0,0
169042,-333.333333333333,4,2,1,85,0,0
169991,-250,4,2,1,85,0,0
170465,-333.333333333333,4,2,1,5,0,0
170561,-333.333333333333,4,2,1,85,0,0
171321,-83.3333333333333,4,2,1,85,0,0
173599,-166.666666666667,4,2,1,85,0,0
174612,-250,4,2,1,85,0,0
175118,-153.846153846153,4,2,1,85,0,0
175498,-153.846153846153,4,2,1,85,0,0
177396,-83.3333333333333,4,2,1,85,0,0
177776,-153.846153846153,4,2,1,85,0,0
178156,-83.3333333333333,4,2,1,85,0,0
178536,-153.846153846153,4,2,1,85,0,0
179295,-153.846153846153,4,2,1,85,0,0
179675,-333.333333333333,4,2,1,55,0,0
181099,-333.333333333333,4,2,1,5,0,0
181194,-250,4,2,1,75,0,0
182618,-250,4,2,1,5,0,0
182713,-250,4,2,1,75,0,0
184137,-250,4,2,1,5,0,0
184232,-250,4,2,1,75,0,0
185656,-250,4,2,1,5,0,0
185751,-250,4,2,1,75,0,0
186415,-250,4,2,1,5,0,0
186510,-200,4,2,1,45,0,0
187270,-100,4,2,1,85,0,1
198756,-100,4,2,1,5,0,1
198852,-100,4,2,1,85,0,1
199422,-100,4,2,1,85,0,0
199611,-100,4,2,1,5,0,0
199707,-100,4,2,1,85,0,0
199896,-100,4,2,1,5,0,0
199991,-100,4,2,1,85,0,0
200181,-166.666666666667,4,2,1,85,0,0
200941,-100,4,2,1,85,0,0
201130,-100,4,2,1,5,0,0
201226,-100,4,2,1,85,0,0
201415,-100,4,2,1,5,0,0
201510,-100,4,2,1,85,0,0
201700,-166.666666666667,4,2,1,85,0,0
202080,-166.666666666667,4,2,1,85,0,0
202460,-100,4,2,1,85,0,1
208536,-100,4,2,1,45,0,0
210074,384.615384615385,4,2,1,75,1,0
210650,-83.3333333333333,4,2,1,75,0,0
211612,-100,4,2,1,75,0,1
211708,-100,4,2,1,75,0,0
212189,-133.333333333333,4,2,1,75,0,0
212572,-100,4,2,1,5,0,0
212765,-83.3333333333333,4,2,1,75,0,0
213920,-57.1428571428571,4,2,1,65,0,0
214015,-57.1428571428571,4,2,1,5,0,0
214111,-57.1428571428571,4,2,1,65,0,0
214207,-57.1428571428571,4,2,1,5,0,0
214304,-57.1428571428571,4,2,1,65,0,0
214400,-57.1428571428571,4,2,1,5,0,0
214496,-57.1428571428571,4,2,1,65,0,0
214592,-57.1428571428571,4,2,1,5,0,0
214689,-100,4,2,1,75,0,0
215266,-133.333333333333,4,2,1,75,0,0
215554,-133.333333333333,4,2,1,5,0,0
215650,-133.333333333333,4,2,1,75,0,0
216035,-83.3333333333333,4,2,1,75,0,0
218343,-133.333333333333,4,2,1,75,0,0
218726,-100,4,2,1,5,0,0
218919,-83.3333333333333,4,2,1,75,0,0

[Colours]
Combo1 : 143,143,143
Combo2 : 183,0,0
Combo3 : 60,60,60

[HitObjects]
126,87,184,6,0,L|134:150,1,55,10|0,0:3|0:0,0:0:0:0:
245,226,373,2,0,L|251:171,1,55,10|0,0:3|0:0,0:0:0:0:
111,74,563,2,0,L|120:149,1,55,10|0,0:3|0:0,0:0:0:0:
253,240,753,2,0,L|261:174,1,55,10|0,0:3|0:0,0:0:0:0:
417,82,943,6,0,B|444:68|444:68|493:79|493:79|469:88|451:85,1,98.9999969787599,2|0,0:0|0:0,0:0:0:0:
391,283,1133,2,0,B|363:296|363:296|314:285|314:285|338:276|356:279,1,98.9999969787599,2|0,0:0|0:0,0:0:0:0:
186,152,1323,2,0,B|158:138|158:138|109:149|109:149|133:158|151:155,1,98.9999969787599,2|0,0:0|0:0,0:0:0:0:
222,362,1513,2,0,B|249:375|249:375|298:364|298:364|274:355|256:358,1,98.9999969787599,2|0,0:0|0:0,0:0:0:0:
369,198,1702,5,10,0:3:0:0:
394,162,1797,1,8,0:3:0:0:
394,117,1892,1,2,1:2:0:0:
366,82,1987,1,0,1:2:0:0:
322,70,2082,1,10,0:3:0:0:
287,97,2177,1,8,0:3:0:0:
244,108,2272,1,2,1:2:0:0:
200,98,2367,1,0,1:2:0:0:
160,71,2462,6,0,B|151:129|151:129|146:69,1,96.2500009179115,2|0,0:0|0:0,0:0:0:0:
31,218,2652,2,0,B|40:276|40:276|45:216,1,96.2500009179115,2|0,0:0|0:0,0:0:0:0:
200,325,2842,2,0,B|191:383|191:383|186:323,1,96.2500009179115,2|0,0:0|0:0,0:0:0:0:
72,148,3032,1,10,0:3:0:0:
64,135,3127,1,8,0:3:0:0:
50,93,3221,5,0,1:2:0:0:
63,51,3316,1,0,1:2:0:0:
98,24,3411,1,10,0:3:0:0:
141,19,3506,1,8,0:3:0:0:
183,31,3601,1,0,1:2:0:0:
211,64,3696,1,0,1:2:0:0:
222,106,3791,1,10,1:2:0:0:
210,148,3886,1,8,0:0:0:0:
154,183,3981,5,8,0:0:0:0:
218,170,4076,1,8,0:0:0:0:
282,157,4171,1,0,1:2:0:0:
346,141,4266,1,0,1:2:0:0:
410,125,4361,1,8,0:0:0:0:
474,109,4456,1,8,0:0:0:0:
492,78,4551,5,10,0:0:0:0:
454,74,4646,1,8,0:0:0:0:
416,70,4740,1,0,1:2:0:0:
378,66,4835,1,0,1:2:0:0:
323,121,4930,5,10,0:3:0:0:
327,159,5025,1,8,0:3:0:0:
331,197,5119,1,0,1:2:0:0:
335,235,5214,1,0,1:2:0:0:
345,248,5310,5,2,0:0:0:0:
384,268,5500,5,2,0:0:0:0:
403,228,5690,5,2,0:0:0:0:
360,238,5880,5,2,0:0:0:0:
129,345,6070,5,4,1:2:0:0:
79,339,6166,1,0,1:2:0:0:
40,307,6262,1,0,1:2:0:0:
28,258,6358,1,0,1:2:0:0:
39,209,6454,1,0,1:2:0:0:
75,175,6550,1,0,1:2:0:0:
122,160,6646,1,0,1:2:0:0:
273,24,6839,2,0,L|266:117,1,82.5000031471254,12|0,0:0|0:0,0:0:0:0:
120,254,7223,5,0,1:2:0:0:
165,273,7320,1,0,1:2:0:0:
214,269,7416,1,0,1:2:0:0:
257,246,7512,1,0,1:2:0:0:
302,227,7608,1,4,1:2:0:0:
351,231,7704,1,0,1:2:0:0:
393,254,7800,2,0,P|351:176|400:103,1,165.000006294251,0|0,1:2|0:0,0:0:0:0:
493,367,8377,5,14,0:0:0:0:
434,359,8473,1,0,1:2:0:0:
375,351,8570,1,0,1:2:0:0:
317,345,8666,1,0,1:2:0:0:
258,337,8762,1,0,1:2:0:0:
199,330,8858,1,0,1:2:0:0:
141,323,8954,1,0,1:2:0:0:
77,129,9146,5,4,1:2:0:0:
92,80,9242,1,0,1:2:0:0:
137,57,9338,1,0,1:2:0:0:
186,72,9434,1,0,1:2:0:0:
209,117,9530,1,2,1:2:0:0:
194,166,9626,1,0,1:2:0:0:
149,189,9722,1,0,1:2:0:0:
4,362,9916,2,0,L|113:354,1,82.5000031471254,14|0,0:0|0:0,0:0:0:0:
303,204,10300,5,0,1:2:0:0:
300,234,10396,1,0,1:2:0:0:
298,264,10493,1,0,1:2:0:0:
295,294,10589,1,0,1:2:0:0:
264,366,10685,5,14,0:0:0:0:
220,334,10781,1,8,0:0:0:0:
203,283,10877,1,0,1:2:0:0:
220,232,10973,1,0,1:2:0:0:
264,200,11069,1,10,0:3:0:0:
307,168,11166,1,8,0:3:0:0:
324,117,11262,1,0,1:2:0:0:
307,66,11358,1,0,1:2:0:0:
263,34,11454,6,0,B|222:38|186:21|186:21|194:35,1,96.2500009179115,10|0,0:0|0:0,0:0:0:0:
47,128,11646,2,0,B|23:161|19:201|19:201|11:186,1,96.2500009179115,2|0,0:0|0:0,0:0:0:0:
242,192,11839,2,0,B|218:158|214:118|214:118|206:133,1,96.2500009179115,2|0,0:0|0:0,0:0:0:0:
73,34,12031,2,0,B|32:29|-3:46|-3:46|4:32,1,96.2500009179115,2|0,0:0|0:0,0:0:0:0:
130,187,12223,5,4,1:2:0:0:
155,229,12320,1,0,1:2:0:0:
151,278,12416,1,0,1:2:0:0:
123,319,12512,1,0,1:2:0:0:
138,365,12608,1,0,1:2:0:0:
185,379,12704,1,0,1:2:0:0:
225,351,12800,1,0,1:2:0:0:
285,181,12993,2,0,L|291:88,1,82.5000031471254,12|0,0:0|0:0,0:0:0:0:
470,30,13377,5,0,1:2:0:0:
465,76,13473,1,0,1:2:0:0:
461,123,13569,1,0,1:2:0:0:
459,171,13665,1,0,1:2:0:0:
454,218,13761,1,4,1:2:0:0:
453,268,13857,1,0,1:2:0:0:
449,314,13954,2,0,B|398:312|398:312|353:340|353:340|282:336,1,165.000006294251,0|0,1:2|0:0,0:0:0:0:
102,217,14531,5,12,0:0:0:0:
139,176,14627,1,0,1:2:0:0:
194,171,14723,1,0,1:2:0:0:
237,203,14819,1,0,1:2:0:0:
275,242,14916,1,0,1:2:0:0:
330,248,15012,1,0,1:2:0:0:
373,215,15108,1,0,1:2:0:0:
117,322,15300,5,4,1:2:0:0:
67,318,15396,1,0,1:2:0:0:
24,290,15493,1,0,1:2:0:0:
1,246,15589,1,0,1:2:0:0:
2,196,15685,1,0,1:2:0:0:
22,151,15781,1,0,1:2:0:0:
61,121,15877,1,0,1:2:0:0:
182,227,16070,2,0,L|101:216,1,82.5000031471254,12|0,0:0|0:0,0:0:0:0:
180,8,16454,5,0,1:2:0:0:
210,35,16550,1,0,1:2:0:0:
219,75,16646,1,0,1:2:0:0:
203,113,16743,1,0,1:2:0:0:
130,144,16839,5,12,0:0:0:0:
186,125,16935,1,8,0:0:0:0:
245,143,17031,1,0,1:2:0:0:
281,192,17128,1,0,1:2:0:0:
283,271,17223,5,8,0:3:0:0:
297,196,17319,1,8,0:3:0:0:
355,141,17415,1,0,1:2:0:0:
433,133,17512,1,0,1:2:0:0:
505,189,17608,5,8,0:0:0:0:
480,217,17795,5,10,0:0:0:0:
512,220,17983,5,10,0:0:0:0:
491,191,18170,5,10,0:0:0:0:
370,362,18358,5,6,1:2:0:0:
320,357,18451,1,0,1:2:0:0:
270,353,18545,1,8,1:2:0:0:
220,348,18639,1,2,1:2:0:0:
170,344,18733,1,0,1:2:0:0:
120,339,18826,1,0,1:2:0:0:
71,335,18920,2,0,P|77:264|154:221,1,165,10|0,1:2|0:0,0:0:0:0:
238,263,19295,1,10,0:0:0:0:
232,31,19483,5,2,1:2:0:0:
189,22,19576,1,0,1:2:0:0:
147,36,19670,1,10,1:2:0:0:
117,68,19764,1,0,1:2:0:0:
113,111,19858,2,0,L|185:107,1,55,2|0,1:2|1:2,0:0:0:0:
367,23,20045,5,10,1:2:0:0:
424,72,20138,1,2,0:0:0:0:
417,148,20232,1,2,0:0:0:0:
351,187,20326,1,2,0:0:0:0:
281,156,20420,1,10,0:0:0:0:
266,82,20513,1,2,0:0:0:0:
316,25,20607,5,0,1:2:0:0:
327,38,20701,1,0,1:2:0:0:
338,51,20795,2,0,L|334:129,1,55,10|0,1:2|1:2,0:0:0:0:
439,241,20983,2,0,L|434:186,1,55,2|0,1:2|1:2,0:0:0:0:
231,142,21170,2,0,L|227:220,1,55,10|0,1:2|1:2,0:0:0:0:
332,332,21358,6,0,L|327:277,1,55,2|0,1:2|1:2,0:0:0:0:
117,224,21545,1,8,1:2:0:0:
108,235,21639,2,0,L|47:240,1,55,2|0,1:2|1:2,0:0:0:0:
0,60,21826,1,0,1:2:0:0:
12,69,21920,2,0,L|181:82,1,165,10|0,1:2|0:0,0:0:0:0:
232,166,22295,1,10,0:0:0:0:
370,24,22483,5,2,1:2:0:0:
367,73,22576,1,0,1:2:0:0:
364,122,22670,1,10,1:2:0:0:
361,171,22764,1,0,1:2:0:0:
358,220,22858,2,0,L|296:226,1,55,2|0,1:2|1:2,0:0:0:0:
118,7,23045,5,10,1:2:0:0:
183,47,23139,1,2,0:0:0:0:
196,122,23233,1,2,0:0:0:0:
156,187,23326,1,2,0:0:0:0:
91,227,23420,1,2,0:0:0:0:
78,302,23514,1,2,0:0:0:0:
118,367,23608,5,8,0:0:0:0:
174,287,23795,5,8,0:0:0:0:
91,227,23983,5,8,0:0:0:0:
45,197,24076,1,8,0:0:0:0:
32,143,24170,1,10,0:0:0:0:
53,92,24264,1,8,0:0:0:0:
99,62,24358,6,0,P|126:61|160:72,1,55,6|0,1:2|1:2,0:0:0:0:
336,21,24545,2,0,P|309:28|282:27,1,55,10|0,1:2|1:2,0:0:0:0:
176,220,24733,2,0,P|171:247|173:275,1,55,2|0,1:2|1:2,0:0:0:0:
344,157,24920,2,0,P|346:129|341:102,1,55,10|0,1:2|0:0,0:0:0:0:
237,352,25108,2,0,L|173:357,1,55,2|0,0:0|0:0,0:0:0:0:
1,291,25295,1,10,0:0:0:0:
138,94,25483,5,2,1:2:0:0:
109,47,25576,1,0,1:2:0:0:
54,41,25670,1,10,1:2:0:0:
11,76,25764,1,0,1:2:0:0:
12,131,25858,1,2,1:2:0:0:
56,162,25951,1,0,1:2:0:0:
127,132,26045,5,10,1:2:0:0:
203,120,26139,1,2,0:0:0:0:
260,171,26233,1,2,0:0:0:0:
252,247,26326,1,2,0:0:0:0:
186,288,26420,1,10,0:0:0:0:
114,258,26514,1,2,0:0:0:0:
91,184,26608,5,2,1:2:0:0:
129,186,26701,1,0,1:2:0:0:
167,188,26795,1,10,1:2:0:0:
205,190,26889,1,0,1:2:0:0:
243,192,26983,1,2,1:2:0:0:
281,194,27076,1,0,1:2:0:0:
319,196,27170,1,10,1:2:0:0:
357,198,27264,1,0,1:2:0:0:
395,200,27358,6,0,L|376:123,1,68.75,2|0,1:2|1:2,0:0:0:0:
213,59,27545,2,0,L|158:1,1,68.75,10|0,1:2|1:2,0:0:0:0:
483,50,27733,2,0,L|406:27,1,68.75,2|0,1:2|1:2,0:0:0:0:
269,137,27920,2,0,L|191:156,1,68.75,10|0,1:2|0:0,0:0:0:0:
344,0,28108,2,0,L|286:54,1,68.75,2|0,0:0|0:0,0:0:0:0:
312,229,28295,1,10,0:0:0:0:
110,262,28483,5,10,0:0:0:0:
68,218,28576,1,8,0:0:0:0:
66,157,28670,1,8,0:3:0:0:
99,106,28764,1,8,0:3:0:0:
115,101,28858,5,2,0:0:0:0:
256,192,28951,12,0,30264,0:0:0:0:
275,166,30358,5,14,0:0:0:0:
329,189,30451,1,0,1:2:0:0:
352,243,30545,1,8,0:0:0:0:
331,298,30639,1,0,1:2:0:0:
278,324,30733,1,8,0:0:0:0:
222,306,30826,1,0,1:2:0:0:
194,255,30920,1,8,0:0:0:0:
209,198,31014,1,0,1:2:0:0:
259,167,31108,5,8,0:0:0:0:
256,226,31201,1,0,1:2:0:0:
203,256,31295,1,8,0:0:0:0:
143,246,31389,1,0,1:2:0:0:
108,195,31483,5,8,0:0:0:0:
148,149,31576,1,0,1:2:0:0:
150,89,31670,1,8,0:0:0:0:
102,55,31764,1,0,1:2:0:0:
42,81,31858,5,8,0:0:0:0:
31,145,31952,1,0,1:2:0:0:
77,190,32046,1,8,0:0:0:0:
142,183,32140,1,0,1:2:0:0:
192,141,32233,1,8,0:0:0:0:
257,133,32327,1,0,1:2:0:0:
308,173,32421,1,8,0:0:0:0:
307,238,32515,1,0,1:2:0:0:
247,265,32608,5,8,0:0:0:0:
243,226,32702,1,8,0:0:0:0:
241,187,32796,1,0,1:2:0:0:
236,148,32890,1,8,0:0:0:0:
203,112,32983,5,8,0:0:0:0:
205,87,33077,1,0,1:2:0:0:
206,63,33171,1,8,0:0:0:0:
209,38,33265,1,0,1:2:0:0:
212,13,33358,6,0,L|225:85,1,55,12|0,0:0|1:2,0:0:0:0:
351,190,33545,2,0,L|341:244,1,55,8|0,0:0|1:2,0:0:0:0:
306,42,33733,2,0,L|319:114,1,55,8|0,0:0|1:2,0:0:0:0:
430,248,33920,2,0,L|420:302,1,55,8|0,0:0|1:2,0:0:0:0:
509,62,34108,5,8,0:0:0:0:
466,31,34201,1,0,1:2:0:0:
415,20,34295,1,8,0:0:0:0:
365,27,34389,1,0,1:2:0:0:
319,54,34483,1,8,0:0:0:0:
276,83,34576,1,0,1:2:0:0:
226,94,34670,1,8,0:0:0:0:
176,87,34764,1,0,1:2:0:0:
130,60,34858,6,0,B|112:28|112:28|94:176,2,146.666666666667,8|8|8,0:2|1:2|1:2,0:0:0:0:
202,191,35233,2,0,B|220:223|220:223|233:113,2,146.666666666667,8|8|8,1:2|1:2|1:2,0:0:0:0:
108,224,35608,5,8,1:2:0:0:
149,317,35733,1,8,1:2:0:0:
250,327,35858,1,8,1:2:0:0:
309,244,35983,1,8,1:3:0:0:
309,244,36358,6,0,L|303:120,2,110,4|4|12,1:2|0:0|0:0,0:0:0:0:
408,327,37483,1,4,0:0:0:0:
416,324,37858,1,4,0:0:0:0:
424,321,38233,1,4,0:0:0:0:
504,135,38608,5,12,0:0:0:0:
320,194,38795,1,0,1:2:0:0:
392,48,38983,2,0,L|387:13,5,25.6666658833822,4|0|0|0|0|0,1:2|1:2|1:2|1:2|1:2|1:2,0:0:0:0:
367,83,39358,6,0,L|325:89,1,38.4999988250733,4|0,1:2|1:2,0:0:0:0:
220,192,39545,2,0,L|181:185,1,38.4999988250733,0|0,1:2|1:2,0:0:0:0:
140,49,39733,2,0,L|98:55,1,38.4999988250733,4|0,1:2|1:2,0:0:0:0:
34,212,39920,1,0,1:2:0:0:
39,242,40014,1,0,1:2:0:0:
44,272,40108,2,0,P|107:275|157:283,1,110,12|4,0:0|0:0,0:0:0:0:
366,360,40858,5,8,0:0:0:0:
361,314,40951,1,8,0:0:0:0:
356,268,41045,1,8,0:0:0:0:
351,222,41139,1,8,0:0:0:0:
346,176,41233,5,0,1:2:0:0:
339,182,41326,1,0,1:2:0:0:
332,188,41420,1,0,1:2:0:0:
325,194,41514,1,0,1:2:0:0:
318,200,41608,5,8,0:0:0:0:
272,211,41701,1,8,0:0:0:0:
229,190,41795,1,8,0:0:0:0:
216,144,41889,1,8,0:0:0:0:
225,98,41983,2,0,L|226:70,5,18.3333333333333,8|8|8|0|0|0,0:3|0:3|0:3|1:2|1:0|1:0,0:0:0:0:
213,55,42358,6,0,B|188:40|188:40|164:55|164:55|30:48,1,192.5,4|0,1:2|0:0,0:0:0:0:
0,119,43108,1,12,0:0:0:0:
0,119,43483,2,0,L|7:244,1,110,4|4,1:2|0:0,0:0:0:0:
14,236,44233,1,4,0:0:0:0:
219,108,44608,5,12,0:0:0:0:
205,263,44795,1,0,1:2:0:0:
301,160,44983,2,0,B|320:133|320:133|315:93,2,73.3333333333333,4|0|0,1:2|1:2|1:2,0:0:0:0:
207,186,45358,6,0,L|167:191,1,38.4999988250733,4|0,1:2|1:2,0:0:0:0:
62,318,45545,2,0,L|102:323,1,38.4999988250733,0|0,1:2|1:2,0:0:0:0:
217,173,45733,2,0,L|177:178,1,38.4999988250733,4|0,1:2|1:2,0:0:0:0:
17,240,45920,1,0,1:2:0:0:
14,208,46014,1,0,1:2:0:0:
11,177,46108,1,12,0:0:0:0:
11,177,46483,6,0,P|54:178|89:161,1,76.9999976501466,4|0,0:0|0:0,0:0:0:0:
96,141,46717,2,0,L|97:116,3,24.74999924469,0|0|0|12,1:2|1:2|1:2|0:0,0:0:0:0:
180,269,47045,1,4,1:2:0:0:
292,107,47233,1,4,1:2:0:0:
270,266,47420,1,4,1:2:0:0:
194,71,47608,1,12,0:0:0:0:
361,194,47795,6,0,B|379:186|379:186|396:194|396:194|420:178|443:187|443:187|416:208,1,93.500001783371,0|0,1:2|0:0,0:0:0:0:
188,281,47983,2,0,B|185:300|185:300|170:311|170:311|172:340|152:355|152:355|148:321,1,93.500001783371,0|0,1:2|0:0,0:0:0:0:
199,87,48170,2,0,B|183:75|183:75|181:56|181:56|155:43|152:18|152:18|183:32,1,93.500001783371,0|0,1:2|0:0,0:0:0:0:
285,259,48358,6,0,B|201:320|200:224|96:258|96:258|114:219|114:219|82:184|97:139,1,330,2|0,0:0|0:0,0:0:0:0:
174,163,49926,6,0,B|181:125|219:97|219:97|94:132|34:95|34:95|63:108|91:98,1,330,2|0,0:0|0:0,0:0:0:0:
67,19,51495,6,0,B|144:37|223:-2|223:-2|276:39|344:38|344:38|290:61,1,330,2|0,0:0|0:0,0:0:0:0:
254,130,53063,2,0,L|251:211,1,66,2|0,0:0|0:0,0:0:0:0:
234,293,53456,5,2,0:0:0:0:
271,287,53587,1,2,0:0:0:0:
308,281,53717,1,2,0:0:0:0:
377,312,53848,5,2,0:0:0:0:
434,318,53978,1,2,0:0:0:0:
492,324,54109,1,2,0:0:0:0:
472,244,54240,5,2,0:0:0:0:
504,168,54371,1,2,0:0:0:0:
462,97,54501,1,2,0:0:0:0:
506,24,54632,6,0,P|421:76|346:41,1,165,8|0,1:3|0:0,0:0:0:0:
272,5,55011,2,0,L|258:169,2,165.000006294251,10|2|2,1:3|0:0|0:0,0:0:0:0:
498,281,56150,6,0,P|413:229|338:264,1,165,8|0,1:3|0:0,0:0:0:0:
264,300,56530,2,0,L|250:135,2,165.000006294251,10|2|2,1:3|0:0|0:0,0:0:0:0:
0,315,57669,6,0,P|85:367|160:332,1,165,8|0,1:3|0:0,0:0:0:0:
181,266,58049,1,10,1:3:0:0:
62,178,58239,1,2,0:0:0:0:
62,178,58429,2,0,L|73:83,1,82.5000031471254,2|2,0:0|0:0,0:0:0:0:
221,27,58999,1,2,0:0:0:0:
280,190,59188,6,0,P|251:234|191:233,1,98.9999969787599,2|0,0:0|0:0,0:0:0:0:
269,157,59568,6,0,P|226:150|202:112,1,82.5,2|0,0:0|0:0,0:0:0:0:
285,124,59948,6,0,P|275:93|284:61,1,66,2|0,0:0|0:0,0:0:0:0:
310,115,60328,6,0,P|328:98|350:88,1,49.4999984893799,2|0,0:0|0:0,0:0:0:0:
423,148,60707,5,4,1:2:0:0:
274,9,60897,1,8,0:0:0:0:
353,229,61087,1,2,1:2:0:0:
353,229,61182,1,0,1:0:0:0:
353,229,61277,1,8,0:0:0:0:
175,192,61467,1,2,1:2:0:0:
285,27,61657,2,0,L|278:159,1,110,8|2,0:0|1:2,0:0:0:0:
303,155,61942,1,0,1:0:0:0:
303,155,62037,1,8,0:0:0:0:
361,313,62226,6,0,P|309:335|251:341,1,110,4|8,1:2|0:0,0:0:0:0:
160,192,62606,1,2,1:2:0:0:
160,192,62701,1,0,1:0:0:0:
160,192,62796,1,8,0:0:0:0:
81,360,62986,1,2,1:2:0:0:
48,315,63081,1,0,1:2:0:0:
47,259,63176,1,8,1:2:0:0:
83,217,63271,1,0,1:2:0:0:
122,178,63366,1,2,1:2:0:0:
113,123,63461,1,0,1:2:0:0:
66,94,63556,1,8,1:2:0:0:
15,114,63650,1,0,1:2:0:0:
0,167,63745,6,0,P|62:162|148:158,1,110,0|8,1:2|0:0,0:0:0:0:
184,326,64125,1,2,1:2:0:0:
184,326,64220,1,0,1:2:0:0:
184,326,64315,1,10,0:0:0:0:
246,125,64505,1,2,1:2:0:0:
291,314,64695,1,10,0:0:0:0:
139,134,64885,1,2,1:2:0:0:
139,134,64980,1,0,1:2:0:0:
139,134,65075,6,0,P|125:74|133:24,1,110,10|0,0:0|1:2,0:0:0:0:
349,22,65454,1,8,1:2:0:0:
382,58,65549,1,0,1:2:0:0:
372,106,65644,1,2,1:2:0:0:
332,135,65739,1,0,1:2:0:0:
283,126,65834,1,10,1:2:0:0:
259,82,65929,1,0,1:2:0:0:
273,34,66024,5,0,1:2:0:0:
338,38,66119,1,0,1:2:0:0:
380,88,66214,1,10,1:2:0:0:
379,154,66309,1,0,1:2:0:0:
335,203,66404,1,0,1:2:0:0:
329,268,66499,1,0,1:2:0:0:
367,322,66594,1,8,1:2:0:0:
432,324,66688,1,0,1:2:0:0:
470,270,66783,6,0,L|463:161,1,110,4|8,1:2|0:0,0:0:0:0:
336,25,67163,1,2,1:2:0:0:
336,25,67258,1,0,1:2:0:0:
336,25,67353,1,8,0:0:0:0:
361,212,67543,1,2,1:2:0:0:
495,52,67733,1,8,0:0:0:0:
261,103,67923,1,2,1:2:0:0:
261,103,68018,1,0,1:2:0:0:
261,103,68113,1,8,0:2:0:0:
395,228,68302,6,0,P|407:280|388:337,1,110,0|8,1:2|0:2,0:0:0:0:
160,362,68682,1,2,1:2:0:0:
160,362,68777,1,0,1:2:0:0:
160,362,68872,1,8,0:2:0:0:
314,277,69062,1,2,1:2:0:0:
311,227,69157,1,0,1:2:0:0:
308,177,69252,1,8,1:2:0:0:
305,128,69347,1,0,1:2:0:0:
303,78,69442,5,2,1:2:0:0:
263,124,69538,1,0,1:2:0:0:
205,140,69632,1,8,1:2:0:0:
147,121,69726,1,0,1:2:0:0:
120,66,69821,5,4,1:2:0:0:
4,211,70011,2,0,L|9:339,1,110,8|0,0:0|1:2,0:0:0:0:
25,350,70296,1,0,1:0:0:0:
25,350,70391,1,10,0:0:0:0:
108,156,70581,1,2,1:2:0:0:
20,36,70771,2,0,P|81:22|141:22,1,110,10|0,0:0|1:2,0:0:0:0:
153,39,71056,1,0,1:0:0:0:
153,39,71151,1,10,0:0:0:0:
284,212,71340,5,4,1:2:0:0:
276,241,71435,1,0,1:2:0:0:
268,270,71530,2,0,L|202:283,1,55,8|0,1:2|1:2,0:0:0:0:
445,85,71720,1,2,1:2:0:0:
435,119,71815,1,0,1:2:0:0:
425,154,71910,2,0,L|371:164,1,55,10|0,1:2|1:2,0:0:0:0:
379,282,72100,5,0,1:2:0:0:
391,325,72195,1,0,1:2:0:0:
403,369,72290,2,0,L|456:379,1,55,10|0,1:2|1:2,0:0:0:0:
289,181,72480,1,0,1:2:0:0:
274,127,72575,1,0,1:2:0:0:
259,72,72670,2,0,L|191:58,1,55,8|0,1:2|1:2,0:0:0:0:
84,188,72859,5,4,1:2:0:0:
57,236,72954,1,8,0:0:0:0:
62,290,73049,1,8,0:0:0:0:
98,331,73144,1,8,0:0:0:0:
151,342,73239,1,6,1:2:0:0:
201,319,73334,1,8,0:0:0:0:
230,272,73429,1,8,0:0:0:0:
230,216,73524,1,8,0:0:0:0:
191,154,73619,5,6,1:2:0:0:
166,86,73714,1,8,0:0:0:0:
212,30,73809,1,8,0:0:0:0:
283,41,73904,1,8,0:0:0:0:
308,107,73999,1,4,1:2:0:0:
263,161,74094,1,8,0:0:0:0:
191,154,74189,1,8,1:2:0:0:
54,17,74378,6,0,L|61:135,1,110,2|2,0:0|0:0,0:0:0:0:
181,222,75138,5,2,0:0:0:0:
171,209,75328,5,2,0:0:0:0:
157,214,75518,5,2,0:0:0:0:
164,230,75707,5,2,0:0:0:0:
250,74,75919,5,4,1:2:0:0:
281,36,76015,1,0,1:2:0:0:
329,25,76111,1,0,1:2:0:0:
378,30,76207,1,0,1:2:0:0:
412,65,76303,1,0,1:2:0:0:
426,112,76399,1,0,1:2:0:0:
412,159,76495,1,0,1:2:0:0:
319,347,76688,2,0,L|424:338,1,82.5000031471254,12|0,0:0|0:0,0:0:0:0:
310,184,77072,5,0,1:2:0:0:
260,180,77169,1,0,1:2:0:0:
210,176,77265,1,0,1:2:0:0:
160,172,77361,1,0,1:2:0:0:
110,168,77457,1,4,1:2:0:0:
60,164,77553,1,0,1:2:0:0:
10,160,77649,2,0,B|2:220|2:220|20:260|20:260|11:338,1,165.000006294251,0|0,1:2|0:0,0:0:0:0:
166,67,78226,5,14,0:0:0:0:
213,104,78322,1,0,1:2:0:0:
216,164,78419,1,0,1:2:0:0:
175,209,78515,1,0,1:2:0:0:
128,246,78610,1,0,1:2:0:0:
125,306,78707,1,0,1:2:0:0:
166,351,78803,1,0,1:2:0:0:
20,153,78995,5,4,1:2:0:0:
25,103,79092,1,0,1:2:0:0:
51,61,79188,1,0,1:2:0:0:
91,32,79284,1,0,1:2:0:0:
139,24,79380,1,2,1:2:0:0:
188,28,79476,1,0,1:2:0:0:
228,56,79572,1,0,1:2:0:0:
208,237,79765,2,0,P|204:277|218:316,1,82.5000031471254,14|0,0:0|0:0,0:0:0:0:
435,177,80149,5,0,1:2:0:0:
402,183,80245,1,0,1:2:0:0:
369,189,80342,1,0,1:2:0:0:
336,195,80438,1,0,1:2:0:0:
258,231,80534,5,14,0:0:0:0:
312,240,80630,1,8,0:0:0:0:
366,250,80727,1,0,1:2:0:0:
421,260,80823,1,0,1:2:0:0:
474,246,80919,5,10,0:3:0:0:
507,202,81015,1,8,0:3:0:0:
494,148,81112,1,0,1:2:0:0:
451,113,81208,1,0,1:2:0:0:
394,119,81303,6,0,B|363:146|332:138|332:138|353:125,1,82.5000031471254,10|0,0:0|0:0,0:0:0:0:
214,32,81495,2,0,B|183:4|152:12|152:12|173:25,1,82.5000031471254,2|0,0:0|0:0,0:0:0:0:
197,256,81688,2,0,B|169:225|177:194|177:194|190:215,1,82.5000031471254,2|0,0:0|0:0,0:0:0:0:
284,76,81880,2,0,B|311:45|303:14|303:14|290:35,1,82.5000031471254,2|0,0:0|0:0,0:0:0:0:
324,250,82072,5,4,1:2:0:0:
342,296,82168,1,0,1:2:0:0:
331,344,82265,1,0,1:2:0:0:
290,372,82361,1,0,1:2:0:0:
241,364,82457,1,0,1:2:0:0:
207,327,82553,1,0,1:2:0:0:
204,277,82649,1,0,1:2:0:0:
211,73,82842,2,0,L|119:85,1,82.5000031471254,12|0,0:0|0:0,0:0:0:0:
5,246,83226,5,0,1:2:0:0:
28,289,83322,1,0,1:2:0:0:
76,300,83419,1,0,1:2:0:0:
123,286,83515,1,0,1:2:0:0:
170,274,83611,1,4,1:2:0:0:
217,288,83707,1,0,1:2:0:0:
258,314,83803,2,0,P|338:207|330:172,1,165.000006294251,0|0,1:2|0:0,0:0:0:0:
437,49,84380,6,0,B|467:25|467:25|502:32,2,73.3333333333333,12|0|0,0:0|1:2|1:2,0:0:0:0:
509,180,84765,2,0,B|474:186|474:186|443:163,2,73.3333333333333,0|0|0,1:2|1:2|1:2,0:0:0:0:
503,306,85149,5,4,1:2:0:0:
455,309,85245,1,0,1:2:0:0:
407,313,85342,1,0,1:2:0:0:
359,317,85438,1,0,1:2:0:0:
310,321,85534,1,0,1:2:0:0:
262,325,85630,1,0,1:2:0:0:
214,329,85726,1,0,1:2:0:0:
311,138,85919,2,0,L|307:242,1,82.5000031471254,12|0,0:0|0:0,0:0:0:0:
192,82,86303,5,0,1:2:0:0:
152,63,86399,1,0,1:2:0:0:
109,72,86495,1,0,1:2:0:0:
81,106,86592,1,0,1:2:0:0:
69,148,86688,5,12,0:0:0:0:
124,175,86784,1,8,0:0:0:0:
183,162,86880,1,0,1:2:0:0:
222,115,86977,1,0,1:2:0:0:
230,55,87072,5,8,0:3:0:0:
162,21,87168,1,8,0:3:0:0:
88,38,87264,1,0,1:2:0:0:
40,96,87361,1,0,1:2:0:0:
40,117,87457,5,8,1:3:0:0:
52,124,87649,5,2,0:0:0:0:
39,136,87842,5,2,0:0:0:0:
52,147,88034,5,2,0:0:0:0:
255,34,88226,6,0,L|261:98,1,44,6|0,1:2|0:0,0:0:0:0:
398,167,88419,2,0,P|441:171|499:140,1,88,8|2,0:0|0:0,0:0:0:0:
347,33,88803,2,0,P|306:17|262:21,1,88,10|0,0:0|0:0,0:0:0:0:
195,176,89188,2,0,L|190:219,1,44,10|0,0:0|1:2,0:0:0:0:
289,348,89380,1,2,1:2:0:0:
332,355,89476,1,0,1:2:0:0:
375,359,89572,6,0,L|387:256,1,88,10|2,0:0|0:0,0:0:0:0:
328,222,89861,1,0,1:2:0:0:
327,221,89957,2,0,P|391:231|439:189,1,132,8|0,0:0|1:2,0:0:0:0:
359,31,90342,5,10,0:0:0:0:
315,38,90438,1,0,1:2:0:0:
271,45,90534,1,0,1:2:0:0:
227,52,90630,1,0,1:2:0:0:
183,59,90726,2,0,L|139:68,1,44,10|0,0:0|1:2,0:0:0:0:
8,189,90919,1,2,1:2:0:0:
52,196,91015,1,0,1:2:0:0:
96,203,91111,2,0,L|140:212,1,44,10|0,0:0|1:2,0:0:0:0:
319,117,91303,5,2,1:2:0:0:
362,154,91399,1,0,1:2:0:0:
375,209,91495,1,8,0:0:0:0:
351,261,91592,1,2,1:2:0:0:
300,288,91688,1,0,1:2:0:0:
243,280,91784,1,0,1:2:0:0:
208,234,91880,1,10,0:0:0:0:
152,220,91976,1,0,1:2:0:0:
96,233,92072,1,0,1:2:0:0:
59,277,92169,1,0,1:2:0:0:
49,333,92265,5,10,0:0:0:0:
112,298,92361,1,0,1:2:0:0:
110,226,92457,1,2,1:2:0:0:
76,161,92553,1,0,1:2:0:0:
9,132,92649,2,0,L|12:182,1,44,10|0,0:0|1:2,0:0:0:0:
109,370,92842,6,0,P|157:368|217:345,1,98.9999969787599,2|2,0:0|0:0,0:0:0:0:
278,130,93419,2,0,B|275:157|294:181|294:181|268:235|268:235|282:268|282:268|285:246,1,164.9999949646,2|0,0:0|0:0,0:0:0:0:
360,239,93995,1,8,0:0:0:0:
360,239,94380,6,0,L|415:246,1,55,10|0,0:0|1:2,0:0:0:0:
452,85,94572,2,0,L|507:92,1,55,0|0,1:2|0:0,0:0:0:0:
512,312,94765,1,10,0:0:0:0:
461,354,94861,1,0,1:2:0:0:
395,364,94957,1,10,0:0:0:0:
332,343,95053,1,0,1:2:0:0:
292,290,95149,2,0,P|290:262|296:235,1,55,10|0,0:0|1:2,0:0:0:0:
350,81,95342,2,0,P|351:53|345:26,1,55,10|0,0:0|0:0,0:0:0:0:
230,155,95534,5,10,0:0:0:0:
175,209,95630,1,0,1:2:0:0:
98,213,95726,1,10,0:0:0:0:
38,164,95822,1,0,1:2:0:0:
41,86,95919,2,0,L|102:88,1,55,10|0,0:0|1:2,0:0:0:0:
24,272,96111,5,10,0:0:0:0:
33,309,96207,1,0,1:2:0:0:
44,345,96303,2,0,P|69:353|96:350,1,55,10|0,0:0|1:2,0:0:0:0:
209,151,96495,1,10,0:0:0:0:
196,195,96591,1,0,1:2:0:0:
185,239,96688,2,0,B|217:262|217:262|268:264,1,68.75,10|0,0:0|1:2,0:0:0:0:
359,149,96880,2,0,B|398:153|398:153|443:129,1,68.75,10|0,0:0|1:0,0:0:0:0:
226,52,97072,2,0,L|222:7,5,36.6666666666667,10|8|8|10|8|8,0:3|1:3|1:3|1:3|1:3|1:3,0:0:0:0:
200,93,97457,5,10,1:2:0:0:
164,117,97553,1,0,1:2:0:0:
122,123,97649,1,10,1:2:0:0:
83,106,97745,1,0,1:2:0:0:
50,75,97842,5,10,1:2:0:0:
43,150,97938,1,0,1:2:0:0:
36,225,98034,1,10,1:2:0:0:
29,300,98130,1,0,1:2:0:0:
22,375,98226,5,10,1:2:0:0:
61,355,98322,1,0,1:2:0:0:
104,344,98419,1,10,1:2:0:0:
147,350,98515,1,0,1:2:0:0:
184,372,98611,5,10,1:2:0:0:
257,350,98707,1,0,1:2:0:0:
295,283,98803,1,10,1:2:0:0:
275,208,98899,1,0,1:2:0:0:
215,158,98995,6,0,L|247:145,1,32.99999899292,2|0,1:2|1:2,0:0:0:0:
238,91,99092,2,0,L|265:110,1,32.99999899292,0|0,1:2|1:2,0:0:0:0:
307,77,99188,2,0,L|304:110,1,32.99999899292,2|0,1:2|1:2,0:0:0:0:
354,130,99284,2,0,L|323:144,1,32.99999899292,0|0,1:2|1:2,0:0:0:0:
336,201,99380,6,0,L|367:222,1,32.99999899292,2|0,1:2|1:2,0:0:0:0:
309,278,99476,2,0,L|345:262,1,32.99999899292,0|0,1:2|1:2,0:0:0:0:
362,340,99572,2,0,L|367:300,1,32.99999899292,2|0,1:2|1:2,0:0:0:0:
442,325,99668,2,0,L|410:300,1,32.99999899292,0|0,1:2|1:2,0:0:0:0:
469,248,99765,5,10,1:3:0:0:
225,77,100534,5,4,1:2:0:0:
230,140,100630,1,0,1:2:0:0:
280,180,100726,1,0,1:2:0:0:
398,57,100919,2,0,L|308:98,1,98.9999969787599,2|0,0:0|0:0,0:0:0:0:
346,245,101303,5,4,1:2:0:0:
340,308,101399,1,0,1:2:0:0:
290,348,101495,1,0,1:2:0:0:
171,225,101688,2,0,L|261:265,1,98.9999969787599,2|0,0:0|0:0,0:0:0:0:
401,172,102072,5,4,1:2:0:0:
446,126,102168,1,0,1:2:0:0:
494,83,102264,1,0,1:2:0:0:
265,47,102457,2,0,L|334:117,1,98.9999969787599,2|0,0:0|0:0,0:0:0:0:
296,248,102842,5,12,1:3:0:0:
250,293,102938,1,8,1:3:0:0:
202,336,103034,1,8,1:3:0:0:
427,379,103227,2,0,L|357:308,1,98.9999969787599,2|0,0:0|0:0,0:0:0:0:
216,236,103610,5,4,1:2:0:0:
151,242,103706,1,0,1:2:0:0:
109,292,103802,1,0,1:2:0:0:
18,178,103995,6,0,B|54:150|54:150|93:167|93:167|141:134|196:160,1,197.99999395752,2|0,0:0|0:0,0:0:0:0:
90,59,104380,2,0,P|88:31|77:7,1,55,8|0,0:0|0:0,0:0:0:0:
151,242,104572,2,0,P|139:266|137:294,1,55,0|0,1:2|0:0,0:0:0:0:
277,89,104765,2,0,B|320:48|400:46|400:46|358:40|339:26,1,197.99999395752,2|0,0:0|0:0,0:0:0:0:
431,121,105149,5,0,1:2:0:0:
459,168,105245,1,0,1:2:0:0:
462,223,105342,1,2,1:2:0:0:
434,270,105438,1,0,1:2:0:0:
383,292,105534,1,0,1:2:0:0:
329,278,105630,1,0,1:2:0:0:
289,240,105726,1,2,1:2:0:0:
234,234,105822,1,0,1:2:0:0:
188,265,105919,6,0,L|196:343,2,73.3333333333333,8|8|2,0:0|0:3|1:2,0:0:0:0:
111,178,106303,2,0,L|118:105,2,73.3333333333333,8|0|0,0:0|0:0|0:0,0:0:0:0:
42,285,106688,5,4,1:2:0:0:
76,325,106784,1,0,1:2:0:0:
128,326,106880,1,0,1:2:0:0:
171,296,106976,1,2,0:0:0:0:
191,247,107072,1,2,0:0:0:0:
170,197,107169,1,2,0:0:0:0:
183,145,107265,1,2,0:0:0:0:
231,124,107361,1,2,0:0:0:0:
289,133,107457,5,12,1:2:0:0:
331,169,107553,1,0,1:2:0:0:
387,164,107649,1,0,1:2:0:0:
423,121,107745,1,2,0:0:0:0:
412,65,107841,1,2,0:0:0:0:
366,35,107938,1,2,0:0:0:0:
311,47,108034,1,2,0:0:0:0:
283,96,108130,1,2,0:0:0:0:
297,161,108226,5,4,1:2:0:0:
306,98,108322,1,0,1:2:0:0:
265,51,108418,1,0,1:2:0:0:
201,51,108514,1,2,0:0:0:0:
154,92,108610,1,2,0:0:0:0:
149,154,108707,1,2,0:0:0:0:
175,211,108803,1,2,0:0:0:0:
233,231,108899,1,2,0:0:0:0:
301,212,108995,5,12,1:2:0:0:
367,234,109091,1,0,1:2:0:0:
371,304,109187,1,0,1:2:0:0:
316,347,109283,1,2,0:0:0:0:
249,322,109379,1,2,0:0:0:0:
236,252,109476,1,2,0:0:0:0:
275,193,109572,1,2,0:0:0:0:
297,126,109668,1,2,0:0:0:0:
257,66,109765,6,0,L|211:76,3,44,4|0|0|2,1:2|1:2|1:2|0:0,0:0:0:0:
140,181,110149,2,0,L|97:171,3,44,2|2|2|2,0:0|0:0|0:0|0:0,0:0:0:0:
29,84,110534,5,12,1:2:0:0:
76,45,110630,1,0,1:2:0:0:
138,47,110726,1,0,1:2:0:0:
184,87,110822,1,2,0:0:0:0:
226,131,110918,1,8,0:0:0:0:
287,141,111015,1,2,0:0:0:0:
344,117,111111,1,8,0:0:0:0:
386,71,111207,1,2,0:0:0:0:
342,10,111303,5,12,1:2:0:0:
299,71,111399,1,2,1:2:0:0:
311,145,111495,1,0,1:2:0:0:
364,195,111591,1,8,0:0:0:0:
391,264,111687,1,0,1:2:0:0:
366,334,111784,1,0,1:2:0:0:
293,350,111880,1,8,0:0:0:0:
233,305,111976,1,8,0:0:0:0:
248,232,112072,5,8,0:0:0:0:
249,315,112168,1,0,1:2:0:0:
186,367,112264,1,0,1:2:0:0:
104,355,112360,1,0,1:2:0:0:
46,295,112456,5,8,0:0:0:0:
48,256,112553,1,8,0:3:0:0:
50,217,112649,1,8,1:3:0:0:
53,178,112745,1,8,1:3:0:0:
64,167,112842,5,0,0:0:0:0:
341,42,113226,6,0,L|459:31,2,98.9999969787599,2|2|2,0:0|0:0|0:0,0:0:0:0:
216,161,114359,6,0,P|204:215|217:273,1,110,2|8,1:2|0:2,0:0:0:0:
419,123,114738,1,2,0:0:0:0:
419,123,114833,1,0,1:2:0:0:
419,123,114928,1,10,0:2:0:0:
478,274,115118,1,0,1:2:0:0:
451,322,115213,1,0,1:2:0:0:
399,340,115308,1,10,1:2:0:0:
345,328,115403,1,0,1:2:0:0:
320,278,115498,1,0,1:2:0:0:
328,223,115593,1,0,1:2:0:0:
297,177,115688,1,10,1:2:0:0:
242,166,115783,1,0,1:2:0:0:
199,199,115877,5,4,1:2:0:0:
4,346,116067,2,0,L|116:358,1,110,10|2,0:0|1:2,0:0:0:0:
137,347,116352,1,0,1:0:0:0:
137,347,116447,1,8,0:0:0:0:
0,158,116637,1,2,1:2:0:0:
149,247,116827,1,8,0:0:0:0:
217,50,117017,1,2,1:2:0:0:
217,50,117112,1,0,1:0:0:0:
217,50,117207,1,8,0:0:0:0:
160,258,117396,5,6,1:2:0:0:
112,270,117491,1,0,1:2:0:0:
65,253,117586,1,8,1:2:0:0:
34,213,117681,1,0,1:2:0:0:
31,162,117776,1,2,1:2:0:0:
54,118,117871,1,0,1:2:0:0:
98,96,117966,1,8,1:2:0:0:
147,95,118061,1,0,1:2:0:0:
188,122,118156,5,2,1:2:0:0:
240,161,118251,1,0,1:2:0:0:
305,156,118346,1,8,1:2:0:0:
361,122,118441,1,0,1:2:0:0:
426,117,118536,1,2,1:2:0:0:
480,153,118631,1,0,1:2:0:0:
492,217,118726,1,10,1:2:0:0:
461,275,118821,1,0,1:2:0:0:
399,297,118915,6,0,L|402:168,1,110,4|8,1:2|0:0,0:0:0:0:
477,26,119295,1,2,1:2:0:0:
477,26,119390,1,0,1:0:0:0:
477,26,119485,1,8,0:0:0:0:
276,100,119675,1,2,1:2:0:0:
504,176,119865,1,8,0:0:0:0:
353,19,120055,1,2,1:2:0:0:
353,19,120150,1,0,1:0:0:0:
353,19,120245,1,8,0:0:0:0:
291,188,120434,6,0,P|286:257|302:321,1,110,4|8,1:2|0:0,0:0:0:0:
479,349,120814,1,2,1:2:0:0:
479,349,120909,1,0,1:0:0:0:
479,349,121004,1,8,0:0:0:0:
240,370,121194,1,2,1:2:0:0:
185,361,121289,1,0,1:2:0:0:
145,322,121384,1,8,1:2:0:0:
133,268,121479,1,0,1:2:0:0:
153,216,121574,1,2,1:2:0:0:
198,185,121669,1,0,1:2:0:0:
253,185,121764,1,8,1:2:0:0:
299,214,121859,1,0,1:2:0:0:
321,263,121953,5,0,1:2:0:0:
435,89,122143,2,0,L|326:105,1,110,8|0,0:0|1:0,0:0:0:0:
311,131,122428,1,0,1:2:0:0:
311,131,122523,1,10,0:0:0:0:
158,22,122713,1,2,1:2:0:0:
66,222,122903,2,0,L|72:105,1,110,10|0,0:0|1:2,0:0:0:0:
53,92,123188,1,0,1:2:0:0:
53,92,123283,1,10,0:0:0:0:
241,166,123472,5,0,1:2:0:0:
271,171,123567,1,0,1:2:0:0:
303,177,123662,2,0,L|298:233,1,55,8|0,1:2|1:2,0:0:0:0:
238,25,123852,1,0,1:2:0:0:
202,31,123947,1,0,1:2:0:0:
163,39,124042,2,0,L|169:106,1,55,8|0,1:2|1:2,0:0:0:0:
130,230,124232,5,0,1:2:0:0:
137,273,124327,1,0,1:2:0:0:
145,319,124422,2,0,P|177:323|209:314,1,55,8|0,1:2|1:2,0:0:0:0:
367,375,124612,1,0,1:2:0:0:
376,317,124707,1,0,1:2:0:0:
386,263,124802,2,0,P|355:258|325:265,1,55,8|0,1:2|1:2,0:0:0:0:
142,334,124991,5,4,1:2:0:0:
302,182,125181,1,8,0:0:0:0:
227,369,125371,1,2,1:2:0:0:
227,369,125466,1,0,1:0:0:0:
227,369,125561,1,8,0:0:0:0:
35,234,125751,2,0,P|11:184|14:130,1,110,2|8,1:2|0:0,0:0:0:0:
225,30,126131,1,2,1:2:0:0:
225,30,126226,1,0,1:0:0:0:
225,30,126321,1,8,0:0:0:0:
113,165,126510,5,4,1:2:0:0:
321,224,126700,2,0,L|431:230,1,110,8|2,0:0|1:2,0:0:0:0:
453,251,126985,1,0,1:0:0:0:
453,251,127080,1,8,0:0:0:0:
497,60,127270,1,2,1:2:0:0:
442,56,127365,1,0,1:2:0:0:
387,52,127460,1,8,1:2:0:0:
332,48,127555,1,0,1:2:0:0:
277,44,127650,1,2,1:2:0:0:
222,40,127745,1,0,1:2:0:0:
167,36,127840,1,8,1:2:0:0:
112,32,127935,1,0,1:2:0:0:
57,28,128029,6,0,L|65:168,1,110,0|8,1:2|0:0,0:0:0:0:
160,309,128409,1,2,1:2:0:0:
160,309,128504,1,0,1:2:0:0:
160,309,128599,1,10,0:0:0:0:
253,93,128789,1,2,1:2:0:0:
333,231,128979,2,0,P|343:289|312:351,1,110,10|2,0:0|1:2,0:0:0:0:
303,345,129263,1,0,1:2:0:0:
303,345,129359,1,10,0:0:0:0:
465,293,129548,5,0,1:2:0:0:
498,256,129643,1,0,1:2:0:0:
502,206,129738,1,8,1:2:0:0:
486,159,129833,1,0,1:2:0:0:
450,123,129928,1,2,1:2:0:0:
401,110,130023,1,0,1:2:0:0:
353,125,130118,1,10,1:2:0:0:
324,165,130213,1,0,1:2:0:0:
320,214,130308,5,0,1:2:0:0:
365,165,130403,1,0,1:2:0:0:
363,98,130498,1,10,1:2:0:0:
315,51,130593,1,0,1:2:0:0:
248,49,130688,1,0,1:2:0:0:
199,94,130783,1,0,1:2:0:0:
138,119,130877,1,8,1:2:0:0:
72,107,130972,1,0,1:2:0:0:
24,61,131067,6,0,P|51:107|48:162,1,110,4|8,1:2|0:0,0:0:0:0:
0,318,131447,1,2,1:2:0:0:
0,318,131542,1,0,1:2:0:0:
0,318,131637,1,8,0:0:0:0:
177,340,131827,1,2,1:2:0:0:
38,169,132017,1,8,0:0:0:0:
279,195,132207,1,2,1:2:0:0:
279,195,132302,1,0,1:2:0:0:
279,195,132396,1,8,0:2:0:0:
157,41,132586,6,0,L|165:164,1,110,0|8,1:2|0:2,0:0:0:0:
345,24,132966,1,2,1:2:0:0:
345,24,133061,1,0,1:2:0:0:
345,24,133156,1,8,0:2:0:0:
251,172,133346,1,2,1:2:0:0:
267,224,133441,1,0,1:2:0:0:
306,262,133536,1,8,1:2:0:0:
358,277,133631,1,0,1:2:0:0:
412,267,133726,1,2,1:2:0:0:
454,231,133821,1,0,1:2:0:0:
474,180,133915,1,8,1:2:0:0:
467,125,134010,1,0,1:2:0:0:
434,80,134105,5,4,1:2:0:0:
224,50,134295,2,0,P|169:59|116:74,1,110,8|0,0:0|1:2,0:0:0:0:
106,108,134580,1,0,1:0:0:0:
106,108,134675,1,10,0:0:0:0:
292,201,134865,1,2,1:2:0:0:
402,54,135055,2,0,P|427:103|424:158,1,110,10|0,0:0|1:2,0:0:0:0:
404,181,135340,1,0,1:0:0:0:
404,181,135434,1,10,0:0:0:0:
268,354,135624,5,4,1:2:0:0:
300,361,135719,1,0,1:2:0:0:
332,368,135814,2,0,L|385:380,1,55,8|0,1:2|1:2,0:0:0:0:
179,252,136004,1,2,1:2:0:0:
140,260,136099,1,0,1:2:0:0:
100,269,136194,2,0,L|46:281,1,55,10|0,1:2|1:2,0:0:0:0:
256,142,136384,5,0,1:2:0:0:
301,151,136479,1,0,1:2:0:0:
348,161,136574,2,0,L|410:175,1,55,10|0,1:2|1:2,0:0:0:0:
172,40,136764,1,0,1:2:0:0:
116,49,136859,1,0,1:2:0:0:
61,61,136954,2,0,L|2:74,1,55,8|0,1:2|1:2,0:0:0:0:
43,261,137143,5,4,1:2:0:0:
88,292,137238,1,8,0:0:0:0:
142,294,137333,1,8,0:0:0:0:
194,277,137428,1,8,0:0:0:0:
233,238,137523,1,6,1:2:0:0:
286,224,137618,1,8,0:0:0:0:
340,232,137713,1,8,0:0:0:0:
382,267,137808,1,8,0:0:0:0:
453,269,137903,5,6,1:2:0:0:
489,207,137998,1,8,0:0:0:0:
466,139,138093,1,8,0:0:0:0:
400,110,138188,1,8,0:0:0:0:
337,145,138283,1,4,1:2:0:0:
324,214,138377,1,8,0:0:0:0:
365,272,138472,1,8,1:2:0:0:
356,342,138567,1,0,1:2:0:0:
295,380,138662,5,10,1:2:0:0:
404,196,138852,1,10,1:2:0:0:
197,45,141131,5,8,1:2:0:0:
190,104,141226,1,0,1:2:0:0:
184,164,141321,1,8,1:2:0:0:
477,109,141700,1,8,1:2:0:0:
502,346,141890,1,8,1:2:0:0:
130,270,144738,5,8,1:2:0:0:
155,33,144928,1,8,1:2:0:0:
232,291,147207,5,8,1:2:0:0:
292,285,147302,1,0,1:2:0:0:
351,278,147397,1,8,1:2:0:0:
509,119,147776,1,8,1:2:0:0:
272,94,147966,1,8,1:2:0:0:
395,250,148156,1,8,1:2:0:0:
344,16,148346,1,8,1:2:0:0:
287,184,148536,5,8,0:0:0:0:
266,201,148631,1,8,0:0:0:0:
245,218,148726,1,8,0:0:0:0:
224,235,148821,1,8,0:0:0:0:
179,297,148916,5,8,0:0:0:0:
231,279,149010,1,8,0:0:0:0:
252,228,149105,1,8,0:0:0:0:
237,175,149200,1,8,0:0:0:0:
172,139,149295,5,8,0:0:0:0:
256,192,149390,12,0,150719,0:0:0:0:
305,73,150814,5,8,1:2:0:0:
360,70,150909,1,0,1:2:0:0:
413,69,151004,1,10,1:2:0:0:
353,187,151194,1,2,0:0:0:0:
421,82,151384,1,2,0:0:0:0:
477,169,151574,2,0,L|470:245,1,65.9999979858399,2|0,0:0|0:0,0:0:0:0:
352,271,151953,2,0,L|358:205,1,65.9999979858399,2|2,0:0|0:0,0:0:0:0:
261,133,152333,6,0,P|228:126|196:130,1,65.9999979858399,2|2,0:0|0:0,0:0:0:0:
138,214,152713,1,2,0:0:0:0:
53,127,152903,2,0,L|8:138,1,32.99999899292,2|0,1:2|1:2,0:0:0:0:
47,94,152998,2,0,L|2:105,1,32.99999899292,0|0,1:2|1:2,0:0:0:0:
41,61,153093,1,8,0:0:0:0:
0,267,153283,1,10,1:2:0:0:
227,210,153472,1,0,1:2:0:0:
261,232,153567,1,0,1:2:0:0:
272,273,153662,1,8,0:0:0:0:
262,313,153757,1,0,1:2:0:0:
224,350,153852,5,8,1:2:0:0:
171,351,153947,1,0,1:2:0:0:
118,352,154042,1,10,1:2:0:0:
131,223,154232,1,2,0:0:0:0:
228,166,154422,1,0,0:0:0:0:
144,56,154612,2,0,P|135:86|134:134,1,65.9999979858399,2|2,0:0|0:0,0:0:0:0:
250,37,154991,1,2,0:0:0:0:
222,182,155181,1,2,0:0:0:0:
349,106,155371,6,0,L|418:97,1,65.9999979858399,2|0,0:0|0:0,0:0:0:0:
445,76,155656,2,0,P|443:132|451:187,1,98.9999969787599,0|2,0:0|0:0,0:0:0:0:
512,356,156131,1,8,1:2:0:0:
331,246,156321,2,0,B|266:241|266:241|234:254,1,98.9999969787599,10|0,1:2|0:0,0:0:0:0:
220,282,156700,1,8,1:2:0:0:
355,130,156890,5,8,1:2:0:0:
293,339,157080,1,10,1:2:0:0:
232,165,157270,1,10,1:2:0:0:
144,235,157460,1,2,0:0:0:0:
40,130,157650,2,0,P|72:122|111:122,1,65.9999979858399,2|2,0:0|0:0,0:0:0:0:
69,293,158029,2,0,P|36:292|4:284,1,65.9999979858399,2|2,0:0|0:0,0:0:0:0:
238,179,158409,6,0,L|240:273,1,82.5000031471254,2|0,0:0|0:0,0:0:0:0:
129,369,158789,1,2,0:0:0:0:
156,272,158979,1,2,0:0:0:0:
352,353,159169,5,8,1:2:0:0:
151,260,159359,1,10,1:2:0:0:
340,194,159548,1,8,1:2:0:0:
187,46,159738,1,10,1:2:0:0:
187,46,159928,6,0,P|220:46|251:34,2,65.9999979858399,2|0|0,0:0|0:0|0:0,0:0:0:0:
295,122,160498,2,0,P|358:118|426:143,1,131.99999597168,2|2,0:0|0:0,0:0:0:0:
337,252,161257,1,2,0:0:0:0:
506,151,161447,5,2,0:0:0:0:
464,218,161827,1,2,0:0:0:0:
509,283,162207,1,2,0:0:0:0:
478,356,162586,1,2,0:0:0:0:
231,292,162966,5,4,1:2:0:0:
183,288,163061,1,0,1:2:0:0:
135,286,163156,1,0,1:2:0:0:
96,46,163915,6,0,P|77:100|91:149,1,110,8|0,0:0|0:0,0:0:0:0:
113,164,164485,1,12,0:0:0:0:
270,66,165245,6,0,L|310:59,1,32.99999899292,4|0,1:2|1:2,0:0:0:0:
286,93,165340,2,0,L|326:86,1,32.99999899292,0|0,1:2|1:2,0:0:0:0:
302,121,165434,2,0,B|340:203|279:205|307:281,1,165.000006294251,0|8,1:2|0:0,0:0:0:0:
194,172,166004,2,0,L|182:133,1,32.99999899292,4|0,1:2|1:2,0:0:0:0:
154,169,166099,2,0,L|142:130,1,32.99999899292,0|0,1:2|1:2,0:0:0:0:
115,165,166194,1,2,1:2:0:0:
346,34,167143,5,10,0:0:0:0:
416,118,167270,5,10,0:0:0:0:
385,223,167396,5,10,0:0:0:0:
278,253,167523,6,0,B|232:289|181:278|181:278|218:311|265:316|265:316|275:341|275:341|313:341|340:374,1,288.750011014939,14|0,0:0|0:0,0:0:0:0:
443,281,168283,1,6,1:2:0:0:
450,227,168377,1,0,1:2:0:0:
457,173,168472,2,0,L|341:186,1,110,2|0,1:2|0:0,0:0:0:0:
160,111,169042,5,4,1:2:0:0:
165,65,169137,1,0,1:2:0:0:
171,20,169232,1,0,1:2:0:0:
0,264,169991,6,0,P|58:266|117:236,1,110,8|0,0:0|0:0,0:0:0:0:
111,220,170561,1,12,0:0:0:0:
161,116,171321,6,0,L|154:71,1,32.99999899292,4|0,1:2|1:2,0:0:0:0:
202,111,171415,2,0,L|195:66,1,32.99999899292,0|0,1:2|1:2,0:0:0:0:
243,106,171510,1,0,1:2:0:0:
423,326,172080,2,0,L|430:371,1,32.99999899292,6|0,1:2|1:2,0:0:0:0:
382,331,172175,2,0,L|389:376,1,32.99999899292,0|0,1:2|1:2,0:0:0:0:
341,336,172270,1,2,1:2:0:0:
54,231,173219,5,8,0:0:0:0:
67,117,173345,5,8,0:0:0:0:
166,59,173472,5,8,0:0:0:0:
276,82,173599,6,0,B|305:123|305:123|295:171|295:171|301:180|301:180|288:242|288:242|314:279,1,219.999993286133,14|0,0:0|0:0,0:0:0:0:
190,193,174359,5,6,1:2:0:0:
95,145,174485,5,0,1:2:0:0:
4,201,174612,6,0,L|9:302,1,88,0|0,1:2|0:0,0:0:0:0:
217,246,175118,5,4,1:2:0:0:
171,240,175213,1,0,1:2:0:0:
125,234,175308,1,0,1:2:0:0:
190,355,175498,1,2,0:0:0:0:
190,355,175688,1,2,0:0:0:0:
313,241,175877,2,0,L|320:323,1,71.4999967269899,6|2,0:0|0:0,0:0:0:0:
439,212,176257,2,0,L|445:140,1,71.4999967269899,2|2,0:0|0:0,0:0:0:0:
285,40,176637,5,12,0:0:0:0:
234,127,176827,1,2,0:0:0:0:
350,176,177017,2,0,P|384:179|420:165,1,71.4999967269899,2|2,0:0|0:0,0:0:0:0:
420,10,177396,2,0,L|377:6,1,32.99999899292,4|0,1:2|1:2,0:0:0:0:
398,50,177491,2,0,L|355:46,1,32.99999899292,0|0,1:2|1:2,0:0:0:0:
376,90,177586,1,0,1:2:0:0:
248,29,177776,2,0,P|214:17|179:20,1,71.4999967269899,2|2,0:0|0:0,0:0:0:0:
83,143,178156,6,0,L|126:139,1,32.99999899292,4|0,1:2|1:2,0:0:0:0:
105,183,178251,2,0,L|148:179,1,32.99999899292,0|0,1:2|1:2,0:0:0:0:
127,223,178346,1,0,1:2:0:0:
311,153,178536,2,0,B|321:189|321:189|312:222,1,71.4999967269899,2|2,0:0|0:0,0:0:0:0:
214,353,178915,2,0,B|205:319|205:319|215:283,1,71.4999967269899,6|2,0:0|0:0,0:0:0:0:
228,191,179295,5,0,1:2:0:0:
196,100,179422,5,0,1:2:0:0:
103,77,179548,5,0,1:2:0:0:
27,136,179675,5,12,0:0:0:0:
256,192,179770,12,0,181099,0:0:0:0:
249,277,181194,6,0,B|287:268|319:295|319:295|278:184|352:179|315:113|315:113|357:113|372:87,1,330,4|0,1:2|0:0,0:0:0:0:
313,28,182713,6,0,B|261:16|261:16|207:50|207:50|141:36|98:92|98:92|134:127|178:123,1,330,6|0,1:2|0:0,0:0:0:0:
146,202,184232,6,0,B|171:152|241:176|241:176|190:259|256:260|230:307|230:307|252:337|252:337|235:378,1,330,4|0,1:2|0:0,0:0:0:0:
158,344,185751,6,0,B|112:337|112:337|63:367|63:367|13:360,1,154,6|0,1:2|0:0,0:0:0:0:
0,340,186510,5,2,0:0:0:0:
230,272,187270,5,4,1:2:0:0:
24,170,187460,1,8,0:0:0:0:
134,349,187650,1,2,1:2:0:0:
134,349,187745,1,0,1:0:0:0:
134,349,187840,1,8,0:0:0:0:
204,172,188030,2,0,P|247:157|314:171,1,110,2|8,1:2|0:0,0:0:0:0:
394,363,188409,1,2,1:2:0:0:
394,363,188504,1,0,1:0:0:0:
394,363,188599,1,8,0:0:0:0:
403,137,188789,5,4,1:2:0:0:
297,305,188979,2,0,L|186:323,1,110,8|2,0:0|1:2,0:0:0:0:
170,312,189264,1,0,1:0:0:0:
170,312,189359,1,8,0:0:0:0:
318,128,189549,1,2,1:2:0:0:
301,76,189643,1,0,1:2:0:0:
251,51,189739,1,8,1:2:0:0:
197,64,189834,1,0,1:2:0:0:
168,111,189929,1,2,1:2:0:0:
179,164,190024,1,0,1:2:0:0:
221,199,190119,1,8,1:2:0:0:
275,196,190213,1,0,1:2:0:0:
312,155,190308,5,0,1:2:0:0:
183,43,190498,2,0,L|73:50,1,110,8|0,0:0|1:2,0:0:0:0:
59,77,190783,1,0,1:2:0:0:
59,77,190877,1,10,0:0:0:0:
198,216,191068,1,2,1:2:0:0:
371,101,191257,2,0,L|480:108,1,110,10|0,0:0|1:2,0:0:0:0:
495,135,191542,1,0,1:2:0:0:
495,135,191636,1,10,0:0:0:0:
303,285,191827,5,0,1:2:0:0:
301,305,191922,1,0,1:2:0:0:
299,326,192017,2,0,L|294:397,1,55,8|0,1:2|1:2,0:0:0:0:
143,150,192207,1,0,1:2:0:0:
145,175,192302,1,0,1:2:0:0:
148,203,192396,2,0,L|151:257,1,55,8|0,1:2|1:2,0:0:0:0:
320,50,192586,5,8,0:0:0:0:
317,79,192681,1,8,0:0:0:0:
315,108,192776,1,8,0:3:0:0:
312,138,192871,1,8,0:3:0:0:
280,167,192966,5,8,0:0:0:0:
285,207,193061,1,8,0:0:0:0:
287,247,193156,1,8,0:0:0:0:
292,289,193251,1,8,0:0:0:0:
341,312,193346,5,0,1:2:0:0:
381,266,193441,1,0,1:2:0:0:
384,205,193536,1,8,1:2:0:0:
347,156,193631,1,0,1:2:0:0:
287,141,193726,1,2,1:2:0:0:
232,166,193821,1,0,1:2:0:0:
204,219,193915,1,8,1:2:0:0:
221,276,194010,1,0,1:2:0:0:
215,336,194105,1,2,1:2:0:0:
171,377,194200,1,0,1:2:0:0:
110,371,194295,1,8,1:2:0:0:
74,321,194390,1,0,1:2:0:0:
87,262,194485,1,2,1:2:0:0:
140,233,194580,1,0,1:2:0:0:
197,250,194674,1,8,1:2:0:0:
234,297,194769,1,0,1:2:0:0:
311,295,194865,5,2,1:2:0:0:
374,251,194960,1,0,1:2:0:0:
373,173,195055,1,8,1:2:0:0:
321,115,195150,1,0,1:2:0:0:
244,122,195245,1,2,1:2:0:0:
200,185,195340,1,0,1:2:0:0:
232,258,195434,5,10,1:2:0:0:
258,252,195529,1,0,1:2:0:0:
284,245,195624,1,0,1:2:0:0:
310,239,195719,1,0,1:2:0:0:
355,210,195814,5,10,1:2:0:0:
304,204,195909,1,0,1:2:0:0:
254,200,196004,1,0,1:2:0:0:
204,197,196099,1,0,1:2:0:0:
155,190,196194,1,10,1:2:0:0:
105,188,196289,1,0,1:2:0:0:
71,239,196384,5,0,1:2:0:0:
118,201,196479,1,0,1:2:0:0:
134,142,196574,1,8,1:2:0:0:
113,85,196669,1,0,1:2:0:0:
128,26,196764,1,2,1:2:0:0:
182,0,196859,1,0,1:2:0:0:
237,22,196953,1,8,1:2:0:0:
257,78,197048,1,0,1:2:0:0:
222,127,197143,1,2,1:2:0:0:
231,186,197238,1,0,1:2:0:0:
279,222,197333,1,8,1:2:0:0:
338,210,197428,1,0,1:2:0:0:
373,161,197523,1,2,1:2:0:0:
359,101,197618,1,0,1:2:0:0:
315,60,197712,1,10,1:2:0:0:
257,78,197807,1,0,1:2:0:0:
261,148,197903,5,0,1:2:0:0:
272,79,197998,1,0,1:2:0:0:
229,24,198093,1,10,1:2:0:0:
160,13,198188,1,0,1:2:0:0:
98,45,198283,1,0,1:2:0:0:
76,111,198378,1,0,1:2:0:0:
86,178,198472,1,8,1:2:0:0:
136,227,198567,1,0,1:2:0:0:
196,268,198662,6,0,L|250:272,1,55,10|0,1:2|0:0,0:0:0:0:
393,323,198852,1,8,0:3:0:0:
224,160,199042,1,10,1:2:0:0:
266,96,199137,1,8,0:2:0:0:
339,75,199231,1,10,0:2:0:0:
415,85,199326,1,8,0:2:0:0:
476,134,199422,6,0,B|481:184|481:184|473:194|473:194|478:241,1,110,4|0,1:2|0:0,0:0:0:0:
459,268,199707,2,0,B|421:262|421:262|357:294,1,110,4|0,1:2|0:0,0:0:0:0:
344,326,199991,1,4,1:2:0:0:
200,358,200181,2,0,L|205:220,1,131.99999597168,2|2,0:0|0:0,0:0:0:0:
120,96,200941,6,0,B|155:81|188:43|188:43|180:85,1,110,4|0,1:2|0:0,0:0:0:0:
203,95,201226,2,0,P|250:109|319:75,1,110,4|0,1:2|0:0,0:0:0:0:
320,64,201510,1,4,1:2:0:0:
241,195,201700,2,0,L|249:344,1,131.99999597168,2|10,0:0|0:0,0:0:0:0:
238,348,202127,1,8,0:0:0:0:
2,244,202460,5,4,1:2:0:0:
96,70,202650,1,8,0:0:0:0:
138,290,202840,1,0,1:2:0:0:
138,290,202935,1,0,1:0:0:0:
138,290,203030,1,10,0:0:0:0:
25,120,203220,1,2,1:2:0:0:
221,58,203410,2,0,L|330:68,1,110,10|0,0:0|1:2,0:0:0:0:
351,94,203695,1,0,1:0:0:0:
351,94,203790,1,10,0:0:0:0:
308,280,203979,5,0,1:2:0:0:
300,307,204074,1,0,1:2:0:0:
293,336,204169,2,0,P|256:348|218:342,1,55,8|0,1:2|1:2,0:0:0:0:
107,148,204359,1,2,1:2:0:0:
118,184,204454,1,0,1:2:0:0:
127,222,204549,2,0,P|173:238|223:230,1,55,10|0,1:2|1:2,0:0:0:0:
264,36,204738,5,0,1:2:0:0:
257,77,204833,1,0,1:2:0:0:
251,122,204928,2,0,L|244:176,1,55,10|0,1:2|1:2,0:0:0:0:
422,197,205118,1,0,1:2:0:0:
430,248,205213,1,0,1:2:0:0:
438,304,205308,2,0,L|446:372,1,55,8|0,1:2|1:2,0:0:0:0:
236,384,205498,5,0,1:2:0:0:
186,349,205592,1,0,1:2:0:0:
167,292,205687,1,8,1:2:0:0:
188,235,205782,1,0,1:2:0:0:
239,203,205877,1,2,1:2:0:0:
288,168,205971,1,0,1:2:0:0:
307,111,206066,1,8,1:2:0:0:
286,54,206161,1,0,1:2:0:0:
235,22,206257,5,2,1:2:0:0:
165,40,206353,1,0,1:2:0:0:
125,99,206448,1,8,1:2:0:0:
142,168,206543,1,0,1:2:0:0:
203,205,206638,1,0,1:2:0:0:
273,194,206733,1,0,1:2:0:0:
331,154,206827,1,8,1:2:0:0:
402,160,206922,1,0,1:2:0:0:
456,221,207017,5,0,1:2:0:0:
416,293,207112,1,0,1:2:0:0:
333,297,207207,1,8,1:2:0:0:
289,226,207302,1,0,1:2:0:0:
331,154,207397,1,10,1:2:0:0:
339,71,207492,1,0,1:2:0:0:
279,14,207586,1,8,1:2:0:0:
197,29,207681,1,0,1:2:0:0:
176,109,207777,5,10,1:2:0:0:
192,143,207872,1,0,1:2:0:0:
196,180,207966,1,8,1:2:0:0:
186,217,208062,1,0,1:2:0:0:
164,248,208156,5,8,1:2:0:0:
143,244,208251,1,0,1:2:0:0:
122,242,208345,1,0,1:2:0:0:
101,240,208440,1,0,1:2:0:0:
90,248,208536,5,6,1:2:0:0:
374,194,210650,6,0,L|321:188,4,32.99999899292,0|0|0|0|8,1:2|1:2|1:2|1:2|0:0,0:0:0:0:
206,18,211131,1,8,0:0:0:0:
497,111,211420,1,8,0:0:0:0:
336,83,211612,5,4,1:2:0:0:
302,119,211708,1,0,0:0:0:0:
297,168,211804,1,2,0:0:0:0:
315,213,211900,1,2,0:0:0:0:
342,254,211997,1,0,0:0:0:0:
335,303,212093,1,2,0:0:0:0:
306,343,212189,2,0,L|132:356,1,165.000006294251,2|0,0:0|0:0,0:0:0:0:
29,209,212766,6,0,L|34:253,1,32.99999899292,0|0,1:2|1:2,0:0:0:0:
65,215,212862,2,0,L|70:259,1,32.99999899292,0|0,1:2|1:2,0:0:0:0:
101,221,212958,2,0,L|106:177,1,32.99999899292,0|0,1:2|1:2,0:0:0:0:
137,227,213054,2,0,L|142:183,1,32.99999899292,0|0,1:2|1:2,0:0:0:0:
173,233,213150,1,8,0:0:0:0:
72,80,213343,1,2,0:0:0:0:
246,25,213535,1,8,0:3:0:0:
282,31,213631,1,8,0:3:0:0:
318,37,213727,2,0,L|323:81,1,32.99999899292,0|0,1:2|1:2,0:0:0:0:
354,43,213824,2,0,L|359:87,1,32.99999899292,0|0,1:2|1:2,0:0:0:0:
390,48,213920,6,0,B|411:57|439:49|439:49|442:55|442:55|462:47|480:50,1,96.2500009179115,8|0,0:0|0:0,0:0:0:0:
304,193,214112,2,0,B|325:184|353:192|353:192|356:186|356:186|376:194|394:190,1,96.2500009179115,8|0,0:0|0:0,0:0:0:0:
160,91,214304,2,0,B|181:100|209:92|209:92|212:98|212:98|232:90|250:93,1,96.2500009179115,8|0,0:0|0:0,0:0:0:0:
74,236,214497,2,0,B|95:227|123:235|123:235|126:229|126:229|146:237|164:233,1,96.2500009179115,8|0,0:0|0:0,0:0:0:0:
4,47,214689,5,4,1:2:0:0:
46,20,214785,1,0,0:0:0:0:
95,14,214881,1,2,0:0:0:0:
140,32,214977,1,0,1:2:0:0:
183,56,215074,1,0,1:2:0:0:
232,52,215170,1,0,1:2:0:0:
266,21,215266,2,0,P|257:84|284:145,1,123.750004720688,0|0,1:2|0:0,0:0:0:0:
303,143,215650,1,0,1:2:0:0:
450,25,215843,1,0,1:2:0:0:
500,187,216035,6,0,L|458:192,1,32.99999899292,0|0,1:2|1:2,0:0:0:0:
497,218,216131,2,0,L|455:223,1,32.99999899292,0|0,1:2|1:2,0:0:0:0:
494,250,216227,1,8,0:0:0:0:
491,282,216324,1,0,1:2:0:0:
489,314,216420,1,0,1:2:0:0:
304,357,216612,2,0,L|301:324,4,32.99999899292,0|0|0|0|0,1:2|1:2|1:2|1:2|1:2,0:0:0:0:
143,227,216997,1,8,0:0:0:0:
403,64,217285,1,8,0:0:0:0:
112,24,217574,1,8,0:0:0:0:
272,75,217766,5,4,1:2:0:0:
268,123,217862,1,0,0:0:0:0:
265,172,217958,1,2,0:0:0:0:
261,221,218054,1,2,0:0:0:0:
258,270,218150,1,0,0:0:0:0:
254,319,218247,1,2,0:0:0:0:
251,368,218343,2,0,B|205:350|205:350|151:362|151:362|94:341,1,165.000006294251,2|0,0:0|0:0,0:0:0:0:
47,203,218920,2,0,L|91:198,1,32.99999899292,0|0,1:2|1:2,0:0:0:0:
53,167,219016,2,0,L|97:162,1,32.99999899292,0|0,1:2|1:2,0:0:0:0:
59,131,219112,2,0,L|15:126,1,32.99999899292,0|0,1:2|1:2,0:0:0:0:
65,95,219208,2,0,L|21:90,1,32.99999899292,0|0,1:2|1:2,0:0:0:0:
71,59,219304,5,8,0:0:0:0:
