osu file format v14

[General]
AudioFilename: audio.mp3
AudioLeadIn: 0
PreviewTime: 181015
Countdown: 0
SampleSet: Soft
StackLeniency: 0.7
Mode: 0
LetterboxInBreaks: 0
WidescreenStoryboard: 0

[Editor]
DistanceSpacing: 1.6
BeatDivisor: 4
GridSize: 16
TimelineZoom: 3.199999

[Metadata]
Title:Funeral Derangements
TitleUnicode:Funeral Derangements
Artist:Ice Nine Kills
ArtistUnicode:Ice Nine Kills
Creator:Blitzifyyy
Version:Sometimes Dead Is Better...
Source:
Tags:ajitani hifumi we vibing we_vibing themefisto washedup player INK Metal Metalcore English Welcome to Horrorwood The Silver Scream 2 Pet Sematary cemetery Horror
BeatmapID:3270246
BeatmapSetID:1601336

[Difficulty]
HPDrainRate:5
CircleSize:4.5
OverallDifficulty:9.4
ApproachRate:9.4
SliderMultiplier:2
SliderTickRate:1

[Events]
//Background and Video events
0,0,"545127850ba4fae5772b49a21f5cbc4d.jpg",0,0
//Break Periods
//Storyboard Layer 0 (Background)
//Storyboard Layer 1 (Fail)
//Storyboard Layer 2 (Pass)
//Storyboard Layer 3 (Foreground)
//Storyboard Layer 4 (Overlay)
//Storyboard Sound Samples

[TimingPoints]
184,379.746835443039,4,2,1,75,1,0
278,-100,4,2,1,5,0,0
373,-100,4,2,1,75,0,0
467,-100,4,2,1,5,0,0
563,-100,4,2,1,75,0,0
657,-100,4,2,1,5,0,0
753,-100,4,2,1,75,0,0
943,-66.6666666666667,4,2,1,65,0,0
1037,-66.6666666666667,4,2,1,5,0,0
1133,-66.6666666666667,4,2,1,65,0,0
1227,-66.6666666666667,4,2,1,5,0,0
1323,-66.6666666666667,4,2,1,65,0,0
1417,-66.6666666666667,4,2,1,5,0,0
1513,-66.6666666666667,4,2,1,65,0,0
1607,-66.6666666666667,4,2,1,5,0,0
1702,-100,4,2,1,75,0,0
2462,-66.6666666666667,4,2,1,65,0,0
2556,-66.6666666666667,4,2,1,5,0,0
2652,-66.6666666666667,4,2,1,65,0,0
2746,-66.6666666666667,4,2,1,5,0,0
2842,-66.6666666666667,4,2,1,65,0,0
2936,-66.6666666666667,4,2,1,5,0,0
3032,-66.6666666666667,4,2,1,65,0,0
3221,-100,4,2,1,65,0,0
5310,-100,4,2,1,45,0,0
6070,384.615384615385,4,2,1,75,1,0
6742,-100,4,2,1,5,0,0
6839,-133.333333333333,4,2,1,75,0,0
7127,-133.333333333333,4,2,1,5,0,0
7223,-100,4,2,1,75,0,0
7800,-133.333333333333,4,2,1,75,0,0
8281,-133.333333333333,4,2,1,5,0,0
8377,-100,4,2,1,75,0,0
9050,-100,4,2,1,5,0,0
9146,-100,4,2,1,75,0,0
9819,-100,4,2,1,5,0,0
9916,-133.333333333333,4,2,1,75,0,0
10204,-133.333333333333,4,2,1,5,0,0
10300,-100,4,2,1,75,0,0
11454,-66.6666666666667,4,2,1,65,0,0
11550,-66.6666666666667,4,2,1,5,0,0
11646,-66.6666666666667,4,2,1,65,0,0
11742,-66.6666666666667,4,2,1,5,0,0
11839,-66.6666666666667,4,2,1,65,0,0
11935,-66.6666666666667,4,2,1,5,0,0
12031,-66.6666666666667,4,2,1,65,0,0
12127,-66.6666666666667,4,2,1,5,0,0
12223,-100,4,2,1,75,0,0
12896,-100,4,2,1,5,0,0
12993,-133.333333333333,4,2,1,75,0,0
13281,-133.333333333333,4,2,1,5,0,0
13377,-100,4,2,1,75,0,0
13954,-133.333333333333,4,2,1,75,0,0
14434,-133.333333333333,4,2,1,5,0,0
14531,-100,4,2,1,75,0,0
15204,-100,4,2,1,5,0,0
15300,-100,4,2,1,75,0,0
15973,-100,4,2,1,5,0,0
16070,-133.333333333333,4,2,1,75,0,0
16358,-133.333333333333,4,2,1,5,0,0
16454,-133.333333333333,4,2,1,75,0,0
16839,-100,4,2,1,75,0,0
17608,375,4,2,1,55,1,0
18358,375,4,2,1,65,1,0
19107,-100,4,2,1,5,0,0
19295,-100,4,2,1,65,0,0
19388,-100,4,2,1,5,0,0
19483,-100,4,2,1,65,0,0
22107,-100,4,2,1,5,0,0
22295,-100,4,2,1,65,0,0
22388,-100,4,2,1,5,0,0
22483,-100,4,2,1,65,0,0
25013,-100,4,2,1,5,0,0
25108,-100,4,2,1,65,0,0
25201,-100,4,2,1,5,0,0
25295,-100,4,2,1,65,0,0
25388,-100,4,2,1,5,0,0
25483,-100,4,2,1,65,0,0
28013,-100,4,2,1,5,0,0
28108,-100,4,2,1,65,0,0
28201,-100,4,2,1,5,0,0
28295,-100,4,2,1,65,0,0
28388,-100,4,2,1,5,0,0
28483,-100,4,2,1,65,0,0
28858,-100,4,2,1,45,0,0
30358,-100,4,2,1,75,0,0
36358,-200,4,2,1,65,0,0
37014,-200,4,2,1,5,0,0
37108,-200,4,2,1,65,0,0
38701,-200,4,2,1,5,0,0
38795,-200,4,2,1,65,0,0
38888,-200,4,2,1,5,0,0
38983,-200,4,2,1,65,0,0
43014,-200,4,2,1,5,0,0
43108,-200,4,2,1,65,0,0
44701,-200,4,2,1,5,0,0
44795,-200,4,2,1,65,0,0
44888,-200,4,2,1,5,0,0
44983,-200,4,2,1,65,0,0
47795,-100,4,2,1,65,0,0
47888,-100,4,2,1,5,0,0
47983,-100,4,2,1,65,0,0
48076,-100,4,2,1,5,0,0
48170,-100,4,2,1,65,0,0
48263,-100,4,2,1,5,0,0
48358,392.156862745098,4,2,1,45,1,0
48358,-454.545454545455,4,2,1,45,0,0
54534,-454.545454545455,4,2,1,5,0,0
54632,379.746835443038,4,2,1,65,1,0
54916,-100,4,2,1,5,0,0
55009,-133.333333333333,4,2,1,65,0,0
56141,-79.9999999999999,4,2,1,65,0,0
56434,-79.9999999999999,4,2,1,5,0,0
56518,-100,4,2,1,65,0,0
57650,-133.333333333333,4,2,1,65,0,0
57953,-133.333333333333,4,2,1,5,0,0
58028,-200,4,2,1,65,0,0
59160,-399.999999999997,4,2,1,65,0,0
60707,-90.9090909090909,4,2,1,85,0,1
75138,-90.9090909090909,4,2,1,45,0,1
75919,384.615384615385,4,2,1,75,1,0
76591,-100,4,2,1,5,0,0
76688,-133.333333333333,4,2,1,75,0,0
76976,-133.333333333333,4,2,1,5,0,0
77072,-100,4,2,1,75,0,0
77649,-133.333333333333,4,2,1,75,0,0
78129,-133.333333333333,4,2,1,5,0,0
78226,-100,4,2,1,75,0,0
78899,-100,4,2,1,5,0,0
78995,-100,4,2,1,75,0,0
79668,-100,4,2,1,5,0,0
79765,-133.333333333333,4,2,1,75,0,0
80053,-133.333333333333,4,2,1,5,0,0
80149,-100,4,2,1,75,0,0
82745,-100,4,2,1,5,0,0
82842,-133.333333333333,4,2,1,75,0,0
83130,-133.333333333333,4,2,1,5,0,0
83226,-100,4,2,1,75,0,0
83803,-133.333333333333,4,2,1,75,0,0
84283,-133.333333333333,4,2,1,5,0,0
84380,-100,4,2,1,75,0,0
85822,-100,4,2,1,5,0,0
85919,-133.333333333333,4,2,1,75,0,0
86207,-133.333333333333,4,2,1,5,0,0
86303,-100,4,2,1,75,0,0
87457,-100,4,2,1,55,0,0
88226,-111.111111111111,4,2,1,65,0,0
88995,-111.111111111111,4,2,1,5,0,0
89188,-111.111111111111,4,2,1,65,0,0
94284,-100,4,2,1,65,0,0
94380,-100,4,2,1,75,0,0
94668,-100,4,2,1,5,0,0
94765,-100,4,2,1,75,0,0
95438,-100,4,2,1,5,0,0
95534,-100,4,2,1,75,0,0
99765,-100,4,2,1,45,0,0
100534,-100,4,2,1,65,0,0
103899,-100,4,2,1,5,0,0
103995,-66.6666666666667,4,2,1,65,0,0
104283,-66.6666666666667,4,2,1,5,0,0
104380,-100,4,2,1,65,0,0
104476,-100,4,2,1,5,0,0
104572,-100,4,2,1,65,0,0
104668,-100,4,2,1,5,0,0
104765,-66.6666666666667,4,2,1,65,0,0
104861,-66.6666666666667,4,2,1,5,0,0
104957,-50,4,2,1,65,0,0
105053,-50,4,2,1,5,0,0
105149,-100,4,2,1,65,0,0
106688,-100,4,2,1,75,0,0
106976,-100,4,2,1,75,0,0
107072,-100,4,2,1,75,0,0
107361,-100,4,2,1,75,0,0
107457,-100,4,2,1,75,0,0
107745,-100,4,2,1,75,0,0
107842,-100,4,2,1,75,0,0
108130,-100,4,2,1,75,0,0
108226,-100,4,2,1,75,0,0
108515,-100,4,2,1,75,0,0
108611,-100,4,2,1,75,0,0
108899,-100,4,2,1,75,0,0
108995,-100,4,2,1,75,0,0
109284,-100,4,2,1,75,0,0
109380,-100,4,2,1,75,0,0
109669,-100,4,2,1,75,0,0
109765,-100,4,2,1,75,0,0
110053,-100,4,2,1,75,0,0
110149,-100,4,2,1,75,0,0
110437,-100,4,2,1,75,0,0
110534,-100,4,2,1,75,0,0
110822,-100,4,2,1,75,0,0
110919,-100,4,2,1,75,0,0
111207,-100,4,2,1,75,0,0
111303,-100,4,2,1,75,0,0
112842,-100,4,2,1,45,0,0
114359,379.746835443038,4,2,1,85,1,1
114359,-90.9090909090909,4,2,1,85,0,1
122332,-90.9090909090909,4,2,1,85,0,1
122428,-90.9090909090909,4,2,1,85,0,1
124896,-90.9090909090909,4,2,1,85,0,0
124991,-90.9090909090909,4,2,1,85,0,1
138662,-100,4,2,1,55,0,0
149295,-250,4,2,1,55,0,0
150719,-250,4,2,1,5,0,0
150814,-250,4,2,1,55,0,0
151194,-250,4,2,1,45,0,0
153093,-250,4,2,1,65,0,0
154232,-250,4,2,1,45,0,0
156131,-125,4,2,1,65,0,0
156321,-250,4,2,1,65,0,0
156653,-250,4,2,1,5,0,0
156700,-250,4,2,1,65,0,0
157270,-250,4,2,1,45,0,0
159169,-250,4,2,1,65,0,0
159928,-250,4,2,1,45,0,0
162966,-250,4,2,1,85,0,0
163156,-333.333333333333,4,2,1,85,0,0
164389,-333.333333333333,4,2,1,5,0,0
164485,-333.333333333333,4,2,1,85,0,0
168187,-333.333333333333,4,2,1,5,0,0
168283,-333.333333333333,4,2,1,85,0,0
168851,-333.333333333333,4,2,1,5,0,0
169042,-333.333333333333,4,2,1,85,0,0
170465,-333.333333333333,4,2,1,5,0,0
170561,-333.333333333333,4,2,1,85,0,0
176541,-333.333333333333,4,2,1,5,0,0
176637,-333.333333333333,4,2,1,85,0,0
179675,-333.333333333333,4,2,1,55,0,0
181099,-333.333333333333,4,2,1,5,0,0
181194,-200,4,2,1,75,0,0
183852,-200,4,2,1,5,0,0
184232,-200,4,2,1,75,0,0
186510,-200,4,2,1,45,0,0
187270,-90.9090909090909,4,2,1,85,0,1
190687,-90.9090909090909,4,2,1,85,0,1
190783,-90.9090909090909,4,2,1,85,0,1
199422,-90.9090909090909,4,2,1,85,0,0
199611,-90.9090909090909,4,2,1,5,0,0
199707,-90.9090909090909,4,2,1,85,0,0
199896,-90.9090909090909,4,2,1,5,0,0
199991,-90.9090909090909,4,2,1,85,0,0
201130,-90.9090909090909,4,2,1,5,0,0
201226,-90.9090909090909,4,2,1,85,0,0
201415,-90.9090909090909,4,2,1,5,0,0
201510,-90.9090909090909,4,2,1,85,0,0
202460,-90.9090909090909,4,2,1,85,0,1
208536,-90.9090909090909,4,2,1,45,0,0
210074,384.615384615385,4,2,1,75,1,0
211612,-100,4,2,1,75,0,1
211708,-100,4,2,1,5,0,0
211804,-100,4,2,1,75,0,0
211996,-100,4,2,1,5,0,0
212092,-100,4,2,1,75,0,0
212572,-100,4,2,1,5,0,0
212765,-100,4,2,1,75,0,0
213908,-66.6666666666667,4,2,1,75,0,0
213920,-66.6666666666667,4,2,1,65,0,0
214015,-66.6666666666667,4,2,1,5,0,0
214111,-66.6666666666667,4,2,1,65,0,0
214207,-66.6666666666667,4,2,1,5,0,0
214304,-66.6666666666667,4,2,1,65,0,0
214400,-66.6666666666667,4,2,1,5,0,0
214496,-66.6666666666667,4,2,1,65,0,0
214592,-66.6666666666667,4,2,1,5,0,0
214677,-100,4,2,1,65,0,0
214689,-100,4,2,1,75,0,0
214784,-100,4,2,1,5,0,0
214881,-100,4,2,1,75,0,0
217861,-100,4,2,1,5,0,0
217958,-100,4,2,1,75,0,0
218150,-100,4,2,1,5,0,0
218246,-100,4,2,1,75,0,0
218726,-100,4,2,1,5,0,0
218919,-100,4,2,1,75,0,0

[Colours]
Combo1 : 143,143,143
Combo2 : 183,0,0
Combo3 : 60,60,60

[HitObjects]
34,51,184,6,0,L|95:59,1,50,10|0,0:3|0:0,0:0:0:0:
200,162,373,2,0,L|139:170,1,50,10|0,0:3|0:0,0:0:0:0:
34,273,563,2,0,L|95:281,1,50,10|0,0:3|0:0,0:0:0:0:
200,384,753,1,10,0:3:0:0:
28,198,943,6,0,L|34:273,1,75.0000028610231,2|0,0:0|0:0,0:0:0:0:
11,180,1133,2,0,L|17:255,1,75.0000028610231,2|0,0:0|0:0,0:0:0:0:
205,87,1323,6,0,L|199:162,1,75.0000028610231,2|0,0:0|0:0,0:0:0:0:
222,69,1513,2,0,L|216:144,1,75.0000028610231,2|0,0:0|0:0,0:0:0:0:
2,1,1702,5,10,0:3:0:0:
60,13,1796,1,8,0:3:0:0:
98,58,1891,1,2,1:2:0:0:
100,117,1986,1,0,1:2:0:0:
61,163,2082,5,10,0:3:0:0:
23,209,2177,1,8,0:3:0:0:
15,268,2272,1,2,1:2:0:0:
45,316,2366,1,0,1:2:0:0:
97,340,2462,6,0,P|134:348|172:332,1,75.0000028610231,2|0,0:0|0:0,0:0:0:0:
251,156,2652,2,0,P|224:184|219:225,1,75.0000028610231,2|0,0:0|0:0,0:0:0:0:
330,368,2842,2,0,P|318:330|285:306,1,75.0000028610231,2|0,0:0|0:0,0:0:0:0:
125,238,3032,1,10,0:3:0:0:
109,241,3127,1,8,0:3:0:0:
93,245,3221,5,0,1:2:0:0:
117,190,3316,1,0,1:2:0:0:
173,168,3411,1,10,0:3:0:0:
231,183,3506,1,8,0:3:0:0:
262,234,3601,1,0,1:2:0:0:
279,291,3696,1,0,1:2:0:0:
319,354,3791,5,10,1:2:0:0:
393,359,3886,1,8,0:0:0:0:
452,312,3981,1,8,0:0:0:0:
443,237,4076,1,8,0:0:0:0:
410,199,4171,1,0,1:2:0:0:
362,183,4266,1,0,1:2:0:0:
313,194,4361,1,8,0:0:0:0:
279,230,4456,1,8,0:0:0:0:
274,279,4551,5,10,0:0:0:0:
331,230,4646,1,8,0:0:0:0:
326,160,4740,1,0,1:2:0:0:
284,110,4835,1,0,1:2:0:0:
224,104,4930,1,10,0:3:0:0:
178,124,5025,1,8,0:3:0:0:
152,160,5120,1,0,1:2:0:0:
147,199,5215,1,0,1:2:0:0:
409,16,6071,5,4,1:2:0:0:
352,35,6166,1,0,1:2:0:0:
316,83,6262,1,0,1:2:0:0:
316,143,6358,1,0,1:2:0:0:
352,192,6454,1,0,1:2:0:0:
409,210,6550,1,0,1:2:0:0:
466,192,6646,2,0,P|490:184|515:187,1,50,0|0,1:2|0:0,0:0:0:0:
368,317,6839,6,0,B|343:329|313:320|326:304|293:288|260:305,1,112.500004291535,12|0,0:0|0:0,0:0:0:0:
194,377,7223,5,0,1:2:0:0:
161,328,7319,1,0,1:2:0:0:
165,269,7415,1,0,1:2:0:0:
205,226,7511,1,0,1:2:0:0:
259,197,7608,1,4,1:2:0:0:
299,154,7704,1,0,1:2:0:0:
284,95,7800,6,0,B|269:73|249:63|249:63|309:41|354:82|344:148,1,187.500007152558,0|0,1:2|0:0,0:0:0:0:
397,199,8377,5,14,0:0:0:0:
446,204,8473,1,0,1:2:0:0:
490,179,8570,1,0,1:2:0:0:
503,130,8666,1,0,1:2:0:0:
452,49,8762,1,0,1:2:0:0:
442,56,8858,1,0,1:2:0:0:
431,62,8954,2,0,P|406:66|373:59,1,50,0|0,1:2|0:0,0:0:0:0:
111,0,9146,5,4,1:2:0:0:
54,20,9243,1,0,1:2:0:0:
29,74,9339,1,0,1:2:0:0:
37,133,9435,1,0,1:2:0:0:
83,170,9531,1,2,1:2:0:0:
142,177,9627,1,0,1:2:0:0:
191,143,9723,2,0,P|200:114|190:82,1,50,0|0,1:2|0:0,0:0:0:0:
0,214,9916,6,0,P|-29:264|-8:321,1,112.500004291535,14|0,0:0|0:0,0:0:0:0:
104,336,10300,5,0,1:2:0:0:
102,310,10396,1,0,1:2:0:0:
91,287,10493,1,0,1:2:0:0:
77,276,10589,1,0,1:2:0:0:
60,270,10685,5,14,0:0:0:0:
122,310,10781,1,8,0:0:0:0:
195,295,10877,1,0,1:2:0:0:
236,232,10973,1,0,1:2:0:0:
223,157,11070,1,10,0:3:0:0:
161,115,11166,1,8,0:3:0:0:
88,131,11262,1,0,1:2:0:0:
51,196,11358,1,0,1:2:0:0:
51,270,11454,6,0,L|55:352,1,75.0000028610231,10|0,0:0|0:0,0:0:0:0:
10,241,11646,2,0,L|14:323,1,75.0000028610231,2|0,0:0|0:0,0:0:0:0:
161,115,11839,6,0,L|157:197,1,75.0000028610231,2|0,0:0|0:0,0:0:0:0:
202,86,12031,2,0,L|198:168,1,75.0000028610231,2|0,0:0|0:0,0:0:0:0:
79,367,12223,5,4,1:2:0:0:
108,314,12320,1,0,1:2:0:0:
164,294,12416,1,0,1:2:0:0:
220,312,12512,1,0,1:2:0:0:
258,358,12608,1,0,1:2:0:0:
314,377,12704,1,0,1:2:0:0:
368,351,12800,2,0,P|377:331|378:299,1,50,0|0,1:2|0:0,0:0:0:0:
278,189,12993,6,0,B|158:187|278:195|156:191,1,112.500004291535,12|0,0:0|0:0,0:0:0:0:
70,159,13377,5,0,1:2:0:0:
33,111,13473,1,0,1:2:0:0:
35,50,13570,1,0,1:2:0:0:
79,10,13666,1,0,1:2:0:0:
138,6,13762,1,4,1:2:0:0:
180,46,13858,1,0,1:2:0:0:
224,86,13954,6,0,B|269:111|327:86|287:57|357:33|395:57,1,187.500007152558,0|0,1:2|0:0,0:0:0:0:
483,124,14531,5,12,0:0:0:0:
512,172,14627,1,0,1:2:0:0:
505,231,14723,1,0,1:2:0:0:
463,273,14819,1,0,1:2:0:0:
406,281,14915,1,0,1:2:0:0:
355,252,15011,1,0,1:2:0:0:
312,208,15108,2,0,P|285:198|258:200,1,50,0|0,1:2|0:0,0:0:0:0:
86,384,15300,5,4,1:2:0:0:
135,352,15396,1,0,1:2:0:0:
155,297,15492,1,0,1:2:0:0:
142,238,15588,1,0,1:2:0:0:
96,198,15684,1,0,1:2:0:0:
38,178,15781,1,0,1:2:0:0:
0,130,15877,2,0,P|-6:105|0:80,1,50,0|0,1:2|0:0,0:0:0:0:
181,7,16070,6,0,B|168:-1|166:-15|166:-15|137:15|151:67,1,112.500004291535,12|0,0:0|0:0,0:0:0:0:
228,134,16454,1,0,1:2:0:0:
246,131,16550,1,0,1:2:0:0:
264,127,16646,1,0,1:2:0:0:
282,124,16743,1,0,1:2:0:0:
306,120,16839,5,12,0:0:0:0:
268,54,16935,1,8,0:0:0:0:
194,39,17031,1,0,1:2:0:0:
139,90,17127,1,0,1:2:0:0:
131,164,17223,1,8,0:3:0:0:
185,216,17320,1,8,0:3:0:0:
227,257,17416,1,0,1:2:0:0:
228,311,17512,1,0,1:2:0:0:
189,344,17608,5,8,0:0:0:0:
187,333,17795,5,10,0:0:0:0:
181,316,17983,5,10,0:0:0:0:
177,301,18170,5,10,0:0:0:0:
173,286,18358,5,6,1:2:0:0:
217,246,18451,1,0,1:2:0:0:
276,255,18545,1,8,1:2:0:0:
311,303,18639,1,2,1:2:0:0:
359,338,18733,1,0,1:2:0:0:
418,334,18826,1,0,1:2:0:0:
457,288,18920,2,0,L|447:181,1,100,10|0,1:2|0:0,0:0:0:0:
342,52,19295,6,0,P|365:42|407:49,1,50,10|0,0:0|0:0,0:0:0:0:
234,168,19483,1,2,1:2:0:0:
175,160,19576,1,0,1:2:0:0:
132,119,19670,1,10,1:2:0:0:
122,61,19764,1,0,1:2:0:0:
149,9,19858,2,0,L|200:13,1,50,2|0,1:2|1:2,0:0:0:0:
384,123,20045,5,10,1:2:0:0:
408,188,20139,1,2,0:0:0:0:
363,242,20233,1,2,0:0:0:0:
402,298,20326,1,2,0:0:0:0:
357,351,20420,2,0,L|290:344,1,50,10|2,0:0|0:0,0:0:0:0:
119,231,20608,5,0,1:2:0:0:
60,217,20701,1,0,1:2:0:0:
13,254,20795,1,10,1:2:0:0:
12,314,20889,1,0,1:2:0:0:
52,358,20983,1,2,1:2:0:0:
111,357,21076,1,0,1:2:0:0:
160,322,21170,1,10,1:2:0:0:
220,323,21264,1,0,1:2:0:0:
259,368,21358,5,2,1:2:0:0:
200,358,21451,1,0,1:2:0:0:
168,306,21545,1,8,1:2:0:0:
175,246,21639,1,2,1:2:0:0:
220,206,21733,1,0,1:2:0:0:
279,205,21826,1,0,1:2:0:0:
329,237,21920,2,0,L|324:343,1,100,10|0,1:2|0:0,0:0:0:0:
21,384,22295,6,0,L|16:324,1,50,10|0,0:0|0:0,0:0:0:0:
1,78,22483,1,2,1:2:0:0:
32,128,22576,1,0,1:2:0:0:
91,135,22670,1,10,1:2:0:0:
144,107,22764,1,0,1:2:0:0:
163,50,22858,2,0,L|156:-8,1,50,2|0,1:2|1:2,0:0:0:0:
358,115,23045,5,10,1:2:0:0:
401,169,23139,1,2,0:0:0:0:
342,208,23233,1,2,0:0:0:0:
296,260,23326,1,2,0:0:0:0:
232,230,23420,2,0,P|210:226|173:234,1,50,2|2,0:0|0:0,0:0:0:0:
32,384,23608,5,8,0:0:0:0:
26,368,23795,5,8,0:0:0:0:
19,349,23983,5,8,0:0:0:0:
43,318,24076,1,8,0:0:0:0:
83,315,24170,1,10,0:0:0:0:
115,338,24264,1,8,0:0:0:0:
124,376,24358,5,6,1:2:0:0:
159,328,24451,1,0,1:2:0:0:
159,267,24545,1,10,1:2:0:0:
109,232,24639,1,0,1:2:0:0:
49,225,24733,1,2,1:2:0:0:
9,180,24826,1,0,1:2:0:0:
22,121,24920,2,0,L|86:116,1,50,10|0,1:2|0:0,0:0:0:0:
286,59,25108,6,0,P|292:32|281:-5,1,50,2|0,0:0|0:0,0:0:0:0:
169,203,25295,2,0,P|163:230|174:267,1,50,10|0,0:0|0:0,0:0:0:0:
416,329,25483,1,2,1:2:0:0:
382,279,25576,1,0,1:2:0:0:
324,260,25670,1,10,1:2:0:0:
268,283,25764,1,0,1:2:0:0:
238,335,25858,2,0,L|241:385,1,50,2|0,1:2|1:2,0:0:0:0:
17,179,26045,5,10,1:2:0:0:
70,224,26139,1,2,0:0:0:0:
121,176,26233,1,2,0:0:0:0:
180,211,26326,1,2,0:0:0:0:
233,164,26420,2,0,P|259:167|283:161,1,50,10|2,0:0|0:0,0:0:0:0:
474,2,26608,5,2,1:2:0:0:
422,31,26701,1,0,1:2:0:0:
408,89,26795,1,10,1:2:0:0:
426,146,26889,1,0,1:2:0:0:
469,187,26983,1,2,1:2:0:0:
491,242,27076,1,0,1:2:0:0:
473,299,27170,1,10,1:2:0:0:
420,328,27264,1,0,1:2:0:0:
361,313,27358,5,2,1:2:0:0:
395,264,27451,1,0,1:2:0:0:
378,206,27545,1,10,1:2:0:0:
323,180,27639,1,0,1:2:0:0:
269,208,27733,1,2,1:2:0:0:
220,242,27826,1,0,1:2:0:0:
162,223,27920,2,0,P|146:195|151:157,1,50,10|0,1:2|0:0,0:0:0:0:
254,22,28108,6,0,L|325:27,1,50,2|0,0:0|0:0,0:0:0:0:
101,106,28295,2,0,L|30:101,1,50,10|0,0:0|0:0,0:0:0:0:
280,226,28483,1,10,0:0:0:0:
339,222,28576,1,8,0:0:0:0:
399,218,28670,1,8,0:3:0:0:
459,215,28764,1,8,0:3:0:0:
200,298,30358,5,14,0:0:0:0:
146,337,30451,1,0,1:2:0:0:
80,337,30545,1,8,0:0:0:0:
25,297,30639,1,0,1:2:0:0:
5,234,30733,1,8,0:0:0:0:
25,170,30826,1,0,1:2:0:0:
80,131,30920,1,8,0:0:0:0:
146,131,31014,1,0,1:2:0:0:
200,170,31108,1,8,0:0:0:0:
255,209,31202,1,0,1:2:0:0:
321,209,31296,1,8,0:0:0:0:
376,170,31390,1,0,1:2:0:0:
396,106,31483,1,8,0:0:0:0:
376,43,31577,1,0,1:2:0:0:
321,3,31670,1,8,0:0:0:0:
255,4,31764,1,0,1:2:0:0:
200,43,31858,5,8,0:0:0:0:
180,107,31951,1,0,1:2:0:0:
200,170,32045,1,8,0:0:0:0:
255,210,32138,1,0,1:2:0:0:
301,259,32233,1,8,0:0:0:0:
293,323,32326,1,0,1:2:0:0:
235,358,32420,1,8,0:0:0:0:
170,339,32514,1,0,1:2:0:0:
147,276,32608,5,8,0:0:0:0:
183,271,32701,1,8,0:0:0:0:
214,283,32795,1,0,1:2:0:0:
235,307,32889,1,8,0:0:0:0:
246,339,32983,2,0,L|243:388,1,50,8|0,0:0|1:2,0:0:0:0:
73,311,33170,1,8,0:0:0:0:
71,277,33264,1,0,1:2:0:0:
70,242,33358,5,12,0:0:0:0:
124,281,33451,1,0,1:2:0:0:
191,281,33545,1,8,0:0:0:0:
244,242,33639,1,0,1:2:0:0:
265,180,33732,1,8,0:0:0:0:
274,113,33826,1,0,1:2:0:0:
295,50,33919,1,8,0:0:0:0:
348,11,34013,1,0,1:2:0:0:
415,11,34107,1,8,0:0:0:0:
469,50,34200,1,0,1:2:0:0:
491,114,34295,1,8,0:0:0:0:
470,177,34388,1,0,1:2:0:0:
417,216,34482,1,8,0:0:0:0:
350,216,34576,1,0,1:2:0:0:
296,177,34669,1,8,0:0:0:0:
274,113,34764,1,0,1:2:0:0:
295,50,34857,5,8,0:2:0:0:
366,113,34983,1,8,1:2:0:0:
350,216,35108,1,8,1:2:0:0:
262,254,35233,5,8,1:2:0:0:
338,309,35358,1,8,1:2:0:0:
421,262,35483,1,8,1:2:0:0:
439,168,35608,5,8,1:2:0:0:
358,217,35733,1,8,1:2:0:0:
338,309,35858,1,8,1:2:0:0:
418,359,35983,5,8,1:3:0:0:
418,359,36358,6,0,B|365:327|365:327|238:357,1,175,4|0,1:2|0:0,0:0:0:0:
245,368,37108,1,12,0:0:0:0:
338,119,38608,6,0,L|372:122,1,25,12|0,0:0|0:0,0:0:0:0:
512,213,38795,2,0,L|475:216,1,25,0|0,1:2|0:0,0:0:0:0:
361,299,38983,5,4,1:2:0:0:
347,298,39045,5,0,1:2:0:0:
334,296,39108,5,0,1:2:0:0:
321,294,39170,5,0,1:2:0:0:
307,292,39233,5,0,1:2:0:0:
294,291,39295,5,0,1:2:0:0:
275,292,39358,6,0,L|235:297,1,25,4|0,1:2|1:2,0:0:0:0:
140,375,39545,2,0,L|97:371,1,25,0|0,1:2|1:2,0:0:0:0:
0,251,39733,1,4,1:2:0:0:
12,202,39826,1,0,1:2:0:0:
56,178,39920,1,0,1:2:0:0:
106,178,40014,1,0,1:2:0:0:
140,214,40108,1,12,0:0:0:0:
315,51,40858,5,8,0:0:0:0:
377,20,40951,1,8,0:0:0:0:
442,46,41045,1,8,0:0:0:0:
459,113,41139,1,8,0:0:0:0:
437,179,41233,5,0,1:2:0:0:
402,173,41326,1,0,1:2:0:0:
367,165,41420,1,0,1:2:0:0:
332,156,41514,1,0,1:2:0:0:
292,150,41608,6,0,L|249:153,1,25,8|8,0:0|0:0,0:0:0:0:
141,64,41795,2,0,L|183:67,1,25,8|8,0:0|0:0,0:0:0:0:
80,178,41983,5,8,0:3:0:0:
66,177,42045,5,8,0:3:0:0:
53,175,42108,5,8,0:3:0:0:
40,173,42170,5,0,1:2:0:0:
26,171,42233,5,0,1:0:0:0:
13,170,42295,5,0,1:0:0:0:
0,170,42358,6,0,B|20:157|24:132|24:132|78:191|29:255,1,175,4|0,1:2|0:0,0:0:0:0:
22,263,43108,1,12,0:0:0:0:
163,376,43483,1,4,1:2:0:0:
408,33,44608,6,0,P|430:30|454:35,1,25,12|0,0:0|0:0,0:0:0:0:
340,156,44795,2,0,P|316:157|292:152,1,25,0|0,1:2|0:0,0:0:0:0:
212,61,44983,6,0,B|210:43|210:43|213:36|213:36|213:18,2,33.3333333333333,4|0|0,1:2|1:2|1:2,0:0:0:0:
114,156,45358,5,4,1:2:0:0:
88,199,45452,1,0,1:2:0:0:
101,247,45546,1,0,1:2:0:0:
144,270,45639,1,0,1:2:0:0:
193,260,45733,1,4,1:2:0:0:
234,231,45827,1,0,1:2:0:0:
283,222,45921,1,0,1:2:0:0:
325,247,46014,1,0,1:2:0:0:
330,296,46108,1,12,0:0:0:0:
111,128,46717,5,0,1:2:0:0:
112,137,46764,5,0,1:2:0:0:
114,147,46811,5,0,1:2:0:0:
114,156,46858,5,12,0:0:0:0:
285,2,47045,1,4,1:2:0:0:
34,13,47233,1,4,1:2:0:0:
242,150,47420,1,4,1:2:0:0:
65,260,47608,1,12,0:0:0:0:
247,363,47795,6,0,B|272:366|272:366|303:354,1,50,0|0,1:2|0:0,0:0:0:0:
242,150,47983,2,0,B|224:170|224:170|220:202,1,50,0|0,1:2|0:0,0:0:0:0:
428,252,48170,2,0,B|419:227|419:227|393:207,1,50,0|0,1:2|0:0,0:0:0:0:
195,78,48358,6,0,B|239:46|289:78|289:78|261:11|161:21|113:70|158:91|100:166|14:152|-30:68|34:-11|142:5|92:74,1,528.000016113282,0|2,0:0|0:0,0:0:0:0:
256,192,53161,12,0,54534,0:0:0:0:
484,116,54632,6,0,B|424:112|424:112|398:122|398:122|327:117,1,150,8|0,1:3|0:0,0:0:0:0:
323,105,55011,6,0,B|384:109|384:109|410:99|410:99|470:103,1,150.000005722046,10|2,1:3|0:0,0:0:0:0:
22,342,56150,6,0,B|66:310|128:341|98:359|151:387|194:360,1,187.5,8|0,1:3|0:0,0:0:0:0:
209,340,56530,6,0,B|162:369|105:338|137:319|70:285|22:320,1,200,10|2,1:3|0:0,0:0:0:0:
450,57,57669,6,0,B|436:88|436:88|447:175,1,112.500004291535,8|0,1:3|0:0,0:0:0:0:
466,186,58049,6,0,B|456:108|456:108|470:77,1,100,10|2,1:3|0:0,0:0:0:0:
101,357,59188,6,0,P|73:359|61:377,3,50,2|2|2|2,0:0|0:0|0:0|0:0,0:0:0:0:
44,93,60707,5,4,1:2:0:0:
205,242,60897,2,0,L|95:244,1,110.000003356934,8|2,0:0|1:2,0:0:0:0:
26,209,61182,2,0,L|-32:210,1,55.0000016784668,0|8,1:0|0:0,0:0:0:0:
186,107,61467,1,2,1:2:0:0:
136,327,61657,1,8,0:0:0:0:
27,133,61847,1,2,1:2:0:0:
27,133,61942,1,0,1:0:0:0:
27,133,62037,1,8,0:0:0:0:
252,64,62226,6,0,P|305:48|357:69,1,110.000003356934,4|8,1:2|0:0,0:0:0:0:
210,245,62606,1,2,1:2:0:0:
210,245,62701,1,0,1:0:0:0:
210,245,62796,1,8,0:0:0:0:
73,74,62986,1,2,1:2:0:0:
24,100,63081,1,0,1:2:0:0:
6,152,63176,1,8,1:2:0:0:
36,197,63271,1,0,1:2:0:0:
84,222,63366,1,2,1:2:0:0:
122,261,63461,1,0,1:2:0:0:
123,316,63556,1,8,1:2:0:0:
85,355,63650,1,0,1:2:0:0:
30,350,63745,5,0,1:2:0:0:
195,215,63935,2,0,L|318:217,1,110.000003356934,8|2,0:0|1:2,0:0:0:0:
382,219,64220,1,0,1:2:0:0:
382,219,64315,1,10,0:0:0:0:
190,341,64505,1,2,1:2:0:0:
252,129,64695,1,10,0:0:0:0:
358,332,64885,1,2,1:2:0:0:
358,332,64980,1,0,1:2:0:0:
358,332,65075,1,10,0:0:0:0:
157,261,65264,5,0,1:2:0:0:
112,228,65359,1,0,1:2:0:0:
98,174,65454,1,8,1:2:0:0:
124,125,65549,1,0,1:2:0:0:
176,109,65644,1,2,1:2:0:0:
228,126,65739,1,0,1:2:0:0:
271,159,65834,1,10,1:2:0:0:
324,171,65929,1,0,1:2:0:0:
373,147,66024,1,0,1:2:0:0:
392,95,66119,1,0,1:2:0:0:
365,46,66214,1,10,1:2:0:0:
312,30,66309,1,0,1:2:0:0:
263,55,66404,5,0,1:2:0:0:
268,121,66499,1,0,1:2:0:0:
271,187,66594,1,8,1:2:0:0:
276,251,66688,1,0,1:2:0:0:
280,317,66783,5,4,1:2:0:0:
441,182,66973,2,0,P|389:162|339:181,1,110.000003356934,8|2,0:0|1:2,0:0:0:0:
273,231,67258,2,0,L|210:233,1,55.0000016784668,0|8,1:2|0:0,0:0:0:0:
450,310,67543,1,2,1:2:0:0:
457,89,67733,1,8,0:0:0:0:
345,278,67923,1,2,1:2:0:0:
345,278,68018,1,0,1:2:0:0:
345,278,68113,1,8,0:2:0:0:
252,79,68302,5,0,1:2:0:0:
446,183,68492,2,0,L|329:177,1,110.000003356934,8|2,0:2|1:2,0:0:0:0:
260,204,68777,1,0,1:2:0:0:
260,204,68872,1,8,0:2:0:0:
103,49,69062,1,2,1:2:0:0:
48,55,69157,1,0,1:2:0:0:
16,99,69252,1,8,1:2:0:0:
28,152,69347,1,0,1:2:0:0:
74,181,69442,1,2,1:2:0:0:
119,211,69537,1,0,1:2:0:0:
150,255,69632,1,8,1:2:0:0:
133,308,69726,1,0,1:2:0:0:
87,339,69821,5,4,1:2:0:0:
247,215,70011,2,0,B|272:268|272:268|249:324,1,110.000003356934,8|0,0:0|1:2,0:0:0:0:
200,384,70296,2,0,L|133:386,1,55.0000016784668,0|10,1:0|0:0,0:0:0:0:
380,302,70581,1,2,1:2:0:0:
173,226,70771,1,10,0:0:0:0:
369,120,70961,1,0,1:2:0:0:
369,120,71056,1,0,1:0:0:0:
369,120,71150,1,10,0:0:0:0:
401,337,71340,5,4,1:2:0:0:
348,377,71435,1,0,1:2:0:0:
282,372,71530,1,8,1:2:0:0:
239,321,71625,1,0,1:2:0:0:
238,254,71720,1,2,1:2:0:0:
287,210,71815,1,0,1:2:0:0:
353,208,71910,1,10,1:2:0:0:
414,178,72005,1,0,1:2:0:0:
457,128,72100,1,0,1:2:0:0:
454,62,72195,1,0,1:2:0:0:
402,21,72290,1,10,1:2:0:0:
335,23,72385,1,0,1:2:0:0:
296,77,72480,1,0,1:2:0:0:
311,141,72575,1,0,1:2:0:0:
362,181,72669,1,8,1:2:0:0:
409,226,72764,1,0,1:2:0:0:
407,292,72859,5,4,1:2:0:0:
373,287,72954,1,8,0:0:0:0:
341,284,73049,2,0,L|283:275,1,55.0000016784668,8|8,0:0|0:0,0:0:0:0:
142,363,73239,5,6,1:2:0:0:
130,344,73334,1,8,0:0:0:0:
118,325,73429,2,0,L|126:270,1,55.0000016784668,8|8,0:0|0:0,0:0:0:0:
232,148,73619,5,6,1:2:0:0:
232,136,73714,1,8,0:0:0:0:
231,125,73809,2,0,L|227:57,1,55.0000016784668,8|8,0:0|0:0,0:0:0:0:
42,170,73999,5,4,1:2:0:0:
43,175,74094,1,8,0:0:0:0:
44,180,74188,1,8,1:2:0:0:
469,317,75919,5,4,1:2:0:0:
413,339,76015,1,0,1:2:0:0:
358,317,76111,1,0,1:2:0:0:
335,261,76207,1,0,1:2:0:0:
358,206,76303,1,0,1:2:0:0:
381,151,76399,1,0,1:2:0:0:
358,95,76495,2,0,P|338:83|307:82,1,50,0|0,1:2|0:0,0:0:0:0:
121,187,76688,6,0,B|126:329|124:186|129:330,1,112.500004291535,12|0,0:0|0:0,0:0:0:0:
179,373,77072,5,0,1:2:0:0:
203,319,77168,1,0,1:2:0:0:
257,298,77264,1,0,1:2:0:0:
311,321,77360,1,0,1:2:0:0:
355,362,77457,1,4,1:2:0:0:
408,384,77553,1,0,1:2:0:0:
463,363,77649,6,0,B|516:304|460:233|460:233|472:261|461:280,1,187.500007152558,0|0,1:2|0:0,0:0:0:0:
387,281,78226,5,14,0:0:0:0:
334,227,78322,1,0,1:2:0:0:
258,231,78419,1,0,1:2:0:0:
217,293,78515,1,0,1:2:0:0:
140,368,78611,1,0,1:2:0:0:
117,351,78707,1,0,1:2:0:0:
94,334,78803,2,0,L|96:274,1,50,0|0,1:2|0:0,0:0:0:0:
10,16,78995,5,4,1:2:0:0:
44,65,79092,1,0,1:2:0:0:
103,73,79188,1,0,1:2:0:0:
149,35,79284,1,0,1:2:0:0:
203,9,79380,1,2,1:2:0:0:
261,23,79476,1,0,1:2:0:0:
290,75,79572,2,0,P|296:101|287:132,1,50,0|0,1:2|0:0,0:0:0:0:
134,275,79765,6,0,B|155:263|186:277|186:277|194:272|194:272|218:287|243:275,1,112.500004291535,14|0,0:0|0:0,0:0:0:0:
323,287,80149,5,0,1:2:0:0:
322,311,80245,1,0,1:2:0:0:
321,336,80342,1,0,1:2:0:0:
320,360,80438,1,0,1:2:0:0:
318,384,80534,5,14,0:0:0:0:
246,362,80630,1,8,0:0:0:0:
227,289,80726,1,0,1:2:0:0:
265,225,80822,1,0,1:2:0:0:
340,219,80919,1,10,0:3:0:0:
397,266,81015,1,8,0:3:0:0:
471,261,81111,1,0,1:2:0:0:
510,197,81207,1,0,1:2:0:0:
498,123,81303,1,10,0:0:0:0:
36,25,82072,5,4,1:2:0:0:
94,8,82169,1,0,1:2:0:0:
151,23,82265,1,0,1:2:0:0:
177,76,82361,1,0,1:2:0:0:
171,135,82457,1,0,1:2:0:0:
126,175,82553,1,0,1:2:0:0:
67,188,82649,2,0,P|40:181|9:183,1,50,0|0,1:2|0:0,0:0:0:0:
148,317,82842,6,0,P|205:333|256:311,1,112.500004291535,12|0,0:0|0:0,0:0:0:0:
319,253,83226,5,0,1:2:0:0:
366,216,83322,1,0,1:2:0:0:
425,207,83419,1,0,1:2:0:0:
475,239,83515,1,0,1:2:0:0:
489,297,83611,1,4,1:2:0:0:
467,352,83707,1,0,1:2:0:0:
416,384,83803,6,0,B|390:382|371:363|371:363|333:387|333:387|288:351|230:386,1,187.500007152558,0|0,1:2|0:0,0:0:0:0:
158,378,84380,5,12,0:0:0:0:
215,263,84508,1,0,1:2:0:0:
74,282,84636,1,0,1:2:0:0:
238,344,84765,5,0,1:2:0:0:
135,212,84893,1,0,1:2:0:0:
75,369,85021,1,0,1:2:0:0:
257,233,85149,5,4,1:2:0:0:
307,210,85245,1,0,1:2:0:0:
358,230,85342,1,0,1:2:0:0:
380,280,85438,1,0,1:2:0:0:
421,315,85534,1,0,1:2:0:0:
475,309,85630,1,0,1:2:0:0:
505,263,85726,2,0,P|515:235|498:194,1,50,0|0,1:2|0:0,0:0:0:0:
385,77,85919,6,0,B|318:83|334:67|330:89|320:68|341:82|246:77,1,112.500004291535,12|0,0:0|0:0,0:0:0:0:
182,126,86303,5,0,1:2:0:0:
157,125,86399,1,0,1:2:0:0:
132,123,86495,1,0,1:2:0:0:
106,121,86592,1,0,1:2:0:0:
81,121,86688,5,12,0:0:0:0:
109,51,86784,1,8,0:0:0:0:
178,40,86880,1,0,1:2:0:0:
235,70,86976,1,0,1:2:0:0:
254,126,87072,1,8,0:3:0:0:
232,177,87169,1,8,0:3:0:0:
196,211,87265,1,0,1:2:0:0:
161,239,87361,1,0,1:2:0:0:
139,278,87457,6,0,P|132:303|142:336,3,50,8|2|2|2,1:3|0:0|0:0|0:0,0:0:0:0:
221,356,87842,2,0,P|245:348|274:352,3,50,2|2|2|2,0:0|0:0|0:0|0:0,0:0:0:0:
377,384,88226,6,0,L|385:282,1,89.9999972534181,6|8,1:2|0:0,0:0:0:0:
194,193,88611,1,2,0:0:0:0:
194,193,88803,2,0,L|202:295,1,89.9999972534181,10|0,0:0|0:0,0:0:0:0:
404,81,89188,5,10,0:0:0:0:
363,110,89284,1,0,1:2:0:0:
313,108,89380,1,2,1:2:0:0:
281,69,89476,1,0,1:2:0:0:
287,19,89572,1,10,0:0:0:0:
181,153,89861,5,0,1:2:0:0:
181,153,89957,2,0,L|72:146,1,89.9999972534181,8|2,0:0|0:0,0:0:0:0:
2,124,90245,1,0,1:2:0:0:
2,124,90342,2,0,P|-2:152|5:179,1,44.999998626709,10|0,0:0|1:2,0:0:0:0:
158,283,90534,5,0,1:2:0:0:
123,247,90630,1,0,1:2:0:0:
74,234,90726,1,10,0:0:0:0:
31,260,90822,1,0,1:2:0:0:
9,305,90919,1,2,1:2:0:0:
24,352,91015,1,0,1:2:0:0:
68,375,91111,2,0,L|124:372,1,44.999998626709,10|0,0:0|1:2,0:0:0:0:
283,286,91303,5,2,1:2:0:0:
320,239,91399,1,0,1:2:0:0:
320,179,91495,1,8,0:0:0:0:
274,139,91592,1,2,1:2:0:0:
215,149,91688,1,0,1:2:0:0:
170,189,91784,1,0,1:2:0:0:
113,209,91880,1,10,0:0:0:0:
53,199,91976,1,0,1:2:0:0:
19,149,92072,1,0,1:2:0:0:
28,89,92169,1,0,1:2:0:0:
73,50,92265,2,0,P|95:45|129:52,1,44.999998626709,10|0,0:0|1:2,0:0:0:0:
292,155,92457,5,2,1:2:0:0:
287,224,92553,1,0,1:2:0:0:
281,293,92649,1,10,0:0:0:0:
276,362,92745,1,0,1:2:0:0:
176,68,93995,5,8,0:0:0:0:
176,68,94380,5,10,0:0:0:0:
176,92,94476,1,0,1:2:0:0:
176,116,94572,2,0,L|175:170,1,50,0|0,1:2|0:0,0:0:0:0:
95,384,94765,5,10,0:0:0:0:
32,343,94861,1,0,1:2:0:0:
37,268,94957,1,10,0:0:0:0:
107,243,95053,1,0,1:2:0:0:
167,286,95149,5,10,0:0:0:0:
165,310,95245,1,0,1:2:0:0:
163,335,95342,2,0,L|160:391,1,50,10|0,0:0|0:0,0:0:0:0:
348,300,95534,5,10,0:0:0:0:
398,245,95630,1,0,1:2:0:0:
404,170,95726,1,10,0:0:0:0:
346,121,95822,1,0,1:2:0:0:
270,125,95919,5,10,0:0:0:0:
270,149,96015,1,0,1:2:0:0:
271,173,96111,2,0,L|272:242,1,50,10|0,0:0|1:2,0:0:0:0:
491,325,96303,5,10,0:0:0:0:
491,301,96399,1,0,1:2:0:0:
492,277,96495,2,0,L|493:208,1,50,10|0,0:0|1:2,0:0:0:0:
441,37,96688,6,0,P|416:29|384:36,1,50,10|0,0:0|1:2,0:0:0:0:
271,173,96880,2,0,P|296:181|328:174,1,50,10|0,0:0|1:0,0:0:0:0:
217,44,97072,5,10,0:3:0:0:
200,43,97136,5,8,1:3:0:0:
183,42,97201,5,8,1:3:0:0:
166,42,97265,5,10,1:3:0:0:
149,43,97329,5,8,1:3:0:0:
132,43,97393,5,8,1:3:0:0:
115,43,97457,6,0,L|62:43,3,50,10|0|10|0,1:2|1:2|1:2|1:2,0:0:0:0:
0,134,97842,2,0,P|1:161|16:190,3,50,10|0|10|0,1:2|1:2|1:2|1:2,0:0:0:0:
129,204,98226,5,10,1:2:0:0:
172,162,98322,1,0,1:2:0:0:
232,156,98419,1,10,1:2:0:0:
281,189,98515,1,0,1:2:0:0:
291,247,98611,2,0,L|289:308,3,50,10|0|10|0,1:2|1:2|1:2|1:2,0:0:0:0:
326,380,98995,5,2,1:2:0:0:
334,374,99043,5,0,1:2:0:0:
342,378,99091,5,0,1:2:0:0:
351,374,99139,5,0,1:2:0:0:
358,380,99187,5,2,1:2:0:0:
367,376,99235,5,0,1:2:0:0:
375,380,99283,5,0,1:2:0:0:
384,376,99331,5,0,1:2:0:0:
392,381,99380,6,0,L|421:381,3,25,2|0|0|0,1:2|1:2|1:2|1:2,0:0:0:0:
452,354,99572,6,0,L|481:355,3,25,2|0|0|0,1:2|1:2|1:2|1:2,0:0:0:0:
512,384,99765,5,10,1:3:0:0:
98,123,100534,5,4,1:2:0:0:
103,178,100630,1,0,1:2:0:0:
110,234,100726,1,0,1:2:0:0:
414,261,101303,5,4,1:2:0:0:
409,206,101399,1,0,1:2:0:0:
402,150,101495,1,0,1:2:0:0:
45,100,102072,5,4,1:2:0:0:
52,174,102168,1,0,1:2:0:0:
61,248,102264,1,0,1:2:0:0:
467,284,102841,5,12,1:3:0:0:
460,210,102937,1,8,1:3:0:0:
451,136,103033,1,8,1:3:0:0:
65,332,103611,5,4,1:2:0:0:
131,297,103707,1,0,1:2:0:0:
194,336,103803,2,0,P|202:360|197:391,1,50,0|0,1:2|0:0,0:0:0:0:
54,237,103995,6,0,B|40:216|54:191|54:191|108:191|108:191|118:197|118:197|173:197|173:197|191:175|172:145,1,225.000008583069,2|0,0:0|0:0,0:0:0:0:
112,91,104380,6,0,L|44:94,1,50,8|0,0:0|0:0,0:0:0:0:
227,7,104572,2,0,L|295:10,1,50,0|0,1:2|0:0,0:0:0:0:
404,140,104765,6,0,B|400:179|400:179|402:183|402:183|398:221,1,75.0000028610231,2|0,0:0|0:0,0:0:0:0:
251,328,104957,6,0,B|246:279|246:279|249:274|249:274|243:226,1,100,2|0,0:0|0:0,0:0:0:0:
503,372,105149,5,0,1:2:0:0:
467,323,105245,1,0,1:2:0:0:
408,309,105342,1,2,1:2:0:0:
357,341,105438,1,0,1:2:0:0:
313,382,105534,1,0,1:2:0:0:
253,374,105630,1,0,1:2:0:0:
217,325,105726,1,2,1:2:0:0:
237,268,105822,1,0,1:2:0:0:
295,251,105919,6,0,P|334:259|358:291,2,66.6666666666667,8|8|2,0:0|0:3|1:2,0:0:0:0:
150,272,106303,5,8,0:0:0:0:
51,175,106688,5,4,1:2:0:0:
22,134,106784,1,0,1:2:0:0:
35,86,106880,2,0,P|57:79|96:84,1,50,0|2,1:2|0:0,0:0:0:0:
262,133,107072,1,2,0:0:0:0:
312,131,107169,1,2,0:0:0:0:
339,89,107265,2,0,L|331:29,1,50,2|2,0:0|0:0,0:0:0:0:
502,155,107457,5,12,1:2:0:0:
496,214,107553,1,0,1:2:0:0:
486,273,107649,2,0,L|478:333,1,50,0|2,1:2|0:0,0:0:0:0:
285,384,107842,1,2,0:0:0:0:
225,383,107938,1,2,0:0:0:0:
187,336,108034,2,0,P|181:311|194:281,1,50,2|2,0:0|0:0,0:0:0:0:
312,176,108226,5,4,1:2:0:0:
350,106,108322,1,0,1:2:0:0:
313,45,108419,2,0,P|288:35|246:42,1,50,0|2,1:2|0:0,0:0:0:0:
77,118,108611,1,2,0:0:0:0:
77,187,108707,1,2,0:0:0:0:
79,256,108803,2,0,L|153:250,1,50,2|2,0:0|0:0,0:0:0:0:
312,179,108995,5,12,1:2:0:0:
366,153,109092,1,0,1:2:0:0:
424,166,109188,1,0,1:2:0:0:
455,216,109284,1,2,0:0:0:0:
450,275,109380,1,2,0:0:0:0:
410,319,109476,1,2,0:0:0:0:
349,321,109573,2,2,P|322:316|295:324,1,50
87,384,109765,5,4,1:2:0:0:
79,334,109861,1,0,1:2:0:0:
73,284,109957,2,0,L|68:235,1,50,0|2,1:2|0:0,0:0:0:0:
251,82,110149,1,2,0:0:0:0:
243,132,110245,1,2,0:0:0:0:
237,182,110341,2,0,L|232:231,1,50,2|2,0:0|0:0,0:0:0:0:
87,384,110534,5,12,1:2:0:0:
136,342,110630,1,0,1:2:0:0:
194,371,110726,2,0,P|223:372|249:360,1,50,0|2,1:2|0:0,0:0:0:0:
291,177,110919,2,0,P|275:201|273:230,1,50,8|2,0:0|0:0,0:0:0:0:
417,365,111111,2,0,P|403:339|379:322,1,50,8|2,0:0|0:0,0:0:0:0:
193,147,111303,1,12,1:2:0:0:
124,116,111399,1,2,1:2:0:0:
54,143,111495,1,0,1:2:0:0:
34,216,111592,1,8,0:0:0:0:
73,279,111688,5,0,1:2:0:0:
132,278,111784,1,0,1:2:0:0:
191,278,111880,1,8,0:0:0:0:
250,275,111976,1,8,0:0:0:0:
309,275,112072,2,0,L|367:274,1,50,8|0,0:0|1:2,0:0:0:0:
488,154,112265,2,0,L|438:154,1,50,0|0,1:2|1:2,0:0:0:0:
285,72,112457,5,8,0:0:0:0:
226,73,112553,1,8,0:3:0:0:
167,74,112649,1,8,1:3:0:0:
108,75,112745,1,8,1:3:0:0:
124,384,114359,5,2,1:2:0:0:
20,191,114548,2,0,P|71:171|130:190,1,110.000003356934,8|2,0:2|0:0,0:0:0:0:
182,238,114833,1,0,1:2:0:0:
182,238,114928,1,10,0:2:0:0:
333,77,115118,1,0,1:2:0:0:
290,42,115213,1,0,1:2:0:0:
235,33,115308,1,10,1:2:0:0:
190,65,115403,1,0,1:2:0:0:
175,118,115498,1,0,1:2:0:0:
202,165,115593,1,0,1:2:0:0:
249,193,115688,1,10,1:2:0:0:
283,235,115783,1,0,1:2:0:0:
268,287,115877,5,4,1:2:0:0:
416,142,116067,2,0,L|422:267,1,110.000003356934,10|2,0:0|1:2,0:0:0:0:
444,330,116352,2,0,P|417:338|387:328,1,55.0000016784668,0|8,1:0|0:0,0:0:0:0:
296,166,116637,1,2,1:2:0:0:
510,118,116827,1,8,0:0:0:0:
354,274,117017,1,2,1:2:0:0:
354,274,117112,1,0,1:0:0:0:
354,274,117207,1,8,0:0:0:0:
302,61,117396,5,6,1:2:0:0:
346,28,117491,1,0,1:2:0:0:
401,27,117586,1,8,1:2:0:0:
444,61,117681,1,0,1:2:0:0:
451,115,117776,1,2,1:2:0:0:
420,161,117871,1,0,1:2:0:0:
367,178,117966,1,8,1:2:0:0:
317,154,118061,1,0,1:2:0:0:
268,128,118156,1,2,1:2:0:0:
213,134,118251,1,0,1:2:0:0:
169,168,118346,1,8,1:2:0:0:
159,222,118441,1,0,1:2:0:0:
186,269,118536,1,2,1:2:0:0:
235,292,118631,1,0,1:2:0:0:
289,283,118726,1,10,1:2:0:0:
338,259,118821,1,0,1:2:0:0:
389,277,118915,5,4,1:2:0:0:
224,183,119105,2,0,P|200:134|225:88,1,110.000003356934,8|2,0:0|1:2,0:0:0:0:
306,65,119390,1,0,1:0:0:0:
306,65,119485,1,8,0:0:0:0:
85,66,119675,1,2,1:2:0:0:
236,225,119865,1,8,0:0:0:0:
235,0,120055,6,0,P|209:-6|180:1,2,55.0000016784668,2|0|8,1:2|1:0|0:0,0:0:0:0:
78,166,120434,5,4,1:2:0:0:
275,262,120624,2,0,L|388:257,1,110.000003356934,8|2,0:0|1:2,0:0:0:0:
460,218,120909,1,0,1:0:0:0:
460,218,121004,1,8,0:0:0:0:
301,37,121194,1,2,1:2:0:0:
251,12,121289,1,0,1:2:0:0:
198,27,121384,1,8,1:2:0:0:
172,75,121479,1,0,1:2:0:0:
184,128,121574,1,2,1:2:0:0:
224,164,121669,1,0,1:2:0:0:
259,205,121764,1,8,1:2:0:0:
263,259,121859,1,0,1:2:0:0:
229,301,121953,5,0,1:2:0:0:
339,173,122143,2,0,P|387:153|443:179,1,110.000003356934,8|0,0:0|1:0,0:0:0:0:
468,246,122428,2,0,P|495:254|525:246,1,55.0000016784668,0|10,1:2|0:0,0:0:0:0:
390,71,122713,1,2,1:2:0:0:
303,266,122903,1,10,0:0:0:0:
196,86,123093,1,0,1:2:0:0:
196,86,123188,1,0,1:2:0:0:
196,86,123283,1,10,0:0:0:0:
60,255,123472,5,0,1:2:0:0:
109,211,123567,1,0,1:2:0:0:
174,202,123662,1,8,1:2:0:0:
222,247,123757,1,0,1:2:0:0:
243,309,123852,1,0,1:2:0:0:
293,352,123947,1,0,1:2:0:0:
358,341,124042,1,8,1:2:0:0:
404,293,124137,1,0,1:2:0:0:
399,227,124232,1,0,1:2:0:0:
346,186,124327,1,0,1:2:0:0:
294,144,124422,1,8,1:2:0:0:
279,79,124517,1,0,1:2:0:0:
314,23,124612,1,0,1:2:0:0:
379,11,124707,1,0,1:2:0:0:
436,42,124802,1,8,1:2:0:0:
455,104,124896,1,0,1:2:0:0:
418,159,124991,5,4,1:2:0:0:
247,19,125181,2,0,P|196:0|141:17,1,110.000003356934,8|2,0:0|1:2,0:0:0:0:
89,66,125466,2,0,L|90:133,1,55.0000016784668,0|8,1:0|0:0,0:0:0:0:
214,246,125751,1,2,1:2:0:0:
272,33,125941,1,8,0:0:0:0:
96,162,126131,1,2,1:2:0:0:
96,162,126226,1,0,1:0:0:0:
96,162,126321,1,8,0:0:0:0:
322,207,126510,5,4,1:2:0:0:
186,33,126700,2,0,L|190:146,1,110.000003356934,8|2,0:0|1:2,0:0:0:0:
197,225,126985,1,0,1:0:0:0:
197,225,127080,1,8,0:0:0:0:
374,95,127270,1,2,1:2:0:0:
428,104,127365,1,0,1:2:0:0:
466,142,127460,1,8,1:2:0:0:
475,196,127555,1,0,1:2:0:0:
450,245,127650,1,2,1:2:0:0:
401,271,127745,1,0,1:2:0:0:
347,261,127839,1,8,1:2:0:0:
312,217,127934,1,0,1:2:0:0:
312,161,128029,5,0,1:2:0:0:
468,356,128219,2,0,L|334:361,1,110.000003356934,8|2,0:0|1:2,0:0:0:0:
287,335,128504,2,0,L|228:337,1,55.0000016784668,0|10,1:2|0:0,0:0:0:0:
328,150,128789,1,2,1:2:0:0:
461,325,128979,1,10,0:0:0:0:
253,283,129169,1,2,1:2:0:0:
253,283,129264,1,0,1:2:0:0:
253,283,129359,1,10,0:0:0:0:
434,160,129548,5,0,1:2:0:0:
466,115,129643,1,0,1:2:0:0:
463,60,129738,1,8,1:2:0:0:
419,25,129833,1,0,1:2:0:0:
364,19,129928,1,2,1:2:0:0:
319,51,130023,1,0,1:2:0:0:
312,105,130118,1,10,1:2:0:0:
333,155,130213,1,0,1:2:0:0:
373,192,130308,1,0,1:2:0:0:
393,242,130403,1,0,1:2:0:0:
381,295,130498,1,10,1:2:0:0:
334,323,130593,1,0,1:2:0:0:
280,312,130688,1,0,1:2:0:0:
236,278,130783,1,0,1:2:0:0:
181,278,130877,1,8,1:2:0:0:
139,314,130972,1,0,1:2:0:0:
135,368,131067,5,4,1:2:0:0:
252,186,131257,2,0,P|199:166|148:187,1,110.000003356934,8|2,0:0|1:2,0:0:0:0:
91,240,131542,1,0,1:2:0:0:
91,240,131637,1,8,0:0:0:0:
18,20,131827,1,2,1:2:0:0:
237,92,132017,1,8,0:0:0:0:
27,180,132207,2,0,L|-28:179,2,55.0000016784668,2|0|8,1:2|1:2|0:2,0:0:0:0:
214,257,132586,5,0,1:2:0:0:
133,66,132776,2,0,L|127:184,1,110.000003356934,8|2,0:2|1:2,0:0:0:0:
119,255,133061,1,0,1:2:0:0:
119,255,133156,1,8,0:2:0:0:
297,369,133346,1,2,1:2:0:0:
343,339,133441,1,0,1:2:0:0:
364,288,133536,1,8,1:2:0:0:
346,235,133631,1,0,1:2:0:0:
298,207,133726,1,2,1:2:0:0:
243,212,133821,1,0,1:2:0:0:
190,198,133915,1,8,1:2:0:0:
148,161,134010,1,0,1:2:0:0:
154,106,134105,5,4,1:2:0:0:
270,242,134295,2,0,P|298:293|271:352,1,110.000003356934,8|0,0:0|1:2,0:0:0:0:
216,384,134580,2,0,L|162:381,1,55.0000016784668,0|10,1:0|0:0,0:0:0:0:
128,181,134865,1,2,1:2:0:0:
352,213,135055,1,10,0:0:0:0:
266,10,135245,1,0,1:2:0:0:
266,10,135340,1,0,1:0:0:0:
266,10,135434,1,10,0:0:0:0:
128,181,135624,5,4,1:2:0:0:
100,241,135719,1,0,1:2:0:0:
122,303,135814,1,8,1:2:0:0:
181,331,135909,1,0,1:2:0:0:
246,324,136004,1,2,1:2:0:0:
296,281,136099,1,0,1:2:0:0:
351,244,136194,1,10,1:2:0:0:
415,231,136289,1,0,1:2:0:0:
474,259,136384,1,0,1:2:0:0:
488,323,136479,1,0,1:2:0:0:
452,378,136574,1,10,1:2:0:0:
386,383,136669,1,0,1:2:0:0:
338,337,136764,1,0,1:2:0:0:
340,271,136859,1,0,1:2:0:0:
386,225,136953,1,8,1:2:0:0:
432,178,137048,1,0,1:2:0:0:
432,111,137143,5,4,1:2:0:0:
400,121,137238,1,8,0:0:0:0:
366,120,137333,2,0,P|340:121|307:106,1,55.0000016784668,8|8,0:0|0:0,0:0:0:0:
174,18,137523,5,6,1:2:0:0:
153,10,137618,1,8,0:0:0:0:
131,13,137713,2,0,L|129:84,1,55.0000016784668,8|8,0:0|0:0,0:0:0:0:
218,194,137903,5,6,1:2:0:0:
217,204,137998,1,8,0:0:0:0:
217,214,138093,2,0,L|212:281,1,55.0000016784668,8|8,0:0|0:0,0:0:0:0:
93,369,138283,5,4,1:2:0:0:
87,368,138377,1,8,0:0:0:0:
81,367,138472,1,8,1:2:0:0:
75,366,138567,1,0,1:2:0:0:
70,365,138662,5,10,1:2:0:0:
341,235,138852,1,10,1:2:0:0:
47,323,141131,5,8,1:2:0:0:
49,333,141226,1,0,1:2:0:0:
51,343,141321,1,8,1:2:0:0:
51,343,141700,5,8,1:2:0:0:
210,88,141890,1,8,1:2:0:0:
380,373,144738,5,8,1:2:0:0:
99,264,144928,1,8,1:2:0:0:
428,75,147207,5,8,1:2:0:0:
426,65,147302,1,0,1:2:0:0:
424,55,147397,1,8,1:2:0:0:
424,55,147776,5,8,1:2:0:0:
317,335,147966,1,8,1:2:0:0:
162,77,148156,1,8,1:2:0:0:
455,139,148346,1,8,1:2:0:0:
210,313,148536,5,8,0:0:0:0:
189,326,148631,1,8,0:0:0:0:
155,333,148725,1,8,0:0:0:0:
112,316,148820,1,8,0:0:0:0:
95,263,148915,1,8,0:0:0:0:
127,206,149010,1,8,0:0:0:0:
201,198,149105,1,8,0:0:0:0:
258,142,149200,1,8,0:0:0:0:
210,70,149295,6,0,B|185:61|154:72|154:72|205:18|269:73|269:73|283:60|283:60|322:96|372:80,1,300,8|0,0:0|0:0,0:0:0:0:
420,17,150814,5,8,1:2:0:0:
452,61,150909,1,0,1:2:0:0:
445,116,151004,1,10,1:2:0:0:
210,70,151194,5,2,0:0:0:0:
211,59,151574,5,2,0:0:0:0:
212,48,151953,5,2,0:0:0:0:
213,37,152333,5,2,0:0:0:0:
214,26,152712,5,2,0:0:0:0:
299,146,152903,6,0,L|297:160,3,10,2|0|0|0,1:2|1:2|1:2|1:2,0:0:0:0:
300,133,153093,1,8,0:0:0:0:
136,344,153283,1,10,1:2:0:0:
0,137,153472,5,0,1:2:0:0:
37,105,153566,1,0,1:2:0:0:
86,101,153661,1,8,0:0:0:0:
128,126,153756,1,0,1:2:0:0:
153,170,153852,1,8,1:2:0:0:
190,201,153946,1,0,1:2:0:0:
239,205,154041,1,10,1:2:0:0:
281,180,154136,1,0,1:2:0:0:
300,133,154232,5,2,0:0:0:0:
299,144,154612,5,2,0:0:0:0:
298,155,154992,5,2,0:0:0:0:
297,166,155371,5,2,0:0:0:0:
296,177,155751,5,2,0:0:0:0:
296,189,156131,6,0,L|241:183,1,40,8|0,1:2|1:2,0:0:0:0:
119,84,156321,6,0,L|189:77,1,70,10|0,1:2|0:0,0:0:0:0:
212,76,156700,5,8,1:2:0:0:
100,320,156890,1,8,1:2:0:0:
9,62,157080,1,10,1:2:0:0:
240,216,157270,5,10,1:2:0:0:
229,215,157650,5,2,0:0:0:0:
218,214,158030,5,2,0:0:0:0:
207,213,158409,5,2,0:0:0:0:
196,212,158789,5,2,0:0:0:0:
185,211,159169,5,8,1:2:0:0:
491,119,159359,1,10,1:2:0:0:
369,384,159548,1,8,1:2:0:0:
208,115,159738,1,10,1:2:0:0:
400,168,162966,5,4,1:2:0:0:
460,131,163061,1,0,1:2:0:0:
451,61,163156,2,0,B|411:61|411:61|397:70|397:70|359:70,1,89.9999972534181,0|4,1:2|0:0,0:0:0:0:
299,24,163915,2,0,P|285:44|290:101,1,74.9999977111817,8|0,0:0|0:0,0:0:0:0:
320,4,164485,5,12,0:0:0:0:
32,296,165245,5,4,1:2:0:0:
31,288,165292,5,0,1:2:0:0:
30,281,165340,5,0,1:2:0:0:
30,273,165387,5,0,1:2:0:0:
29,266,165434,6,0,P|39:256|84:257,1,59.9999981689454,0|8,1:2|0:0,0:0:0:0:
135,322,166004,5,4,1:2:0:0:
134,330,166052,5,0,1:2:0:0:
133,337,166099,5,0,1:2:0:0:
132,345,166146,5,0,1:2:0:0:
132,352,166194,5,2,1:2:0:0:
460,165,167143,5,10,0:0:0:0:
393,220,167270,5,10,0:0:0:0:
322,139,167396,5,10,0:0:0:0:
250,217,167523,6,0,B|218:226|195:214|217:212|185:191|148:211,1,104.999996795654,14|0,0:0|0:0,0:0:0:0:
133,223,168283,5,6,1:2:0:0:
138,297,168377,1,0,1:2:0:0:
143,371,168472,2,0,B|174:363|174:363|205:370,1,59.9999981689454,2|0,1:2|0:0,0:0:0:0:
334,381,169042,5,4,1:2:0:0:
270,328,169137,1,0,1:2:0:0:
306,251,169232,2,0,B|350:264|350:264|394:249,1,89.9999972534181,0|4,1:2|0:0,0:0:0:0:
462,197,169991,2,0,L|458:116,1,74.9999977111817,8|0,0:0|0:0,0:0:0:0:
463,213,170561,5,12,0:0:0:0:
195,29,171321,5,4,1:2:0:0:
187,28,171368,5,0,1:2:0:0:
180,27,171415,5,0,1:2:0:0:
172,26,171463,5,0,1:2:0:0:
165,26,171510,6,0,L|104:20,1,59.9999981689454,0|10,1:2|0:0,0:0:0:0:
6,102,172080,5,6,1:2:0:0:
14,101,172127,5,0,1:2:0:0:
21,100,172175,5,0,1:2:0:0:
29,99,172222,5,0,1:2:0:0:
36,99,172270,5,2,1:2:0:0:
483,163,173219,5,8,0:0:0:0:
428,230,173346,5,8,0:0:0:0:
509,301,173472,5,8,0:0:0:0:
431,373,173599,6,0,B|385:371|385:371|366:380|366:380|326:379,1,99.9999969482423,14|0,0:0|0:0,0:0:0:0:
242,374,174359,5,6,1:2:0:0:
290,301,174485,5,0,1:2:0:0:
232,236,174612,6,0,L|166:236,1,59.9999981689454,0|0,1:2|0:0,0:0:0:0:
51,288,175118,5,4,1:2:0:0:
4,228,175213,1,0,1:2:0:0:
30,157,175308,1,0,1:2:0:0:
196,220,175498,5,2,0:0:0:0:
196,220,175688,1,2,0:0:0:0:
253,50,175877,1,6,0:0:0:0:
253,50,176067,2,0,B|231:38|231:38|171:51,1,74.9999977111817,2|0,0:0|0:0,0:0:0:0:
166,65,176637,5,12,0:0:0:0:
166,65,176827,1,2,0:0:0:0:
240,180,177017,1,2,0:0:0:0:
240,180,177207,1,2,0:0:0:0:
117,255,177396,5,4,1:2:0:0:
109,254,177444,5,0,1:2:0:0:
102,253,177491,5,0,1:2:0:0:
94,252,177539,5,0,1:2:0:0:
87,252,177586,6,0,L|26:246,1,59.9999981689454,0|2,1:2|0:0,0:0:0:0:
9,375,178156,5,4,1:2:0:0:
17,374,178203,5,0,1:2:0:0:
24,373,178251,5,0,1:2:0:0:
32,372,178298,5,0,1:2:0:0:
39,372,178346,5,0,1:2:0:0:
197,357,178536,5,2,0:0:0:0:
197,357,178726,1,2,0:0:0:0:
103,240,178915,1,6,0:0:0:0:
103,240,179105,1,2,0:0:0:0:
203,123,179295,5,0,1:2:0:0:
270,178,179422,5,0,1:2:0:0:
341,97,179548,5,0,1:2:0:0:
424,195,179675,6,0,B|439:201|446:218|446:218|448:202|453:191|453:191|473:180|473:180|456:173|449:160|449:160|454:141|441:120|441:120|425:134|403:133|403:133|392:121|373:118,1,224.999993133545,12|0,0:0|0:0,0:0:0:0:
306,95,181194,6,0,B|330:67|316:32|316:32|437:122|338:239,1,300,4|2,1:2|0:0,0:0:0:0:
138,266,182713,6,0,B|192:210|301:267|230:306|327:364|410:306,1,300,6|0,1:2|0:0,0:0:0:0:
83,357,184232,6,0,B|62:364|45:384|45:384|40:285|40:285|45:278|45:278|38:178|38:178|25:204|-1:217,1,300,4|2,1:2|0:0,0:0:0:0:
191,74,185751,6,0,B|235:60|235:60|272:80|272:80|329:58|386:84,1,200,6|2,1:2|0:0,0:0:0:0:
333,363,187270,5,4,1:2:0:0:
248,159,187460,2,0,P|298:140|354:156,1,110.000003356934,8|2,0:0|1:2,0:0:0:0:
405,208,187745,2,0,P|431:216|461:211,1,55.0000016784668,0|8,1:0|0:0,0:0:0:0:
271,52,188029,1,2,1:2:0:0:
207,272,188219,2,0,L|95:266,1,110.000003356934,8|2,0:0|1:2,0:0:0:0:
21,256,188504,1,0,1:0:0:0:
21,256,188599,1,8,0:0:0:0:
150,77,188789,5,4,1:2:0:0:
210,288,188979,1,8,0:0:0:0:
37,151,189169,1,2,1:2:0:0:
37,151,189264,1,0,1:0:0:0:
37,151,189359,1,8,0:0:0:0:
230,49,189548,1,2,1:2:0:0:
278,22,189643,1,0,1:2:0:0:
331,34,189738,1,8,1:2:0:0:
362,78,189833,1,0,1:2:0:0:
358,132,189928,1,2,1:2:0:0:
318,170,190023,1,0,1:2:0:0:
270,197,190118,1,8,1:2:0:0:
244,245,190213,1,0,1:2:0:0:
252,299,190308,5,0,1:2:0:0:
128,161,190498,2,0,B|180:143|180:143|234:157,1,110.000003356934,8|0,0:0|1:2,0:0:0:0:
303,190,190783,1,0,1:2:0:0:
303,190,190877,1,10,0:0:0:0:
107,292,191067,1,2,1:2:0:0:
176,83,191257,1,10,0:0:0:0:
300,276,191447,2,0,P|308:303|300:337,2,55.0000016784668,0|0|10,1:2|1:2|0:0,0:0:0:0:
369,67,191827,5,0,1:2:0:0:
312,24,191922,1,0,1:2:0:0:
241,33,192017,1,8,1:2:0:0:
197,89,192112,1,0,1:2:0:0:
207,160,192207,1,0,1:2:0:0:
264,204,192301,1,0,1:2:0:0:
321,248,192395,1,8,1:2:0:0:
339,317,192490,1,0,1:2:0:0:
288,368,192585,5,8,0:0:0:0:
267,349,192680,1,8,0:0:0:0:
256,317,192775,1,8,0:3:0:0:
264,278,192871,1,8,0:3:0:0:
298,250,192966,1,8,0:0:0:0:
346,257,193061,1,8,0:0:0:0:
407,292,193156,2,0,P|436:298|463:290,1,55.0000016784668,8|8,0:0|0:0,0:0:0:0:
277,110,193346,5,0,1:2:0:0:
216,82,193441,1,0,1:2:0:0:
152,99,193536,1,8,1:2:0:0:
115,153,193631,1,0,1:2:0:0:
121,219,193726,1,2,1:2:0:0:
168,265,193821,1,0,1:2:0:0:
233,271,193916,1,8,1:2:0:0:
287,233,194010,1,0,1:2:0:0:
341,195,194105,1,2,1:2:0:0:
406,201,194200,1,0,1:2:0:0:
453,247,194295,1,8,1:2:0:0:
459,313,194390,1,0,1:2:0:0:
422,367,194485,1,2,1:2:0:0:
358,384,194580,1,0,1:2:0:0:
297,356,194675,1,8,1:2:0:0:
267,296,194770,1,0,1:2:0:0:
287,233,194865,5,2,1:2:0:0:
288,299,194960,1,0,1:2:0:0:
251,353,195055,1,8,1:2:0:0:
189,375,195150,1,0,1:2:0:0:
125,355,195245,1,2,1:2:0:0:
86,302,195340,1,0,1:2:0:0:
84,237,195434,1,10,1:2:0:0:
121,183,195529,1,0,1:2:0:0:
183,161,195624,1,0,1:2:0:0:
247,181,195719,1,0,1:2:0:0:
286,234,195814,1,10,1:2:0:0:
325,287,195909,1,0,1:2:0:0:
389,307,196004,1,0,1:2:0:0:
451,285,196099,1,0,1:2:0:0:
488,231,196194,1,10,1:2:0:0:
486,166,196288,1,0,1:2:0:0:
440,116,196384,5,0,1:2:0:0:
457,178,196479,1,0,1:2:0:0:
429,238,196574,1,8,1:2:0:0:
368,266,196669,1,0,1:2:0:0:
304,248,196764,1,2,1:2:0:0:
268,195,196859,1,0,1:2:0:0:
231,141,196953,1,8,1:2:0:0:
168,124,197048,1,0,1:2:0:0:
107,152,197143,1,2,1:2:0:0:
79,212,197238,1,0,1:2:0:0:
96,274,197333,1,8,1:2:0:0:
149,313,197428,1,0,1:2:0:0:
215,308,197523,1,2,1:2:0:0:
262,261,197618,1,0,1:2:0:0:
309,214,197713,1,10,1:2:0:0:
375,209,197808,1,0,1:2:0:0:
420,256,197903,5,0,1:2:0:0:
366,295,197998,1,0,1:2:0:0:
300,295,198093,1,10,1:2:0:0:
247,256,198188,1,0,1:2:0:0:
227,193,198283,1,0,1:2:0:0:
247,131,198377,1,0,1:2:0:0:
300,92,198472,1,8,1:2:0:0:
366,92,198567,1,0,1:2:0:0:
420,131,198662,5,10,1:2:0:0:
216,20,198852,1,8,0:3:0:0:
278,287,199042,1,10,1:2:0:0:
344,286,199137,1,8,0:2:0:0:
404,285,199232,1,10,0:2:0:0:
459,284,199327,1,8,0:2:0:0:
508,283,199422,6,0,B|528:230|528:230|507:181,1,110.000003356934,4|0,1:2|0:0,0:0:0:0:
417,174,199707,2,0,B|397:121|397:121|418:72,1,110.000003356934,4|0,1:2|0:0,0:0:0:0:
488,35,199991,1,4,1:2:0:0:
27,55,200941,6,0,L|40:165,1,110.000003356934,4|0,1:2|0:0,0:0:0:0:
129,190,201226,2,0,L|116:300,1,110.000003356934,4|0,1:2|0:0,0:0:0:0:
33,354,201510,1,4,1:2:0:0:
337,35,202080,5,10,0:0:0:0:
337,35,202127,5,8,0:0:0:0:
311,372,202460,5,4,1:2:0:0:
213,174,202650,2,0,P|265:155|317:174,1,110.000003356934,8|0,0:0|1:2,0:0:0:0:
365,229,202934,1,0,1:0:0:0:
365,229,203029,1,10,0:0:0:0:
201,81,203219,1,2,1:2:0:0:
199,301,203409,1,10,0:0:0:0:
338,130,203599,1,0,1:2:0:0:
338,130,203694,1,0,1:0:0:0:
338,130,203789,1,10,0:0:0:0:
122,172,203979,5,0,1:2:0:0:
56,178,204074,1,0,1:2:0:0:
12,128,204169,1,8,1:2:0:0:
28,64,204264,1,0,1:2:0:0:
90,43,204359,1,2,1:2:0:0:
148,72,204453,1,0,1:2:0:0:
196,116,204548,1,10,1:2:0:0:
250,153,204643,1,0,1:2:0:0:
315,157,204738,1,0,1:2:0:0:
369,120,204833,1,0,1:2:0:0:
370,53,204928,1,10,1:2:0:0:
318,11,205023,1,0,1:2:0:0:
252,7,205118,1,0,1:2:0:0:
203,52,205213,1,0,1:2:0:0:
193,117,205308,1,8,1:2:0:0:
238,164,205403,1,0,1:2:0:0:
302,176,205498,5,0,1:2:0:0:
261,117,205593,1,0,1:2:0:0:
189,110,205688,1,8,1:2:0:0:
136,159,205783,1,0,1:2:0:0:
132,229,205877,1,2,1:2:0:0:
181,281,205972,1,0,1:2:0:0:
252,284,206067,1,8,1:2:0:0:
309,241,206162,1,0,1:2:0:0:
361,192,206257,1,2,1:2:0:0:
431,179,206352,1,0,1:2:0:0:
486,223,206447,1,8,1:2:0:0:
497,293,206542,1,0,1:2:0:0:
454,350,206637,1,0,1:2:0:0:
383,359,206732,1,0,1:2:0:0:
330,309,206827,1,8,1:2:0:0:
263,281,206922,1,0,1:2:0:0:
199,314,207017,5,0,1:2:0:0:
266,351,207112,1,0,1:2:0:0:
334,316,207207,1,8,1:2:0:0:
367,246,207302,1,0,1:2:0:0:
338,175,207396,1,10,1:2:0:0:
266,147,207491,1,0,1:2:0:0:
192,170,207586,1,8,1:2:0:0:
116,156,207681,1,0,1:2:0:0:
79,88,207776,1,10,1:2:0:0:
111,18,207871,1,0,1:2:0:0:
185,0,207966,1,8,1:2:0:0:
251,38,208061,1,0,1:2:0:0:
266,113,208156,1,8,1:2:0:0:
216,179,208251,1,0,1:2:0:0:
148,235,208346,1,0,1:2:0:0:
146,328,208441,1,0,1:2:0:0:
232,383,208536,5,6,1:2:0:0:
62,203,210650,5,0,1:2:0:0:
61,195,210698,5,0,1:2:0:0:
60,188,210746,5,0,1:2:0:0:
59,180,210794,5,0,1:2:0:0:
59,173,210842,5,8,0:0:0:0:
254,31,211131,5,8,0:0:0:0:
244,279,211419,5,8,0:0:0:0:
46,65,211611,6,0,L|100:58,1,50,4|0,1:2|0:0,0:0:0:0:
220,141,211804,1,2,0:0:0:0:
220,141,211900,6,0,L|274:148,1,50,2|0,0:0|0:0,0:0:0:0:
411,93,212092,1,2,0:0:0:0:
411,93,212188,2,0,B|431:91|431:91|443:77|443:77|456:101|456:101|473:110|473:110|462:132|462:132|461:149|461:149|455:164|455:164|455:178|455:178|442:200|442:200|436:232,1,200,2|0,0:0|0:0,0:0:0:0:
345,294,212765,5,0,1:2:0:0:
337,293,212813,5,0,1:2:0:0:
330,292,212861,5,0,1:2:0:0:
322,291,212909,5,0,1:2:0:0:
315,290,212957,5,0,1:2:0:0:
307,289,213005,5,0,1:2:0:0:
300,288,213053,5,0,1:2:0:0:
292,287,213101,5,0,1:2:0:0:
285,286,213150,5,8,0:0:0:0:
179,133,213342,1,2,0:0:0:0:
151,337,213535,2,0,L|153:390,1,50,8|8,0:3|0:3,0:0:0:0:
44,281,213727,5,0,1:2:0:0:
43,273,213775,5,0,1:2:0:0:
42,266,213823,5,0,1:2:0:0:
41,258,213871,5,0,1:2:0:0:
39,249,213919,6,0,L|25:169,1,75.0000028610231,8|0,0:0|0:0,0:0:0:0:
193,59,214111,6,0,L|175:150,1,75.0000028610231,8|0,0:0|0:0,0:0:0:0:
28,262,214304,6,0,L|14:182,1,75.0000028610231,8|0,0:0|0:0,0:0:0:0:
182,72,214496,6,0,L|164:163,1,75.0000028610231,8|0,0:0|0:0,0:0:0:0:
18,357,214688,6,0,B|40:349|40:349|76:357,1,50,4|0,1:2|0:0,0:0:0:0:
164,301,214881,1,2,0:0:0:0:
164,301,214977,6,0,B|186:309|186:309|222:301,1,50,0|0,1:2|1:2,0:0:0:0:
342,222,215169,1,0,1:2:0:0:
342,222,215265,2,0,B|357:247|357:247|373:258|355:273|355:273|348:295|348:295|356:301|356:301|362:310|362:310|354:335|354:335|329:352|333:379|333:379|357:405,1,200,0|0,1:2|1:2,0:0:0:0:
483,283,215842,1,0,1:2:0:0:
342,222,216035,5,0,1:2:0:0:
334,222,216083,5,0,1:2:0:0:
327,223,216131,5,0,1:2:0:0:
319,224,216179,5,0,1:2:0:0:
311,225,216227,6,0,L|256:232,2,50,8|0|0,0:0|1:2|1:2,0:0:0:0:
379,144,216611,5,0,1:2:0:0:
387,143,216659,5,0,1:2:0:0:
394,142,216707,5,0,1:2:0:0:
402,141,216755,5,0,1:2:0:0:
409,141,216803,5,0,1:2:0:0:
482,247,216996,5,8,0:0:0:0:
287,104,217285,5,8,0:0:0:0:
297,352,217573,5,8,0:0:0:0:
471,134,217765,6,0,L|418:136,1,50,4|0,1:2|0:0,0:0:0:0:
276,206,217958,1,2,0:0:0:0:
276,206,218054,6,0,L|223:204,1,50,2|0,0:0|0:0,0:0:0:0:
78,146,218246,1,2,0:0:0:0:
78,146,218342,2,0,B|19:79|67:4|67:4|70:35|93:52,1,200,2|0,0:0|0:0,0:0:0:0:
201,78,218919,5,0,1:2:0:0:
210,77,218967,5,0,1:2:0:0:
219,76,219015,5,0,1:2:0:0:
228,76,219063,5,0,1:2:0:0:
235,72,219111,5,0,1:2:0:0:
246,72,219159,5,0,1:2:0:0:
254,71,219208,5,0,1:2:0:0:
264,71,219256,5,0,1:2:0:0:
273,70,219304,5,8,0:0:0:0:
