osu file format v14

[General]
AudioFilename: audio.mp3
AudioLeadIn: 0
PreviewTime: 181015
Countdown: 0
SampleSet: Soft
StackLeniency: 0.7
Mode: 0
LetterboxInBreaks: 0
WidescreenStoryboard: 1

[Editor]
Bookmarks: 60707,137143,138662,150814,162966,181194,187270,211612
DistanceSpacing: 1
BeatDivisor: 4
GridSize: 16
TimelineZoom: 2.2

[Metadata]
Title:Funeral Derangements
TitleUnicode:Funeral Derangements
Artist:Ice Nine Kills
ArtistUnicode:Ice Nine Kills
Creator:Blitzifyyy
Version:Hifumi's Hard
Source:
Tags:ajitani hifumi we vibing we_vibing themefisto washedup player INK Metal Metalcore English Welcome to Horrorwood The Silver Scream 2 Pet Sematary cemetery Horror
BeatmapID:3625262
BeatmapSetID:1601336

[Difficulty]
HPDrainRate:5
CircleSize:3.8
OverallDifficulty:7
ApproachRate:8
SliderMultiplier:2
SliderTickRate:1

[Events]
//Background and Video events
0,0,"545127850ba4fae5772b49a21f5cbc4d.jpg",0,0
//Break Periods
2,48370,53822
//Storyboard Layer 0 (Background)
//Storyboard Layer 1 (Fail)
//Storyboard Layer 2 (Pass)
//Storyboard Layer 3 (Foreground)
//Storyboard Layer 4 (Overlay)
//Storyboard Sound Samples

[TimingPoints]
184,379.746835443039,4,2,1,75,1,0
184,-125,4,2,1,75,0,0
278,-125,4,2,1,5,0,0
373,-125,4,2,1,75,0,0
467,-125,4,2,1,5,0,0
563,-125,4,2,1,75,0,0
657,-125,4,2,1,5,0,0
753,-125,4,2,1,75,0,0
943,-125,4,2,1,65,0,0
1037,-125,4,2,1,5,0,0
1133,-125,4,2,1,65,0,0
1227,-125,4,2,1,5,0,0
1323,-125,4,2,1,65,0,0
1417,-125,4,2,1,5,0,0
1513,-125,4,2,1,65,0,0
1607,-125,4,2,1,5,0,0
1702,-125,4,2,1,75,0,0
2462,-125,4,2,1,65,0,0
2556,-125,4,2,1,5,0,0
2652,-125,4,2,1,65,0,0
2746,-125,4,2,1,5,0,0
2842,-125,4,2,1,65,0,0
2936,-125,4,2,1,5,0,0
3032,-125,4,2,1,65,0,0
5310,-125,4,2,1,45,0,0
6070,384.615384615385,4,2,1,75,1,0
6070,-142.857142857143,4,2,1,75,0,0
6742,-142.857142857143,4,2,1,5,0,0
6839,-142.857142857143,4,2,1,75,0,0
7127,-142.857142857143,4,2,1,5,0,0
7223,-142.857142857143,4,2,1,75,0,0
8183,-142.857142857143,4,2,1,5,0,0
8281,-142.857142857143,4,2,1,5,0,0
8377,-142.857142857143,4,2,1,75,0,0
9050,-142.857142857143,4,2,1,5,0,0
9146,-142.857142857143,4,2,1,75,0,0
9819,-142.857142857143,4,2,1,5,0,0
9916,-142.857142857143,4,2,1,75,0,0
10108,-142.857142857143,4,2,1,5,0,0
10204,-142.857142857143,4,2,1,5,0,0
10300,-142.857142857143,4,2,1,75,0,0
11454,-142.857142857143,4,2,1,65,0,0
11550,-142.857142857143,4,2,1,5,0,0
11646,-142.857142857143,4,2,1,65,0,0
11742,-142.857142857143,4,2,1,5,0,0
11839,-142.857142857143,4,2,1,65,0,0
11935,-142.857142857143,4,2,1,5,0,0
12031,-142.857142857143,4,2,1,65,0,0
12127,-142.857142857143,4,2,1,5,0,0
12223,-125,4,2,1,75,0,0
12896,-125,4,2,1,5,0,0
12993,-125,4,2,1,75,0,0
13281,-125,4,2,1,5,0,0
13377,-125,4,2,1,75,0,0
14338,-125,4,2,1,5,0,0
14434,-125,4,2,1,5,0,0
14531,-125,4,2,1,75,0,0
15204,-125,4,2,1,5,0,0
15300,-125,4,2,1,75,0,0
15973,-125,4,2,1,5,0,0
16070,-125,4,2,1,75,0,0
16358,-125,4,2,1,5,0,0
16454,-125,4,2,1,75,0,0
17608,375,4,2,1,55,1,0
17608,-125,4,2,1,55,0,0
18358,375,4,2,1,65,1,0
18358,-111.111111111111,4,2,1,65,0,0
19107,-111.111111111111,4,2,1,5,0,0
19201,-111.111111111111,4,2,1,5,0,0
19295,-111.111111111111,4,2,1,65,0,0
19388,-111.111111111111,4,2,1,5,0,0
19483,-111.111111111111,4,2,1,65,0,0
22107,-111.111111111111,4,2,1,5,0,0
22295,-111.111111111111,4,2,1,65,0,0
22388,-111.111111111111,4,2,1,5,0,0
22483,-111.111111111111,4,2,1,65,0,0
25013,-111.111111111111,4,2,1,5,0,0
25108,-111.111111111111,4,2,1,65,0,0
25201,-111.111111111111,4,2,1,5,0,0
25295,-111.111111111111,4,2,1,65,0,0
25388,-111.111111111111,4,2,1,5,0,0
25483,-111.111111111111,4,2,1,65,0,0
28201,-111.111111111111,4,2,1,5,0,0
28295,-111.111111111111,4,2,1,65,0,0
28388,-111.111111111111,4,2,1,5,0,0
28483,-111.111111111111,4,2,1,65,0,0
28858,-222.222222222222,4,2,1,45,0,0
30170,-222.222222222222,4,2,1,5,0,0
30358,-90.9090909090909,4,2,1,75,0,0
36358,-166.666666666667,4,2,1,65,0,0
37014,-166.666666666667,4,2,1,5,0,0
37108,-166.666666666667,4,2,1,65,0,0
38608,-111.111111111111,4,2,1,65,0,0
38701,-111.111111111111,4,2,1,5,0,0
38795,-111.111111111111,4,2,1,65,0,0
38888,-111.111111111111,4,2,1,5,0,0
38983,-111.111111111111,4,2,1,65,0,0
39264,-111.111111111111,4,2,1,5,0,0
39358,-111.111111111111,4,2,1,65,0,0
42264,-111.111111111111,4,2,1,5,0,0
42358,-166.666666666667,4,2,1,65,0,0
43014,-166.666666666667,4,2,1,5,0,0
43108,-166.666666666667,4,2,1,65,0,0
44608,-111.111111111111,4,2,1,65,0,0
44701,-111.111111111111,4,2,1,5,0,0
44795,-111.111111111111,4,2,1,65,0,0
44888,-111.111111111111,4,2,1,5,0,0
44983,-111.111111111111,4,2,1,65,0,0
47888,-111.111111111111,4,2,1,5,0,0
47983,-111.111111111111,4,2,1,65,0,0
48076,-111.111111111111,4,2,1,5,0,0
48170,-111.111111111111,4,2,1,65,0,0
48263,-111.111111111111,4,2,1,5,0,0
48358,392.156862745098,4,2,1,45,1,0
54534,-100,4,2,1,5,0,0
54632,379.746835443038,4,2,1,65,1,0
54632,-200,4,2,1,65,0,0
54916,-200,4,2,1,5,0,0
55009,-200,4,2,1,65,0,0
56434,-200,4,2,1,5,0,0
56518,-200,4,2,1,65,0,0
57953,-200,4,2,1,5,0,0
58028,-200,4,2,1,65,0,0
60707,-100,4,2,1,85,0,1
75138,-100,4,2,1,45,0,1
75919,384.615384615385,4,2,1,75,1,0
75919,-142.857142857143,4,2,1,75,0,0
76591,-142.857142857143,4,2,1,5,0,0
76688,-142.857142857143,4,2,1,75,0,0
76976,-142.857142857143,4,2,1,5,0,0
77072,-142.857142857143,4,2,1,75,0,0
78032,-142.857142857143,4,2,1,5,0,0
78129,-142.857142857143,4,2,1,5,0,0
78226,-142.857142857143,4,2,1,75,0,0
78899,-142.857142857143,4,2,1,5,0,0
78995,-142.857142857143,4,2,1,75,0,0
79668,-142.857142857143,4,2,1,5,0,0
79765,-142.857142857143,4,2,1,75,0,0
79957,-142.857142857143,4,2,1,5,0,0
80053,-142.857142857143,4,2,1,5,0,0
80149,-142.857142857143,4,2,1,75,0,0
82072,-125,4,2,1,75,0,0
82745,-125,4,2,1,5,0,0
82842,-125,4,2,1,75,0,0
83130,-125,4,2,1,5,0,0
83226,-125,4,2,1,75,0,0
84187,-125,4,2,1,5,0,0
84283,-125,4,2,1,5,0,0
84380,-125,4,2,1,75,0,0
85822,-125,4,2,1,5,0,0
85919,-125,4,2,1,75,0,0
86207,-125,4,2,1,5,0,0
86303,-125,4,2,1,75,0,0
87457,-125,4,2,1,55,0,0
88226,-111.111111111111,4,2,1,65,0,0
88995,-111.111111111111,4,2,1,5,0,0
89188,-111.111111111111,4,2,1,65,0,0
93034,-111.111111111111,4,2,1,5,0,0
93130,-111.111111111111,4,2,1,65,0,0
93322,-111.111111111111,4,2,1,5,0,0
93419,-111.111111111111,4,2,1,65,0,0
94380,-111.111111111111,4,2,1,75,0,0
94668,-111.111111111111,4,2,1,5,0,0
94765,-111.111111111111,4,2,1,75,0,0
95438,-111.111111111111,4,2,1,5,0,0
95534,-111.111111111111,4,2,1,75,0,0
98995,-100,4,2,1,75,0,0
99380,-90.9090909090909,4,2,1,75,0,0
99765,-90.9090909090909,4,2,1,45,0,0
100534,-90.9090909090909,4,2,1,65,0,0
103611,-100,4,2,1,65,0,0
103899,-100,4,2,1,5,0,0
103995,-100,4,2,1,65,0,0
104187,-100,4,2,1,5,0,0
104283,-100,4,2,1,5,0,0
104380,-100,4,2,1,65,0,0
104476,-100,4,2,1,5,0,0
104572,-100,4,2,1,65,0,0
104668,-100,4,2,1,5,0,0
104765,-100,4,2,1,65,0,0
104861,-100,4,2,1,5,0,0
104957,-100,4,2,1,65,0,0
105053,-100,4,2,1,5,0,0
105149,-100,4,2,1,65,0,0
106591,-100,4,2,1,5,0,0
106688,-100,4,2,1,75,0,0
112842,-100,4,2,1,45,0,0
114359,379.746835443038,4,2,1,85,1,0
114359,-100,4,2,1,85,0,1
122428,-100,4,2,1,85,0,1
138662,-100,4,2,1,55,0,0
148536,-166.666666666667,4,2,1,55,0,0
150719,-166.666666666667,4,2,1,5,0,0
150814,-111.111111111111,4,2,1,55,0,0
151194,-111.111111111111,4,2,1,45,0,0
153093,-111.111111111111,4,2,1,65,0,0
154232,-111.111111111111,4,2,1,45,0,0
156131,-111.111111111111,4,2,1,65,0,0
156653,-111.111111111111,4,2,1,5,0,0
156700,-111.111111111111,4,2,1,65,0,0
157270,-111.111111111111,4,2,1,45,0,0
159169,-111.111111111111,4,2,1,65,0,0
159928,-111.111111111111,4,2,1,45,0,0
162966,-111.111111111111,4,2,1,85,0,0
164389,-111.111111111111,4,2,1,5,0,0
164485,-111.111111111111,4,2,1,85,0,0
168187,-111.111111111111,4,2,1,5,0,0
168283,-111.111111111111,4,2,1,85,0,0
168851,-111.111111111111,4,2,1,5,0,0
168946,-111.111111111111,4,2,1,5,0,0
169042,-111.111111111111,4,2,1,85,0,0
170465,-111.111111111111,4,2,1,5,0,0
170561,-111.111111111111,4,2,1,85,0,0
176541,-111.111111111111,4,2,1,5,0,0
176637,-111.111111111111,4,2,1,85,0,0
179675,-333.333333333333,4,2,1,55,0,0
181099,-333.333333333333,4,2,1,5,0,0
181194,-153.846153846154,4,2,1,75,0,0
183852,-153.846153846154,4,2,1,5,0,0
184232,-153.846153846154,4,2,1,75,0,0
186510,-153.846153846154,4,2,1,45,0,0
187270,-100,4,2,1,85,0,1
190783,-100,4,2,1,85,0,1
199612,-100,4,2,1,5,0,1
199707,-100,4,2,1,85,0,1
199896,-100,4,2,1,5,0,1
199991,-100,4,2,1,85,0,1
201131,-100,4,2,1,5,0,1
201226,-100,4,2,1,85,0,1
201415,-100,4,2,1,5,0,1
201510,-100,4,2,1,85,0,1
208536,-125,4,2,1,45,0,0
210074,384.615384615385,4,2,1,75,1,0
210650,-125,4,2,1,75,0,0
213920,-125,4,2,1,65,0,0
214015,-125,4,2,1,5,0,0
214111,-125,4,2,1,65,0,0
214207,-125,4,2,1,5,0,0
214304,-125,4,2,1,65,0,0
214400,-125,4,2,1,5,0,0
214496,-125,4,2,1,65,0,0
214592,-125,4,2,1,5,0,0
214689,-125,4,2,1,75,0,0
214784,-125,4,2,1,5,0,0
214881,-125,4,2,1,75,0,0
217189,-125,4,2,1,5,0,0
217285,-125,4,2,1,75,0,0
217477,-125,4,2,1,5,0,0
217574,-125,4,2,1,75,0,0

[Colours]
Combo1 : 143,143,143
Combo2 : 183,0,0
Combo3 : 60,60,60

[HitObjects]
48,48,184,6,0,L|126:63,1,80,10|10,0:3|0:3,0:0:0:0:
210,110,563,2,0,L|288:94,1,80,10|10,0:3|0:3,0:0:0:0:
375,53,943,2,0,B|390:94|390:94|373:136,3,80,2|2|2|2,0:0|0:0|0:0|0:0,0:0:0:0:
317,203,1702,6,0,L|324:242,3,40,10|8|2|0,0:3|0:3|1:2|1:2,0:0:0:0:
354,280,2082,2,0,L|346:319,3,40,10|8|2|0,0:3|0:3|1:2|1:2,0:0:0:0:
318,358,2462,2,0,P|262:338|231:339,1,80,2|2,0:0|0:0,0:0:0:0:
160,285,2842,1,2,0:0:0:0:
73,327,3032,1,10,0:3:0:0:
73,327,3127,1,8,0:3:0:0:
73,327,3221,6,0,L|65:287,1,40,0|0,1:2|1:2,0:0:0:0:
37,254,3411,2,0,B|26:206|26:206|38:160,1,80,10|0,0:3|1:2,0:0:0:0:
72,87,3791,2,0,P|121:115|199:91,1,120,10|8,1:2|0:0,0:0:0:0:
216,71,4171,2,0,L|255:79,3,40,0|0|8|8,1:2|1:2|0:0|0:0,0:0:0:0:
297,103,4551,2,0,L|313:181,1,80,10|0,0:0|1:2,0:0:0:0:
234,236,4930,2,0,L|226:275,3,40,10|8|0|0,0:3|0:3|1:2|1:2,0:0:0:0:
471,51,6070,6,0,L|432:43,3,34.9999989318848,4|0|0|0,1:2|1:2|1:2|1:2,0:0:0:0:
403,69,6454,2,0,L|364:77,1,34.9999989318848,0|0,1:2|1:2,0:0:0:0:
331,55,6646,2,0,B|294:45|294:45|254:57,1,69.9999978637696,0|12,1:2|0:0,0:0:0:0:
140,168,7223,6,0,L|179:160,3,34.9999989318848,0|0|0|0,1:2|1:2|1:2|1:2,0:0:0:0:
208,186,7607,2,0,L|247:194,1,34.9999989318848,4|0,1:2|1:2,0:0:0:0:
280,172,7799,2,0,B|352:152|352:152|425:176,1,139.999995727539,0|0,1:2|0:0,0:0:0:0:
474,231,8377,6,0,L|466:270,3,34.9999989318848,14|0|0|0,0:0|1:2|1:2|1:2,0:0:0:0:
492,299,8761,2,0,L|500:338,2,34.9999989318848,0|0|0,1:2|1:2|1:2,0:0:0:0:
417,337,9146,6,0,L|378:345,3,34.9999989318848,4|0|0|0,1:2|1:2|1:2|1:2,0:0:0:0:
349,319,9530,2,0,L|310:311,1,34.9999989318848,2|0,1:2|1:2,0:0:0:0:
272,305,9723,1,0,1:2:0:0:
193,336,9916,2,0,P|160:344|109:328,1,69.9999978637696,14|0,0:0|0:0,0:0:0:0:
72,271,10300,2,0,L|80:232,3,34.9999989318848,0|0|0|0,1:2|1:2|1:2|1:2,0:0:0:0:
111,208,10685,6,0,L|95:130,1,69.9999978637696,14|0,0:0|1:2,0:0:0:0:
46,71,11070,2,0,L|124:55,1,69.9999978637696,10|0,0:3|1:2,0:0:0:0:
184,103,11454,2,0,B|221:112|221:112|268:100,3,69.9999978637696,10|2|2|2,0:0|0:0|0:0|0:0,0:0:0:0:
327,44,12223,6,0,L|366:52,3,40,4|0|0|0,1:2|1:2|1:2|1:2,0:0:0:0:
400,85,12608,2,0,L|439:77,1,40,0|0,1:2|1:2,0:0:0:0:
476,46,12800,2,0,L|492:124,1,80,0|12,1:2|0:0,0:0:0:0:
320,209,13377,6,0,L|281:201,3,40,0|0|0|0,1:2|1:2|1:2|1:2,0:0:0:0:
247,168,13762,2,0,L|208:176,1,40,4|0,1:2|1:2,0:0:0:0:
167,202,13954,2,0,L|199:45,1,160,0|0,1:2|0:0,0:0:0:0:
110,6,14531,6,0,L|71:14,3,40,12|0|0|0,0:0|1:2|1:2|1:2,0:0:0:0:
38,50,14916,2,0,L|-1:42,2,40,0|0|0,1:2|1:2|1:2,0:0:0:0:
108,114,15300,6,0,L|147:106,3,40,4|0|0|0,1:2|1:2|1:2|1:2,0:0:0:0:
187,79,15685,2,0,L|226:87,1,40,0|0,1:2|1:2,0:0:0:0:
263,116,15877,2,0,B|276:154|276:154|260:200,1,80,0|12,1:2|0:0,0:0:0:0:
159,353,16454,6,0,L|120:345,3,40,0|0|0|0,1:2|1:2|1:2|1:2,0:0:0:0:
72,333,16839,2,0,L|88:255,1,80,12|0,0:0|1:2,0:0:0:0:
15,192,17223,2,0,L|-1:114,1,80,8|0,0:3|1:2,0:0:0:0:
73,48,17608,1,8,0:0:0:0:
394,336,18358,6,0,B|408:287|408:287|388:237,1,89.9999972534181,6|8,1:2|1:2,0:0:0:0:
363,217,18639,2,0,P|349:157|366:114,1,89.9999972534181,2|0,1:2|1:2,0:0:0:0:
383,94,18920,2,0,P|376:44|297:62,1,134.999995880127,10|0,1:2|0:0,0:0:0:0:
276,81,19295,1,10,0:0:0:0:
206,164,19483,2,0,L|93:140,1,89.9999972534181,2|10,1:2|1:2,0:0:0:0:
36,74,19858,5,2,1:2:0:0:
127,17,20045,2,0,L|198:31,1,44.999998626709,10|2,1:2|0:0,0:0:0:0:
203,58,20233,2,0,L|274:43,3,44.999998626709,2|2|10|2,0:0|0:0|0:0|0:0,0:0:0:0:
291,39,20608,1,0,1:2:0:0:
392,0,20795,2,0,B|411:44|411:44|389:116,1,89.9999972534181,10|2,1:2|1:2,0:0:0:0:
337,173,21170,1,10,1:2:0:0:
337,173,21264,1,0,1:2:0:0:
337,173,21358,6,0,P|322:236|337:274,1,89.9999972534181,2|8,1:2|1:2,0:0:0:0:
352,297,21639,2,0,B|394:313|394:313|442:293,1,89.9999972534181,2|0,1:2|1:2,0:0:0:0:
477,279,21920,2,0,B|462:236|466:201|466:201|452:179|452:179|461:134|436:104,1,179.999994506836,10|10,1:2|0:0,0:0:0:0:
462,2,22483,2,0,L|349:25,1,89.9999972534181,2|10,1:2|1:2,0:0:0:0:
290,89,22858,5,2,1:2:0:0:
200,28,23045,2,0,L|128:42,1,44.999998626709,10|2,1:2|0:0,0:0:0:0:
124,69,23233,2,0,L|52:54,3,44.999998626709,2|2|2|2,0:0|0:0|0:0|0:0,0:0:0:0:
26,49,23608,1,8,0:0:0:0:
42,155,23795,1,8,0:0:0:0:
63,261,23983,2,0,L|134:246,3,44.999998626709,8|8|10|8,0:0|0:0|0:0|0:0,0:0:0:0:
145,228,24358,6,0,B|192:215|192:215|235:234,1,89.9999972534181,6|10,1:2|1:2,0:0:0:0:
278,328,24733,2,0,B|325:341|325:341|368:322,1,89.9999972534181,2|10,1:2|1:2,0:0:0:0:
446,255,25108,2,0,L|422:142,1,89.9999972534181,2|10,0:0|0:0,0:0:0:0:
480,73,25483,1,2,1:2:0:0:
480,73,25670,1,10,1:2:0:0:
390,12,25858,5,2,1:2:0:0:
304,77,26045,2,0,L|232:62,1,44.999998626709,10|2,1:2|0:0,0:0:0:0:
228,36,26233,2,0,L|156:50,3,44.999998626709,2|2|10|2,0:0|0:0|0:0|0:0,0:0:0:0:
138,48,26608,2,0,P|126:113|145:162,1,89.9999972534181,2|10,1:2|1:2,0:0:0:0:
85,233,26983,2,0,P|135:275|187:283,1,89.9999972534181,2|10,1:2|1:2,0:0:0:0:
242,348,27358,5,2,1:2:0:0:
242,348,27451,1,0,1:2:0:0:
242,348,27545,2,0,L|256:276,1,44.999998626709,10|0,1:2|1:2,0:0:0:0:
290,281,27733,2,0,L|275:209,3,44.999998626709,2|0|10|0,1:2|1:2|1:2|1:0,0:0:0:0:
253,200,28108,2,0,B|298:216|298:216|366:188,1,89.9999972534181,2|10,0:0|0:0,0:0:0:0:
338,91,28483,2,0,B|298:74|298:74|253:90,1,89.9999972534181,10|8,0:0|0:3,0:0:0:0:
163,150,28858,6,0,B|105:125|44:129|44:129|92:84|118:12|118:12|123:45|159:69,1,314.999990386963,2|0,0:0|0:0,0:0:0:0:
250,27,30358,6,0,B|282:11|282:11|300:18,7,55.0000016784668,14|0|8|0|8|0|8|0,0:0|1:2|0:0|1:2|0:0|1:2|0:0|1:2,0:0:0:0:
336,42,31108,2,0,B|365:61|365:61|368:80,7,55.0000016784668,8|0|8|0|8|0|8|0,0:0|1:2|0:0|1:2|0:0|1:2|0:0|1:2,0:0:0:0:
403,107,31858,6,0,B|400:142|400:142|385:154,7,55.0000016784668,8|0|8|0|8|0|8|0,0:0|1:2|0:0|1:2|0:0|1:2|0:0|1:2,0:0:0:0:
349,181,32608,2,0,B|317:196|317:196|299:190,7,55.0000016784668,8|8|0|8|8|0|8|0,0:0|0:0|1:2|0:0|0:0|1:2|0:0|1:2,0:0:0:0:
267,158,33358,6,0,B|249:152|249:152|217:167,7,55.0000016784668,12|0|8|0|8|0|8|0,0:0|1:2|0:0|1:2|0:0|1:2|0:0|1:2,0:0:0:0:
177,187,34108,2,0,B|162:199|162:199|159:234,7,55.0000016784668,8|0|8|0|8|0|8|0,0:0|1:2|0:0|1:2|0:0|1:2|0:0|1:2,0:0:0:0:
163,278,34858,6,0,B|202:277|202:277|233:251,2,73.3333355712891,8|8|8,0:2|1:2|1:2,0:0:0:0:
109,302,35233,6,0,B|90:336|90:336|97:376,2,73.3333355712891,8|8|8,1:2|1:2|1:2,0:0:0:0:
116,243,35608,6,0,B|95:209|95:209|57:195,2,73.3333355712891,8|8|8,1:2|1:2|1:2,0:0:0:0:
163,278,35983,5,8,1:3:0:0:
400,314,36358,6,0,B|378:328|369:356|369:356|285:262|366:176,1,239.999992675781,4|12,1:2|0:0,0:0:0:0:
44,45,38608,5,12,0:0:0:0:
112,102,38795,1,0,1:2:0:0:
179,42,38983,2,0,B|228:64|228:64|303:31,1,134.999995880127,4|0,1:2|0:0,0:0:0:0:
341,8,39358,2,0,P|395:0|436:26,1,89.9999972534181,4|0,1:2|1:2,0:0:0:0:
442,103,39733,2,0,L|427:174,3,44.999998626709,4|0|0|0,1:2|1:2|1:2|1:2,0:0:0:0:
426,191,40108,1,12,0:0:0:0:
39,370,40858,6,0,L|54:298,3,44.999998626709,8|8|8|8,0:0|0:0|0:0|0:0,0:0:0:0:
21,289,41233,2,0,L|6:217,3,44.999998626709,0|0|0|0,1:2|1:2|1:2|1:2,0:0:0:0:
47,217,41608,2,0,L|62:145,3,44.999998626709,8|8|8|8,0:0|0:0|0:0|0:0,0:0:0:0:
40,130,41983,2,0,B|-2:91|-2:91|63:33,1,134.999995880127,8|0,0:3|0:0,0:0:0:0:
80,21,42358,6,0,B|145:-17|197:24|197:24|242:92|304:60,1,239.999992675781,4|12,1:2|0:0,0:0:0:0:
425,20,43483,1,4,1:2:0:0:
471,343,44608,5,12,0:0:0:0:
403,286,44795,1,0,1:2:0:0:
329,338,44983,6,0,L|311:266,2,59.9999981689454,4|0|0,1:2|1:2|1:2,0:0:0:0:
288,364,45358,2,0,P|234:372|193:346,1,89.9999972534181,4|0,1:2|1:2,0:0:0:0:
137,295,45733,2,0,L|152:223,3,44.999998626709,4|0|0|0,1:2|1:2|1:2|1:2,0:0:0:0:
153,207,46108,1,12,0:0:0:0:
466,31,46670,5,0,0:0:0:0:
466,31,46764,1,0,1:2:0:0:
466,31,46858,2,0,L|484:119,1,89.9999972534181,12|4,0:0|1:2,0:0:0:0:
416,203,47233,1,4,1:2:0:0:
416,203,47420,1,4,1:2:0:0:
329,137,47608,1,12,0:0:0:0:
245,205,47795,2,0,B|198:220|198:220|144:201,2,89.9999972534181,0|0|0,1:2|1:2|1:2,0:0:0:0:
150,207,54632,6,0,L|165:320,1,100,8|10,1:3|1:3,0:0:0:0:
289,101,56150,6,0,L|182:57,1,100,8|10,1:3|1:3,0:0:0:0:
342,254,57669,6,0,L|431:183,1,100,8|10,1:3|1:3,0:0:0:0:
25,28,60707,6,0,B|71:14|71:14|122:35,1,100,4|8,1:2|0:0,0:0:0:0:
177,128,61087,1,2,1:2:0:0:
177,128,61182,1,0,1:0:0:0:
177,128,61277,1,8,0:0:0:0:
90,178,61467,2,0,L|114:291,1,100,2|8,1:2|0:0,0:0:0:0:
85,373,61847,2,0,L|198:349,1,100,2|8,1:2|0:0,0:0:0:0:
248,276,62226,6,0,P|307:278|354:316,1,100,4|8,1:2|0:0,0:0:0:0:
421,375,62606,1,2,1:2:0:0:
421,375,62701,1,0,1:0:0:0:
421,375,62796,1,8,0:0:0:0:
481,297,62986,1,2,1:2:0:0:
481,297,63081,1,0,1:2:0:0:
481,297,63176,2,0,L|469:240,1,50,8|0,1:2|1:2,0:0:0:0:
442,218,63366,2,0,L|454:161,3,50,2|0|8|0,1:2|1:2|1:2|1:2,0:0:0:0:
472,134,63745,6,0,B|424:113|424:113|370:136,1,100,0|8,1:2|0:0,0:0:0:0:
298,189,64125,1,2,1:2:0:0:
298,189,64220,1,0,1:2:0:0:
298,189,64315,1,10,0:0:0:0:
221,124,64505,2,0,P|164:106|111:132,1,100,2|10,1:2|0:0,0:0:0:0:
51,184,64885,1,2,1:2:0:0:
113,262,65075,6,0,L|226:238,1,100,10|0,0:0|1:2,0:0:0:0:
298,189,65454,1,8,1:2:0:0:
380,245,65644,1,2,1:2:0:0:
380,245,65739,1,0,1:2:0:0:
380,245,65834,2,0,L|369:293,1,50,10|0,1:2|1:2,0:0:0:0:
355,331,66024,2,0,B|311:348|311:348|249:313,1,100,0|10,1:2|1:2,0:0:0:0:
195,249,66404,1,0,1:2:0:0:
165,256,66499,1,0,1:2:0:0:
136,264,66594,1,8,1:2:0:0:
107,272,66688,1,0,1:2:0:0:
77,277,66783,6,0,L|56:179,1,100,4|8,1:2|0:0,0:0:0:0:
24,83,67163,2,0,B|70:67|70:67|131:82,1,100,2|8,1:2|0:0,0:0:0:0:
204,133,67543,2,0,B|250:149|250:149|311:134,1,100,2|8,1:2|0:0,0:0:0:0:
387,83,67923,1,2,1:2:0:0:
387,83,68018,1,0,1:2:0:0:
387,83,68113,1,8,0:2:0:0:
456,149,68302,6,0,L|435:246,1,100,0|8,1:2|0:2,0:0:0:0:
490,330,68682,2,0,B|444:346|444:346|383:331,1,100,2|8,1:2|0:2,0:0:0:0:
318,267,69062,2,0,B|272:251|272:251|211:266,1,100,2|8,1:2|1:2,0:0:0:0:
166,346,69442,1,2,1:2:0:0:
136,339,69537,1,0,1:2:0:0:
107,331,69632,1,8,1:2:0:0:
78,323,69726,1,0,1:2:0:0:
48,315,69821,6,0,P|30:247|61:200,1,100,4|8,1:2|0:0,0:0:0:0:
124,164,70201,1,0,1:2:0:0:
124,164,70296,1,0,1:0:0:0:
124,164,70391,1,10,0:0:0:0:
204,222,70581,5,2,1:2:0:0:
274,150,70771,2,0,L|253:53,1,100,10|0,0:0|1:2,0:0:0:0:
342,7,71150,1,10,0:0:0:0:
425,62,71340,5,4,1:2:0:0:
425,62,71435,1,0,1:2:0:0:
425,62,71530,1,8,1:2:0:0:
359,138,71720,2,0,L|370:186,1,50,2|0,1:2|1:2,0:0:0:0:
401,212,71910,2,0,L|390:260,3,50,10|0|0|0,1:2|1:2|1:2|1:2,0:0:0:0:
359,287,72290,2,0,L|370:335,5,50,10|0|0|0|8|0,1:2|1:2|1:2|1:2|1:2|1:2,0:0:0:0:
346,367,72859,6,0,P|282:375|244:337,1,100,4|8,1:2|0:0,0:0:0:0:
177,292,73239,2,0,B|137:295|137:295|126:305|126:305|60:312,1,100,6|8,1:2|0:0,0:0:0:0:
39,218,73619,2,0,B|79:215|79:215|90:205|90:205|156:198,1,100,6|8,1:2|0:0,0:0:0:0:
223,147,73999,1,4,1:2:0:0:
223,147,74094,1,8,0:0:0:0:
223,147,74188,1,8,1:2:0:0:
32,352,75919,6,0,L|71:360,3,34.9999989318848,4|0|0|0,1:2|1:2|1:2|1:2,0:0:0:0:
100,334,76303,2,0,L|139:326,1,34.9999989318848,0|0,1:2|1:2,0:0:0:0:
172,348,76495,2,0,B|209:358|209:358|249:346,1,69.9999978637696,0|12,1:2|0:0,0:0:0:0:
407,358,77072,6,0,L|415:319,3,34.9999989318848,0|0|0|0,1:2|1:2|1:2|1:2,0:0:0:0:
389,290,77456,2,0,L|381:251,1,34.9999989318848,4|0,1:2|1:2,0:0:0:0:
403,218,77648,2,0,B|423:146|423:146|399:73,1,139.999995727539,0|0,1:2|0:0,0:0:0:0:
335,32,78226,6,0,L|296:24,3,34.9999989318848,14|0|0|0,0:0|1:2|1:2|1:2,0:0:0:0:
267,50,78610,2,0,L|228:58,2,34.9999989318848,0|0|0,1:2|1:2|1:2,0:0:0:0:
316,118,78995,6,0,L|324:157,3,34.9999989318848,4|0|0|0,1:2|1:2|1:2|1:2,0:0:0:0:
298,186,79379,2,0,L|290:225,1,34.9999989318848,2|0,1:2|1:2,0:0:0:0:
284,263,79572,1,0,1:2:0:0:
312,342,79765,2,0,P|276:349|231:318,1,69.9999978637696,14|0,0:0|0:0,0:0:0:0:
192,272,80149,2,0,L|153:280,3,34.9999989318848,0|0|0|0,1:2|1:2|1:2|1:2,0:0:0:0:
120,259,80534,6,0,L|51:244,1,69.9999978637696,14|0,0:0|1:2,0:0:0:0:
70,162,80919,2,0,L|138:176,1,69.9999978637696,10|0,0:3|1:2,0:0:0:0:
208,128,81304,2,0,B|214:92|214:92|203:56,3,69.9999978637696,10|2|2|2,0:0|0:0|0:0|0:0,0:0:0:0:
115,23,82072,6,0,L|107:62,3,40,4|0|0|0,1:2|1:2|1:2|1:2,0:0:0:0:
74,96,82457,2,0,L|82:135,1,40,0|0,1:2|1:2,0:0:0:0:
110,174,82649,2,0,L|94:252,1,80,0|12,1:2|0:0,0:0:0:0:
254,358,83226,6,0,L|293:350,3,40,0|0|0|0,1:2|1:2|1:2|1:2,0:0:0:0:
327,317,83611,2,0,L|366:325,1,40,4|0,1:2|1:2,0:0:0:0:
409,346,83803,2,0,L|377:189,1,160,0|0,1:2|0:0,0:0:0:0:
316,114,84380,6,0,B|283:115|283:115|250:126,2,53.3333333333333,12|0|0,0:0|1:2|1:2,0:0:0:0:
350,72,84765,2,0,B|382:71|382:71|416:84,2,53.3333333333333,0|0|0,1:2|1:2|1:2,0:0:0:0:
307,40,85149,6,0,L|268:32,3,40,4|0|0|0,1:2|1:2|1:2|1:2,0:0:0:0:
229,1,85534,2,0,L|190:9,1,40,0|0,1:2|1:2,0:0:0:0:
158,45,85726,2,0,P|108:46|53:12,1,80,0|12,1:2|0:0,0:0:0:0:
10,213,86303,6,0,L|18:252,3,40,0|0|0|0,1:2|1:2|1:2|1:2,0:0:0:0:
25,299,86688,2,0,L|103:315,1,80,12|0,0:0|1:2,0:0:0:0:
191,374,87072,1,8,0:3:0:0:
191,374,87169,1,8,0:3:0:0:
191,374,87265,2,0,L|230:366,1,40,0|0,1:2|1:2,0:0:0:0:
276,354,87457,1,8,1:3:0:0:
463,26,88226,6,0,L|487:139,1,89.9999972534181,6|8,1:2|0:0,0:0:0:0:
430,199,88611,1,2,0:0:0:0:
430,199,88803,2,0,P|365:187|319:202,1,89.9999972534181,10|0,0:0|0:0,0:0:0:0:
282,270,89188,1,10,0:0:0:0:
213,198,89380,2,0,L|225:138,3,44.999998626709,2|0|10|0,1:2|1:2|0:0|0:0,0:0:0:0:
233,110,89765,6,0,L|120:86,1,89.9999972534181,2|8,0:0|0:0,0:0:0:0:
77,26,90149,1,2,0:0:0:0:
77,26,90342,2,0,L|53:139,1,89.9999972534181,10|0,0:0|1:2,0:0:0:0:
0,186,90726,2,0,L|9:230,1,44.999998626709,10|0,0:0|1:2,0:0:0:0:
44,258,90919,2,0,L|34:302,3,44.999998626709,2|0|10|0,1:2|1:2|0:0|1:2,0:0:0:0:
22,345,91303,6,0,P|96:319|142:328,1,89.9999972534181,2|8,1:2|0:0,0:0:0:0:
144,344,91592,2,0,P|218:370|264:361,1,89.9999972534181,2|0,1:2|1:2,0:0:0:0:
264,342,91880,2,0,P|325:312|411:343,1,134.999995880127,10|0,0:0|1:2,0:0:0:0:
423,353,92265,1,10,0:0:0:0:
495,285,92457,2,0,L|476:196,1,89.9999972534181,2|10,1:2|0:0,0:0:0:0:
415,130,92842,6,0,B|387:123|377:103|377:103|384:127|358:150,1,89.9999972534181,2|0,0:0|0:0,0:0:0:0:
347,182,93130,6,0,B|319:189|309:209|309:209|316:185|290:162,1,89.9999972534181,2|0,0:0|0:0,0:0:0:0:
262,142,93419,6,0,B|297:54|200:34|200:34|126:107|219:143,1,269.999991760254,2|8,0:0|0:0,0:0:0:0:
11,204,94380,6,0,B|-7:156|-7:156|5:99,1,89.9999972534181,10|0,0:0|1:2,0:0:0:0:
33,24,94765,2,0,L|77:33,3,44.999998626709,10|0|10|0,0:0|1:2|0:0|1:2,0:0:0:0:
109,63,95149,2,0,B|149:60|149:60|160:50|160:50|226:43,1,89.9999972534181,10|10,0:0|0:0,0:0:0:0:
290,18,95534,2,0,L|334:27,3,44.999998626709,10|0|10|0,0:0|1:2|0:0|1:2,0:0:0:0:
370,54,95919,6,0,B|367:94|367:94|357:105|357:105|350:171,1,89.9999972534181,10|10,0:0|0:0,0:0:0:0:
372,236,96303,2,0,B|332:233|332:233|321:223|321:223|255:216,1,89.9999972534181,10|10,0:0|0:0,0:0:0:0:
236,133,96688,1,10,0:0:0:0:
168,205,96880,1,10,0:0:0:0:
111,124,97072,2,0,B|71:127|71:127|60:137|60:137|-6:144,1,89.9999972534181,10|10,0:3|1:3,0:0:0:0:
15,243,97457,6,0,L|33:331,1,89.9999972534181,10|10,1:2|1:2,0:0:0:0:
126,295,97842,1,10,1:2:0:0:
126,295,98034,1,10,1:2:0:0:
212,343,98226,2,0,L|256:333,3,44.999998626709,10|0|10|0,1:2|1:2|1:2|1:2,0:0:0:0:
288,302,98611,2,0,L|332:311,3,44.999998626709,10|0|10|0,1:2|1:2|1:2|1:2,0:0:0:0:
378,329,98995,6,0,B|394:292|394:292|380:255,3,50,2|0|2|0,1:2|1:2|1:2|1:2,0:0:0:0:
377,234,99380,6,0,B|352:201|352:201|313:195,3,55.0000016784668,2|0|2|0,1:2|1:2|1:2|1:2,0:0:0:0:
290,211,99765,5,10,1:3:0:0:
115,80,100534,6,0,B|82:105|82:105|76:144,2,55.0000016784668,4|0|0,1:2|1:2|1:2,0:0:0:0:
208,46,100919,1,2,0:0:0:0:
370,158,101303,6,0,B|403:183|403:183|409:222,2,55.0000016784668,4|0|0,1:2|1:2|1:2,0:0:0:0:
277,124,101688,1,2,0:0:0:0:
119,243,102072,6,0,B|86:268|86:268|80:307,2,55.0000016784668,4|0|0,1:2|1:2|1:2,0:0:0:0:
212,209,102457,1,2,0:0:0:0:
374,321,102841,6,0,B|407:346|407:346|413:385,2,55.0000016784668,12|8|8,1:3|1:3|1:3,0:0:0:0:
281,287,103226,1,2,0:0:0:0:
462,206,103611,5,4,1:2:0:0:
462,206,103707,1,0,1:2:0:0:
462,206,103803,1,0,1:2:0:0:
507,105,103995,2,0,B|436:83|436:83|392:91|364:133,1,150,2|0,0:0|0:0,0:0:0:0:
347,152,104380,2,0,P|294:156|245:115,1,100,8|0,0:0|1:2,0:0:0:0:
172,85,104765,1,2,0:0:0:0:
172,85,104957,1,2,0:0:0:0:
88,139,105149,6,0,L|99:187,3,50,0|0|2|0,1:2|1:2|1:2|1:2,0:0:0:0:
126,217,105534,2,0,L|114:265,3,50,0|0|2|0,1:2|1:2|1:2|1:2,0:0:0:0:
89,297,105919,6,0,B|37:302|37:302|11:279,2,66.6666666666667,8|8|2,0:0|0:3|1:2,0:0:0:0:
126,334,106303,2,0,P|190:359|269:323,1,150,8|0,0:0|0:0,0:0:0:0:
288,299,106688,6,0,B|290:266|290:266|267:226,2,50,4|0|0,1:2|1:2|1:2,0:0:0:0:
458,129,107457,6,0,B|449:144|449:144|451:176,2,50,12|0|0,1:2|1:2|1:2,0:0:0:0:
238,30,108226,6,0,B|205:27|205:27|165:50,1,50,4|0,1:2|1:2,0:0:0:0:
172,72,108419,2,0,P|145:131|37:39,1,250,0|2,1:2|0:0,0:0:0:0:
37,15,108995,6,0,B|69:12|69:12|109:35,2,50,12|0|0,1:2|1:2|1:2,0:0:0:0:
214,177,109765,6,0,B|181:174|181:174|141:197,2,50,4|0|0,1:2|1:2|1:2,0:0:0:0:
377,352,110534,6,0,B|409:354|409:354|449:331,2,50,12|0|0,1:2|1:2|1:2,0:0:0:0:
303,291,110919,1,8,0:0:0:0:
303,291,111111,1,8,0:0:0:0:
221,348,111303,6,0,B|167:363|167:363|114:343,1,100,12|0,1:2|1:2,0:0:0:0:
90,327,111592,2,0,L|110:224,1,100,8|0,0:0|1:2,0:0:0:0:
140,203,111880,2,0,L|119:100,1,100,8|8,0:0|0:0,0:0:0:0:
111,70,112169,1,0,1:2:0:0:
111,70,112265,2,0,L|159:81,1,50,0|0,1:2|1:2,0:0:0:0:
190,55,112457,2,0,L|238:43,3,50,8|8|8|8,0:0|0:3|1:3|1:3,0:0:0:0:
431,272,114359,6,0,B|386:254|386:254|340:273,1,100,2|8,1:2|0:2,0:0:0:0:
281,357,114738,1,2,0:0:0:0:
281,357,114833,1,0,1:2:0:0:
281,357,114928,1,10,0:2:0:0:
219,277,115118,2,0,L|164:290,3,50,0|0|10|0,1:2|1:2|1:2|1:2,0:0:0:0:
137,311,115498,2,0,L|82:297,3,50,0|0|10|0,1:2|1:2|1:2|1:2,0:0:0:0:
63,267,115877,6,0,P|52:211|80:150,1,100,4|10,1:2|0:0,0:0:0:0:
130,96,116257,1,2,1:2:0:0:
130,96,116352,1,0,1:0:0:0:
130,96,116447,1,8,0:0:0:0:
193,173,116637,2,0,L|306:149,1,100,2|8,1:2|0:0,0:0:0:0:
375,98,117017,2,0,L|400:225,1,100,2|8,1:2|0:0,0:0:0:0:
476,253,117396,6,0,P|416:238|384:258,1,100,6|8,1:2|1:2,0:0:0:0:
319,331,117776,2,0,P|259:345|227:325,1,100,2|8,1:2|1:2,0:0:0:0:
137,285,118156,1,2,1:2:0:0:
137,285,118251,1,0,1:2:0:0:
137,285,118346,2,0,L|149:228,1,50,8|0,1:2|1:2,0:0:0:0:
167,200,118536,2,0,L|155:143,3,50,2|0|10|0,1:2|1:2|1:2|1:2,0:0:0:0:
145,112,118915,6,0,P|189:89|234:107,1,100,4|8,1:2|0:0,0:0:0:0:
316,162,119295,2,0,B|361:181|361:181|413:159,1,100,2|8,1:2|0:0,0:0:0:0:
409,61,119675,2,0,B|365:41|365:41|317:62,1,100,2|8,1:2|0:0,0:0:0:0:
233,106,120055,1,2,1:2:0:0:
233,106,120150,1,0,1:0:0:0:
233,106,120245,1,8,0:0:0:0:
188,194,120434,6,0,L|207:293,1,100,4|8,1:2|0:0,0:0:0:0:
289,350,120814,2,0,B|332:368|332:368|381:347,1,100,2|8,1:2|0:0,0:0:0:0:
384,247,121194,2,0,B|339:227|339:227|291:248,1,100,2|8,1:2|1:2,0:0:0:0:
206,292,121574,1,2,1:2:0:0:
176,285,121669,1,0,1:2:0:0:
147,277,121764,1,8,1:2:0:0:
118,269,121858,1,0,1:2:0:0:
88,261,121953,6,0,B|91:220|91:220|101:209|101:209|108:141,1,100,0|8,1:2|0:0,0:0:0:0:
45,97,122333,1,0,1:0:0:0:
45,97,122428,1,0,1:2:0:0:
45,97,122523,1,10,0:0:0:0:
124,36,122713,1,2,1:2:0:0:
202,108,122903,2,0,P|262:118|299:93,1,100,10|0,0:0|1:2,0:0:0:0:
321,2,123283,1,10,0:0:0:0:
425,31,123472,5,0,1:2:0:0:
425,31,123567,1,0,1:2:0:0:
425,31,123662,2,0,L|413:88,1,50,8|0,1:2|1:2,0:0:0:0:
389,111,123852,2,0,L|401:168,3,50,0|0|8|0,1:2|1:2|1:2|1:2,0:0:0:0:
426,189,124232,2,0,L|414:246,3,50,0|0|8|0,1:2|1:2|1:2|1:2,0:0:0:0:
393,271,124612,2,0,L|403:319,3,50,0|0|8|0,1:2|1:2|1:2|1:2,0:0:0:0:
422,355,124991,6,0,B|376:369|376:369|325:348,1,100,4|8,1:2|0:0,0:0:0:0:
259,291,125371,1,2,1:2:0:0:
259,291,125466,1,0,1:0:0:0:
259,291,125561,1,8,0:0:0:0:
330,220,125751,2,0,L|306:107,1,100,2|8,1:2|0:0,0:0:0:0:
342,27,126131,2,0,L|229:51,1,100,2|8,1:2|0:0,0:0:0:0:
201,138,126510,6,0,P|146:146|105:115,1,100,4|8,1:2|0:0,0:0:0:0:
61,47,126890,1,2,1:2:0:0:
61,47,126985,1,0,1:0:0:0:
61,47,127080,1,8,0:0:0:0:
8,134,127270,1,2,1:2:0:0:
8,134,127365,1,0,1:2:0:0:
8,134,127460,2,0,L|20:191,1,50,8|0,1:2|1:2,0:0:0:0:
39,217,127650,2,0,L|29:265,3,50,2|0|8|0,1:2|1:2|1:2|1:2,0:0:0:0:
43,303,128029,6,0,B|89:317|89:317|140:296,1,100,0|8,1:2|0:0,0:0:0:0:
204,220,128409,1,2,1:2:0:0:
204,220,128504,1,0,1:2:0:0:
204,220,128599,1,10,0:0:0:0:
262,301,128789,2,0,P|325:310|356:283,1,100,2|10,1:2|0:0,0:0:0:0:
436,343,129169,1,2,1:2:0:0:
501,267,129359,6,0,L|477:154,1,100,10|0,0:0|1:2,0:0:0:0:
460,71,129738,1,8,1:2:0:0:
376,121,129928,1,2,1:2:0:0:
376,121,130023,1,0,1:2:0:0:
376,121,130118,2,0,L|328:110,1,50,10|0,1:2|1:2,0:0:0:0:
306,75,130308,2,0,B|260:60|260:60|180:90,1,100,0|10,1:2|1:2,0:0:0:0:
264,164,130688,1,0,1:2:0:0:
271,194,130783,1,0,1:2:0:0:
279,223,130878,1,8,1:2:0:0:
287,252,130972,1,0,1:2:0:0:
293,281,131067,6,0,P|248:304|182:276,1,100,4|8,1:2|0:0,0:0:0:0:
107,330,131447,2,0,B|90:280|90:280|109:225,1,100,2|8,1:2|0:0,0:0:0:0:
166,157,131827,2,0,B|183:107|183:107|164:52,1,100,2|8,1:2|0:0,0:0:0:0:
82,109,132207,1,2,1:2:0:0:
82,109,132302,1,0,1:2:0:0:
82,109,132396,1,8,0:2:0:0:
166,157,132586,6,0,P|213:167|257:144,1,100,0|8,1:2|0:2,0:0:0:0:
342,90,132966,2,0,B|357:134|357:134|340:184,1,100,2|8,1:2|0:2,0:0:0:0:
265,251,133346,2,0,B|249:295|249:295|266:345,1,100,2|8,1:2|1:2,0:0:0:0:
361,304,133726,1,2,1:2:0:0:
361,304,133821,1,0,1:2:0:0:
361,304,133916,2,0,L|409:315,1,50,8|0,1:2|1:2,0:0:0:0:
448,326,134105,6,0,P|467:267|444:216,1,100,4|8,1:2|0:0,0:0:0:0:
391,170,134485,1,0,1:2:0:0:
391,170,134580,1,0,1:0:0:0:
391,170,134675,1,10,0:0:0:0:
463,100,134865,1,2,1:2:0:0:
377,47,135055,2,0,L|264:71,1,100,10|0,0:0|1:2,0:0:0:0:
202,132,135434,1,10,0:0:0:0:
125,67,135624,5,4,1:2:0:0:
125,67,135719,1,0,1:2:0:0:
125,67,135814,1,8,1:2:0:0:
43,125,136004,2,0,L|54:173,1,50,2|0,1:2|1:2,0:0:0:0:
85,199,136194,2,0,L|74:247,3,50,10|0|0|0,1:2|1:2|1:2|1:2,0:0:0:0:
43,274,136574,2,0,L|54:322,5,50,10|0|0|0|8|0,1:2|1:2|1:2|1:2|1:2|1:2,0:0:0:0:
81,352,137143,6,0,B|126:370|126:370|188:344,1,100,4|8,1:2|0:0,0:0:0:0:
240,275,137523,2,0,B|285:257|285:257|347:283,1,100,6|8,1:2|0:0,0:0:0:0:
407,344,137903,1,6,1:2:0:0:
407,344,137998,1,8,0:0:0:0:
407,344,138093,2,0,L|455:333,1,50,8|8,0:0|0:0,0:0:0:0:
477,311,138283,1,4,1:2:0:0:
470,281,138378,1,8,0:0:0:0:
462,252,138473,1,8,1:2:0:0:
454,223,138567,1,0,1:2:0:0:
447,193,138662,5,10,1:2:0:0:
489,102,138852,1,10,1:2:0:0:
41,49,141131,5,8,1:2:0:0:
41,49,141225,1,0,1:2:0:0:
41,49,141320,1,8,1:2:0:0:
132,226,141700,5,8,1:2:0:0:
62,298,141890,1,8,1:2:0:0:
487,346,144738,5,8,1:2:0:0:
417,274,144928,1,8,1:2:0:0:
471,38,147207,5,8,1:2:0:0:
471,38,147301,1,0,1:2:0:0:
471,38,147396,1,8,1:2:0:0:
282,105,147776,5,8,1:2:0:0:
341,185,147966,1,8,1:2:0:0:
424,129,148156,1,8,1:2:0:0:
361,51,148346,1,8,1:2:0:0:
282,105,148536,6,0,L|234:94,8,29.9999990844727,8|8|8|8|8|8|8|8|8,0:0|0:0|0:0|0:0|0:0|0:0|0:0|0:0|0:0,0:0:0:0:
35,334,150814,5,8,1:2:0:0:
35,334,150908,1,0,1:2:0:0:
35,334,151003,1,10,1:2:0:0:
41,41,152903,5,2,1:2:0:0:
41,41,152998,1,0,1:2:0:0:
41,41,153093,2,0,B|89:26|89:26|135:43,1,89.9999972534181,8|10,0:0|1:2,0:0:0:0:
208,94,153472,2,0,L|262:81,3,44.999998626709,0|0|8|0,1:2|1:2|0:0|1:2,0:0:0:0:
306,75,153852,1,8,1:2:0:0:
306,75,153947,1,0,1:2:0:0:
306,75,154042,1,10,1:2:0:0:
467,341,156131,5,8,1:2:0:0:
387,282,156321,2,0,B|349:275|315:287|315:287|295:305|295:305|265:336|177:317,1,179.999994506836,10|8,1:2|1:2,0:0:0:0:
131,356,156890,1,8,1:2:0:0:
131,356,156985,1,0,0:0:0:0:
131,356,157080,1,10,1:2:0:0:
54,293,157270,1,10,1:2:0:0:
478,35,159169,5,8,1:2:0:0:
392,85,159359,1,10,1:2:0:0:
303,42,159548,1,8,1:2:0:0:
214,86,159738,1,10,1:2:0:0:
259,197,162966,5,4,1:2:0:0:
259,197,163061,1,0,1:2:0:0:
259,197,163156,1,0,1:2:0:0:
74,36,165245,6,0,B|51:33|51:33|25:41,2,44.999998626709,4|0|0,1:2|1:2|1:2,0:0:0:0:
245,278,166004,6,0,B|268:281|268:281|294:273,2,44.999998626709,4|0|2,1:2|1:2|1:2,0:0:0:0:
426,51,168283,5,6,1:2:0:0:
426,51,168378,1,0,1:2:0:0:
426,51,168472,2,0,B|420:9|375:29|375:29|341:72|341:72|404:107|375:166,1,224.999993133545,2|0,1:2|0:0,0:0:0:0:
355,193,169042,6,0,B|352:216|352:216|360:242,2,44.999998626709,4|0|0,1:2|1:2|1:2,0:0:0:0:
79,349,171321,6,0,B|56:346|56:346|30:354,2,44.999998626709,4|0|0,1:2|1:2|1:2,0:0:0:0:
304,200,172080,6,0,B|327:203|327:203|353:195,2,44.999998626709,6|0|2,1:2|1:2|1:2,0:0:0:0:
44,44,174359,6,0,B|44:106,2,59.9999981689454,6|0|0,1:2|1:2|1:2,0:0:0:0:
204,149,175118,6,0,B|183:142|183:142|160:145,2,44.999998626709,4|0|0,1:2|1:2|1:2,0:0:0:0:
280,197,175498,1,2,0:0:0:0:
280,197,175688,1,2,0:0:0:0:
356,150,175877,2,0,L|353:54,1,89.9999972534181,6|2,0:0|0:0,0:0:0:0:
430,13,176257,1,2,0:0:0:0:
430,13,176447,1,2,0:0:0:0:
434,102,176637,6,0,L|436:191,1,89.9999972534181,12|2,0:0|0:0,0:0:0:0:
440,282,177017,1,2,0:0:0:0:
440,282,177207,1,2,0:0:0:0:
350,292,177396,6,0,B|347:269|347:269|353:248,2,44.999998626709,4|0|0,1:2|1:2|1:2,0:0:0:0:
276,344,177776,1,2,0:0:0:0:
276,344,177966,1,2,0:0:0:0:
200,294,178156,2,0,B|203:271|203:271|196:250,2,44.999998626709,4|0|0,1:2|1:2|1:2,0:0:0:0:
124,344,178536,1,2,0:0:0:0:
124,344,178726,1,2,0:0:0:0:
52,289,178915,6,0,L|49:199,1,89.9999972534181,6|2,0:0|0:0,0:0:0:0:
93,119,179295,6,0,B|56:107|56:107|13:117,2,59.9999981689454,0|0|0,1:2|1:2|1:2,0:0:0:0:
123,135,179675,6,0,B|346:103|144:125|348:94,1,224.999993133545,12|0,0:0|0:0,0:0:0:0:
375,62,181194,6,0,B|357:30|309:38|298:124|370:240|370:240|479:217|433:112,1,389.999982147218,4|2,1:2|0:0,0:0:0:0:
445,321,182713,6,0,B|335:372|264:238|264:238|231:155|234:57,1,389.999982147218,6|0,1:2|0:0,0:0:0:0:
51,74,184232,6,0,B|115:55|160:5|160:5|76:199|76:199|100:173|140:180,1,389.999982147218,4|2,1:2|0:0,0:0:0:0:
10,325,185751,6,0,B|75:373|134:323|111:298|176:233|238:291,1,259.999988098145,6|2,1:2|0:0,0:0:0:0:
471,46,187270,6,0,P|421:30|355:60,1,100,4|8,1:2|0:0,0:0:0:0:
331,131,187650,2,0,B|283:148|283:148|203:125,1,100,2|8,1:2|0:0,0:0:0:0:
184,48,188029,2,0,B|136:31|136:31|56:54,1,100,2|8,1:2|0:0,0:0:0:0:
18,116,188409,1,2,1:2:0:0:
18,116,188504,1,0,1:0:0:0:
18,116,188599,1,8,0:0:0:0:
101,171,188789,6,0,P|113:218|97:265,1,100,4|8,1:2|0:0,0:0:0:0:
53,356,189169,2,0,B|101:373|101:373|181:350,1,100,2|8,1:2|0:0,0:0:0:0:
200,273,189548,2,0,B|248:256|248:256|328:279,1,100,2|8,1:2|1:2,0:0:0:0:
371,350,189928,1,2,1:2:0:0:
371,350,190023,1,0,1:2:0:0:
371,350,190118,2,0,L|419:340,1,50,8|0,1:2|1:2,0:0:0:0:
459,333,190308,6,0,B|456:292|456:292|446:281|446:281|439:213,1,100,0|8,1:2|0:0,0:0:0:0:
502,159,190688,1,0,1:2:0:0:
502,159,190783,1,0,1:2:0:0:
502,159,190877,1,10,0:0:0:0:
434,85,191067,1,2,1:2:0:0:
349,138,191257,2,0,P|282:152|253:140,1,100,10|0,0:0|1:2,0:0:0:0:
218,47,191637,1,10,0:0:0:0:
126,38,191827,5,0,1:2:0:0:
126,38,191922,1,0,1:2:0:0:
126,38,192017,2,0,L|116:86,1,50,8|0,1:2|1:2,0:0:0:0:
83,110,192207,2,0,L|93:158,3,50,0|0|8|0,1:2|1:2|1:2|1:2,0:0:0:0:
121,200,192586,1,8,0:0:0:0:
121,200,192681,1,8,0:0:0:0:
121,200,192776,2,0,L|111:248,1,50,8|8,0:3|0:3,0:0:0:0:
80,275,192966,2,0,L|90:323,3,50,8|8|8|8,1:2|0:2|0:2|0:2,0:0:0:0:
101,362,193346,6,0,L|205:340,1,100,0|8,1:2|1:2,0:0:0:0:
289,291,193726,1,2,1:2:0:0:
289,291,193821,1,0,1:2:0:0:
289,291,193915,1,8,1:2:0:0:
370,349,194105,2,0,P|387:293|372:245,1,100,2|8,1:2|1:2,0:0:0:0:
430,168,194485,2,0,P|385:129|334:123,1,100,2|8,1:2|1:2,0:0:0:0:
279,196,194865,6,0,B|233:211|233:211|165:190,1,100,2|8,1:2|1:2,0:0:0:0:
139,116,195245,1,2,1:2:0:0:
139,116,195340,1,0,1:2:0:0:
139,116,195434,1,10,1:2:0:0:
196,36,195624,1,0,1:2:0:0:
196,36,195719,1,0,1:2:0:0:
196,36,195814,2,0,L|244:46,1,50,10|0,1:2|1:2,0:0:0:0:
267,79,196004,2,0,L|315:69,3,50,0|0|10|0,1:2|1:2|1:2|1:2,0:0:0:0:
349,46,196384,6,0,P|410:32|443:51,1,100,0|8,1:2|1:2,0:0:0:0:
503,128,196764,1,2,1:2:0:0:
503,128,196859,1,0,1:2:0:0:
503,128,196953,1,8,1:2:0:0:
422,187,197143,2,0,L|443:291,1,100,2|8,1:2|1:2,0:0:0:0:
366,351,197523,1,2,1:2:0:0:
282,296,197713,6,0,P|215:284|186:296,1,100,10|0,1:2|1:2,0:0:0:0:
99,344,198093,1,10,1:2:0:0:
49,269,198283,1,0,1:2:0:0:
49,269,198378,1,0,1:2:0:0:
49,269,198473,2,0,L|59:221,1,50,8|0,1:2|1:2,0:0:0:0:
89,194,198662,6,0,B|86:153|86:153|76:142|76:142|69:74,1,100,10|8,1:2|0:3,0:0:0:0:
31,5,199042,1,10,1:2:0:0:
61,12,199137,1,8,0:2:0:0:
90,20,199232,1,10,0:2:0:0:
119,28,199326,1,8,0:2:0:0:
147,37,199422,6,0,B|173:45|192:61|192:61|214:47|259:39,1,100,4|0,1:2|0:0,0:0:0:0:
275,31,199707,2,0,B|305:23|320:7|320:7|345:25|387:29,1,100,4|0,1:2|0:0,0:0:0:0:
401,41,199991,1,4,1:2:0:0:
479,305,200941,6,0,B|453:297|434:281|434:281|412:295|367:303,1,100,4|0,1:2|0:0,0:0:0:0:
351,313,201226,2,0,B|321:321|306:337|306:337|281:319|239:315,1,100,4|0,1:2|0:0,0:0:0:0:
225,305,201510,1,4,1:2:0:0:
5,99,202080,1,10,0:0:0:0:
188,19,202460,6,0,L|208:116,1,100,4|8,1:2|0:0,0:0:0:0:
143,193,202840,1,0,1:2:0:0:
143,193,202934,1,0,1:0:0:0:
143,193,203029,1,10,0:0:0:0:
226,248,203219,1,2,1:2:0:0:
306,188,203409,2,0,B|357:171|357:171|405:195,1,100,10|0,0:0|1:2,0:0:0:0:
473,258,203789,1,10,0:0:0:0:
420,343,203979,5,0,1:2:0:0:
420,343,204074,1,0,1:2:0:0:
420,343,204169,1,8,1:2:0:0:
329,301,204359,2,0,L|281:311,1,50,2|0,1:2|1:2,0:0:0:0:
258,345,204548,2,0,L|210:335,3,50,10|0|0|0,1:2|1:2|1:2|1:2,0:0:0:0:
185,303,204928,2,0,L|137:313,5,50,10|0|0|0|8|0,1:2|1:2|1:2|1:2|1:2|1:2,0:0:0:0:
96,322,205498,6,0,P|71:265|92:210,1,100,0|8,1:2|1:2,0:0:0:0:
41,136,205877,2,0,B|86:120|86:120|146:148,1,100,2|8,1:2|1:2,0:0:0:0:
201,216,206257,2,0,B|246:232|246:232|306:204,1,100,2|8,1:2|1:2,0:0:0:0:
385,162,206637,1,0,1:2:0:0:
385,162,206732,1,0,1:2:0:0:
385,162,206827,2,0,L|375:114,1,50,8|0,1:2|1:2,0:0:0:0:
367,73,207017,6,0,P|309:58|262:80,1,100,0|8,1:2|1:2,0:0:0:0:
188,125,207396,2,0,B|143:143|143:143|95:123,1,100,10|8,1:2|1:2,0:0:0:0:
99,23,207776,2,0,B|146:3|146:3|191:21,1,100,10|8,1:2|1:2,0:0:0:0:
273,71,208156,1,8,1:2:0:0:
303,64,208251,1,0,1:2:0:0:
332,56,208346,1,0,1:2:0:0:
361,48,208440,1,0,1:2:0:0:
384,43,208536,5,6,1:2:0:0:
171,77,210650,5,0,1:2:0:0:
171,77,210747,1,0,1:2:0:0:
171,77,210843,2,0,B|113:84|113:84|103:92|103:92|37:102,2,120,8|8|8,0:0|0:0|0:0,0:0:0:0:
257,35,211612,6,0,L|305:45,3,40,4|0|2|2,1:2|0:0|0:0|0:0,0:0:0:0:
330,76,211997,2,0,L|378:66,1,40,0|2,0:0|0:0,0:0:0:0:
405,37,212189,2,0,B|445:25|445:25|422:145,1,160,2|0,0:0|0:0,0:0:0:0:
379,226,212766,6,0,L|339:217,3,40,0|0|0|0,1:2|1:2|1:2|1:2,0:0:0:0:
297,195,213150,2,0,P|252:188|214:211,1,80,8|2,0:0|0:0,0:0:0:0:
143,258,213535,2,0,L|103:249,3,40,8|8|0|0,0:3|0:3|1:2|1:2,0:0:0:0:
65,220,213920,2,0,B|62:186|62:186|45:174|45:174|40:131,3,80,8|8|8|8,0:0|0:0|0:0|0:0,0:0:0:0:
89,65,214689,6,0,P|137:46|209:66,1,120,4|0,1:2|1:2,0:0:0:0:
237,93,215074,2,0,L|227:141,1,40,0|0,1:2|1:2,0:0:0:0:
229,180,215266,2,0,B|272:186|302:217|302:217|335:188|390:188,1,160,0|0,1:2|1:2,0:0:0:0:
445,251,215843,1,0,1:2:0:0:
386,328,216035,1,0,1:2:0:0:
386,328,216131,1,0,1:2:0:0:
386,328,216227,6,0,L|338:318,1,40,8|0,0:0|1:2,0:0:0:0:
298,313,216420,1,0,1:2:0:0:
213,357,216612,2,0,L|165:367,1,40,0|0,1:2|1:2,0:0:0:0:
126,372,216804,1,0,1:2:0:0:
52,309,216997,2,0,P|47:261|91:218,1,80,8|0,0:0|0:0,0:0:0:0:
42,191,217285,2,0,P|81:162|140:179,1,80,8|0,0:0|0:0,0:0:0:0:
154,184,217574,1,8,0:0:0:0:
230,241,217766,6,0,L|278:231,3,40,4|0|2|2,1:2|0:0|0:0|0:0,0:0:0:0:
303,200,218151,2,0,L|351:210,1,40,0|2,0:0|0:0,0:0:0:0:
385,228,218343,2,0,B|414:129|414:129|412:95|378:88,1,160,2|0,0:0|0:0,0:0:0:0:
302,31,218920,2,0,L|254:41,1,40,0|0,1:2|1:2,0:0:0:0:
225,69,219112,2,0,L|177:59,1,40,0|0,1:2|1:2,0:0:0:0:
139,48,219304,5,8,0:0:0:0:
