osu file format v14

[General]
AudioFilename: audio.mp3
AudioLeadIn: 0
PreviewTime: 212404
Countdown: 0
SampleSet: Soft
StackLeniency: 0.7
Mode: 0
LetterboxInBreaks: 0
WidescreenStoryboard: 1

[Editor]
Bookmarks: 13098,25698,40134,53604,66404,92004,104804,117604,130404,154404,159204,170404,188193,196193,204193,213804,242604
DistanceSpacing: 1
BeatDivisor: 4
GridSize: 32
TimelineZoom: 2.5

[Metadata]
Title:Enjoy Your Slay (feat. Sam Kubrick)
TitleUnicode:Enjoy Your Slay (feat. Sam Kubrick)
Artist:Ice Nine Kills
ArtistUnicode:Ice Nine Kills
Creator:Blitzifyyy
Version:WashedUp's Insane
Source:
Tags:Niva Mimari WashedUp Player Shining The Silver Scream INK Spencer Charnas Ricky Armellino Patrick Galante Joe Occhiuti Dan Sugarman Justin DeBlieck Metal Metalcore Rock English
BeatmapID:2986485
BeatmapSetID:1445099

[Difficulty]
HPDrainRate:5
CircleSize:4.2
OverallDifficulty:8
ApproachRate:9
SliderMultiplier:1.5
SliderTickRate:1

[Events]
//Background and Video events
0,0,"comeplaywithus.jpg",0,0
//Break Periods
2,25898,39534
2,205804,212204
//Storyboard Layer 0 (Background)
//Storyboard Layer 1 (Fail)
//Storyboard Layer 2 (Pass)
//Storyboard Layer 3 (Foreground)
//Storyboard Layer 4 (Overlay)
//Storyboard Sound Samples

[TimingPoints]
13098,400,4,2,1,80,1,0
13098,-100,4,2,1,80,0,0
40134,439.56043956044,4,2,1,80,1,0
40134,-238.095238095238,4,2,1,80,0,0
43650,427.046263345196,4,2,1,80,1,0
43650,-263.157894736842,4,2,1,80,0,0
47066,418.118466898955,4,2,1,80,1,0
47066,-250,4,2,1,80,0,0
48529,406.779661016949,4,2,1,80,1,0
48732,426.287744227353,4,2,1,80,1,0
48732,-200,4,2,1,80,0,0
50437,396.039603960396,4,2,1,80,1,0
50437,-200,4,2,1,80,0,0
53604,400,4,2,1,70,1,0
53604,-166.666666666667,4,2,1,70,0,0
55204,-142.857142857143,4,2,1,70,0,0
56804,-153.846153846153,4,2,1,70,0,0
58404,-133.333333333333,4,2,1,70,0,0
60004,-500,4,2,1,70,0,0
63204,-83.3333333333333,4,2,1,70,0,0
64604,-125,4,2,1,70,0,0
66404,-100,4,2,1,85,0,1
92004,-100,4,2,1,65,0,0
98404,-86.9565217391304,4,2,1,65,0,0
104804,-90.9090909090909,4,2,1,75,0,0
118604,-100,4,2,1,75,0,0
124804,-166.666666666667,4,2,1,75,0,0
125804,-100,4,2,1,75,0,0
130404,-90.9090909090909,4,2,1,85,0,1
145604,-181.818181818181,4,2,1,85,0,1
146204,-90.9090909090909,4,2,1,85,0,1
156004,-66.6666666666667,4,2,1,65,0,0
156604,-62.5,4,2,1,65,0,0
157004,-58.8235294117647,4,2,1,65,0,0
157404,-55.5555555555556,4,2,1,65,0,0
159204,-90.9090909090909,4,2,1,75,0,1
169404,-66.6666666666667,4,2,1,75,0,1
170204,-333.333333333333,4,2,1,75,0,0
172193,500,4,2,1,65,1,0
178193,-133.333333333333,4,2,1,65,0,0
180193,-100,4,2,1,65,0,0
186193,-178.571428571429,4,2,1,65,0,0
187318,-100,4,2,1,65,0,0
188193,-100,4,2,1,75,0,0
192193,-100,4,2,1,55,0,0
203443,-66.6666666666667,4,2,1,75,0,0
203568,-66.6666666666667,4,2,1,5,0,0
203693,-66.6666666666667,4,2,1,75,0,0
203818,-66.6666666666667,4,2,1,5,0,0
203943,-66.6666666666667,4,2,1,75,0,0
204068,-66.6666666666667,4,2,1,5,0,0
204204,400,4,2,1,55,1,0
213804,-80,4,2,1,85,0,1
229004,-117.647058823529,4,2,1,85,0,1
230004,-80,4,2,1,85,0,1
242604,-100,4,2,1,75,0,0
244204,-434.782608695652,4,2,1,75,0,0
252204,-100,4,2,1,5,0,0

[Colours]
Combo1 : 128,0,0
Combo2 : 98,98,98
Combo3 : 164,164,164
Combo4 : 228,228,228

[HitObjects]
413,73,13098,5,6,1:2:0:0:
401,102,13198,1,8,0:0:0:0:
398,133,13298,2,0,P|397:163|405:200,1,37.5,0|8,1:0|0:0,0:0:0:0:
448,235,13498,2,0,P|449:253|447:272,3,37.5,0|8|0|8,1:0|0:0|1:0|0:0,0:0:0:0:
398,330,13898,5,0,1:0:0:0:
364,332,13998,1,8,0:0:0:0:
330,334,14098,2,0,L|279:336,1,37.5,2|8,1:2|0:0,0:0:0:0:
254,243,14298,2,0,L|216:244,1,37.5,2|8,1:2|0:0,0:0:0:0:
132,312,14498,1,2,1:2:0:0:
148,326,14598,1,8,0:0:0:0:
160,325,14698,5,4,1:2:0:0:
143,291,14798,1,8,0:0:0:0:
126,257,14898,1,0,1:0:0:0:
130,219,14998,1,8,0:0:0:0:
151,188,15098,2,0,P|160:162|161:140,1,37.5,0|8,1:0|0:0,0:0:0:0:
94,78,15298,2,0,P|85:52|84:30,1,37.5,0|8,1:0|0:0,0:0:0:0:
196,21,15498,5,8,0:0:0:0:
232,27,15598,1,8,0:0:0:0:
269,32,15698,1,2,1:2:0:0:
305,38,15798,1,0,1:2:0:0:
342,43,15898,2,0,L|338:87,1,37.5,2|0,1:2|1:2,0:0:0:0:
262,149,16098,2,0,L|265:111,1,37.5,2|0,1:2|1:2,0:0:0:0:
450,24,16298,5,4,1:2:0:0:
456,68,16398,1,8,0:0:0:0:
459,112,16498,2,0,L|464:168,1,37.5,2|8,1:2|0:0,0:0:0:0:
394,225,16698,1,0,1:0:0:0:
388,269,16798,1,8,0:0:0:0:
385,313,16898,2,0,L|380:369,1,37.5,2|8,1:2|0:0,0:0:0:0:
475,354,17098,6,0,L|525:350,3,37.5,0|8|2|8,1:0|0:0|1:2|0:0,0:0:0:0:
368,246,17498,2,0,L|318:250,3,37.5,0|8|2|8,1:2|0:0|1:2|0:0,0:0:0:0:
199,325,17898,2,0,L|149:321,1,37.5,4|8,1:2|0:0,0:0:0:0:
99,244,18098,1,0,1:0:0:0:
96,199,18198,1,8,0:0:0:0:
93,154,18298,2,0,L|91:102,1,37.5,0|8,1:0|0:0,0:0:0:0:
188,80,18498,2,0,L|189:42,1,37.5,0|8,1:0|0:0,0:0:0:0:
106,2,18698,6,0,L|80:-1,5,25,8|0|0|2|0|0,0:0|1:2|1:2|1:2|1:2|1:2,1:2:0:0:
14,68,19098,2,0,L|41:62,5,25,10|0|0|2|0|0,1:2|1:2|1:2|1:2|1:2|1:2,1:2:0:0:
93,154,19498,5,6,1:2:0:0:
107,180,19598,1,8,0:0:0:0:
111,209,19698,2,0,P|116:245|110:272,1,37.5,0|8,1:0|0:0,0:0:0:0:
87,330,19898,2,0,P|87:348|91:366,1,37.5,0|8,1:0|0:0,0:0:0:0:
189,384,20098,2,0,L|277:374,1,75,0|0,1:0|1:0,0:0:0:0:
446,324,20498,5,2,1:2:0:0:
427,307,20598,1,8,0:0:0:0:
418,284,20698,1,2,1:2:0:0:
420,259,20798,1,8,0:0:0:0:
432,238,20898,1,2,1:2:0:0:
453,224,20998,1,8,0:0:0:0:
477,221,21098,5,4,1:2:0:0:
457,252,21198,1,8,0:0:0:0:
424,269,21298,1,0,1:0:0:0:
387,268,21398,1,8,0:0:0:0:
355,249,21498,1,0,1:0:0:0:
337,217,21598,1,8,0:0:0:0:
337,180,21698,1,0,1:0:0:0:
355,148,21798,1,8,0:0:0:0:
387,129,21898,6,0,L|433:136,3,37.5,8|8|2|0,0:0|0:0|1:2|1:2,0:0:0:0:
317,68,22298,2,0,L|279:73,3,37.5,2|0|2|0,1:2|1:2|1:2|1:2,0:0:0:0:
217,152,22698,5,4,1:2:0:0:
181,163,22798,1,8,0:0:0:0:
139,164,22898,1,2,1:2:0:0:
97,152,22998,1,8,0:0:0:0:
59,158,23098,1,0,1:0:0:0:
30,182,23198,1,8,0:0:0:0:
24,219,23298,1,2,1:2:0:0:
35,254,23398,1,8,0:0:0:0:
66,273,23498,1,0,1:0:0:0:
103,276,23598,1,8,0:0:0:0:
135,256,23698,1,2,1:2:0:0:
150,221,23798,1,8,0:0:0:0:
141,184,23898,1,8,0:0:0:0:
114,157,23998,1,8,0:0:0:0:
76,153,24098,6,0,L|33:156,3,37.5,6|8|0|0,1:2|0:0|1:2|1:2,0:0:0:0:
105,294,24498,2,0,L|142:296,3,37.5,6|0|0|0,1:2|1:2|1:2|1:2,0:0:0:0:
266,178,24898,2,0,L|223:181,3,37.5,14|0|0|0,0:0|1:2|1:2|1:2,0:0:0:0:
372,251,25298,5,10,0:0:0:0:
367,288,25398,1,8,0:0:0:0:
362,325,25498,1,8,0:0:0:0:
387,160,25698,1,10,0:0:0:0:
158,319,40134,6,0,B|191:240|149:176|149:176|100:100|159:17|159:17|226:86|196:161,1,472.499985580445,2|2,0:0|0:0,0:0:0:0:
140,329,43650,2,0,B|83:343|41:262|109:208|165:235|165:235|281:299|383:237,1,427.499994781494,2|2,0:0|0:0,0:0:0:0:
435,160,47066,6,0,B|385:112|321:130|321:130|345:152|376:141,1,180,2|0,0:0|0:0,0:0:0:0:
381,57,48529,5,8,1:3:0:0:
381,57,48732,2,0,B|310:43|253:84|253:84|193:121|125:96,1,262.5,8|2,1:3|0:0,0:0:0:0:
92,28,50437,2,0,B|96:56|109:79|109:79|104:134|70:183|70:183|93:227|91:275,1,262.5,2|0,0:0|0:0,0:0:0:0:
21,342,52021,5,0,0:0:0:0:
0,353,52219,1,0,0:0:0:0:
247,373,52813,1,0,0:0:0:0:
268,384,53011,1,0,0:0:0:0:
464,310,53604,6,0,B|423:330|392:302|392:302|384:138|384:138|417:111|454:129,1,314.999990386963,6|2,1:2|0:0,0:0:0:0:
360,256,55204,2,0,B|312:277|275:255|275:255|243:234|206:231|175:254|156:299|207:331|229:321,1,262.499991989136,4|2,1:2|0:0,0:0:0:0:
316,195,56404,5,8,3:0:0:0:
303,105,56604,1,0,1:0:0:0:
427,171,56804,6,0,B|397:137|397:137|222:161|222:161|187:125,1,268.124987726212,6|0,1:2|1:0,0:0:0:0:
183,102,58004,1,8,0:0:0:0:
248,47,58204,1,2,1:2:0:0:
151,196,58404,6,0,B|122:171|122:171|117:237|117:237|113:242|113:242|110:308|110:308,1,168.750006437302,4|2,1:2|1:2,0:0:0:0:
110,299,59104,1,0,1:0:0:0:
110,299,59204,1,8,0:0:0:0:
230,374,59404,5,10,3:0:0:0:
257,370,59504,1,8,3:0:0:0:
285,366,59604,1,8,3:0:0:0:
394,316,59804,1,2,1:2:0:0:
421,319,59904,1,0,1:0:0:0:
449,323,60004,6,0,L|513:331,3,60,4|2|2|2,1:2|0:0|0:0|0:0,0:0:0:0:
325,205,63204,6,0,B|397:196|397:196|439:209|439:209|506:201,1,179.999994506836,6|2,1:2|0:0,0:0:0:0:
243,225,63804,2,0,P|260:262|304:288,1,89.9999972534181,6|0,1:2|0:0,0:0:0:0:
225,148,64204,2,0,P|188:165|161:211,1,89.9999972534181,6|0,1:2|0:0,0:0:0:0:
308,131,64604,6,0,B|301:75|245:60|245:60|144:73,1,180,6|2,1:2|0:0,0:0:0:0:
437,66,66404,6,0,B|425:123|425:123|432:192,1,112.5,14|0,0:0|0:0,0:0:0:0:
445,197,66804,1,0,1:2:0:0:
353,49,67004,2,0,L|242:34,1,112.5,10|0,0:0|0:0,0:0:0:0:
215,34,67404,1,2,1:2:0:0:
104,179,67604,2,0,L|92:87,1,75,8|2,0:0|1:2,0:0:0:0:
25,241,68004,6,0,P|84:219|155:211,1,112.5,8|0,0:0|0:0,0:0:0:0:
152,224,68404,1,2,1:2:0:0:
257,349,68604,2,0,P|198:327|127:319,1,112.5,10|0,0:0|0:0,0:0:0:0:
129,332,69004,1,0,1:2:0:0:
257,261,69204,2,0,L|261:186,1,75,10|0,0:0|1:2,0:0:0:0:
428,316,69604,6,0,B|375:292|375:292|320:309,1,112.5,10|0,0:0|0:0,0:0:0:0:
304,323,70004,1,0,1:2:0:0:
435,235,70204,2,0,B|430:113,1,112.5,10|0,0:0|0:0,0:0:0:0:
443,96,70604,1,0,1:2:0:0:
510,197,70804,1,10,0:0:0:0:
510,197,71004,1,2,1:2:0:0:
359,175,71204,2,0,B|313:164|277:175|277:175|239:188|186:177,1,150,8|0,0:0|1:2,0:0:0:0:
103,139,71804,5,8,0:0:0:0:
121,136,71904,1,8,0:0:0:0:
139,133,72004,1,0,1:2:0:0:
60,212,72204,1,0,1:2:0:0:
86,59,72404,1,10,0:0:0:0:
86,59,72604,1,2,1:2:0:0:
231,156,72804,6,0,P|238:215|215:283,1,112.5,14|0,0:0|0:0,0:0:0:0:
206,285,73204,1,0,1:2:0:0:
322,199,73404,2,0,P|389:169|454:178,1,112.5,10|0,0:0|0:0,0:0:0:0:
457,181,73804,1,2,1:2:0:0:
369,144,74004,1,8,0:0:0:0:
369,144,74204,1,2,1:2:0:0:
400,246,74404,6,0,B|421:286|421:286|407:357,1,112.5,8|0,0:0|0:0,0:0:0:0:
392,361,74804,1,0,1:2:0:0:
241,328,75004,2,0,L|121:338,1,112.5,10|0,0:0|0:0,0:0:0:0:
106,326,75404,1,0,1:2:0:0:
81,232,75604,1,10,0:0:0:0:
110,137,75804,1,0,1:2:0:0:
113,118,75904,1,0,1:2:0:0:
117,99,76004,2,0,P|162:71|230:65,1,112.5,10|0,0:0|0:0,0:0:0:0:
239,78,76404,1,0,1:2:0:0:
303,219,76604,6,0,B|241:167|173:206|173:206|176:253|214:265,1,187.5,10|0,0:0|0:0,0:0:0:0:
213,258,77204,1,10,0:0:0:0:
343,147,77404,1,2,1:2:0:0:
343,147,77504,1,0,1:2:0:0:
343,147,77604,5,8,0:0:0:0:
337,121,77704,1,8,0:0:0:0:
331,95,77804,1,8,0:0:0:0:
325,69,77904,1,8,0:0:0:0:
320,43,78004,2,0,L|315:2,1,37.5,0|0,1:2|1:2,0:0:0:0:
425,86,78204,2,0,L|420:127,1,37.5,10|8,0:0|0:0,0:0:0:0:
268,170,78404,5,8,3:0:0:0:
241,168,78504,1,8,3:0:0:0:
214,166,78604,1,2,1:2:0:0:
191,166,78704,1,0,1:2:0:0:
172,164,78804,2,0,L|134:162,2,37.5,8|0|2,0:0|0:0|1:2,0:0:0:0:
75,105,79204,5,4,1:2:0:0:
75,105,79404,2,0,P|56:160|86:231,1,112.5,0|0,1:2|0:0,0:0:0:0:
90,231,79804,1,2,1:2:0:0:
29,321,80004,1,8,0:0:0:0:
29,321,80204,1,2,1:2:0:0:
110,368,80404,2,0,P|167:388|232:379,1,112.5,0|0,1:2|0:0,0:0:0:0:
236,365,80804,1,0,1:2:0:0:
362,270,81004,2,0,P|412:273|471:307,1,112.5,0|0,1:2|0:0,0:0:0:0:
470,327,81404,1,2,1:2:0:0:
274,261,81604,6,0,B|238:235|238:235|251:168|251:168|256:160|256:160|262:98|262:98|226:58,1,225,10|10,0:0|0:0,0:0:0:0:
234,68,82304,1,8,0:0:0:0:
234,68,82404,1,0,1:2:0:0:
326,194,82604,2,0,L|441:183,1,112.5,0|0,1:2|0:0,0:0:0:0:
465,174,83004,1,2,1:2:0:0:
421,100,83204,1,8,0:0:0:0:
421,100,83404,1,0,1:2:0:0:
473,258,83604,1,2,1:2:0:0:
473,258,84004,5,0,1:2:0:0:
368,360,84204,2,0,L|286:353,1,75,8|0,0:0|1:2,0:0:0:0:
129,381,84604,1,0,1:2:0:0:
269,272,84804,2,0,L|344:279,1,75,8|0,0:0|1:2,0:0:0:0:
199,331,85204,1,8,0:0:0:0:
199,331,85404,1,2,1:2:0:0:
110,279,85604,6,0,B|88:230|143:211|125:151,1,112.5,6|0,1:2|0:0,0:0:0:0:
116,151,86004,1,2,1:2:0:0:
198,56,86204,2,0,L|321:48,1,112.5,10|0,0:0|0:0,0:0:0:0:
333,60,86604,1,2,1:2:0:0:
435,38,86804,1,8,0:0:0:0:
503,124,87004,5,10,0:0:0:0:
501,135,87104,1,8,0:0:0:0:
499,146,87204,2,0,L|483:270,1,112.5,0|0,1:2|0:0,0:0:0:0:
477,287,87604,1,0,1:2:0:0:
319,358,87804,2,0,B|272:356|272:356|243:376|243:376|200:376,1,112.5,10|0,0:0|0:0,0:0:0:0:
183,378,88204,1,0,1:2:0:0:
61,327,88404,5,8,0:0:0:0:
63,308,88504,1,8,3:0:0:0:
65,289,88604,1,8,3:0:0:0:
67,270,88704,1,0,1:2:0:0:
69,251,88804,5,6,1:2:0:0:
106,233,88904,1,0,1:2:0:0:
147,231,89004,1,10,0:0:0:0:
183,250,89104,1,0,1:2:0:0:
203,285,89204,1,0,1:2:0:0:
223,320,89304,1,0,1:2:0:0:
259,339,89404,5,10,0:0:0:0:
251,317,89504,1,0,1:2:0:0:
232,304,89604,1,0,1:2:0:0:
210,298,89704,1,0,1:2:0:0:
188,304,89804,5,10,0:0:0:0:
201,310,89904,1,0,1:2:0:0:
215,310,90004,1,0,1:2:0:0:
228,303,90104,1,0,1:2:0:0:
237,291,90204,2,0,L|232:244,1,37.5,10|0,0:0|1:2,0:0:0:0:
276,167,90404,5,4,1:2:0:0:
327,137,90504,1,0,0:0:0:0:
384,154,90604,5,8,0:0:0:0:
377,187,90704,1,8,0:0:0:0:
371,216,90804,1,8,3:0:0:0:
366,241,90904,1,8,3:0:0:0:
361,263,91004,1,2,1:2:0:0:
406,69,91204,1,10,0:0:0:0:
20,16,92004,5,8,0:0:0:0:
22,34,92104,1,0,0:0:0:0:
24,52,92204,1,2,0:0:0:0:
27,70,92304,1,2,0:0:0:0:
30,88,92404,2,0,L|36:129,1,37.5,10|0,0:0|0:0,0:0:0:0:
94,196,92604,1,2,0:0:0:0:
92,214,92704,1,2,0:0:0:0:
90,232,92804,2,0,L|86:277,1,37.5,10|0,0:0|0:0,0:0:0:0:
157,336,93004,1,2,0:0:0:0:
157,336,93104,2,0,L|202:332,1,37.5,2|8,0:0|0:0,0:0:0:0:
292,281,93304,1,2,0:0:0:0:
292,281,93404,2,0,L|337:285,3,37.5,2|0|8|0,0:0|0:0|0:0|0:0,0:0:0:0:
251,197,93804,5,2,0:0:0:0:
248,178,93904,1,2,0:0:0:0:
245,159,94004,2,0,L|238:108,1,37.5,10|0,0:0|0:0,0:0:0:0:
293,54,94204,1,2,0:0:0:0:
333,49,94304,1,0,0:0:0:0:
375,52,94404,2,0,L|413:62,1,37.5,8|0,0:0|0:0,0:0:0:0:
460,139,94604,1,2,0:0:0:0:
460,139,94704,2,0,L|454:190,1,37.5,2|8,0:0|0:0,0:0:0:0:
402,249,94904,1,2,0:0:0:0:
402,249,95004,2,0,L|408:300,1,37.5,2|0,0:0|0:0,0:0:0:0:
466,365,95204,5,12,0:0:0:0:
421,360,95304,1,0,1:2:0:0:
376,355,95404,2,0,L|328:362,3,37.5,2|2|10|0,0:0|0:0|0:0|0:0,0:0:0:0:
257,309,95804,1,2,1:2:0:0:
212,304,95904,1,2,1:2:0:0:
167,300,96004,2,0,L|116:312,1,37.5,10|2,0:0|0:0,0:0:0:0:
9,271,96204,1,2,1:2:0:0:
4,226,96304,1,0,1:2:0:0:
0,181,96404,2,0,L|12:130,1,37.5,10|0,0:0|0:0,0:0:0:0:
93,72,96604,5,2,1:2:0:0:
137,76,96704,1,2,1:2:0:0:
181,81,96804,2,0,L|231:91,3,37.5,10|2|2|0,0:0|1:2|0:0|0:0,0:0:0:0:
276,158,97204,2,0,L|314:154,1,37.5,10|0,0:0|0:0,0:0:0:0:
378,94,97404,2,0,L|415:98,1,37.5,2|0,1:2|1:2,0:0:0:0:
475,161,97604,5,10,0:0:0:0:
475,184,97704,1,10,3:0:0:0:
475,207,97804,1,10,3:0:0:0:
476,230,97904,1,0,1:2:0:0:
477,252,98004,1,10,0:0:0:0:
467,264,98404,6,0,L|465:170,1,86.2500016450882,4|8,1:2|0:0,0:0:0:0:
411,87,98704,1,0,1:2:0:0:
411,87,98804,1,0,1:2:0:0:
487,145,99004,1,8,0:0:0:0:
366,227,99204,1,0,1:2:0:0:
340,222,99304,1,0,1:2:0:0:
314,218,99404,1,8,0:0:0:0:
211,273,99604,2,0,L|111:280,1,86.2500016450882,0|10,1:2|0:0,0:0:0:0:
9,189,100004,6,0,L|109:182,1,86.2500016450882,2|10,1:2|0:0,0:0:0:0:
194,109,100304,1,0,1:2:0:0:
194,109,100404,1,0,1:2:0:0:
109,175,100604,1,10,0:0:0:0:
267,221,100804,1,2,1:2:0:0:
292,216,100904,1,0,1:2:0:0:
317,211,101004,1,8,0:0:0:0:
394,150,101204,1,2,1:2:0:0:
404,187,101304,1,0,1:2:0:0:
409,228,101404,1,8,0:0:0:0:
403,263,101504,1,8,0:0:0:0:
396,301,101604,6,0,L|292:291,1,86.2500016450882,0|8,1:2|0:0,0:0:0:0:
206,364,101904,1,0,1:2:0:0:
206,364,102004,1,2,1:2:0:0:
304,283,102204,1,10,0:0:0:0:
222,157,102404,1,2,1:2:0:0:
219,131,102504,1,2,1:2:0:0:
216,105,102604,1,8,0:0:0:0:
333,27,102804,1,2,1:2:0:0:
329,52,102904,1,0,1:2:0:0:
325,77,103004,1,8,0:0:0:0:
320,102,103104,1,0,1:2:0:0:
314,127,103204,6,0,L|304:196,1,43.1250008225441,2|0,1:2|1:2,0:0:0:0:
381,222,103404,2,0,L|456:233,2,43.1250008225441,10|0|0,0:0|1:2|1:2,0:0:0:0:
470,150,103704,2,0,L|545:139,2,43.1250008225441,2|8|0,1:2|0:0|1:2,0:0:0:0:
428,50,104004,5,2,1:2:0:0:
378,34,104104,1,8,0:0:0:0:
329,52,104204,1,8,0:0:0:0:
185,25,104404,1,2,1:2:0:0:
47,210,104804,6,0,L|40:139,1,41.2500012588501,14|0,0:0|1:2,0:0:0:0:
127,249,105004,2,0,L|131:207,1,41.2500012588501,10|0,0:0|1:2,0:0:0:0:
56,221,105204,2,0,L|49:150,1,41.2500012588501,10|0,0:0|1:2,0:0:0:0:
136,260,105404,2,0,L|140:218,1,41.2500012588501,10|0,0:0|1:2,0:0:0:0:
246,308,105604,6,0,L|196:311,1,41.2500012588501,10|0,0:0|1:2,0:0:0:0:
95,363,105804,2,0,L|136:365,1,41.2500012588501,10|0,0:0|1:2,0:0:0:0:
260,327,106004,2,0,L|210:330,1,41.2500012588501,10|0,0:0|1:2,0:0:0:0:
109,382,106204,2,0,L|150:384,1,41.2500012588501,10|0,0:0|1:2,0:0:0:0:
357,322,106404,6,0,L|366:368,2,41.2500012588501,10|0|0,0:0|1:2|1:2,0:0:0:0:
423,242,106704,2,0,L|432:196,2,41.2500012588501,10|0|0,0:0|1:2|1:2,0:0:0:0:
385,341,107004,2,0,L|394:387,2,41.2500012588501,10|0|0,0:0|1:2|1:2,0:0:0:0:
451,261,107304,2,0,L|460:215,2,41.2500012588501,10|0|0,0:0|1:2|1:2,0:0:0:0:
503,343,107604,6,0,L|443:332,1,41.2500012588501,10|0,0:0|1:2,0:0:0:0:
355,228,107804,2,0,L|295:217,1,41.2500012588501,10|0,0:0|1:2,0:0:0:0:
451,261,108004,1,14,0:0:0:0:
291,72,108204,6,0,L|223:68,1,41.2500012588501,10|0,0:0|1:2,0:0:0:0:
394,132,108404,2,0,L|326:128,1,41.2500012588501,10|0,0:0|1:2,0:0:0:0:
276,47,108604,2,0,L|208:43,1,41.2500012588501,10|0,0:0|1:2,0:0:0:0:
379,107,108804,2,0,L|311:103,1,41.2500012588501,10|0,0:0|1:2,0:0:0:0:
261,22,109004,2,0,L|193:18,1,41.2500012588501,10|0,0:0|1:2,0:0:0:0:
254,157,109204,2,0,B|242:198|242:198|257:214|257:214|244:259,1,82.5000025177003,10|10,0:0|0:0,0:0:0:0:
304,331,109504,5,0,1:2:0:0:
321,328,109604,2,0,L|370:318,2,41.2500012588501,10|0|0,0:0|1:2|1:2,0:0:0:0:
199,366,109904,2,0,L|158:357,2,41.2500012588501,10|0|0,0:0|1:2|1:2,0:0:0:0:
294,304,110204,2,0,L|343:294,2,41.2500012588501,10|0|0,0:0|1:2|1:2,0:0:0:0:
133,352,110504,1,10,0:0:0:0:
133,352,110604,2,0,L|92:343,3,27.5000008392334,0|0|0|10,1:2|1:2|1:2|0:0,0:0:0:0:
0,272,111004,1,8,0:0:0:0:
60,133,111204,6,0,L|155:150,1,82.5000025177003,6|0,1:2|1:2,0:0:0:0:
305,25,111604,2,0,L|223:39,1,82.5000025177003,4|0,1:2|1:2,0:0:0:0:
152,221,112004,1,12,0:0:0:0:
262,196,112204,1,0,1:2:0:0:
332,264,112404,1,4,1:2:0:0:
427,104,112604,1,0,1:2:0:0:
462,262,112804,6,0,L|469:347,1,82.5000025177003,4|0,1:2|0:0,0:0:0:0:
457,238,113104,2,0,P|444:192|376:184,1,123.75000377655,0|0,1:2|1:2,0:0:0:0:
370,199,113504,1,0,0:0:0:0:
370,199,113604,1,10,0:0:0:0:
292,132,113804,6,0,L|288:74,1,41.2500012588501,0|0,1:2|0:0,0:0:0:0:
278,149,114004,2,0,L|274:91,1,41.2500012588501,0|0,1:2|0:0,0:0:0:0:
262,167,114204,1,8,0:0:0:0:
317,319,114404,6,0,L|406:331,1,82.5000025177003,6|0,1:2|1:2,0:0:0:0:
197,364,114804,2,0,L|108:376,1,82.5000025177003,4|0,1:2|1:2,0:0:0:0:
7,197,115204,1,12,0:0:0:0:
81,271,115404,1,0,1:2:0:0:
150,148,115604,1,4,1:2:0:0:
207,288,115804,1,0,1:2:0:0:
315,189,116004,6,0,L|414:198,1,82.5000025177003,4|0,1:2|0:0,0:0:0:0:
289,186,116304,2,0,P|241:192|202:269,1,123.75000377655,0|0,1:2|1:2,0:0:0:0:
207,288,116704,1,0,0:0:0:0:
207,288,116804,1,8,0:0:0:0:
338,288,117004,6,0,L|285:281,1,41.2500012588501,8|0,1:3|0:0,0:0:0:0:
357,305,117204,2,0,L|304:298,1,41.2500012588501,8|0,1:3|0:0,0:0:0:0:
376,321,117404,2,0,L|323:314,1,41.2500012588501,10|0,1:3|0:0,0:0:0:0:
465,261,117604,5,14,0:0:0:0:
437,174,117804,1,2,1:2:0:0:
353,141,118004,1,0,1:2:0:0:
225,117,118204,1,2,1:2:0:0:
239,105,118304,1,0,1:2:0:0:
252,99,118404,1,8,0:0:0:0:
221,225,118604,2,0,P|195:219|150:188,1,75,2|0,1:2|1:2,0:0:0:0:
310,232,119004,5,2,1:2:0:0:
304,265,119104,1,0,1:2:0:0:
290,296,119204,2,0,P|267:310|213:320,1,75,8|0,0:0|1:2,0:0:0:0:
399,304,119604,1,2,1:2:0:0:
223,225,119804,1,2,1:2:0:0:
200,224,119904,1,0,0:0:0:0:
177,223,120004,1,8,0:0:0:0:
133,304,120204,1,2,1:2:0:0:
19,170,120404,1,8,0:0:0:0:
94,227,120604,1,0,1:2:0:0:
206,131,120804,6,0,L|305:126,2,75,14|2|0,0:0|1:2|1:2,0:0:0:0:
349,176,121404,1,2,1:2:0:0:
237,54,121604,2,0,L|162:57,1,75,8|2,0:0|1:2,0:0:0:0:
315,110,122004,2,0,L|389:106,1,75,0|2,1:2|1:2,0:0:0:0:
413,106,122304,1,0,1:2:0:0:
413,106,122404,1,8,0:0:0:0:
477,49,122604,1,2,1:2:0:0:
499,141,122804,1,0,1:2:0:0:
424,200,123004,1,2,1:2:0:0:
427,222,123104,1,0,1:2:0:0:
430,244,123204,5,8,0:0:0:0:
415,240,123304,1,8,0:0:0:0:
400,236,123404,1,10,3:0:0:0:
385,232,123504,1,8,3:0:0:0:
360,248,123604,5,8,3:0:0:0:
348,248,123704,1,8,3:0:0:0:
337,248,123804,1,10,3:0:0:0:
325,248,123904,1,8,3:0:0:0:
298,271,124004,5,4,1:2:0:0:
234,333,124204,1,2,1:2:0:0:
320,356,124404,1,2,1:2:0:0:
298,271,124604,1,2,1:2:0:0:
153,373,124804,6,0,B|143:333|156:295|156:295|151:275|151:275|175:243|154:190,1,179.999994506836,10|0,0:0|0:0,0:0:0:0:
24,168,125804,5,2,1:2:0:0:
88,230,126004,1,0,1:2:0:0:
110,145,126204,1,2,1:2:0:0:
24,168,126404,1,8,0:0:0:0:
24,168,126604,1,8,0:0:0:0:
177,85,126804,1,2,1:2:0:0:
75,66,127004,1,2,1:2:0:0:
251,140,127204,6,0,P|270:97|259:53,1,75,14|10,0:0|3:0,0:0:0:0:
177,85,127604,1,10,3:0:0:0:
359,167,127804,2,0,B|378:224|378:224|365:288,1,112.5,10|0,0:0|0:0,0:0:0:0:
352,289,128204,2,0,L|319:287,3,25,2|0|0|0,1:2|1:2|1:2|1:2,0:0:0:0:
512,192,128604,5,14,0:0:0:0:
18,192,130004,2,0,L|-15:192,1,18.75,8|8,0:0|0:0,0:0:0:0:
30,192,130204,1,0,1:0:0:0:
160,4,130404,6,0,P|183:55|178:123,1,123.75000377655,14|0,0:0|0:0,0:0:0:0:
150,152,130804,1,0,1:2:0:0:
247,13,131004,2,0,L|334:21,1,82.5000025177003,10|0,0:0|0:0,0:0:0:0:
486,119,131404,2,0,L|403:126,1,82.5000025177003,2|8,1:2|0:0,0:0:0:0:
512,118,131804,1,2,1:2:0:0:
333,91,132004,6,0,B|317:144|317:144|341:194|341:194|326:250,1,165.000005035401,8|2,0:0|1:2,0:0:0:0:
183,327,132604,2,0,P|186:264|283:202,1,165.000005035401,10|0,0:0|1:2,0:0:0:0:
291,334,133204,1,10,0:0:0:0:
177,224,133404,1,0,1:2:0:0:
313,353,133604,2,0,L|395:340,1,82.5000025177003,10|2,0:0|0:0,0:0:0:0:
484,320,134004,1,0,1:2:0:0:
327,246,134204,2,0,L|245:233,2,82.5000025177003,10|0|0,0:0|0:0|1:2,0:0:0:0:
413,262,134804,1,10,0:0:0:0:
321,131,135004,1,2,1:2:0:0:
196,297,135204,1,8,0:0:0:0:
196,297,135604,5,0,1:2:0:0:
114,156,135804,1,8,0:0:0:0:
109,131,135904,1,8,0:0:0:0:
111,106,136004,1,0,1:2:0:0:
136,236,136204,1,0,1:2:0:0:
226,125,136404,1,10,0:0:0:0:
226,125,136604,1,2,1:2:0:0:
337,193,136804,6,0,P|364:251|337:362,1,165.000005035401,14|0,0:0|1:2,0:0:0:0:
354,170,137404,2,0,B|413:157|413:157|475:180|475:180|544:166,1,165.000005035401,10|2,0:0|1:2,0:0:0:0:
282,273,138004,1,8,0:0:0:0:
178,269,138204,1,2,1:2:0:0:
73,291,138404,6,0,L|80:373,1,82.5000025177003,8|2,0:0|0:0,0:0:0:0:
73,268,138804,1,0,1:2:0:0:
27,193,139004,2,0,B|96:187|96:187|125:206|125:206|189:200,1,165.000005035401,10|0,0:0|1:2,0:0:0:0:
0,196,139604,1,10,0:0:0:0:
156,106,139804,5,0,1:2:0:0:
180,108,139904,1,0,1:2:0:0:
204,109,140004,2,0,P|255:146|259:249,1,165.000005035401,10|0,0:0|1:2,0:0:0:0:
434,261,140604,2,0,B|379:277|325:250|357:230|308:217|243:226,1,165.000005035401,10|0,0:0|1:2,0:0:0:0:
227,306,141204,1,10,0:0:0:0:
399,191,141404,1,2,1:2:0:0:
399,191,141504,1,0,1:2:0:0:
399,191,141604,5,8,0:0:0:0:
393,165,141704,1,8,0:0:0:0:
387,139,141804,1,8,0:0:0:0:
381,113,141904,1,8,0:0:0:0:
376,87,142004,2,0,L|371:46,1,41.2500012588501,0|0,1:2|1:2,0:0:0:0:
481,130,142204,2,0,L|476:171,1,41.2500012588501,10|8,0:0|0:0,0:0:0:0:
330,224,142404,5,8,3:0:0:0:
303,222,142504,1,8,3:0:0:0:
276,220,142604,1,2,1:2:0:0:
253,220,142704,1,0,1:2:0:0:
234,218,142804,2,0,L|181:215,2,41.2500012588501,8|0|2,0:0|0:0|1:2,0:0:0:0:
160,133,143204,5,4,1:2:0:0:
160,133,143404,2,0,B|112:126|112:126|62:146|62:146|0:138,1,165.000005035401,0|2,1:2|1:2,0:0:0:0:
53,65,144004,1,8,0:0:0:0:
79,177,144204,1,2,1:2:0:0:
41,268,144404,1,0,1:2:0:0:
41,268,144804,5,0,1:2:0:0:
176,176,145004,2,0,P|228:169|328:234,1,165.000005035401,0|2,1:2|1:2,0:0:0:0:
157,170,145604,6,0,B|149:138|149:138|161:122|161:122|154:79,1,82.5000025177003,10|2,0:0|0:0,0:0:0:0:
298,62,146204,1,10,0:0:0:0:
338,69,146304,1,8,0:0:0:0:
378,76,146404,1,0,1:2:0:0:
239,123,146604,1,0,1:2:0:0:
239,123,147004,5,2,1:2:0:0:
387,157,147204,2,0,L|378:76,1,82.5000025177003,8|0,0:0|1:2,0:0:0:0:
308,194,147604,1,2,1:2:0:0:
377,75,147804,1,2,0:0:0:0:
408,253,148004,5,0,1:2:0:0:
376,62,148204,1,8,0:0:0:0:
468,145,148404,1,0,1:2:0:0:
468,145,148604,1,0,1:2:0:0:
239,123,148804,2,0,L|145:112,1,82.5000025177003,8|0,0:0|1:2,0:0:0:0:
124,111,149104,1,0,0:0:0:0:
124,111,149204,1,8,0:0:0:0:
88,26,149404,1,2,1:2:0:0:
65,182,149604,6,0,P|71:241|180:309,1,165.000005035401,6|2,1:2|1:2,0:0:0:0:
225,158,150204,2,0,B|177:146|133:169|150:172|110:195|41:176,1,165.000005035401,10|2,0:0|1:2,0:0:0:0:
200,230,150804,1,8,0:0:0:0:
306,187,151004,5,10,0:0:0:0:
310,211,151104,1,8,0:0:0:0:
313,235,151204,2,0,L|323:327,2,82.5000025177003,0|2|0,1:2|0:0|1:2,0:0:0:0:
441,120,151804,1,10,0:0:0:0:
441,120,152204,5,0,1:2:0:0:
350,73,152404,1,8,0:0:0:0:
349,64,152504,1,8,3:0:0:0:
348,55,152604,1,8,3:0:0:0:
347,46,152704,1,0,1:2:0:0:
367,23,152804,5,6,1:2:0:0:
379,57,152904,1,0,1:2:0:0:
378,94,153004,1,10,0:0:0:0:
361,127,153104,1,0,1:2:0:0:
334,153,153204,1,0,1:2:0:0:
320,187,153304,1,0,1:2:0:0:
319,224,153404,5,10,0:0:0:0:
337,214,153504,1,0,1:2:0:0:
342,194,153604,1,0,1:2:0:0:
338,173,153704,1,0,1:2:0:0:
323,158,153804,5,10,0:0:0:0:
319,169,153904,1,0,1:2:0:0:
318,181,154004,1,0,1:2:0:0:
320,193,154104,1,0,1:2:0:0:
327,202,154204,2,0,L|377:191,1,41.2500012588501,10|0,0:0|1:2,0:0:0:0:
473,172,154404,1,4,1:2:0:0:
342,286,154604,5,8,0:0:0:0:
296,284,154704,1,8,0:0:0:0:
259,257,154804,1,8,3:0:0:0:
220,233,154904,1,8,3:0:0:0:
175,222,155004,1,2,1:2:0:0:
133,239,155104,1,0,1:2:0:0:
142,249,155204,5,10,0:0:0:0:
51,276,156004,6,0,B|56:241|40:214|40:214|45:204|45:204|23:151|26:86,1,187.500007152558,4|0,1:2|0:0,0:0:0:0:
268,359,156604,6,0,B|271:333|269:308|269:308|280:293|280:293|277:260|277:260|282:211,1,120,4|0,1:2|0:0,0:0:0:0:
341,148,157004,2,0,B|341:185|341:185|351:203|360:224|360:224|355:268|355:303,1,127.50000243187,4|0,1:2|0:0,0:0:0:0:
300,70,157404,6,0,B|340:65|340:65|378:74|403:87|403:87|436:104|467:91|467:91|445:87|440:64,1,202.499993820191,4|0,1:2|0:0,0:0:0:0:
446,70,158204,1,8,0:0:0:0:
462,180,158404,5,10,0:0:0:0:
455,178,158504,1,8,3:0:0:0:
448,177,158604,1,10,3:0:0:0:
441,177,158704,1,0,1:2:0:0:
434,178,158804,5,10,0:0:0:0:
437,151,158904,1,8,0:0:0:0:
440,124,159004,1,10,0:0:0:0:
443,97,159104,1,8,0:0:0:0:
446,70,159204,5,4,1:2:0:0:
410,90,159304,1,0,1:2:0:0:
400,130,159404,1,0,1:2:0:0:
404,169,159504,1,0,1:2:0:0:
428,204,159604,1,8,0:0:0:0:
436,244,159704,1,0,1:2:0:0:
424,283,159804,2,0,L|376:291,1,41.2500012588501,4|0,1:2|1:2,0:0:0:0:
269,237,160004,5,12,0:0:0:0:
236,232,160104,1,0,1:2:0:0:
203,228,160204,1,0,1:2:0:0:
170,223,160304,1,0,1:2:0:0:
141,218,160404,1,8,0:0:0:0:
116,214,160504,1,0,1:2:0:0:
95,211,160604,6,0,L|103:268,1,41.2500012588501,4|0,1:2|1:2,0:0:0:0:
30,307,160804,5,12,0:0:0:0:
43,263,160904,1,0,1:2:0:0:
57,219,161004,1,2,1:2:0:0:
71,175,161104,1,0,1:2:0:0:
85,131,161204,6,0,L|75:83,1,41.2500012588501,10|0,0:2|1:2,0:0:0:0:
192,20,161404,2,0,L|182:68,1,41.2500012588501,0|0,1:2|1:2,0:0:0:0:
70,68,161604,5,10,0:2:0:0:
96,36,161704,1,0,1:2:0:0:
136,29,161804,1,2,1:2:0:0:
172,47,161904,1,0,1:2:0:0:
184,86,162004,1,8,0:2:0:0:
221,103,162104,1,0,1:2:0:0:
262,101,162204,1,2,1:2:0:0:
296,78,162304,1,0,1:2:0:0:
308,38,162404,5,12,0:0:0:0:
303,62,162504,1,0,1:2:0:0:
299,86,162604,1,0,1:2:0:0:
299,110,162704,1,0,1:2:0:0:
301,134,162804,1,8,0:0:0:0:
307,157,162904,1,0,1:2:0:0:
313,180,163004,2,0,P|321:207|320:233,1,41.2500012588501,4|0,1:2|1:2,0:0:0:0:
252,274,163204,5,12,0:2:0:0:
285,298,163304,1,0,1:2:0:0:
325,306,163404,1,0,1:2:0:0:
363,291,163504,1,0,1:2:0:0:
388,259,163604,1,8,0:2:0:0:
427,247,163704,1,0,1:2:0:0:
466,259,163804,1,4,1:2:0:0:
491,292,163904,1,0,1:2:0:0:
480,332,164004,6,0,L|470:380,3,41.2500012588501,12|0|0|0,0:0|1:2|1:2|1:2,0:0:0:0:
371,331,164404,2,0,L|361:283,3,41.2500012588501,8|0|0|0,0:2|1:2|1:2|1:2,0:0:0:0:
461,257,164804,5,8,0:2:0:0:
472,208,164904,1,0,1:2:0:0:
457,160,165004,1,0,1:2:0:0:
417,129,165104,1,0,1:2:0:0:
368,136,165204,5,8,0:2:0:0:
326,108,165304,1,0,1:2:0:0:
310,60,165404,1,0,1:2:0:0:
328,14,165504,1,0,1:2:0:0:
375,1,165604,5,14,0:2:0:0:
354,4,165704,1,0,1:2:0:0:
333,7,165804,1,2,1:2:0:0:
312,10,165904,1,0,1:2:0:0:
291,13,166004,1,8,0:0:0:0:
270,15,166104,1,0,1:2:0:0:
249,17,166204,2,0,L|200:11,1,41.2500012588501,6|0,1:2|1:2,0:0:0:0:
70,56,166404,5,14,0:2:0:0:
103,53,166504,1,0,1:2:0:0:
134,68,166604,1,2,1:2:0:0:
154,95,166704,1,0,1:2:0:0:
158,129,166804,1,8,0:2:0:0:
145,160,166904,1,0,1:2:0:0:
118,182,167004,2,0,L|70:188,1,41.2500012588501,4|0,1:2|1:2,0:0:0:0:
182,107,167204,5,14,0:2:0:0:
224,82,167304,1,0,1:2:0:0:
273,78,167404,1,0,1:2:0:0:
318,97,167504,1,0,1:2:0:0:
341,140,167604,6,0,L|331:187,1,41.2500012588501,10|0,0:2|1:2,0:0:0:0:
244,212,167804,2,0,L|252:171,1,41.2500012588501,2|0,1:2|1:2,0:0:0:0:
449,139,168004,5,8,0:2:0:0:
445,155,168104,1,0,1:2:0:0:
443,171,168204,1,0,1:2:0:0:
439,188,168304,1,0,1:2:0:0:
436,204,168404,5,8,0:2:0:0:
432,160,168504,1,0,1:2:0:0:
429,115,168604,1,0,1:2:0:0:
426,71,168704,1,0,1:2:0:0:
424,26,168804,5,12,0:2:0:0:
407,29,168904,1,0,1:2:0:0:
390,32,169004,1,2,1:2:0:0:
373,35,169104,1,0,1:2:0:0:
356,38,169204,1,8,0:0:0:0:
345,40,169304,1,0,1:2:0:0:
328,43,169404,6,0,L|276:39,2,37.5000014305115,6|0|0,1:2|1:2|1:2,0:0:0:0:
358,121,169604,1,14,0:0:0:0:
128,306,170004,5,8,0:0:0:0:
149,254,170104,1,8,0:0:0:0:
169,202,170204,1,8,0:0:0:0:
98,248,172193,5,4,1:2:0:0:
92,197,172318,1,0,1:2:0:0:
84,150,172443,1,0,1:2:0:0:
159,291,172693,2,0,P|119:323|75:318,1,75,2|0,1:2|1:2,0:0:0:0:
254,191,173193,2,0,L|302:185,2,37.5,10|0|0,0:0|1:2|1:2,0:0:0:0:
149,82,173693,1,2,1:2:0:0:
287,38,173943,1,0,1:2:0:0:
287,38,174068,1,0,1:2:0:0:
287,38,174193,5,2,1:2:0:0:
324,42,174318,1,0,1:2:0:0:
361,47,174443,1,0,1:2:0:0:
445,145,174693,1,2,1:2:0:0:
408,150,174818,1,0,1:2:0:0:
371,154,174943,1,0,1:2:0:0:
256,192,175193,2,0,L|218:187,2,37.5,10|0|0,0:0|0:0|1:2,0:0:0:0:
399,243,175693,1,2,1:2:0:0:
436,247,175818,1,0,1:2:0:0:
473,252,175943,1,0,1:2:0:0:
486,355,176193,5,2,0:0:0:0:
486,355,177193,1,2,0:0:0:0:
486,355,178193,6,0,B|437:389|388:403|330:380|301:332|334:306|368:314|362:347,1,225.000008583069,10|2,0:0|0:0,0:0:0:0:
363,341,179568,2,0,L|362:362,2,14.0625005364418,0|0|8,1:0|1:0|3:0,0:0:0:0:
395,67,180193,5,4,1:2:0:0:
443,61,180318,1,0,1:2:0:0:
491,54,180443,1,0,1:2:0:0:
333,123,180693,2,0,P|317:89|319:40,1,75,2|0,1:2|1:2,0:0:0:0:
256,192,181193,2,0,L|251:241,2,37.5,10|0|0,0:0|1:2|1:2,0:0:0:0:
179,78,181693,1,2,1:2:0:0:
62,159,181943,1,0,1:2:0:0:
62,159,182068,1,0,1:2:0:0:
62,159,182193,5,2,1:2:0:0:
54,207,182318,1,0,1:2:0:0:
164,310,182568,1,0,1:2:0:0:
164,310,182693,1,2,1:2:0:0:
156,262,182818,1,0,1:2:0:0:
148,214,182943,1,0,1:2:0:0:
256,192,183193,2,0,L|305:198,1,37.5,10|0,0:0|0:0,0:0:0:0:
329,298,183443,2,0,L|291:302,1,37.5,0|0,1:2|0:0,0:0:0:0:
368,205,183693,1,2,1:2:0:0:
416,209,183818,1,0,1:2:0:0:
464,213,183943,1,0,1:2:0:0:
512,217,184068,1,0,1:2:0:0:
499,209,184193,5,2,0:0:0:0:
499,209,185193,1,2,0:0:0:0:
499,209,185943,5,0,1:2:0:0:
498,201,186026,5,0,1:2:0:0:
497,193,186109,5,0,1:2:0:0:
496,185,186193,6,0,B|515:140|493:104|493:104|471:61|496:19,1,168.000002050781,8|0,0:0|0:0,0:0:0:0:
493,23,187318,6,0,L|522:21,2,18.75,0|0|8,1:0|1:0|3:0,0:0:0:0:
425,145,187693,2,0,L|300:137,1,112.5,2|0,0:0|0:0,0:0:0:0:
182,194,188193,5,6,1:2:0:0:
160,211,188318,1,0,1:2:0:0:
146,235,188443,1,0,1:2:0:0:
142,263,188568,1,2,1:2:0:0:
149,290,188693,1,0,1:2:0:0:
166,313,188818,1,0,1:2:0:0:
190,327,188943,1,2,1:2:0:0:
217,332,189068,1,0,1:2:0:0:
245,326,189193,5,8,1:2:0:0:
227,307,189318,1,0,1:2:0:0:
200,304,189443,2,0,L|128:312,1,37.5,2|0,1:2|1:2,0:0:0:0:
89,346,189693,2,0,L|62:343,2,18.75,2|0|0,1:2|0:0|0:0,0:0:0:0:
156,384,189943,1,2,1:2:0:0:
55,231,190193,5,2,1:2:0:0:
39,207,190318,1,0,1:2:0:0:
35,180,190443,1,0,1:2:0:0:
42,153,190568,1,2,1:2:0:0:
57,128,190693,1,0,1:2:0:0:
69,103,190818,1,0,1:2:0:0:
72,75,190943,1,2,1:2:0:0:
65,48,191068,1,0,1:2:0:0:
50,25,191193,6,0,L|4:20,1,37.5,8|0,1:2|1:2,0:0:0:0:
145,124,191443,2,0,L|182:119,1,37.5,0|0,1:2|0:0,0:0:0:0:
286,0,191693,5,10,1:2:0:0:
267,53,191818,1,8,1:2:0:0:
273,110,191943,1,8,1:2:0:0:
256,192,192193,12,2,195693,0:0:0:0:
68,111,196193,5,0,1:2:0:0:
73,166,196318,1,0,1:2:0:0:
79,221,196443,1,0,1:2:0:0:
75,239,196568,1,0,1:2:0:0:
71,257,196693,6,0,L|61:306,1,37.5,0|0,1:2|1:2,0:0:0:0:
156,384,196943,2,0,L|146:335,1,37.5,0|0,1:2|1:2,0:0:0:0:
223,266,197193,5,8,0:0:0:0:
265,255,197318,1,0,1:2:0:0:
301,245,197443,1,0,1:2:0:0:
322,248,197568,1,0,1:2:0:0:
344,252,197693,6,0,L|389:263,2,25,0|0|0,1:2|1:2|1:2,0:0:0:0:
315,327,197943,2,0,L|291:333,2,25,0|0|0,1:2|1:2|1:2,0:0:0:0:
378,375,198193,5,0,1:2:0:0:
430,370,198318,1,0,1:2:0:0:
459,326,198443,1,0,1:2:0:0:
456,307,198568,1,0,1:2:0:0:
454,288,198693,2,0,L|448:228,2,37.5,0|0|0,1:2|1:2|1:2,0:0:0:0:
511,128,199193,6,0,L|445:121,1,37.5,8|0,0:0|1:2,0:0:0:0:
375,154,199443,2,0,L|309:161,1,37.5,0|0,1:2|1:2,0:0:0:0:
253,98,199693,1,0,1:2:0:0:
205,88,199818,1,0,1:2:0:0:
157,78,199943,1,0,1:2:0:0:
108,70,200068,1,0,1:2:0:0:
103,60,200193,5,2,0:0:0:0:
103,60,201193,1,2,0:0:0:0:
103,60,201943,5,2,1:2:0:0:
101,72,202026,5,0,1:2:0:0:
99,84,202109,5,0,1:2:0:0:
97,96,202193,5,10,0:0:0:0:
42,12,202443,1,8,3:0:0:0:
79,177,202693,1,10,3:0:0:0:
127,169,202818,1,8,3:0:0:0:
168,144,202943,1,0,1:0:0:0:
209,138,203068,1,0,1:0:0:0:
221,144,203193,5,10,0:0:0:0:
333,217,203443,6,0,B|305:208|305:208|288:186,1,56.2500021457673,8|0,3:0|0:0,0:0:0:0:
262,338,203693,2,0,B|283:318|283:318|310:315,1,56.2500021457673,8|0,3:0|0:0,0:0:0:0:
192,216,203943,2,0,B|198:244|198:244|187:269,1,56.2500021457673,10|0,3:0|0:0,0:0:0:0:
64,340,204204,5,6,1:2:0:0:
202,65,213804,6,0,B|155:52|119:61|134:71|98:80|60:63,1,140.625,14|0,0:0|0:0,0:0:0:0:
32,38,214204,1,0,1:2:0:0:
169,141,214404,2,0,L|141:282,1,140.625,10|0,0:0|0:0,0:0:0:0:
131,328,214804,1,2,1:2:0:0:
54,258,215004,1,8,0:0:0:0:
54,258,215204,1,2,1:2:0:0:
192,218,215404,6,0,B|268:211|268:211|302:246|302:246|398:237,1,187.5,8|2,0:0|1:2,0:0:0:0:
439,62,216004,2,0,P|347:82|342:174,1,187.5,10|0,0:0|1:2,0:0:0:0:
296,24,216604,1,10,0:0:0:0:
202,54,216804,1,0,1:2:0:0:
406,131,217004,6,0,B|441:180|410:233|405:218|380:262|405:309,1,187.5,10|0,0:0|1:2,0:0:0:0:
219,342,217604,2,0,P|292:287|393:301,1,187.5,10|0,0:0|1:2,0:0:0:0:
217,355,218204,1,10,0:0:0:0:
120,379,218404,1,2,1:2:0:0:
49,250,218604,1,8,0:0:0:0:
49,250,219004,5,0,1:2:0:0:
113,162,219204,1,8,0:0:0:0:
108,134,219304,1,8,0:0:0:0:
104,106,219404,1,0,1:2:0:0:
35,50,219604,1,0,1:2:0:0:
179,7,219804,1,10,0:0:0:0:
179,7,220004,1,2,1:2:0:0:
250,101,220204,6,0,B|315:96|315:96|348:53|348:53|428:45,1,187.5,14|0,0:0|1:2,0:0:0:0:
275,219,220804,2,0,P|267:101|257:16,1,187.5,10|2,0:0|1:2,0:0:0:0:
393,127,221404,1,8,0:0:0:0:
479,116,221604,1,2,1:2:0:0:
349,252,221804,6,0,P|291:293|219:273,1,140.625,8|0,0:0|3:0,3:0:0:0:
210,243,222204,1,0,1:2:0:0:
18,179,222404,2,0,P|75:220|147:200,1,140.625,10|0,0:0|3:0,3:0:0:0:
169,174,222804,1,0,1:2:0:0:
93,138,223004,1,10,0:0:0:0:
32,255,223204,5,0,1:2:0:0:
36,282,223304,1,0,1:2:0:0:
39,310,223404,2,0,B|95:290|140:312|119:320|182:362|232:324,1,187.5,10|0,0:0|1:2,0:0:0:0:
376,295,224004,2,0,B|320:315|275:293|296:285|233:243|183:281,1,187.5,10|0,0:0|1:2,0:0:0:0:
286,363,224604,1,10,0:0:0:0:
376,295,224804,1,2,1:2:0:0:
376,295,224904,1,0,1:2:0:0:
376,295,225004,5,8,0:0:0:0:
371,262,225104,1,8,0:0:0:0:
367,229,225204,1,8,0:0:0:0:
363,196,225304,1,8,0:0:0:0:
359,163,225404,2,0,L|354:110,1,46.875,0|0,1:2|1:2,0:0:0:0:
258,57,225604,5,10,0:0:0:0:
255,89,225704,1,8,0:0:0:0:
252,121,225804,2,0,L|247:174,1,46.875,8|8,3:0|3:0,0:0:0:0:
174,242,226004,5,2,1:2:0:0:
177,260,226104,1,0,1:2:0:0:
180,278,226204,1,8,0:0:0:0:
245,336,226404,1,2,1:2:0:0:
164,163,226604,5,4,1:2:0:0:
164,163,226804,2,0,B|119:139|78:154|78:154|64:280,1,187.5,0|2,1:2|1:2,0:0:0:0:
157,360,227404,1,8,0:0:0:0:
76,268,227604,1,2,1:2:0:0:
245,336,227804,1,0,1:2:0:0:
245,336,228204,5,0,1:2:0:0:
349,266,228404,2,0,B|422:271|422:271|450:314|450:314|525:319,1,187.5,0|2,1:2|1:2,0:0:0:0:
324,249,229004,6,0,B|317:215|317:215|320:213|320:213|329:148|329:148|337:151|337:151|333:61,1,191.250003647804,10|10,0:0|0:0,0:0:0:0:
321,72,229704,1,8,0:0:0:0:
302,75,229804,1,0,1:2:0:0:
234,145,230004,2,0,L|72:132,1,140.625,0|0,1:2|0:0,0:0:0:0:
50,129,230404,1,2,1:2:0:0:
176,59,230604,1,8,0:0:0:0:
92,50,230804,1,0,1:2:0:0:
120,185,231004,1,2,1:2:0:0:
120,185,231404,5,0,1:2:0:0:
23,293,231604,1,8,0:0:0:0:
106,266,231804,1,0,1:2:0:0:
181,307,232004,1,0,1:2:0:0:
345,293,232204,2,0,P|297:278|232:281,1,93.75,8|0,0:0|1:2,0:0:0:0:
356,299,232604,1,8,0:0:0:0:
279,354,232804,1,2,1:2:0:0:
246,201,233004,6,0,B|243:151|243:151|221:100|221:100|237:17,1,187.5,6|2,1:2|1:2,0:0:0:0:
160,167,233604,2,0,L|54:171,1,93.75,10|0,0:0|0:0,0:0:0:0:
297,90,234004,2,0,L|392:86,1,93.75,2|8,1:2|0:0,0:0:0:0:
478,165,234404,5,10,0:0:0:0:
478,183,234504,1,8,0:0:0:0:
476,201,234604,2,0,P|472:244|465:348,1,140.625,0|0,1:2|0:0,0:0:0:0:
460,384,235004,1,0,1:2:0:0:
351,347,235204,2,0,B|312:327|269:334|278:340|243:354|195:334,1,140.625,10|0,0:0|0:0,0:0:0:0:
171,327,235604,1,0,1:2:0:0:
233,200,235804,5,8,0:0:0:0:
251,200,235904,1,8,3:0:0:0:
269,200,236004,1,8,3:0:0:0:
287,200,236104,1,0,1:2:0:0:
305,200,236204,2,0,L|194:172,2,93.75,6|2|0,1:2|0:0|1:2,0:0:0:0:
128,236,236804,1,10,0:0:0:0:
128,236,237204,5,2,1:2:0:0:
80,137,237404,1,8,0:0:0:0:
53,287,237604,1,2,1:2:0:0:
177,105,237804,1,12,0:0:0:0:
177,105,238204,5,0,1:2:0:0:
6,204,238404,1,8,0:0:0:0:
6,204,238804,5,0,1:2:0:0:
88,284,239004,1,8,0:0:0:0:
95,282,239104,1,8,3:0:0:0:
103,281,239204,1,10,3:0:0:0:
111,280,239304,1,0,1:2:0:0:
118,278,239404,5,10,0:0:0:0:
156,305,239504,1,0,1:2:0:0:
203,306,239604,1,10,0:0:0:0:
243,281,239704,1,0,1:2:0:0:
288,276,239804,1,0,1:2:0:0:
333,290,239904,1,0,1:2:0:0:
363,325,240004,5,10,0:0:0:0:
401,299,240104,1,0,1:2:0:0:
417,255,240204,1,0,1:2:0:0:
409,208,240304,1,0,1:2:0:0:
384,167,240404,5,10,0:0:0:0:
346,193,240504,1,0,1:2:0:0:
329,237,240604,1,0,1:2:0:0:
338,284,240704,1,0,1:2:0:0:
363,325,240804,2,0,L|409:336,1,46.875,10|0,0:0|1:2,0:0:0:0:
316,226,241004,5,0,1:2:0:0:
263,200,241104,1,0,1:2:0:0:
207,215,241204,1,8,0:0:0:0:
161,249,241304,1,8,0:0:0:0:
106,234,241404,1,8,0:0:0:0:
78,184,241504,1,8,0:0:0:0:
102,132,241604,2,0,P|109:103|110:72,1,46.875,10|8,3:0|3:0,0:0:0:0:
10,30,241804,5,10,3:0:0:0:
10,39,241904,1,8,3:0:0:0:
11,48,242004,1,0,1:2:0:0:
12,57,242104,1,0,1:2:0:0:
13,66,242204,1,2,1:2:0:0:
14,75,242304,1,0,1:2:0:0:
15,84,242404,1,2,1:2:0:0:
16,93,242504,1,0,1:2:0:0:
17,100,242604,5,4,1:2:0:0:
96,28,242804,1,8,0:0:0:0:
148,26,242904,1,8,0:0:0:0:
200,24,243004,1,8,0:0:0:0:
252,22,243104,1,8,0:0:0:0:
304,20,243204,2,0,L|350:28,1,37.5,4|0,1:2|0:0,0:0:0:0:
422,89,243404,5,0,1:2:0:0:
421,97,243470,5,0,1:0:0:0:
421,104,243537,5,0,1:0:0:0:
420,111,243604,5,8,0:0:0:0:
504,10,244004,5,8,3:0:0:0:
455,248,244204,1,4,1:2:0:0:
256,192,244304,12,0,252204,0:0:0:0:
