osu file format v14

[General]
AudioFilename: audio.mp3
AudioLeadIn: 0
PreviewTime: 212404
Countdown: 0
SampleSet: Soft
StackLeniency: 0.7
Mode: 0
LetterboxInBreaks: 0
WidescreenStoryboard: 0

[Editor]
DistanceSpacing: 1.6
BeatDivisor: 8
GridSize: 32
TimelineZoom: 2.5

[Metadata]
Title:Enjoy Your Slay (feat. Sam Kubrick)
TitleUnicode:Enjoy Your Slay (feat. Sam Kubrick)
Artist:Ice Nine Kills
ArtistUnicode:Ice Nine Kills
Creator:Blitzifyyy
Version:REDRUM
Source:
Tags:Niva Mimari WashedUp Player Shining The Silver Scream INK Spencer Charnas Ricky Armellino Patrick Galante Joe Occhiuti Dan Sugarman Justin DeBlieck Metal Metalcore Rock English
BeatmapID:2972512
BeatmapSetID:1445099

[Difficulty]
HPDrainRate:6
CircleSize:4.8
OverallDifficulty:9
ApproachRate:9.4
SliderMultiplier:1.6
SliderTickRate:1

[Events]
//Background and Video events
0,0,"comeplaywithus.jpg",0,0
//Break Periods
2,26298,39534
2,205804,212204
//Storyboard Layer 0 (Background)
//Storyboard Layer 1 (Fail)
//Storyboard Layer 2 (Pass)
//Storyboard Layer 3 (Foreground)
//Storyboard Layer 4 (Overlay)
//Storyboard Sound Samples

[TimingPoints]
13098,400,4,2,1,80,1,0
40134,439.56043956044,4,2,1,55,1,0
40134,-666.666666666667,4,2,1,55,0,0
43650,427.046263345196,4,2,1,55,1,0
43650,-666.666666666667,4,2,1,55,0,0
47066,418.118466898955,4,2,1,55,1,0
47066,-671.591672263264,4,2,1,55,0,0
48424,-671.591672263264,4,2,1,5,0,0
48477,-671.591672263264,4,2,1,55,0,0
48529,406.779661016949,4,2,1,55,1,0
48732,426.287744227353,4,2,1,55,1,0
48732,-666.666666666667,4,2,1,55,0,0
50437,396.039603960396,4,2,1,55,1,0
50437,-671.591672263264,4,2,1,55,0,0
53604,400,4,2,1,70,1,0
53604,-153.846153846153,4,2,1,70,0,0
55204,-153.846153846153,4,2,1,70,0,0
56303,-153.846153846153,4,2,1,70,0,0
56404,-153.846153846153,4,2,1,70,0,0
56503,-153.846153846153,4,2,1,70,0,0
56604,-153.846153846153,4,2,1,70,0,0
56703,-153.846153846153,4,2,1,70,0,0
56804,-153.846153846153,4,2,1,70,0,0
57603,-153.846153846153,4,2,1,70,0,0
57904,-153.846153846153,4,2,1,70,0,0
61604,-153.846153846153,4,2,1,70,0,0
63204,-117.647058823529,4,2,1,70,0,0
63704,-117.647058823529,4,2,1,70,0,0
63804,-100,4,2,1,70,0,0
64104,-100,4,2,1,70,0,0
64204,-153.846153846153,4,2,1,70,0,0
64503,-153.846153846153,4,2,1,70,0,0
64604,-250,4,2,1,70,0,0
65204,-250,4,2,1,70,0,0
66404,-90.9090909090909,4,2,1,85,0,1
66704,-90.9090909090909,4,2,1,5,0,1
66804,-90.9090909090909,4,2,1,85,0,1
66904,-90.9090909090909,4,2,1,5,0,1
67004,-90.9090909090909,4,2,1,85,0,1
68304,-90.9090909090909,4,2,1,5,0,1
68404,-90.9090909090909,4,2,1,85,0,1
68504,-90.9090909090909,4,2,1,5,0,1
68604,-90.9090909090909,4,2,1,85,0,1
69904,-90.9090909090909,4,2,1,5,0,1
70004,-90.9090909090909,4,2,1,85,0,1
70104,-90.9090909090909,4,2,1,5,0,1
70204,-90.9090909090909,4,2,1,85,0,1
73104,-90.9090909090909,4,2,1,5,0,1
73204,-90.9090909090909,4,2,1,85,0,1
73304,-90.9090909090909,4,2,1,5,0,1
73404,-90.9090909090909,4,2,1,85,0,1
74704,-90.9090909090909,4,2,1,5,0,1
74804,-90.9090909090909,4,2,1,85,0,1
74904,-90.9090909090909,4,2,1,5,0,1
75004,-90.9090909090909,4,2,1,85,0,1
76304,-90.9090909090909,4,2,1,5,0,1
76404,-90.9090909090909,4,2,1,85,0,1
76504,-90.9090909090909,4,2,1,5,0,1
76604,-90.9090909090909,4,2,1,85,0,1
77304,-90.9090909090909,4,2,1,5,0,1
77404,-90.9090909090909,4,2,1,85,0,1
79704,-90.9090909090909,4,2,1,5,0,1
79804,-90.9090909090909,4,2,1,85,0,1
79904,-90.9090909090909,4,2,1,5,0,1
80004,-90.9090909090909,4,2,1,85,0,1
81304,-90.9090909090909,4,2,1,5,0,1
81404,-90.9090909090909,4,2,1,85,0,1
81504,-90.9090909090909,4,2,1,5,0,1
81604,-90.9090909090909,4,2,1,85,0,1
82904,-90.9090909090909,4,2,1,5,0,1
83004,-90.9090909090909,4,2,1,85,0,1
83104,-90.9090909090909,4,2,1,5,0,1
83204,-90.9090909090909,4,2,1,85,0,1
84504,-90.9090909090909,4,2,1,5,0,1
84604,-90.9090909090909,4,2,1,85,0,1
84704,-90.9090909090909,4,2,1,5,0,1
84804,-90.9090909090909,4,2,1,85,0,1
85904,-90.9090909090909,4,2,1,5,0,1
86004,-90.9090909090909,4,2,1,85,0,1
86104,-90.9090909090909,4,2,1,5,0,1
86204,-90.9090909090909,4,2,1,85,0,1
87504,-90.9090909090909,4,2,1,5,0,1
87604,-90.9090909090909,4,2,1,85,0,1
87704,-90.9090909090909,4,2,1,5,0,1
87804,-90.9090909090909,4,2,1,85,0,1
88104,-90.9090909090909,4,2,1,5,0,1
88204,-90.9090909090909,4,2,1,85,0,1
88304,-90.9090909090909,4,2,1,5,0,1
88404,-90.9090909090909,4,2,1,85,0,1
90504,-90.9090909090909,4,2,1,5,0,1
90604,-90.9090909090909,4,2,1,85,0,1
92004,-90.9090909090909,4,2,1,65,0,0
104804,-90.9090909090909,4,2,1,75,0,0
111204,-125,4,2,1,75,0,0
114204,-62.5,4,2,1,75,0,0
114404,-125,4,2,1,75,0,0
117604,-100,4,2,1,75,0,0
124804,-200,4,2,1,75,0,0
125804,-100,4,2,1,75,0,0
127804,-200,4,2,1,75,0,0
130404,-90.9090909090909,4,2,1,85,0,1
130704,-90.9090909090909,4,2,1,5,0,1
130804,-90.9090909090909,4,2,1,85,0,1
130904,-90.9090909090909,4,2,1,5,0,1
131004,-90.9090909090909,4,2,1,85,0,1
132304,-90.9090909090909,4,2,1,5,0,1
132404,-90.9090909090909,4,2,1,85,0,1
132504,-90.9090909090909,4,2,1,5,0,1
132604,-90.9090909090909,4,2,1,85,0,1
133904,-90.9090909090909,4,2,1,5,0,1
134004,-90.9090909090909,4,2,1,85,0,1
134104,-90.9090909090909,4,2,1,5,0,1
134204,-90.9090909090909,4,2,1,85,0,1
137104,-90.9090909090909,4,2,1,5,0,1
137204,-90.9090909090909,4,2,1,85,0,1
137304,-90.9090909090909,4,2,1,5,0,1
137404,-90.9090909090909,4,2,1,85,0,1
138704,-90.9090909090909,4,2,1,5,0,1
138804,-90.9090909090909,4,2,1,85,0,1
138904,-90.9090909090909,4,2,1,5,0,1
139004,-90.9090909090909,4,2,1,85,0,1
140304,-90.9090909090909,4,2,1,5,0,1
140404,-90.9090909090909,4,2,1,85,0,1
140504,-90.9090909090909,4,2,1,5,0,1
140604,-90.9090909090909,4,2,1,85,0,1
141304,-90.9090909090909,4,2,1,5,0,1
141404,-90.9090909090909,4,2,1,85,0,1
143704,-90.9090909090909,4,2,1,5,0,1
143804,-90.9090909090909,4,2,1,85,0,1
143904,-90.9090909090909,4,2,1,5,0,1
144004,-90.9090909090909,4,2,1,85,0,1
145304,-90.9090909090909,4,2,1,5,0,1
145404,-90.9090909090909,4,2,1,85,0,1
145504,-90.9090909090909,4,2,1,5,0,1
145604,-90.9090909090909,4,2,1,85,0,1
146904,-90.9090909090909,4,2,1,5,0,1
147004,-90.9090909090909,4,2,1,85,0,1
147104,-90.9090909090909,4,2,1,5,0,1
147204,-90.9090909090909,4,2,1,85,0,1
148504,-90.9090909090909,4,2,1,5,0,1
148604,-90.9090909090909,4,2,1,85,0,1
148704,-90.9090909090909,4,2,1,5,0,1
148804,-90.9090909090909,4,2,1,85,0,1
149904,-90.9090909090909,4,2,1,5,0,1
150004,-90.9090909090909,4,2,1,85,0,1
150104,-90.9090909090909,4,2,1,5,0,1
150204,-90.9090909090909,4,2,1,85,0,1
151504,-90.9090909090909,4,2,1,5,0,1
151604,-90.9090909090909,4,2,1,85,0,1
151704,-90.9090909090909,4,2,1,5,0,1
151804,-90.9090909090909,4,2,1,85,0,1
152104,-90.9090909090909,4,2,1,5,0,1
152204,-90.9090909090909,4,2,1,85,0,1
152304,-90.9090909090909,4,2,1,5,0,1
152404,-90.9090909090909,4,2,1,85,0,1
154504,-90.9090909090909,4,2,1,5,0,1
154604,-90.9090909090909,4,2,1,85,0,1
156004,-90.9090909090909,4,2,1,65,0,0
159204,-90.9090909090909,4,2,1,75,0,1
170204,-333.333333333333,4,2,1,75,0,0
172193,500,4,2,1,65,1,0
176193,-500,4,2,1,65,0,0
177068,-500,4,2,1,5,0,0
177193,-250,4,2,1,65,0,0
178068,-250,4,2,1,5,0,0
178193,-166.666666666667,4,2,1,65,0,0
179693,-500,4,2,1,65,0,0
180068,-500,4,2,1,5,0,0
180193,-100,4,2,1,65,0,0
184193,-166.666666666667,4,2,1,65,0,0
185068,-166.666666666667,4,2,1,5,0,0
185193,-125,4,2,1,65,0,0
185818,-125,4,2,1,5,0,0
185943,-100,4,2,1,65,0,0
187443,-125,4,2,1,65,0,0
188193,-100,4,2,1,75,0,0
195693,-333.333333333333,4,2,1,75,0,0
196068,-333.333333333333,4,2,1,5,0,0
196193,-100,4,2,1,75,0,0
200193,-166.666666666667,4,2,1,75,0,0
201068,-166.666666666667,4,2,1,5,0,0
201193,-125,4,2,1,75,0,0
201818,-125,4,2,1,5,0,0
201943,-100,4,2,1,75,0,0
203443,-125,4,2,1,75,0,0
203568,-125,4,2,1,5,0,0
203693,-166.666666666667,4,2,1,75,0,0
203818,-166.666666666667,4,2,1,5,0,0
203943,-250,4,2,1,75,0,0
204068,-250,4,2,1,5,0,0
204204,400,4,2,1,55,1,0
204204,-200,4,2,1,55,0,0
205004,-200,4,2,1,5,0,0
213804,-90.9090909090909,4,2,1,85,0,1
214104,-90.9090909090909,4,2,1,5,0,1
214204,-90.9090909090909,4,2,1,85,0,1
214304,-90.9090909090909,4,2,1,5,0,1
214404,-90.9090909090909,4,2,1,85,0,1
215704,-90.9090909090909,4,2,1,5,0,1
215804,-90.9090909090909,4,2,1,85,0,1
215904,-90.9090909090909,4,2,1,5,0,1
216004,-90.9090909090909,4,2,1,85,0,1
217304,-90.9090909090909,4,2,1,5,0,1
217404,-90.9090909090909,4,2,1,85,0,1
217504,-90.9090909090909,4,2,1,5,0,1
217604,-90.9090909090909,4,2,1,85,0,1
220504,-90.9090909090909,4,2,1,5,0,1
220604,-90.9090909090909,4,2,1,85,0,1
220704,-90.9090909090909,4,2,1,5,0,1
220804,-90.9090909090909,4,2,1,85,0,1
222104,-90.9090909090909,4,2,1,5,0,1
222204,-90.9090909090909,4,2,1,85,0,1
222304,-90.9090909090909,4,2,1,5,0,1
222404,-90.9090909090909,4,2,1,85,0,1
223704,-90.9090909090909,4,2,1,5,0,1
223804,-90.9090909090909,4,2,1,85,0,1
223904,-90.9090909090909,4,2,1,5,0,1
224004,-90.9090909090909,4,2,1,85,0,1
224704,-90.9090909090909,4,2,1,5,0,1
224804,-90.9090909090909,4,2,1,85,0,1
227104,-90.9090909090909,4,2,1,5,0,1
227204,-90.9090909090909,4,2,1,85,0,1
227304,-90.9090909090909,4,2,1,5,0,1
227404,-90.9090909090909,4,2,1,85,0,1
228704,-90.9090909090909,4,2,1,5,0,1
228804,-90.9090909090909,4,2,1,85,0,1
228904,-90.9090909090909,4,2,1,5,0,1
229004,-90.9090909090909,4,2,1,85,0,1
230304,-90.9090909090909,4,2,1,5,0,1
230404,-90.9090909090909,4,2,1,85,0,1
230604,-90.9090909090909,4,2,1,85,0,1
231904,-90.9090909090909,4,2,1,5,0,1
232004,-90.9090909090909,4,2,1,85,0,1
232104,-90.9090909090909,4,2,1,5,0,1
232204,-90.9090909090909,4,2,1,85,0,1
233304,-90.9090909090909,4,2,1,5,0,1
233404,-90.9090909090909,4,2,1,85,0,1
233504,-90.9090909090909,4,2,1,5,0,1
233604,-90.9090909090909,4,2,1,85,0,1
234904,-90.9090909090909,4,2,1,5,0,1
235004,-90.9090909090909,4,2,1,85,0,1
235104,-90.9090909090909,4,2,1,5,0,1
235204,-90.9090909090909,4,2,1,85,0,1
235504,-90.9090909090909,4,2,1,5,0,1
235604,-90.9090909090909,4,2,1,85,0,1
235704,-90.9090909090909,4,2,1,5,0,1
235804,-90.9090909090909,4,2,1,85,0,1
236304,-90.9090909090909,4,2,1,5,0,1
236404,-90.9090909090909,4,2,1,85,0,1
241104,-90.9090909090909,4,2,1,5,0,1
241204,-90.9090909090909,4,2,1,85,0,1
242604,-100,4,2,1,75,0,0
244204,-434.782608695652,4,2,1,75,0,0
252204,-100,4,2,1,5,0,0

[Colours]
Combo1 : 128,0,0
Combo2 : 98,98,98
Combo3 : 164,164,164
Combo4 : 228,228,228

[HitObjects]
463,0,13098,5,6,1:2:0:0:
508,45,13198,1,8,0:0:0:0:
512,110,13298,1,0,1:0:0:0:
475,162,13398,1,8,0:0:0:0:
414,178,13498,1,0,1:0:0:0:
352,194,13598,1,8,0:0:0:0:
316,246,13698,1,0,1:0:0:0:
320,311,13798,1,8,0:0:0:0:
365,357,13898,1,0,1:0:0:0:
430,364,13998,1,8,0:0:0:0:
482,327,14098,5,2,1:2:0:0:
480,303,14198,1,8,0:0:0:0:
478,271,14298,1,2,1:2:0:0:
475,231,14398,1,8,0:0:0:0:
473,183,14498,5,2,1:2:0:0:
428,138,14598,1,8,0:0:0:0:
363,134,14698,1,4,1:2:0:0:
311,171,14798,1,8,0:0:0:0:
295,232,14898,1,0,1:0:0:0:
279,294,14998,1,8,0:0:0:0:
227,330,15098,1,0,1:0:0:0:
162,326,15198,1,8,0:0:0:0:
116,281,15298,1,0,1:0:0:0:
109,216,15398,1,8,0:0:0:0:
148,161,15498,5,8,0:0:0:0:
178,180,15598,1,8,0:0:0:0:
213,184,15698,1,2,1:2:0:0:
247,173,15798,1,0,1:2:0:0:
309,131,15898,5,2,1:2:0:0:
339,122,15998,1,0,1:2:0:0:
370,125,16098,1,2,1:2:0:0:
397,142,16198,1,0,1:2:0:0:
444,200,16298,5,4,1:2:0:0:
382,219,16398,1,8,0:0:0:0:
323,193,16498,1,2,1:2:0:0:
294,136,16598,1,8,0:0:0:0:
309,74,16698,1,0,1:0:0:0:
359,35,16798,1,8,0:0:0:0:
423,39,16898,1,2,1:2:0:0:
471,83,16998,1,8,0:0:0:0:
481,147,17098,6,0,L|479:189,3,40,0|8|2|8,1:0|0:0|1:2|0:0,0:0:0:0:
384,288,17498,2,0,L|382:246,3,40,0|8|2|8,1:2|0:0|1:2|0:0,0:0:0:0:
352,128,17898,5,4,1:2:0:0:
291,106,17998,1,8,0:0:0:0:
231,127,18098,1,0,1:0:0:0:
198,182,18198,1,8,0:0:0:0:
165,237,18298,1,0,1:0:0:0:
105,259,18398,1,8,0:0:0:0:
45,236,18498,1,0,1:0:0:0:
27,175,18598,1,8,0:0:0:0:
53,117,18698,6,0,L|86:122,5,26.6666666666667,8|0|0|2|0|0,0:0|1:2|1:2|1:2|1:2|1:2,0:0:0:0:
186,34,19098,6,0,L|153:39,5,26.6666666666667,10|0|0|2|0|0,1:2|1:2|1:2|1:2|1:2|1:2,0:0:0:0:
307,131,19498,5,6,1:2:0:0:
357,168,19598,1,8,0:0:0:0:
371,231,19698,1,0,1:0:0:0:
341,288,19798,1,8,0:0:0:0:
282,312,19898,1,0,1:0:0:0:
221,295,19998,1,8,0:0:0:0:
187,240,20098,1,0,1:0:0:0:
152,186,20198,1,8,0:0:0:0:
91,168,20298,1,0,1:0:0:0:
32,193,20398,1,8,0:0:0:0:
4,249,20498,1,2,1:2:0:0:
16,312,20598,1,8,0:0:0:0:
67,350,20698,1,2,1:2:0:0:
130,349,20798,1,8,0:0:0:0:
179,308,20898,5,2,1:2:0:0:
175,244,20998,1,8,0:0:0:0:
172,180,21098,1,4,1:2:0:0:
169,116,21198,1,8,0:0:0:0:
165,52,21298,1,0,1:0:0:0:
117,8,21398,1,8,0:0:0:0:
54,20,21498,1,0,1:0:0:0:
23,76,21598,1,8,0:0:0:0:
50,133,21698,1,0,1:0:0:0:
112,148,21798,1,8,0:0:0:0:
169,116,21898,5,8,0:0:0:0:
200,99,21998,1,8,0:0:0:0:
236,95,22098,1,2,1:2:0:0:
270,105,22198,1,0,1:2:0:0:
331,139,22298,5,2,1:2:0:0:
361,147,22398,1,0,1:2:0:0:
393,144,22498,1,2,1:2:0:0:
421,130,22598,1,0,1:2:0:0:
461,70,22698,5,4,1:2:0:0:
414,23,22798,1,8,0:0:0:0:
351,17,22898,1,2,1:2:0:0:
298,53,22998,1,8,0:0:0:0:
281,116,23098,1,0,1:0:0:0:
309,175,23198,1,8,0:0:0:0:
366,201,23298,1,2,1:2:0:0:
424,227,23398,1,8,0:0:0:0:
452,286,23498,1,0,1:0:0:0:
434,347,23598,1,8,0:0:0:0:
382,383,23698,1,2,1:2:0:0:
319,376,23798,1,8,0:0:0:0:
271,332,23898,1,8,0:0:0:0:
267,268,23998,1,8,0:0:0:0:
304,216,24098,5,6,1:2:0:0:
300,267,24198,1,8,0:0:0:0:
261,302,24298,1,0,1:2:0:0:
213,307,24398,1,0,1:2:0:0:
151,282,24498,5,6,1:2:0:0:
125,251,24598,1,0,1:2:0:0:
122,213,24698,1,0,1:2:0:0:
131,183,24798,1,0,1:2:0:0:
177,132,24898,5,14,0:0:0:0:
195,111,24998,1,0,1:2:0:0:
204,81,25098,1,0,1:2:0:0:
201,43,25198,1,0,1:2:0:0:
142,1,25298,5,10,0:0:0:0:
93,4,25398,1,8,0:0:0:0:
53,43,25498,1,8,0:0:0:0:
51,106,25598,1,8,0:0:0:0:
109,145,25698,5,10,0:0:0:0:
215,351,40134,6,0,B|185:366|151:348|151:348|110:324|77:346|77:346|95:344|112:352,1,179.999994506836,2|2,0:0|0:0,0:0:0:0:
189,284,43650,6,0,B|195:102|182:284|189:102,1,179.999994506836,2|2,0:0|0:0,0:0:0:0:
252,34,47066,6,0,P|274:27|301:67,1,77.4279997069985,2|0,0:0|0:0,0:0:0:0:
296,78,48529,1,8,1:3:0:0:
307,155,48732,6,0,B|343:145|343:145|378:155,1,71.9999978027344,8|0,1:3|0:0,0:0:0:0:
449,192,50224,1,2,0:0:0:0:
449,192,50437,6,0,B|479:165|463:119|450:136|437:97|462:70,1,131.031999504151,2|2,0:0|0:0,0:0:0:0:
28,71,53604,6,0,B|60:54|69:25|69:25|69:110|69:110|71:117|71:117|71:216|71:216|80:188|112:173,1,311.999985717774,6|0,1:2|0:0,0:0:0:0:
293,87,55204,6,0,B|264:53|264:53|192:94|238:171|238:171|272:217|241:267,1,285.99998690796,4|0,1:2|0:0,0:0:0:0:
190,323,56404,6,0,L|148:319,1,25.9999988098145,8|0,3:0|0:0,0:0:0:0:
11,203,56604,2,0,L|53:199,1,25.9999988098145,0|0,1:0|0:0,0:0:0:0:
293,87,56804,6,0,B|256:69|217:83|217:83|210:78|210:78|169:94|120:73|120:73|142:71|166:57,1,207.999990478516,6|0,1:2|0:0,0:0:0:0:
40,156,57904,5,0,1:0:0:0:
41,169,57954,5,0,1:0:0:0:
42,182,58004,5,8,0:0:0:0:
147,66,58204,1,2,1:2:0:0:
246,219,58404,6,0,P|209:201|181:285,1,155.999992858887,4|2,1:2|1:2,0:0:0:0:
254,294,59104,1,0,1:0:0:0:
254,294,59204,1,8,0:0:0:0:
113,172,59404,5,10,3:0:0:0:
78,163,59504,1,8,3:0:0:0:
45,172,59604,1,8,3:0:0:0:
212,362,59804,5,2,1:2:0:0:
255,373,59904,1,0,1:0:0:0:
294,359,60004,2,0,B|339:332|390:362|390:362|395:357|395:357|446:380|501:350,1,207.999990478516,4|2,1:2|0:0,0:0:0:0:
491,355,61604,5,2,0:0:0:0:
491,355,62404,5,2,0:0:0:0:
491,355,63204,6,0,B|446:355|418:321|418:321|389:355|338:355,1,170.000003242493,6|0,1:2|0:0,0:0:0:0:
332,224,63804,6,0,P|370:245|324:280,1,120,6|0,1:2|0:0,0:0:0:0:
253,334,64204,6,0,B|218:331|218:331|211:333|211:333|170:330,1,77.9999964294435,6|0,1:2|0:0,0:0:0:0:
116,284,64604,6,0,B|116:275|112:268|112:268|114:258|121:256|121:256|119:246|110:243|110:243|109:232|119:227|119:227|125:215|115:204,1,96,6|2,1:2|0:0,0:0:0:0:
205,114,66404,6,0,B|165:133|130:107|157:98|131:66|73:80,1,132.00000402832,14|0,0:0|0:0,0:0:0:0:
25,114,66804,2,0,B|20:137|20:137|27:162,1,44.0000013427735,0|0,1:2|0:0,0:0:0:0:
113,305,67004,2,0,B|308:291|113:310|311:297,1,176.000005371094,10|2,0:0|1:2,0:0:0:0:
462,215,67604,1,8,0:0:0:0:
390,54,67804,1,2,1:2:0:0:
146,147,68004,6,0,B|160:144|173:125|173:125|176:233,1,132.00000402832,8|0,0:0|0:0,0:0:0:0:
222,284,68404,2,0,B|227:309|227:309|221:335,1,44.0000013427735,2|0,1:2|0:0,0:0:0:0:
5,384,68604,2,0,L|-1:204,1,176.000005371094,10|0,0:0|1:2,0:0:0:0:
137,346,69204,1,10,0:0:0:0:
269,234,69404,1,0,1:2:0:0:
77,74,69604,6,0,P|127:95|206:56,1,132.00000402832,10|0,0:0|0:0,0:0:0:0:
233,10,70004,2,0,P|210:1|165:6,1,44.0000013427735,0|0,1:2|0:0,0:0:0:0:
286,181,70204,2,0,B|382:207|358:140|470:176,1,176.000005371094,10|0,0:0|1:2,0:0:0:0:
229,282,70804,1,10,0:0:0:0:
257,84,71004,1,2,1:2:0:0:
509,258,71204,6,0,B|376:260|376:260|402:258|427:239,1,176.000005371094,8|0,0:0|1:2,0:0:0:0:
227,13,71804,1,8,0:0:0:0:
233,83,71904,1,8,0:0:0:0:
239,152,72004,1,0,1:2:0:0:
459,71,72204,1,0,1:2:0:0:
181,266,72404,5,10,0:0:0:0:
185,277,72454,5,8,0:0:0:0:
120,97,72604,1,2,1:2:0:0:
487,245,72804,6,0,P|443:217|355:242,1,132.00000402832,14|0,0:0|0:0,0:0:0:0:
307,263,73204,2,0,L|259:258,1,44.0000013427735,0|0,1:2|0:0,0:0:0:0:
90,100,73404,2,0,B|132:141|132:141|91:268,1,176.000005371094,10|2,0:0|1:2,0:0:0:0:
172,7,74004,1,8,0:0:0:0:
0,89,74204,1,2,1:2:0:0:
182,255,74404,6,0,B|270:254|215:203|332:205,1,132.00000402832,8|0,0:0|0:0,0:0:0:0:
370,228,74804,2,0,B|372:253|372:253|367:278,1,44.0000013427735,0|0,1:2|0:0,0:0:0:0:
232,84,75004,2,0,B|274:92|274:92|307:79|307:79|312:84|320:83|320:83|354:66|420:89,1,176.000005371094,10|0,0:0|1:2,0:0:0:0:
299,277,75604,1,10,0:0:0:0:
135,113,75804,1,0,1:2:0:0:
73,87,75904,1,0,1:2:0:0:
12,115,76004,6,0,B|14:178|14:178|18:188|18:188|16:251,1,132.00000402832,10|0,0:0|0:0,0:0:0:0:
41,313,76404,2,0,P|65:308|91:312,1,44.0000013427735,0|0,1:2|0:0,0:0:0:0:
304,375,76604,2,0,B|265:386|265:386|223:330|265:254,1,176.000005371094,10|0,0:0|1:2,0:0:0:0:
474,174,77204,2,0,L|419:168,1,44.0000013427735,10|0,0:0|0:0,0:0:0:0:
224,73,77404,1,2,1:2:0:0:
206,77,77504,1,0,1:2:0:0:
191,79,77604,5,8,0:0:0:0:
234,36,77704,1,8,0:0:0:0:
296,38,77804,1,8,0:0:0:0:
338,82,77904,1,8,0:0:0:0:
336,143,78004,1,0,1:2:0:0:
292,186,78104,1,0,1:2:0:0:
231,184,78204,5,10,0:0:0:0:
178,182,78304,1,8,0:0:0:0:
135,212,78404,1,8,3:0:0:0:
120,262,78504,1,8,3:0:0:0:
141,310,78604,1,2,1:2:0:0:
192,322,78704,1,0,1:2:0:0:
238,297,78804,6,8,L|237:263,1,22.0000006713867
134,123,79004,1,2,1:2:0:0:
0,325,79204,5,4,1:2:0:0:
85,375,79404,2,0,L|220:369,1,132.00000402832,0|0,1:2|0:0,0:0:0:0:
298,340,79804,2,0,B|300:365|300:365|292:386,1,44.0000013427735,2|0,1:2|0:0,0:0:0:0:
148,246,80004,1,8,0:0:0:0:
306,162,80204,1,2,1:2:0:0:
433,358,80404,2,0,L|436:257,1,88.000002685547,0|2,1:2|0:0,0:0:0:0:
282,44,80804,5,0,1:2:0:0:
203,111,81004,2,0,B|158:126|158:126|71:98,1,132.00000402832,0|0,1:2|0:0,0:0:0:0:
11,63,81404,2,0,L|16:11,1,44.0000013427735,2|0,1:2|0:0,0:0:0:0:
148,242,81604,2,0,B|183:231|183:231|213:243|213:243|265:217|333:244,1,176.000005371094,10|2,0:0|0:0,0:0:0:0:
490,377,82204,1,10,0:0:0:0:
498,316,82304,1,8,0:0:0:0:
508,254,82404,5,0,1:2:0:0:
363,141,82604,2,0,B|317:153|317:153|215:134,1,132.00000402832,0|0,1:2|0:0,0:0:0:0:
164,99,83004,2,0,B|155:76|155:76|159:42,1,44.0000013427735,2|0,1:2|0:0,0:0:0:0:
282,212,83204,1,8,0:0:0:0:
106,308,83404,1,0,1:2:0:0:
58,133,83604,1,2,1:2:0:0:
127,173,83804,1,2,0:0:0:0:
35,376,84004,5,0,1:2:0:0:
1,301,84204,2,0,B|-17:263|0:228|0:228|32:210|25:162,1,132.00000402832,8|0,0:0|0:0,0:0:0:0:
0,115,84604,2,0,P|-3:98|4:71,1,44.0000013427735,0|0,1:2|0:0,0:0:0:0:
161,247,84804,1,8,0:0:0:0:
286,61,85004,1,0,1:2:0:0:
66,30,85204,5,8,0:0:0:0:
54,30,85254,5,8,0:0:0:0:
104,156,85404,1,2,1:2:0:0:
301,212,85604,6,0,L|440:205,1,132.00000402832,6|0,1:2|0:0,0:0:0:0:
483,144,86004,2,0,P|453:131|427:132,1,44.0000013427735,2|0,1:2|0:0,0:0:0:0:
216,262,86204,2,0,B|201:256|195:244|195:244|182:255|166:251|166:251|134:292|177:370,1,176.000005371094,10|2,0:0|1:2,0:0:0:0:
18,222,86804,1,8,0:0:0:0:
175,112,87004,1,10,0:0:0:0:
236,113,87104,1,8,0:0:0:0:
298,115,87204,6,0,B|335:115|358:91|358:91|379:115|424:115,1,132.00000402832,0|0,1:2|0:0,0:0:0:0:
482,81,87604,2,0,L|476:32,1,44.0000013427735,0|0,1:2|0:0,0:0:0:0:
236,60,87804,2,0,B|223:49|202:48|202:48|183:62|156:65|156:65|131:53|96:64,1,132.00000402832,10|0,0:0|0:0,0:0:0:0:
39,90,88204,2,0,B|29:67|29:67|30:44,1,44.0000013427735,0|0,1:2|0:0,0:0:0:0:
218,140,88404,1,8,0:0:0:0:
232,166,88504,1,8,3:0:0:0:
231,197,88604,1,8,3:0:0:0:
216,223,88704,1,0,1:2:0:0:
193,231,88804,5,6,1:2:0:0:
249,207,88904,1,0,1:2:0:0:
306,231,89004,1,10,0:0:0:0:
330,287,89104,1,0,1:2:0:0:
306,344,89204,1,0,1:2:0:0:
249,368,89304,1,0,1:2:0:0:
193,344,89404,5,10,0:0:0:0:
226,303,89504,1,0,1:2:0:0:
278,300,89604,1,0,1:2:0:0:
320,331,89704,1,0,1:2:0:0:
348,375,89804,5,10,0:0:0:0:
365,334,89904,1,0,1:2:0:0:
404,314,90004,1,0,1:2:0:0:
448,318,90104,1,0,1:2:0:0:
485,339,90204,2,0,P|490:357|487:387,1,44.0000013427735,10|0,0:0|1:2,0:0:0:0:
278,300,90404,6,0,P|272:276|276:251,1,44.0000013427735,4|0,1:2|0:0,0:0:0:0:
407,77,90604,1,8,0:0:0:0:
477,77,90704,1,8,0:0:0:0:
512,137,90804,1,8,3:0:0:0:
477,198,90904,1,8,3:0:0:0:
407,198,91004,1,2,1:2:0:0:
371,137,91104,1,0,1:2:0:0:
441,139,91204,5,10,0:0:0:0:
50,263,92004,6,0,L|47:216,1,44.0000013427735,8|0,0:0|0:0,0:0:0:0:
14,138,92204,5,2,0:0:0:0:
14,138,92304,1,2,0:0:0:0:
14,138,92404,2,0,L|17:91,1,44.0000013427735,10|0,0:0|0:0,0:0:0:0:
85,30,92604,5,2,0:0:0:0:
85,30,92704,1,2,0:0:0:0:
85,30,92804,2,0,P|107:23|134:30,1,44.0000013427735,10|0,0:0|0:0,0:0:0:0:
180,135,93004,5,2,0:0:0:0:
180,135,93104,2,0,P|162:119|155:92,1,44.0000013427735,2|8,0:0|0:0,0:0:0:0:
220,0,93304,5,2,0:0:0:0:
220,0,93404,2,0,P|215:22|195:42,1,44.0000013427735,2|0,0:0|0:0,0:0:0:0:
91,149,93604,5,8,0:0:0:0:
221,258,93804,5,2,0:0:0:0:
221,258,93904,1,2,0:0:0:0:
221,258,94004,2,0,L|269:255,1,44.0000013427735,10|0,0:0|0:0,0:0:0:0:
338,208,94204,2,0,L|386:211,1,44.0000013427735,2|0,0:0|0:0,0:0:0:0:
465,246,94404,6,0,P|472:268|465:295,1,44.0000013427735,8|0,0:0|0:0,0:0:0:0:
360,341,94604,5,2,0:0:0:0:
360,341,94704,2,0,P|375:323|402:316,1,44.0000013427735,2|8,0:0|0:0,0:0:0:0:
492,381,94904,5,2,0:0:0:0:
495,384,95004,2,0,P|472:379|452:359,1,44.0000013427735,2|0,0:0|0:0,0:0:0:0:
309,280,95204,5,12,0:0:0:0:
302,261,95304,1,0,1:2:0:0:
296,246,95404,1,2,0:0:0:0:
290,232,95504,1,2,0:0:0:0:
286,219,95604,2,0,L|292:158,1,44.0000013427735,10|0,0:0|0:0,0:0:0:0:
385,38,95804,5,2,1:2:0:0:
371,55,95904,1,2,1:2:0:0:
353,68,96004,1,10,0:0:0:0:
333,76,96104,1,2,0:0:0:0:
311,78,96204,1,2,1:2:0:0:
290,74,96304,1,0,1:2:0:0:
268,62,96404,2,0,P|237:52|215:55,1,44.0000013427735,10|0,0:0|0:0,0:0:0:0:
111,167,96604,5,2,1:2:0:0:
105,189,96704,1,2,1:2:0:0:
112,209,96804,6,0,L|164:207,1,44.0000013427735,10|2,0:0|1:2,0:0:0:0:
243,166,97004,2,0,L|295:168,1,44.0000013427735,2|0,0:0|0:0,0:0:0:0:
366,211,97204,6,0,B|376:238|376:238|373:264,1,44.0000013427735,10|0,0:0|0:0,0:0:0:0:
320,335,97404,2,0,B|310:362|310:362|313:388,1,44.0000013427735,2|0,1:2|1:2,0:0:0:0:
503,306,97604,5,10,0:0:0:0:
502,276,97704,1,10,3:0:0:0:
501,245,97804,1,10,3:0:0:0:
500,214,97904,1,0,1:2:0:0:
499,147,98004,1,10,0:0:0:0:
499,147,98404,5,4,1:2:0:0:
456,114,98504,1,0,1:2:0:0:
404,121,98604,1,8,0:0:0:0:
372,163,98704,1,0,1:2:0:0:
378,216,98804,1,0,1:2:0:0:
421,248,98904,1,0,1:2:0:0:
464,280,99004,1,8,0:0:0:0:
470,333,99104,1,0,1:2:0:0:
438,375,99204,5,0,1:2:0:0:
401,350,99304,1,0,1:2:0:0:
359,336,99404,1,8,0:0:0:0:
316,348,99504,1,0,1:2:0:0:
283,377,99604,5,0,1:2:0:0:
251,345,99704,1,0,1:2:0:0:
248,301,99804,1,10,0:0:0:0:
263,260,99904,1,0,1:2:0:0:
304,246,100004,5,2,1:2:0:0:
262,278,100104,1,0,1:2:0:0:
209,272,100204,1,10,0:0:0:0:
177,229,100304,1,0,1:2:0:0:
145,186,100404,1,0,1:2:0:0:
92,180,100504,1,0,1:2:0:0:
50,212,100604,1,10,0:0:0:0:
43,264,100704,1,2,1:2:0:0:
76,307,100804,5,2,1:2:0:0:
76,263,100904,1,0,1:2:0:0:
76,219,101004,1,8,0:0:0:0:
76,175,101104,1,0,1:2:0:0:
76,131,101204,5,2,1:2:0:0:
124,93,101304,1,0,1:2:0:0:
182,112,101404,1,8,0:0:0:0:
203,169,101504,1,8,0:0:0:0:
165,218,101604,5,0,1:2:0:0:
128,256,101704,1,0,1:2:0:0:
104,303,101804,1,8,0:0:0:0:
110,355,101904,1,0,1:2:0:0:
154,382,102004,1,2,1:2:0:0:
206,373,102104,1,0,1:2:0:0:
238,331,102204,1,10,0:0:0:0:
230,278,102304,1,0,1:2:0:0:
182,255,102404,5,2,1:2:0:0:
217,294,102504,1,2,1:2:0:0:
269,291,102604,1,8,0:0:0:0:
306,253,102704,1,0,1:2:0:0:
308,200,102804,1,2,1:2:0:0:
276,157,102904,1,0,1:2:0:0:
229,132,103004,1,8,0:0:0:0:
191,94,103104,1,0,1:2:0:0:
192,42,103204,5,2,1:2:0:0:
230,4,103304,1,0,1:2:0:0:
282,7,103404,1,10,0:0:0:0:
320,43,103504,1,0,1:2:0:0:
346,88,103604,1,0,1:2:0:0:
386,121,103704,1,2,1:2:0:0:
438,124,103804,1,8,0:0:0:0:
476,87,103904,1,0,1:2:0:0:
475,34,104004,5,2,1:2:0:0:
412,72,104104,1,8,0:0:0:0:
390,142,104204,1,8,0:0:0:0:
417,210,104304,1,8,0:0:0:0:
482,243,104404,1,2,1:2:0:0:
482,243,104804,5,14,0:0:0:0:
439,301,104904,1,0,1:2:0:0:
368,315,105004,1,10,0:0:0:0:
307,278,105104,1,0,1:2:0:0:
283,212,105204,1,10,0:0:0:0:
258,146,105304,1,0,1:2:0:0:
197,109,105404,1,10,0:0:0:0:
128,122,105504,1,0,1:2:0:0:
82,176,105604,5,10,0:0:0:0:
148,202,105704,1,0,1:2:0:0:
213,175,105804,1,10,0:0:0:0:
240,110,105904,1,0,1:2:0:0:
213,45,106004,1,10,0:0:0:0:
148,18,106104,1,0,1:2:0:0:
82,45,106204,1,10,0:0:0:0:
56,110,106304,1,0,1:2:0:0:
73,178,106404,6,0,L|74:244,1,44.0000013427735,10|0,0:0|1:2,0:0:0:0:
218,333,106604,1,0,1:2:0:0:
218,333,106704,2,0,L|160:300,1,44.0000013427735,10|0,0:0|1:2,0:0:0:0:
15,372,106904,1,0,1:2:0:0:
15,372,107004,2,0,L|71:338,1,44.0000013427735,10|0,0:0|1:2,0:0:0:0:
216,226,107204,5,0,1:2:0:0:
216,226,107304,2,0,B|273:222|256:258|315:252,1,88.000002685547,10|0,0:0|1:2,0:0:0:0:
373,220,107604,2,0,B|379:197|379:197|373:171,1,44.0000013427735,10|0,0:0|1:2,0:0:0:0:
230,102,107804,2,0,B|246:118|246:118|272:126,1,44.0000013427735,10|0,0:0|1:2,0:0:0:0:
403,37,108004,6,0,B|380:43|380:43|360:61,1,44.0000013427735,14|0,0:0|1:2,0:0:0:0:
191,210,108204,1,10,0:0:0:0:
139,257,108304,1,0,1:2:0:0:
68,254,108404,1,10,0:0:0:0:
20,201,108504,1,0,1:2:0:0:
23,131,108604,1,10,0:0:0:0:
75,83,108704,1,0,1:2:0:0:
145,90,108804,5,10,0:0:0:0:
200,133,108904,1,0,1:2:0:0:
255,176,109004,1,10,0:0:0:0:
325,183,109104,1,0,1:2:0:0:
377,135,109204,1,10,0:0:0:0:
384,65,109304,1,0,1:2:0:0:
333,16,109404,1,10,0:0:0:0:
262,15,109504,1,0,1:2:0:0:
212,64,109604,6,0,P|188:70|165:66,1,44.0000013427735,10|0,0:0|1:2,0:0:0:0:
8,5,109804,1,0,1:2:0:0:
8,5,109904,2,0,P|25:22|33:44,1,44.0000013427735,10|0,0:0|1:2,0:0:0:0:
52,204,110104,1,0,1:2:0:0:
55,207,110204,2,0,P|61:183|76:165,1,44.0000013427735,10|0,0:0|1:2,0:0:0:0:
253,270,110404,1,0,1:2:0:0:
282,325,110504,1,10,0:0:0:0:
245,368,110604,5,0,1:2:0:0:
218,371,110670,5,0,1:2:0:0:
189,373,110737,5,0,1:2:0:0:
164,372,110804,5,10,0:0:0:0:
260,198,111004,1,8,0:0:0:0:
446,384,111204,6,0,L|452:308,1,64,6|0,1:2|1:2,0:0:0:0:
334,187,111604,2,0,L|340:263,1,64,4|0,1:2|1:2,0:0:0:0:
500,120,112004,2,0,B|466:126|466:126|428:118,1,64,12|0,0:0|1:2,0:0:0:0:
277,19,112404,2,0,B|311:13|311:13|349:21,1,64,4|0,1:2|1:2,0:0:0:0:
207,161,112804,6,0,B|76:158|207:165|76:161,1,128,4|4,1:2|0:0,0:0:0:0:
0,76,113404,5,0,1:2:0:0:
23,71,113470,5,0,1:2:0:0:
42,81,113537,5,0,1:2:0:0:
65,76,113604,6,0,L|108:77,1,32,10|0,0:0|0:0,0:0:0:0:
191,255,113804,2,0,L|170:217,1,32,0|0,1:2|0:0,0:0:0:0:
283,56,114004,2,0,L|260:92,1,32,0|0,1:2|0:0,0:0:0:0:
30,286,114204,6,0,B|54:297|76:285|76:285|80:287|80:287|100:273|129:286,1,96,8|0,0:0|0:0,0:0:0:0:
121,283,114404,6,0,B|126:314|126:314|119:351,1,64,6|0,1:2|1:2,0:0:0:0:
11,211,114804,2,0,B|6:180|6:180|13:143,1,64,4|0,1:2|1:2,0:0:0:0:
141,59,115204,2,0,L|57:56,1,64,12|0,0:0|1:2,0:0:0:0:
192,157,115604,2,0,L|276:154,1,64,4|0,1:2|1:2,0:0:0:0:
417,69,116004,6,0,B|409:66|399:50|399:50|407:162,1,128,4|4,1:2|0:0,0:0:0:0:
501,327,116604,5,0,1:2:0:0:
478,332,116670,5,0,1:2:0:0:
459,322,116737,5,0,1:2:0:0:
436,327,116804,6,0,P|418:331|394:326,1,32,8|0,0:0|0:0,0:0:0:0:
317,194,117004,2,0,P|329:207|337:230,1,32,8|0,1:3|0:0,0:0:0:0:
261,363,117204,2,0,P|266:345|282:327,1,32,8|0,1:3|0:0,0:0:0:0:
430,236,117404,1,10,1:3:0:0:
334,384,117604,5,14,0:0:0:0:
217,225,117804,1,2,1:2:0:0:
417,222,118004,1,0,1:2:0:0:
238,343,118204,1,2,1:2:0:0:
235,340,118304,1,0,1:2:0:0:
238,343,118404,1,8,0:0:0:0:
320,151,118604,1,2,1:2:0:0:
121,89,118804,1,0,1:2:0:0:
122,126,118904,1,0,1:2:0:0:
124,164,119004,1,2,1:2:0:0:
127,203,119104,1,0,1:2:0:0:
129,241,119204,6,0,L|211:234,1,80,8|0,0:0|1:2,0:0:0:0:
308,160,119604,1,2,1:2:0:0:
369,315,119804,5,2,1:2:0:0:
367,336,119870,5,0,1:2:0:0:
365,357,119937,5,0,1:2:0:0:
364,378,120004,5,8,0:0:0:0:
208,234,120204,1,2,1:2:0:0:
415,214,120404,1,8,0:0:0:0:
263,356,120604,1,0,1:2:0:0:
296,150,120804,6,0,B|336:138|336:138|381:149,1,80,14|2,0:0|1:2,0:0:0:0:
263,323,121204,1,0,1:2:0:0:
156,172,121404,1,2,1:2:0:0:
73,362,121604,2,0,L|160:359,1,80,8|2,0:0|1:2,0:0:0:0:
296,208,122004,2,0,P|299:185|295:160,1,40,0|0,1:2|0:0,0:0:0:0:
204,55,122204,1,2,1:2:0:0:
164,55,122304,1,0,1:2:0:0:
124,57,122404,6,0,B|141:87|141:87|126:179,1,120,8|0,0:0|0:0,0:0:0:0:
109,239,122804,1,0,1:2:0:0:
232,342,123004,1,2,1:2:0:0:
292,361,123104,1,0,1:2:0:0:
345,325,123204,1,8,0:0:0:0:
351,262,123304,1,8,0:0:0:0:
305,217,123404,1,10,3:0:0:0:
242,226,123504,1,8,3:0:0:0:
209,281,123604,5,8,3:0:0:0:
209,300,123704,1,8,3:0:0:0:
210,320,123804,1,10,3:0:0:0:
210,340,123904,1,8,3:0:0:0:
211,360,124004,5,4,1:2:0:0:
77,212,124204,1,2,1:2:0:0:
275,239,124404,1,2,1:2:0:0:
97,331,124604,1,2,1:2:0:0:
173,160,124804,6,0,B|211:152|211:152|235:161|235:161|266:145|301:158,1,120,10|2,0:0|0:0,0:0:0:0:
288,154,125804,5,2,1:2:0:0:
363,339,126004,1,0,1:2:0:0:
446,157,126204,1,2,1:2:0:0:
224,205,126404,5,8,0:0:0:0:
313,230,126604,1,8,0:0:0:0:
472,76,126804,5,2,1:2:0:0:
383,101,127004,1,2,1:2:0:0:
512,303,127204,5,14,0:0:0:0:
439,155,127404,1,10,3:0:0:0:
336,260,127604,1,10,3:0:0:0:
263,112,127804,6,0,P|252:79|261:46,1,66.6666666666667,10|0,0:0|0:0,0:0:0:0:
285,34,128204,6,0,L|300:35,3,13.3333333333333,2|0|0|0,1:2|1:2|1:2|1:2,1:0:0:0:
178,143,128604,5,14,0:0:0:0:
162,142,128654,5,8,0:0:0:0:
274,203,130004,5,8,0:0:0:0:
270,191,130054,5,8,0:0:0:0:
429,99,130204,1,0,1:0:0:0:
485,309,130404,6,0,B|444:292|444:292|348:316,1,132.00000402832,14|0,0:0|0:0,0:0:0:0:
296,355,130804,2,0,L|247:350,1,44.0000013427735,0|0,1:2|0:0,0:0:0:0:
63,197,131004,2,0,P|100:228|34:306,1,176.000005371094,10|2,0:0|1:2,0:0:0:0:
8,70,131604,1,8,0:0:0:0:
140,153,131804,1,2,1:2:0:0:
309,0,132004,6,0,B|318:-5|299:-24|279:-14|278:13|278:13|306:38|295:79,1,132.00000402832,8|0,0:0|0:0,0:0:0:0:
243,129,132404,2,0,B|223:128|223:128|199:114,1,44.0000013427735,2|0,1:2|0:0,0:0:0:0:
415,58,132604,2,0,B|433:103|433:103|407:238,1,176.000005371094,10|0,0:0|1:2,0:0:0:0:
263,376,133204,1,10,0:0:0:0:
428,311,133404,1,0,1:2:0:0:
201,197,133604,6,0,B|138:196|138:196|128:198|128:198|62:198,1,132.00000402832,10|0,0:0|0:0,0:0:0:0:
13,242,134004,2,0,B|7:262|7:262|11:288,1,44.0000013427735,0|0,1:2|0:0,0:0:0:0:
281,384,134204,2,0,B|257:339|283:301|283:301|314:259|294:214,1,176.000005371094,10|0,0:0|1:2,0:0:0:0:
100,126,134804,1,10,0:0:0:0:
205,241,135004,1,2,1:2:0:0:
378,22,135204,6,0,B|199:13|380:29|197:18,1,176.000005371094,8|0,0:0|1:2,0:0:0:0:
455,222,135804,1,8,0:0:0:0:
485,165,135904,1,8,0:0:0:0:
465,104,136004,1,0,1:2:0:0:
300,273,136204,1,0,1:2:0:0:
194,58,136404,5,10,0:0:0:0:
186,45,136454,5,8,0:0:0:0:
348,60,136604,1,2,1:2:0:0:
170,213,136804,6,0,B|146:210|135:199|135:199|123:212|103:218|103:218|74:202|38:212,1,132.00000402832,14|0,0:0|0:0,0:0:0:0:
0,260,137204,2,0,P|-3:285|3:303,1,44.0000013427735,0|0,1:2|0:0,0:0:0:0:
191,384,137404,2,0,B|226:365|231:339|231:339|288:318|328:376,1,176.000005371094,10|2,0:0|1:2,0:0:0:0:
459,219,138004,1,8,0:0:0:0:
512,363,138204,1,2,1:2:0:0:
287,256,138404,6,0,L|296:117,1,132.00000402832,8|0,0:0|0:0,0:0:0:0:
329,61,138804,2,0,B|353:56|353:56|374:62,1,44.0000013427735,0|0,1:2|0:0,0:0:0:0:
176,191,139004,2,0,B|118:221|70:169|70:169|84:141|67:110,1,176.000005371094,10|0,0:0|1:2,0:0:0:0:
231,7,139604,1,10,0:0:0:0:
324,185,139804,1,0,1:2:0:0:
318,254,139904,1,0,1:2:0:0:
309,323,140004,6,0,B|176:320|310:327|177:324,1,132.00000402832,10|0,0:0|0:0,0:0:0:0:
109,342,140404,2,0,B|104:364|104:364|109:388,1,44.0000013427735,0|0,1:2|0:0,0:0:0:0:
0,181,140604,2,0,B|29:160|58:165|77:191|77:191|99:219|131:225|153:206,1,176.000005371094,10|0,0:0|1:2,0:0:0:0:
254,39,141204,2,0,P|234:34|202:38,1,44.0000013427735,10|0,0:0|0:0,0:0:0:0:
402,146,141404,1,2,1:2:0:0:
425,148,141504,1,0,1:2:0:0:
441,140,141604,5,8,0:0:0:0:
398,97,141704,1,8,0:0:0:0:
336,99,141804,1,8,0:0:0:0:
294,143,141904,1,8,0:0:0:0:
296,204,142004,1,0,1:2:0:0:
340,247,142104,1,0,1:2:0:0:
401,245,142204,5,10,0:0:0:0:
454,243,142304,1,8,0:0:0:0:
497,273,142404,1,8,3:0:0:0:
512,323,142504,1,8,3:0:0:0:
491,371,142604,1,2,1:2:0:0:
440,383,142704,1,0,1:2:0:0:
392,364,142804,6,8,L|391:330,1,22.0000006713867
366,173,143004,1,2,1:2:0:0:
207,360,143204,5,4,1:2:0:0:
129,293,143404,2,0,B|109:265|109:265|121:155,1,132.00000402832,0|0,1:2|0:0,0:0:0:0:
164,112,143804,2,0,L|218:120,1,44.0000013427735,2|0,1:2|0:0,0:0:0:0:
443,180,144004,1,8,0:0:0:0:
231,19,144204,1,2,1:2:0:0:
220,260,144404,2,0,L|320:256,1,88.000002685547,0|2,1:2|0:0,0:0:0:0:
449,63,144804,5,0,1:2:0:0:
348,20,145004,2,0,B|331:15|319:4|319:4|295:38|220:27,1,132.00000402832,0|0,1:2|0:0,0:0:0:0:
158,0,145404,2,0,P|151:25|156:53,1,44.0000013427735,2|0,1:2|0:0,0:0:0:0:
270,246,145604,2,0,B|229:225|187:244|187:244|182:239|182:239|142:261|99:238,1,176.000005371094,10|2,0:0|0:0,0:0:0:0:
237,383,146204,1,10,0:0:0:0:
306,374,146304,1,8,0:0:0:0:
375,368,146404,5,0,1:2:0:0:
502,238,146604,2,0,B|475:239|455:226|455:226|434:229|416:245|416:245|396:251|366:242,1,132.00000402832,0|0,1:2|0:0,0:0:0:0:
321,201,147004,2,0,P|316:173|327:149,1,44.0000013427735,2|0,1:2|0:0,0:0:0:0:
493,10,147204,1,8,0:0:0:0:
385,181,147404,1,0,1:2:0:0:
317,6,147604,1,2,1:2:0:0:
395,40,147804,1,2,0:0:0:0:
230,174,148004,5,0,1:2:0:0:
146,115,148204,2,0,B|134:111|127:95|127:95|133:211,1,132.00000402832,8|0,0:0|0:0,0:0:0:0:
161,266,148604,2,0,L|209:260,1,44.0000013427735,0|0,1:2|0:0,0:0:0:0:
422,189,148804,1,8,0:0:0:0:
305,373,149004,1,0,1:2:0:0:
230,174,149204,5,8,0:0:0:0:
224,157,149254,5,8,0:0:0:0:
342,224,149404,1,2,1:2:0:0:
159,365,149604,6,0,B|133:340|100:343|88:360|97:379|60:386|28:367,1,132.00000402832,6|0,1:2|0:0,0:0:0:0:
0,315,150004,2,0,P|-5:293|4:267,1,44.0000013427735,2|0,1:2|0:0,0:0:0:0:
172,122,150204,2,0,B|195:121|206:108|206:108|232:122|230:154|230:154|226:161|226:161|242:194|218:235,1,176.000005371094,10|2,0:0|1:2,0:0:0:0:
51,128,150804,1,8,0:0:0:0:
215,15,151004,1,10,0:0:0:0:
285,18,151104,1,8,0:0:0:0:
355,22,151204,6,0,B|387:11|387:11|412:57|380:108,1,132.00000402832,0|0,1:2|0:0,0:0:0:0:
324,146,151604,2,0,B|302:149|302:149|281:143,1,44.0000013427735,0|0,1:2|0:0,0:0:0:0:
65,43,151804,2,0,B|57:28|66:17|83:19|92:33|92:33|70:73|86:121,1,132.00000402832,10|0,0:0|0:0,0:0:0:0:
131,171,152204,2,0,P|142:195|138:226,1,44.0000013427735,0|0,1:2|0:0,0:0:0:0:
13,395,152404,1,8,0:0:0:0:
24,376,152504,1,8,3:0:0:0:
42,364,152604,1,8,3:0:0:0:
64,362,152704,1,0,1:2:0:0:
82,372,152804,5,6,1:2:0:0:
24,338,152904,1,0,1:2:0:0:
17,273,153004,1,10,0:0:0:0:
63,225,153104,1,0,1:2:0:0:
117,188,153204,1,0,1:2:0:0:
139,126,153304,1,0,1:2:0:0:
102,71,153404,5,10,0:0:0:0:
110,123,153504,1,0,1:2:0:0:
147,157,153604,1,0,1:2:0:0:
200,162,153704,1,0,1:2:0:0:
243,133,153804,5,10,0:0:0:0:
270,167,153904,1,0,1:2:0:0:
279,209,154004,1,0,1:2:0:0:
269,252,154104,1,0,1:2:0:0:
234,278,154204,2,0,L|184:276,1,44.0000013427735,10|0,0:0|1:2,0:0:0:0:
5,164,154404,6,0,L|55:162,1,44.0000013427735,4|0,1:2|0:0,0:0:0:0:
337,57,154604,1,8,0:0:0:0:
293,3,154704,1,8,0:0:0:0:
224,13,154804,1,8,3:0:0:0:
198,79,154904,1,8,3:0:0:0:
243,133,155004,1,2,1:2:0:0:
312,122,155104,1,0,1:2:0:0:
266,66,155204,5,10,0:0:0:0:
206,337,156004,6,0,L|202:299,1,22.0000006713867,4|0,1:2|0:0,0:0:0:0:
203,315,156604,6,0,L|205:336,1,22.0000006713867,4|0,1:2|0:0,0:0:0:0:
274,276,157004,6,0,L|276:297,1,22.0000006713867,4|0,1:2|0:0,0:0:0:0:
344,236,157404,6,0,L|346:257,1,22.0000006713867,4|0,1:2|0:0,0:0:0:0:
347,258,158204,5,8,0:0:0:0:
462,76,158404,5,10,0:0:0:0:
440,74,158504,1,8,3:0:0:0:
418,73,158604,1,10,3:0:0:0:
396,72,158704,1,0,1:2:0:0:
374,71,158804,5,10,0:0:0:0:
339,111,158904,1,8,0:0:0:0:
333,163,159004,1,10,0:0:0:0:
366,203,159104,1,8,0:0:0:0:
417,213,159204,5,4,1:2:0:0:
357,175,159304,1,0,1:2:0:0:
293,196,159404,1,0,1:2:0:0:
269,260,159504,1,0,1:2:0:0:
303,319,159604,1,8,0:0:0:0:
370,329,159704,1,0,1:2:0:0:
424,284,159804,2,0,P|448:278|477:282,1,44.0000013427735,4|0,1:2|1:2,0:0:0:0:
190,373,160004,5,12,0:0:0:0:
124,386,160104,1,0,1:2:0:0:
78,337,160204,1,0,1:2:0:0:
97,272,160304,1,0,1:2:0:0:
145,221,160404,1,8,0:0:0:0:
163,156,160504,1,0,1:2:0:0:
117,107,160604,2,0,L|71:108,1,44.0000013427735,4|0,1:2|1:2,0:0:0:0:
263,247,160804,5,12,0:0:0:0:
324,273,160904,1,0,1:2:0:0:
379,234,161004,2,0,L|374:181,1,44.0000013427735,2|0,1:2|1:2,0:0:0:0:
501,38,161204,2,0,L|493:104,1,44.0000013427735,10|0,0:2|1:2,0:0:0:0:
502,274,161404,1,0,1:2:0:0:
499,292,161504,1,0,1:2:0:0:
497,306,161604,5,10,0:2:0:0:
479,354,161704,1,0,1:2:0:0:
434,379,161804,1,2,1:2:0:0:
383,370,161904,1,0,1:2:0:0:
350,330,162004,1,8,0:2:0:0:
351,278,162104,1,0,1:2:0:0:
379,234,162204,2,0,P|400:230|425:236,1,44.0000013427735,2|0,1:2|1:2,0:0:0:0:
251,354,162404,5,12,0:0:0:0:
190,384,162504,1,0,1:2:0:0:
127,356,162604,1,0,1:2:0:0:
96,294,162704,1,0,1:2:0:0:
124,232,162804,1,8,0:0:0:0:
178,187,162904,1,0,1:2:0:0:
221,129,163004,2,0,P|227:102|216:67,1,44.0000013427735,4|0,1:2|1:2,0:0:0:0:
72,0,163204,5,12,0:2:0:0:
9,31,163304,1,0,1:2:0:0:
6,101,163404,1,0,1:2:0:0:
56,150,163504,1,0,1:2:0:0:
100,204,163604,1,8,0:2:0:0:
106,274,163704,1,0,1:2:0:0:
53,320,163804,2,0,B|30:323|30:323|2:315,1,44.0000013427735,4|0,1:2|1:2,0:0:0:0:
177,228,164004,5,12,0:0:0:0:
203,230,164104,1,0,1:2:0:0:
229,233,164204,1,0,1:2:0:0:
255,235,164304,1,0,1:2:0:0:
294,263,164404,5,8,0:2:0:0:
333,258,164504,1,0,1:2:0:0:
372,254,164604,1,0,1:2:0:0:
411,251,164704,1,0,1:2:0:0:
469,219,164804,5,8,0:2:0:0:
510,169,164904,1,0,1:2:0:0:
512,104,165004,1,0,1:2:0:0:
475,51,165104,1,0,1:2:0:0:
406,19,165204,5,8,0:2:0:0:
406,98,165304,1,0,1:2:0:0:
406,177,165404,1,0,1:2:0:0:
406,256,165504,1,0,1:2:0:0:
406,335,165604,5,14,0:2:0:0:
468,303,165704,1,0,1:2:0:0:
482,234,165804,1,2,1:2:0:0:
433,182,165904,1,0,1:2:0:0:
362,189,166004,1,8,0:0:0:0:
321,246,166104,1,0,1:2:0:0:
258,276,166204,2,0,P|231:274|202:252,1,44.0000013427735,6|0,1:2|1:2,0:0:0:0:
37,79,166404,5,14,0:2:0:0:
103,52,166504,1,0,1:2:0:0:
168,79,166604,1,2,1:2:0:0:
195,144,166704,1,0,1:2:0:0:
168,209,166804,1,8,0:2:0:0:
103,236,166904,1,0,1:2:0:0:
43,208,167004,2,0,P|18:205|-10:211,1,44.0000013427735,4|0,1:2|1:2,0:0:0:0:
199,340,167204,5,14,0:2:0:0:
238,338,167304,1,0,1:2:0:0:
280,336,167404,1,0,1:2:0:0:
316,333,167504,1,0,1:2:0:0:
384,358,167604,5,10,0:2:0:0:
441,354,167704,1,0,1:2:0:0:
493,305,167804,6,0,P|499:281|491:252,1,44.0000013427735,2|0,1:2|1:2,0:0:0:0:
338,101,168004,5,8,0:2:0:0:
274,68,168104,1,0,1:2:0:0:
207,89,168204,1,0,1:2:0:0:
174,151,168304,1,0,1:2:0:0:
196,219,168404,1,8,0:2:0:0:
258,251,168504,1,0,1:2:0:0:
296,310,168604,1,0,1:2:0:0:
265,373,168704,1,0,1:2:0:0:
195,381,168804,5,12,0:2:0:0:
249,340,168904,1,0,1:2:0:0:
317,352,169004,1,2,1:2:0:0:
384,372,169104,1,0,1:2:0:0:
452,384,169204,1,8,0:0:0:0:
507,343,169304,1,0,1:2:0:0:
509,272,169404,5,6,1:2:0:0:
481,263,169470,5,0,1:2:0:0:
452,271,169537,5,0,1:2:0:0:
428,289,169604,6,0,P|387:299|343:279,1,88.000002685547,14|8,0:0|3:0,0:0:0:0:
164,140,170004,5,8,0:0:0:0:
175,231,170104,1,8,0:0:0:0:
185,323,170204,1,8,0:0:0:0:
348,368,172193,5,4,1:2:0:0:
341,318,172318,1,0,1:2:0:0:
336,269,172443,1,0,1:2:0:0:
473,159,172693,1,2,1:2:0:0:
484,344,172943,1,0,1:2:0:0:
338,159,173193,5,10,0:0:0:0:
288,166,173318,1,0,1:2:0:0:
239,171,173443,1,0,1:2:0:0:
115,284,173693,1,2,1:2:0:0:
23,175,173943,5,0,1:2:0:0:
0,122,174068,1,0,1:2:0:0:
29,70,174193,1,2,1:2:0:0:
88,64,174318,1,0,1:2:0:0:
129,107,174443,1,0,1:2:0:0:
221,309,174693,5,2,1:2:0:0:
224,249,174818,1,0,1:2:0:0:
225,189,174943,1,0,1:2:0:0:
45,340,175193,1,10,0:0:0:0:
37,116,175443,1,0,1:2:0:0:
170,361,175693,5,2,1:2:0:0:
223,384,175818,1,0,1:2:0:0:
275,355,175943,1,0,1:2:0:0:
438,239,176193,6,0,L|441:298,1,56,2|0,0:0|0:0,0:0:0:0:
417,359,177193,6,0,L|411:242,1,112,2|0,0:0|0:0,0:0:0:0:
452,178,178193,6,0,B|427:160|392:160|363:182|363:182|327:208|289:208|263:192,1,191.999994140625,10|2,0:0|0:0,0:0:0:0:
114,64,179568,5,0,1:0:0:0:
112,75,179630,5,0,1:0:0:0:
111,88,179693,6,0,L|113:114,1,24,8|0,3:0|0:0,0:0:0:0:
150,197,180193,5,4,1:2:0:0:
143,247,180318,1,0,1:2:0:0:
138,296,180443,1,0,1:2:0:0:
24,153,180693,1,2,1:2:0:0:
246,152,180943,1,0,1:2:0:0:
189,364,181193,5,10,0:0:0:0:
134,384,181318,1,0,1:2:0:0:
81,361,181443,1,0,1:2:0:0:
236,256,181693,1,2,1:2:0:0:
394,384,181943,5,0,1:2:0:0:
397,332,182068,1,0,1:2:0:0:
401,280,182193,1,2,1:2:0:0:
404,228,182318,1,0,1:2:0:0:
224,84,182568,5,0,1:2:0:0:
227,136,182693,1,2,1:2:0:0:
231,188,182818,1,0,1:2:0:0:
234,240,182943,1,0,1:2:0:0:
48,126,183193,1,10,0:0:0:0:
223,12,183443,1,0,1:2:0:0:
360,168,183693,5,2,1:2:0:0:
415,183,183818,1,0,1:2:0:0:
458,144,183943,1,0,1:2:0:0:
448,88,184068,1,0,1:2:0:0:
394,66,184193,6,0,B|223:69|396:71|223:73,1,167.999994873047,2|0,0:0|0:0,0:0:0:0:
72,93,185193,6,0,B|85:83|89:59|89:59|121:100|79:181,1,160,2|0,0:0|0:0,0:0:0:0:
30,234,185943,5,0,1:2:0:0:
38,240,186026,5,0,1:2:0:0:
45,247,186109,5,0,1:2:0:0:
53,251,186193,6,0,B|93:274|136:237|112:242|156:204|210:225|210:225|242:242|253:277|242:310|214:331|173:322|140:288|164:252|209:272,1,360,8|0,0:0|1:0,0:0:0:0:
191,267,187380,5,0,1:0:0:0:
191,267,187443,6,0,L|191:345,1,64,8|2,3:0|0:0,0:0:0:0:
357,116,188193,5,6,1:2:0:0:
403,64,188318,1,0,1:2:0:0:
469,79,188443,1,0,1:2:0:0:
489,144,188568,1,2,1:2:0:0:
445,194,188693,1,0,1:2:0:0:
397,242,188818,1,0,1:2:0:0:
353,292,188943,1,2,1:2:0:0:
373,357,189068,1,0,1:2:0:0:
439,372,189193,1,8,1:2:0:0:
485,320,189318,1,0,1:2:0:0:
468,254,189443,2,0,L|419:253,1,40,2|0,1:2|1:2,0:0:0:0:
265,323,189693,5,2,1:2:0:0:
238,322,189776,5,0,1:2:0:0:
211,321,189859,5,0,1:2:0:0:
181,304,189943,5,2,1:2:0:0:
154,304,190026,5,0,1:2:0:0:
127,305,190109,5,0,1:2:0:0:
92,325,190193,5,2,1:2:0:0:
28,298,190318,1,0,1:2:0:0:
20,230,190443,1,0,1:2:0:0:
75,190,190568,1,2,1:2:0:0:
138,164,190693,1,0,1:2:0:0:
194,124,190818,1,0,1:2:0:0:
185,56,190943,1,2,1:2:0:0:
122,29,191068,1,0,1:2:0:0:
62,70,191193,2,0,P|56:91|59:110,1,40,8|0,1:2|1:2,0:0:0:0:
183,248,191443,5,0,1:2:0:0:
209,247,191526,5,0,1:2:0:0:
236,246,191609,5,0,1:0:0:0:
262,245,191693,5,10,1:2:0:0:
306,187,191818,1,8,1:2:0:0:
275,122,191943,1,8,1:2:0:0:
55,60,195693,6,0,B|59:58|59:58|66:62|66:62|73:60|73:60|74:67|74:67|71:73|71:73|73:81|73:81,1,35.9999989013672,2|0,0:0|0:0,0:0:0:0:
111,137,196193,5,0,1:2:0:0:
167,180,196318,1,0,1:2:0:0:
237,163,196443,1,0,1:2:0:0:
266,98,196568,1,0,1:2:0:0:
294,32,196693,1,0,1:2:0:0:
365,15,196818,1,0,1:2:0:0:
421,59,196943,1,0,1:2:0:0:
415,126,197068,1,0,1:2:0:0:
378,183,197193,1,8,0:0:0:0:
389,250,197318,1,0,1:2:0:0:
442,291,197443,2,0,L|490:286,1,40,0|0,1:2|1:2,0:0:0:0:
332,373,197693,5,0,1:2:0:0:
306,380,197776,5,0,1:2:0:0:
280,376,197859,5,0,1:2:0:0:
249,344,197943,5,0,1:2:0:0:
223,336,198026,5,0,1:2:0:0:
197,340,198109,5,0,1:2:0:0:
162,374,198193,5,0,1:2:0:0:
229,348,198318,1,0,1:2:0:0:
237,276,198443,1,0,1:2:0:0:
180,231,198568,1,0,1:2:0:0:
111,207,198693,5,0,1:2:0:0:
77,143,198818,1,0,1:2:0:0:
113,80,198943,1,0,1:2:0:0:
184,74,199068,1,0,1:2:0:0:
239,119,199193,2,0,L|285:116,1,40,8|0,0:0|1:2,0:0:0:0:
430,17,199443,2,0,L|384:14,1,40,0|0,1:2|1:2,0:0:0:0:
355,199,199693,5,0,1:2:0:0:
401,253,199818,1,0,1:2:0:0:
472,254,199943,1,0,1:2:0:0:
506,190,200068,1,0,1:2:0:0:
483,126,200193,6,0,B|442:115|414:150|414:150|389:115|333:125,1,167.999994873047,2|0,0:0|0:0,0:0:0:0:
267,157,201193,6,0,B|241:157|222:176|222:176|160:186|124:136,1,160,2|0,0:0|0:0,0:0:0:0:
42,68,201943,5,2,1:2:0:0:
43,93,202026,5,0,1:2:0:0:
45,119,202109,5,0,1:2:0:0:
47,144,202193,5,10,0:0:0:0:
129,228,202443,1,8,3:0:0:0:
0,379,202693,1,10,3:0:0:0:
10,333,202818,1,8,3:0:0:0:
53,315,202943,1,0,1:0:0:0:
93,338,203068,1,0,1:0:0:0:
99,384,203193,1,10,0:0:0:0:
8,220,203443,6,0,L|11:272,1,32,8|0,3:0|0:0,0:0:0:0:
106,140,203693,2,0,L|103:180,1,23.9999992675781,8|0,3:0|0:0,0:0:0:0:
0,64,203943,2,0,L|1:92,1,16,10|0,3:0|0:0,0:0:0:0:
102,4,204204,6,0,B|136:-11|175:6|175:6|180:0|180:0|219:22|255:3,1,160,6|0,1:2|0:0,0:0:0:0:
307,270,213804,6,0,B|370:288|370:288|435:268,1,132.00000402832,14|0,0:0|0:0,0:0:0:0:
486,220,214204,2,0,B|484:172,1,44.0000013427735,0|0,1:2|0:0,0:0:0:0:
386,62,214404,2,0,B|355:81|209:71|386:57|240:44|205:63,1,176.000005371094,10|2,0:0|1:2,0:0:0:0:
55,221,215004,1,8,0:0:0:0:
0,59,215204,1,2,1:2:0:0:
260,133,215404,6,0,B|275:178|252:227|252:227|239:208|225:205,1,132.00000402832,8|0,0:0|0:0,0:0:0:0:
155,188,215804,2,0,B|150:213|150:213|156:239,1,44.0000013427735,2|0,1:2|0:0,0:0:0:0:
271,368,216004,2,0,L|451:362,1,176.000005371094,10|0,0:0|1:2,0:0:0:0:
180,202,216604,1,10,0:0:0:0:
132,371,216804,1,0,1:2:0:0:
4,121,217004,6,0,P|70:98|133:139,1,132.00000402832,10|0,0:0|0:0,0:0:0:0:
179,202,217404,2,0,P|200:199|221:191,1,44.0000013427735,0|0,1:2|0:0,0:0:0:0:
374,56,217604,2,0,B|390:45|397:21|397:21|389:160,1,176.000005371094,10|0,0:0|1:2,0:0:0:0:
376,383,218204,1,10,0:0:0:0:
482,241,218404,1,2,1:2:0:0:
267,160,218604,6,0,B|222:143|181:168|181:168|136:192|94:175,1,176.000005371094,8|0,0:0|1:2,0:0:0:0:
246,377,219204,1,8,0:0:0:0:
240,307,219304,1,8,0:0:0:0:
234,238,219404,1,0,1:2:0:0:
14,319,219604,1,0,1:2:0:0:
292,124,219804,5,10,0:0:0:0:
302,116,219854,5,8,0:0:0:0:
353,293,220004,1,2,1:2:0:0:
22,131,220204,6,0,L|155:117,1,132.00000402832,14|0,0:0|0:0,0:0:0:0:
211,72,220604,2,0,L|259:77,1,44.0000013427735,0|0,1:2|0:0,0:0:0:0:
414,278,220804,2,8,B|422:231|393:195|393:195|426:162|419:110,1,176.000005371094,10|2,0:0|1:2,0:0:0:0:
340,377,221404,1,8,0:0:0:0:
512,295,221604,1,2,1:2:0:0:
330,130,221804,6,0,B|317:118|294:116|294:116|283:132|263:135|263:135|241:121|204:124,1,132.00000402832,8|0,0:0|0:0,0:0:0:0:
138,145,222204,2,0,P|129:120|141:95,1,44.0000013427735,0|0,1:2|0:0,0:0:0:0:
280,300,222404,2,0,B|242:286|202:306|202:306|192:301|192:301|152:320|108:298,1,176.000005371094,10|0,0:0|1:2,0:0:0:0:
213,107,223004,1,10,0:0:0:0:
377,271,223204,1,0,1:2:0:0:
439,297,223304,1,0,1:2:0:0:
500,269,223404,6,0,B|519:206|519:206|503:141,1,132.00000402832,10|0,0:0|0:0,0:0:0:0:
457,82,223804,2,0,L|407:83,1,44.0000013427735,0|0,1:2|0:0,0:0:0:0:
199,172,224004,2,0,B|212:200|244:197|244:197|275:141|234:74,1,176.000005371094,10|0,0:0|1:2,0:0:0:0:
33,287,224604,2,0,L|85:289,1,44.0000013427735,10|0,0:0|0:0,0:0:0:0:
279,340,224804,1,2,1:2:0:0:
298,341,224904,1,0,1:2:0:0:
313,341,225004,5,8,0:0:0:0:
270,384,225104,1,8,0:0:0:0:
208,382,225204,1,8,0:0:0:0:
166,338,225304,1,8,0:0:0:0:
168,277,225404,1,0,1:2:0:0:
212,234,225504,1,0,1:2:0:0:
273,236,225604,5,10,0:0:0:0:
326,238,225704,1,8,0:0:0:0:
369,208,225804,1,8,3:0:0:0:
384,158,225904,1,8,3:0:0:0:
363,110,226004,1,2,1:2:0:0:
312,98,226104,1,0,1:2:0:0:
266,123,226204,6,0,L|267:155,1,22.0000006713867,8|8,0:0|0:0,0:0:0:0:
359,302,226404,1,2,1:2:0:0:
132,369,226604,5,4,1:2:0:0:
72,304,226804,2,0,P|50:242|69:180,1,132.00000402832,0|0,1:2|0:0,0:0:0:0:
98,118,227204,2,0,B|77:110|55:114,1,44.0000013427735,2|0,1:2|0:0,0:0:0:0:
216,257,227404,1,8,0:0:0:0:
294,96,227604,1,2,1:2:0:0:
467,252,227804,2,0,L|466:158,1,88.000002685547,0|2,1:2|0:0,0:0:0:0:
221,317,228204,5,0,1:2:0:0:
295,372,228404,2,0,B|340:387|340:387|427:359,1,132.00000402832,0|0,1:2|0:0,0:0:0:0:
473,312,228804,2,0,L|468:260,1,44.0000013427735,2|0,1:2|0:0,0:0:0:0:
333,133,229004,2,0,B|293:147|251:124|251:124|210:147|164:134,1,176.000005371094,10|2,0:0|0:0,0:0:0:0:
11,261,229604,1,10,0:0:0:0:
19,322,229704,1,8,0:0:0:0:
29,384,229804,5,0,1:2:0:0:
172,312,230004,2,0,B|218:300|218:300|320:319,1,132.00000402832,0|0,1:2|0:0,0:0:0:0:
368,342,230404,2,0,B|377:365|377:365|373:399,1,44.0000013427735,2|0,1:2|0:0,0:0:0:0:
208,227,230604,1,8,0:0:0:0:
384,131,230804,1,0,1:2:0:0:
432,306,231004,1,2,1:2:0:0:
363,266,231204,1,2,0:0:0:0:
471,68,231404,5,0,1:2:0:0:
392,16,231604,2,0,B|354:-2|319:15|319:15|301:47|253:40,1,132.00000402832,8|0,0:0|0:0,0:0:0:0:
202,9,232004,2,0,P|185:6|158:13,1,44.0000013427735,0|0,1:2|0:0,0:0:0:0:
34,165,232204,1,8,0:0:0:0:
164,334,232404,1,0,1:2:0:0:
276,133,232604,5,8,0:0:0:0:
276,121,232654,5,8,0:0:0:0:
150,171,232804,1,2,1:2:0:0:
313,307,233004,6,0,L|452:300,1,132.00000402832,6|0,1:2|0:0,0:0:0:0:
500,258,233404,2,0,B|504:234|504:234|496:209,1,44.0000013427735,2|0,1:2|0:0,0:0:0:0:
366,40,233604,2,0,B|307:4|246:49|246:49|270:39|293:47,1,176.000005371094,10|2,0:0|1:2,0:3:0:0:
123,201,234204,1,8,0:0:0:0:
357,372,234404,1,10,0:0:0:0:
356,311,234504,1,8,0:0:0:0:
354,249,234604,6,0,B|349:94|359:249|355:94,1,132.00000402832,0|0,1:2|0:0,0:0:0:0:
387,53,235004,2,0,P|408:48|434:55,1,44.0000013427735,0|0,1:2|0:0,0:0:0:0:
504,249,235204,2,0,B|511:268|499:293|499:293|502:320|516:339|516:339|515:360|504:373,1,132.00000402832,10|0,0:0|0:0,0:0:0:0:
430,384,235604,2,0,B|387:382,1,44.0000013427735,0|0,1:2|0:0,0:0:0:0:
240,293,235804,1,8,0:0:0:0:
220,270,235904,1,8,3:0:0:0:
214,240,236004,1,8,3:0:0:0:
223,211,236104,1,0,1:2:0:0:
241,198,236204,6,0,L|292:198,1,44.0000013427735,6|0,1:2|0:0,0:0:0:0:
484,230,236404,1,2,0:0:0:0:
382,334,236604,1,0,1:2:0:0:
329,120,236804,2,0,B|373:109|373:109|414:118,1,88.000002685547,10|0,0:0|0:0,0:0:0:0:
237,268,237204,1,2,1:2:0:0:
173,55,237404,1,8,0:0:0:0:
314,137,237604,1,2,1:2:0:0:
116,204,237804,6,0,L|18:200,1,88.000002685547,12|0,0:0|0:0,0:0:0:0:
165,31,238204,1,0,1:2:0:0:
306,128,238404,2,0,L|404:124,1,88.000002685547,8|0,0:0|0:0,0:0:0:0:
159,11,238804,1,0,1:2:0:0:
109,171,239004,1,8,0:0:0:0:
100,190,239104,1,8,3:0:0:0:
103,213,239204,1,10,3:0:0:0:
114,233,239304,1,0,1:2:0:0:
131,245,239404,5,10,0:0:0:0:
72,215,239504,1,0,1:2:0:0:
11,243,239604,1,10,0:0:0:0:
0,308,239704,1,0,1:2:0:0:
36,360,239804,1,0,1:2:0:0:
101,362,239904,1,0,1:2:0:0:
145,311,240004,5,10,0:0:0:0:
171,355,240104,1,0,1:2:0:0:
218,378,240204,1,0,1:2:0:0:
271,371,240304,1,0,1:2:0:0:
311,338,240404,5,10,0:0:0:0:
305,294,240504,1,0,1:2:0:0:
300,249,240604,1,0,1:2:0:0:
295,205,240704,1,0,1:2:0:0:
290,160,240804,2,0,L|282:106,1,44.0000013427735,10|0,0:0|1:2,0:0:0:0:
464,233,241004,6,0,L|456:287,1,44.0000013427735,0|0,1:2|1:2,0:0:0:0:
295,373,241204,1,8,0:0:0:0:
232,375,241304,1,8,0:0:0:0:
188,336,241404,1,8,0:0:0:0:
186,282,241504,1,8,0:0:0:0:
213,242,241604,1,10,3:0:0:0:
245,210,241704,1,8,3:0:0:0:
258,171,241804,5,10,3:0:0:0:
248,135,241904,1,8,3:0:0:0:
229,111,242004,1,0,1:2:0:0:
196,94,242104,1,0,1:2:0:0:
159,98,242204,1,2,1:2:0:0:
126,131,242304,1,0,1:2:0:0:
116,182,242404,1,2,1:2:0:0:
159,230,242504,1,0,1:2:0:0:
230,233,242604,6,0,L|279:229,1,40,4|0,1:2|0:0,0:0:0:0:
449,171,242804,1,8,0:0:0:0:
498,210,242904,1,8,0:0:0:0:
511,272,243004,1,8,0:0:0:0:
486,331,243104,1,8,0:0:0:0:
425,352,243204,2,0,L|360:351,1,40,4|0,1:2|0:0,0:0:0:0:
278,304,243404,5,0,1:2:0:0:
258,305,243454,5,0,1:2:0:0:
238,306,243504,5,0,1:2:0:0:
218,307,243554,5,0,1:2:0:0:
198,311,243604,5,8,0:0:0:0:
198,311,243904,6,0,L|193:292,2,20,0|0|8,1:2|1:2|3:0,0:0:0:0:
115,384,244204,6,0,B|112:366|112:366|105:359|105:359|107:349|107:349|95:229|52:151|52:151|-23:190|-23:190|0:169|13:151|13:151|84:116|102:94|111:53|111:53|162:92|159:152|159:152|129:129|93:129|71:144,1,735.99997529297,4|0,1:2|0:0,0:0:0:0:
