osu file format v14

[General]
AudioFilename: audio.mp3
AudioLeadIn: 0
PreviewTime: 212404
Countdown: 0
SampleSet: Soft
StackLeniency: 0.5
Mode: 0
LetterboxInBreaks: 0
WidescreenStoryboard: 1

[Editor]
Bookmarks: 25898,40134,204204,213804
DistanceSpacing: 1.6
BeatDivisor: 8
GridSize: 32
TimelineZoom: 2.5

[Metadata]
Title:Enjoy Your Slay (feat. Sam Kubrick)
TitleUnicode:Enjoy Your Slay (feat. Sam Kubrick)
Artist:Ice Nine Kills
ArtistUnicode:Ice Nine Kills
Creator:Blitzifyyy
Version:Niva's Hard
Source:
Tags:Niva Mimari WashedUp Player Shining The Silver Scream INK Spencer Charnas Ricky Armellino Patrick Galante Joe Occhiuti Dan Sugarman Justin DeBlieck Metal Metalcore Rock English
BeatmapID:3014123
BeatmapSetID:1445099

[Difficulty]
HPDrainRate:4.5
CircleSize:4
OverallDifficulty:6
ApproachRate:8
SliderMultiplier:1.4
SliderTickRate:1

[Events]
//Background and Video events
0,0,"comeplaywithus.jpg",0,0
//Break Periods
2,25898,39384
2,205804,212404
//Storyboard Layer 0 (Background)
//Storyboard Layer 1 (Fail)
//Storyboard Layer 2 (Pass)
//Storyboard Layer 3 (Foreground)
//Storyboard Layer 4 (Overlay)
//Storyboard Sound Samples

[TimingPoints]
13098,400,4,2,1,75,1,0
13098,-83.3333333333333,4,2,1,75,0,0
14098,-125,4,2,1,75,0,0
14698,-83.3333333333333,4,2,1,75,0,0
15698,-125,4,2,1,75,0,0
16298,-83.3333333333333,4,2,1,75,0,0
20098,-125,4,2,1,75,0,0
20898,-83.3333333333333,4,2,1,75,0,0
40134,439.56043956044,4,2,1,55,1,0
40134,-200,4,2,1,55,0,0
43650,427.046263345196,4,2,1,55,1,0
43650,-250,4,2,1,55,0,0
46639,-111.111111111111,4,2,1,55,0,0
47066,418.118466898955,4,2,1,55,1,0
47066,-250,4,2,1,55,0,0
48320,-111.111111111111,4,2,1,55,0,0
48529,406.779661016949,4,2,1,55,1,0
48732,426.287744227353,4,2,1,55,1,0
50010,-153.846153846154,4,2,1,55,0,0
50437,396.039603960396,4,2,1,55,1,0
50437,-250,4,2,1,55,0,0
53604,400,4,2,1,70,1,0
53604,-166.666666666667,4,2,1,70,0,0
57804,-111.111111111111,4,2,1,70,0,0
58404,-166.666666666667,4,2,1,70,0,0
59204,-111.111111111111,4,2,1,70,0,0
63204,-83.3333333333333,4,2,1,70,0,0
66404,-90.9090909090909,4,2,1,70,0,1
77604,-83.3333333333333,4,2,1,70,0,1
79204,-90.9090909090909,4,2,1,70,0,1
88804,-83.3333333333333,4,2,1,70,0,1
92004,-200,4,2,1,70,0,0
92404,-153.846153846154,4,2,1,70,0,0
92804,-200,4,2,1,70,0,0
93204,-153.846153846154,4,2,1,70,0,0
93604,-111.111111111111,4,2,1,70,0,0
94404,-153.846153846154,4,2,1,70,0,0
95204,-100,4,2,1,70,0,0
98004,-133.333333333333,4,2,1,70,0,0
98404,-83.3333333333333,4,2,1,70,0,0
111204,-125,4,2,1,70,0,0
113604,-78.125,4,2,1,70,0,0
114404,-83.3333333333333,4,2,1,70,0,0
114804,-111.111111111111,4,2,1,70,0,0
115204,-95.2380952380952,4,2,1,70,0,0
115604,-133.333333333333,4,2,1,70,0,0
116004,-125,4,2,1,70,0,0
117604,-90.9090909090909,4,2,1,70,0,0
124004,-83.3333333333333,4,2,1,70,0,0
128804,-121.212121212121,4,2,1,70,0,0
130404,-90.9090909090909,4,2,1,70,0,1
141604,-83.3333333333333,4,2,1,70,0,1
143204,-90.9090909090909,4,2,1,70,0,1
152804,-83.3333333333333,4,2,1,70,0,1
156004,-83.3333333333333,4,2,1,70,0,0
158204,-100,4,2,1,70,0,0
159204,-83.3333333333333,4,2,1,70,0,1
168804,-83.3333333333333,4,2,1,70,0,1
170204,-83.3333333333333,4,2,1,70,0,0
172193,500,4,2,1,65,1,0
172193,-71.4285714285714,4,2,1,65,0,0
179443,-83.3333333333333,4,2,1,65,0,0
180193,-71.4285714285714,4,2,1,65,0,0
187693,-60.6060606060606,4,2,1,65,0,0
188193,-71.4285714285714,4,2,1,65,0,0
196193,-71.4285714285714,4,2,1,65,0,0
198943,-66.6666666666667,4,2,1,65,0,0
199693,-71.4285714285714,4,2,1,65,0,0
201193,-58.8235294117647,4,2,1,65,0,0
202193,-71.4285714285714,4,2,1,65,0,0
204204,400,4,2,1,55,1,0
213804,-90.9090909090909,4,2,1,70,0,1
236204,-83.3333333333333,4,2,1,70,0,1
242604,-83.3333333333333,4,2,1,70,0,0
244204,-125,4,2,1,70,0,0
252204,-125,4,2,1,5,0,0

[Colours]
Combo1 : 128,0,0
Combo2 : 98,98,98
Combo3 : 164,164,164
Combo4 : 228,228,228

[HitObjects]
175,254,13098,6,0,B|212:254|212:254|265:254|249:280|299:280|299:280|339:280,1,167.999994873047,6|0,1:2|1:0,0:0:0:0:
337,271,13598,1,8,0:0:0:0:
337,262,13698,1,0,1:0:0:0:
337,253,13798,1,8,0:0:0:0:
337,244,13898,1,0,1:0:0:0:
256,121,14098,6,0,P|276:105|256:91,2,56,2|2|2,1:2|1:2|1:2,0:0:0:0:
338,254,14698,6,0,B|301:254|301:254|248:254|264:280|214:280|214:280|174:280,1,167.999994873047,4|0,1:2|1:0,0:0:0:0:
176,271,15198,1,8,0:0:0:0:
176,262,15298,1,0,1:0:0:0:
176,253,15398,1,8,0:0:0:0:
176,244,15498,1,8,0:0:0:0:
47,202,15698,6,0,P|29:184|47:166,2,56,2|2|2,1:2|1:2|1:2,0:0:0:0:
84,96,16298,6,0,L|98:264,1,167.999994873047,4|0,1:2|1:0,0:0:0:0:
188,345,16898,2,0,B|174:324|184:305|184:305|174:324|149:327,1,83.9999974365235,2|0,1:2|1:0,0:0:0:0:
286,324,17298,1,2,1:2:0:0:
392,357,17498,1,0,1:2:0:0:
442,234,17698,6,0,B|485:131|485:131|472:161|443:167,1,167.999994873047,2|0,1:2|1:0,0:0:0:0:
355,188,18298,1,0,1:0:0:0:
418,79,18498,1,0,1:0:0:0:
329,101,18698,2,0,L|322:67,3,27.9999991455078,8|0|0|2,0:0|1:2|1:2|1:2,0:0:0:0:
270,210,19098,1,10,1:2:0:0:
272,222,19198,1,0,1:0:0:0:
274,234,19298,1,2,1:2:0:0:
276,246,19398,1,0,1:0:0:0:
278,257,19498,6,0,B|239:281|190:251|197:246|206:239|159:210|122:235,1,168.750006437302,6|0,1:2|1:0,0:0:0:0:
49,131,20098,6,0,P|75:135|83:109,2,56,0|0|2,1:0|1:0|1:2,0:0:0:0:
278,234,20898,6,0,B|239:210|190:240|197:245|206:252|159:281|122:256,1,168.750006437302,2|0,1:2|1:0,0:0:0:0:
30,175,21498,1,0,1:0:0:0:
33,163,21598,1,8,0:0:0:0:
36,151,21698,1,0,1:0:0:0:
39,139,21798,1,8,0:0:0:0:
42,127,21898,1,8,0:0:0:0:
120,73,22098,2,0,B|145:106|145:106|134:147,1,83.9999974365235,2|2,1:2|1:2,0:0:0:0:
42,127,22498,1,2,1:2:0:0:
229,181,22698,5,4,1:2:0:0:
229,181,22898,2,0,B|246:169|268:169|268:169|246:169|229:156,1,83.9999974365235,2|0,1:2|1:0,0:0:0:0:
362,253,23298,2,0,B|344:239|323:239|323:239|344:239|362:225,1,83.9999974365235,2|0,1:2|1:0,0:0:0:0:
230,326,23698,2,0,B|247:310|268:310|268:310|247:310|229:293,1,83.9999974365235,2|8,1:2|0:0,0:0:0:0:
367,384,24098,6,0,P|424:328|510:331,1,167.999994873047,6|6,1:2|1:2,0:0:0:0:
436,275,24698,1,0,1:2:0:0:
334,265,24898,1,14,0:0:0:0:
230,294,25098,1,0,1:2:0:0:
153,195,25298,5,10,0:0:0:0:
155,182,25398,1,8,0:0:0:0:
157,169,25498,1,8,0:0:0:0:
159,156,25598,1,8,0:0:0:0:
161,143,25698,1,10,0:0:0:0:
257,60,40134,6,0,B|309:69|315:98|315:98|318:145|358:175|424:168|454:126|457:68|417:20|356:15|313:55|315:98|315:98|311:128|255:143,1,490,2|0,0:0|0:0,0:0:0:0:
154,193,43650,6,0,P|315:216|408:356,1,336,2|0,0:0|0:0,0:0:0:0:
419,252,46639,6,0,B|423:223|423:223|426:228|426:228|423:223|423:223|427:195,1,62.9999980773926,0|2,0:0|0:0,0:0:0:0:
332,310,47066,6,0,L|216:295,1,112,2|0,0:0|0:0,0:0:0:0:
93,252,48320,6,0,B|89:223|89:223|86:228|86:228|89:223|89:223|85:195,1,62.9999980773926,0|8,0:0|1:3,0:0:0:0:
105,351,48732,5,8,1:3:0:0:
256,30,49584,1,0,0:0:0:0:
368,164,50010,6,0,B|374:153|387:153|387:153|374:153|368:144,1,45.4999979171754,0|2,0:0|0:0,0:0:0:0:
277,199,50437,6,0,P|387:199|461:285,1,224,2|0,0:0|0:0,0:0:0:0:
430,77,52813,5,0,0:0:0:0:
256,0,53209,5,0,0:0:0:0:
198,65,53407,1,0,0:0:0:0:
284,125,53604,6,0,B|245:149|196:119|204:113|212:107|165:78|128:103,1,167.999994873047,6|0,1:2|0:0,0:0:0:0:
74,310,55204,6,0,B|51:323|37:355|37:355|81:253,1,167.999994873047,4|0,1:2|0:0,0:0:0:0:
70,31,56404,5,8,3:0:0:0:
2,99,56604,1,0,1:0:0:0:
116,142,56804,6,0,B|184:127|184:127|211:137|211:137|284:119,1,167.999994873047,6|0,1:2|0:0,0:0:0:0:
390,160,57804,1,2,0:0:0:0:
380,156,57904,1,0,1:0:0:0:
370,152,58004,2,0,L|431:136,1,62.9999980773926,8|2,0:0|1:2,0:0:0:0:
492,221,58404,6,0,P|465:270|395:276,1,125.999996154785,4|2,1:2|1:2,0:0:0:0:
287,289,59204,6,0,P|291:319|271:352,1,62.9999980773926,8|10,0:0|3:0,0:0:0:0:
202,272,59604,2,0,P|187:299|191:330,1,62.9999980773926,8|2,3:0|1:2,0:0:0:0:
256,192,60004,5,4,1:2:0:0:
256,192,60104,12,2,62804,0:0:0:0:
261,134,63204,6,0,L|246:308,1,167.999994873047,6|2,1:2|0:0,0:0:0:0:
357,219,63804,6,0,P|346:239|341:262,1,41.9999987182618,6|0,1:2|0:0,0:0:0:0:
151,176,64204,6,0,P|161:196|164:228,1,41.9999987182618,6|0,1:2|0:0,0:0:0:0:
274,8,64604,6,0,L|269:49,1,41.9999987182618,6|0,1:2|0:0,0:0:0:0:
455,313,66404,5,14,0:0:0:0:
455,313,66604,2,0,P|468:278|451:240,1,77.0000023498536,2|0,0:0|1:2,0:0:0:0:
512,384,67004,2,0,P|449:345|372:361,1,154.000004699707,10|2,0:0|1:2,0:0:0:0:
296,326,67604,1,8,0:0:0:0:
217,296,67804,1,2,1:2:0:0:
295,206,68004,6,0,B|234:178|234:178|214:181|214:181|152:156,1,154.000004699707,8|2,0:0|1:2,0:0:0:0:
70,181,68604,2,0,P|35:249|79:310,1,154.000004699707,10|0,0:0|1:2,0:0:0:0:
152,346,69204,1,10,0:0:0:0:
237,330,69404,1,0,1:2:0:0:
276,216,69604,5,10,0:0:0:0:
276,216,69804,2,0,B|256:204|256:185|256:185|256:204|237:216,1,77.0000023498536,2|0,0:0|1:2,0:0:0:0:
358,257,70204,2,0,P|435:259|475:198,1,154.000004699707,10|0,0:0|1:2,0:0:0:0:
394,148,70804,1,10,0:0:0:0:
394,148,71004,1,2,1:2:0:0:
406,324,71204,6,0,P|350:278|273:288,1,154.000004699707,8|0,0:0|1:2,0:0:0:0:
186,209,71804,1,8,0:0:0:0:
186,209,71904,1,8,0:0:0:0:
186,209,72004,2,0,P|158:225|187:237,1,77.0000023498536,0|0,1:2|1:2,0:0:0:0:
273,160,72404,1,10,0:0:0:0:
186,106,72604,1,2,1:2:0:0:
298,33,72804,5,14,0:0:0:0:
298,33,73004,2,0,P|325:59|365:64,1,77.0000023498536,2|0,0:0|1:2,0:0:0:0:
356,159,73404,2,0,P|393:155|422:127,1,77.0000023498536,10|0,0:0|0:0,0:0:0:0:
487,202,73804,2,0,P|507:170|505:130,1,77.0000023498536,2|8,1:2|0:0,0:0:0:0:
512,310,74204,6,0,B|446:297|446:297|435:286|435:286|366:273,2,154.000004699707,2|2|10,1:2|0:0|0:0,0:0:0:0:
308,204,75404,1,0,1:2:0:0:
256,304,75604,1,10,0:0:0:0:
204,204,75804,1,0,1:2:0:0:
204,204,75904,1,0,1:2:0:0:
204,204,76004,5,10,0:0:0:0:
123,247,76204,2,0,L|48:233,1,77.0000023498536,2|0,0:0|1:2,0:0:0:0:
100,164,76604,2,0,L|74:319,1,154.000004699707,10|0,0:0|1:2,0:0:0:0:
173,308,77204,1,10,0:0:0:0:
271,300,77404,1,2,1:2:0:0:
268,315,77504,1,0,1:2:0:0:
265,330,77604,6,0,L|314:316,2,41.9999987182618,8|8|8,0:0|0:0|0:0,0:0:0:0:
325,229,78004,2,0,L|279:201,2,41.9999987182618,0|0|10,1:2|1:2|0:0,0:0:0:0:
400,145,78404,1,8,3:0:0:0:
401,155,78504,1,8,3:0:0:0:
403,165,78604,1,2,1:2:0:0:
405,176,78704,1,0,1:2:0:0:
407,187,78804,2,0,P|445:202|485:184,1,83.9999974365235,8|2,0:0|1:2,0:0:0:0:
512,69,79204,6,0,L|434:55,1,77.0000023498536,4|0,1:2|1:2,0:0:0:0:
510,52,79604,1,2,0:0:0:0:
350,75,79804,2,0,B|343:47|356:20|356:20|312:107,1,154.000004699707,2|2,1:2|1:2,0:0:0:0:
346,192,80404,1,0,1:2:0:0:
255,233,80604,1,2,0:0:0:0:
304,323,80804,1,0,1:2:0:0:
304,323,81004,6,0,P|250:273|172:273,1,154.000004699707,0|2,1:2|1:2,0:0:0:0:
95,227,81604,2,0,L|-21:227,2,115.50000352478,10|2|10,0:0|0:0|0:0,0:0:0:0:
100,214,82304,1,8,0:0:0:0:
107,202,82404,5,0,1:2:0:0:
200,187,82604,1,0,1:2:0:0:
281,235,82804,1,2,0:0:0:0:
300,327,83004,2,0,B|348:345|379:313|379:313|455:313,1,154.000004699707,2|0,1:2|1:2,0:0:0:0:
505,246,83604,1,2,1:2:0:0:
505,246,83804,1,2,0:0:0:0:
448,142,84004,6,0,B|462:126|456:108|456:108|462:126|488:129,1,77.0000023498536,0|8,1:2|0:0,0:0:0:0:
375,167,84404,1,0,1:2:0:0:
299,144,84604,1,0,1:2:0:0:
277,68,84804,6,0,L|200:78,1,77.0000023498536,8|0,0:0|1:2,0:0:0:0:
106,174,85204,6,0,L|187:184,1,77.0000023498536,8|2,0:0|1:2,0:0:0:0:
306,290,85604,6,0,P|228:278|173:322,1,154.000004699707,6|2,1:2|1:2,0:0:0:0:
89,308,86204,2,0,P|75:336|59:308,1,77.0000023498536,10|0,0:0|0:0,0:0:0:0:
11,236,86604,1,2,1:2:0:0:
91,193,86804,1,8,0:0:0:0:
178,147,87004,1,10,0:0:0:0:
168,141,87104,1,8,0:0:0:0:
158,135,87204,5,0,1:2:0:0:
256,93,87404,2,0,B|269:77|290:77|290:77|269:77|256:63,1,77.0000023498536,2|0,0:0|1:2,0:0:0:0:
247,208,87804,2,0,L|296:355,1,154.000004699707,10|0,0:0|1:2,0:0:0:0:
399,258,88404,1,8,0:0:0:0:
397,269,88504,1,8,3:0:0:0:
395,280,88604,1,8,3:0:0:0:
393,291,88704,1,0,1:2:0:0:
391,302,88804,5,6,1:2:0:0:
509,384,89004,2,0,P|523:348|506:308,1,83.9999974365235,10|0,0:0|1:2,0:0:0:0:
427,332,89404,1,10,0:0:0:0:
345,316,89604,1,0,1:2:0:0:
300,247,89804,1,10,0:0:0:0:
307,163,90004,1,0,1:2:0:0:
423,88,90204,6,0,B|451:76|482:81|482:81|370:61,1,167.999994873047,10|8,0:0|0:0,0:0:0:0:
390,53,90704,1,8,0:0:0:0:
403,44,90804,1,8,3:0:0:0:
380,167,91004,1,2,1:2:0:0:
256,95,91204,5,10,0:0:0:0:
256,95,92004,6,0,B|251:138,1,35,8|2,0:0|0:0,0:0:0:0:
314,194,92404,6,0,B|308:239,1,45.4999979171754,10|2,0:0|0:0,0:0:0:0:
181,240,92804,6,0,B|176:282,1,35,10|2,0:0|0:0,0:0:0:0:
269,338,93204,6,0,B|263:383,1,45.4999979171754,8|2,0:0|0:0,0:0:0:0:
413,351,93604,6,0,P|474:340|505:281,1,125.999996154785,8|10,0:0|0:0,0:0:0:0:
429,189,94204,1,2,0:0:0:0:
429,189,94404,6,0,B|423:234,1,45.4999979171754,8|2,0:0|0:0,0:0:0:0:
315,258,94804,6,0,B|280:215,1,45.4999979171754,8|2,0:0|0:0,0:0:0:0:
348,157,95204,5,12,0:0:0:0:
348,157,95304,1,0,1:2:0:0:
348,157,95404,2,0,L|380:293,1,140,2|2,0:0|1:2,0:0:0:0:
164,157,96204,2,0,L|132:293,1,140,2|2,1:2|1:2,0:0:0:0:
121,302,96704,1,2,1:2:0:0:
110,311,96804,6,0,P|178:306|227:357,1,140,10|10,0:0|0:0,0:0:0:0:
325,317,97404,1,2,1:2:0:0:
260,232,97604,1,10,0:0:0:0:
257,243,97704,1,10,3:0:0:0:
254,254,97804,1,10,3:0:0:0:
388,200,98004,6,0,P|403:167|384:129,1,78.7500030040742,10|0,0:0|0:0,0:0:0:0:
397,117,98404,5,4,1:2:0:0:
299,98,98604,1,8,0:0:0:0:
201,78,98804,1,0,1:2:0:0:
206,70,98904,1,0,1:2:0:0:
211,62,99004,1,8,0:0:0:0:
216,54,99104,1,0,1:2:0:0:
222,47,99204,2,0,L|137:29,1,83.9999974365235,0|8,1:2|0:0,0:0:0:0:
57,73,99604,1,0,1:2:0:0:
25,163,99804,1,10,0:0:0:0:
72,257,100004,6,0,P|119:222|184:222,2,125.999996154785,2|0|10,1:2|1:2|0:0,0:0:0:0:
11,179,100804,2,0,B|-3:165|-28:165|-28:165|-3:165|12:150,1,83.9999974365235,2|8,1:2|0:0,0:0:0:0:
76,74,101204,1,2,1:2:0:0:
172,116,101404,1,8,0:0:0:0:
184,114,101504,1,8,0:0:0:0:
196,112,101604,6,0,P|212:149|192:190,1,83.9999974365235,0|8,1:2|0:0,0:0:0:0:
232,265,102004,1,2,1:2:0:0:
316,285,102204,1,10,0:0:0:0:
393,245,102404,2,0,B|450:245|450:245|463:253|463:253|521:253,2,125.999996154785,2|0|8,1:2|1:2|0:0,0:0:0:0:
292,201,103204,6,0,B|297:168|297:168|294:161|294:161|302:163|302:163|299:156|299:156|303:125,1,83.9999974365235,2|10,1:2|0:0,0:0:0:0:
238,276,103604,6,0,B|232:308|232:308|235:315|235:315|227:313|227:313|230:320|230:320|226:351,1,83.9999974365235,0|8,1:2|0:0,0:0:0:0:
129,245,104004,5,2,1:2:0:0:
109,253,104104,1,8,0:0:0:0:
88,251,104204,1,8,0:0:0:0:
69,240,104304,1,8,0:0:0:0:
61,220,104404,1,2,1:2:0:0:
61,220,104804,6,0,P|103:223|138:201,1,83.9999974365235,14|10,0:0|0:0,0:0:0:0:
147,86,105204,2,0,B|125:78|125:54|125:54|125:77|102:86,1,83.9999974365235,10|10,0:0|0:0,0:0:0:0:
111,200,105604,6,0,P|146:221|187:218,1,83.9999974365235,10|10,0:0|0:0,0:0:0:0:
279,196,106004,1,10,0:0:0:0:
371,232,106204,1,10,0:0:0:0:
407,329,106404,6,0,B|375:356|375:356|333:347,1,83.9999974365235,10|0,0:0|1:2,0:0:0:0:
325,359,106704,6,0,B|289:336|289:336|285:294,1,83.9999974365235,10|0,0:0|1:2,0:0:0:0:
271,290,107004,6,0,B|281:249|281:249|320:231,1,83.9999974365235,10|0,0:0|1:2,0:0:0:0:
319,217,107304,6,0,B|360:213|360:213|389:245,1,83.9999974365235,10|0,0:0|1:2,0:0:0:0:
404,245,107604,5,10,0:0:0:0:
509,192,107804,1,10,0:0:0:0:
456,71,108004,6,0,B|475:24|475:24|468:40|451:46,1,83.9999974365235,14|10,0:0|0:0,0:0:0:0:
388,128,108404,2,0,B|331:128|365:116|306:116,1,83.9999974365235,10|10,0:0|0:0,0:0:0:0:
219,14,108804,5,10,0:0:0:0:
190,90,109004,1,10,0:0:0:0:
113,120,109204,1,10,0:0:0:0:
33,105,109404,1,10,0:0:0:0:
0,220,109604,6,0,B|35:220|35:220|43:227|43:227|84:227,1,83.9999974365235,10|0,0:0|1:2,0:0:0:0:
98,213,109904,6,0,B|116:250|116:250|98:288,1,83.9999974365235,10|0,0:0|1:2,0:0:0:0:
72,314,110204,6,0,B|109:289|156:318|147:325|140:330|189:360|228:336,1,168.750006437302,10|0,0:0|1:2,0:0:0:0:
227,350,110704,1,0,0:0:0:0:
227,364,110804,1,10,0:0:0:0:
326,311,111004,1,8,0:0:0:0:
234,215,111204,6,0,L|226:160,1,56,6|0,1:2|1:2,0:0:0:0:
325,172,111604,2,0,L|317:117,1,56,4|0,1:2|1:2,0:0:0:0:
219,172,112004,6,0,L|211:117,1,56,12|0,0:0|1:2,0:0:0:0:
308,128,112404,2,0,L|300:73,1,56,4|0,1:2|1:2,0:0:0:0:
427,219,112804,6,0,P|468:222|495:191,2,84,4|0|0,1:2|1:2|1:2,0:0:0:0:
427,232,113504,1,0,0:0:0:0:
427,246,113604,6,0,B|413:243|413:243|410:247|410:247|393:243|393:243|390:247|390:247|375:243|375:243|372:247|372:247|357:243|357:243|354:247|354:247|339:243|339:243|335:247|335:247|320:243|320:243|316:247|316:247|300:243|300:243|297:247|297:247|283:243|283:243|280:247|280:247|264:243|264:243|261:247|261:247|249:243|249:243|245:247|245:247|232:243|232:243|228:247|228:247|212:243|212:243|210:247|210:247|188:244,1,268.8,10|8,0:0|0:0,0:0:0:0:
46,201,114404,6,0,B|55:178|41:161|41:161|55:179|79:174,1,83.9999974365235,6|0,1:2|1:2,0:0:0:0:
197,134,114804,6,0,B|213:127|215:111|215:111|213:128|228:138,1,62.9999980773926,4|0,1:2|1:2,0:0:0:0:
116,146,115204,6,0,B|130:130|124:112|124:112|130:131|151:135,1,73.4999977569581,12|0,0:0|1:2,0:0:0:0:
273,157,115604,6,0,B|287:157|294:145|294:145|287:157|295:170,1,52.5000020027161,4|0,1:2|1:2,0:0:0:0:
422,118,116004,6,0,P|437:79|421:42,2,84,4|0|0,1:2|1:2|1:2,0:0:0:0:
430,126,116704,1,0,0:0:0:0:
439,135,116804,5,8,0:0:0:0:
376,190,117004,1,8,1:3:0:0:
410,266,117204,1,8,1:3:0:0:
491,259,117404,1,10,1:3:0:0:
509,183,117604,5,14,0:0:0:0:
509,183,117804,2,0,L|427:173,1,77.0000023498536,2|0,1:2|1:2,0:0:0:0:
367,102,118204,2,0,P|378:88|366:73,2,38.5000011749268,2|0|8,1:2|1:2|0:0,0:0:0:0:
289,160,118604,1,2,1:2:0:0:
224,87,118804,1,0,1:2:0:0:
211,85,118904,1,0,1:2:0:0:
198,83,119004,1,2,1:2:0:0:
185,81,119104,1,0,1:2:0:0:
171,79,119204,6,0,L|158:234,1,154.000004699707,8|2,0:0|1:2,0:0:0:0:
66,296,119804,1,2,1:2:0:0:
64,284,119904,1,0,0:0:0:0:
62,272,120004,1,8,0:0:0:0:
153,324,120204,1,2,1:2:0:0:
243,376,120404,2,0,P|272:355|311:357,1,77.0000023498536,8|0,0:0|1:2,0:0:0:0:
384,262,120804,5,14,0:0:0:0:
384,262,121004,2,0,P|343:264|314:244,1,77.0000023498536,2|0,1:2|1:2,0:0:0:0:
350,163,121404,2,0,B|419:155|419:155|435:164|435:164|500:156,2,154.000004699707,2|2|2,1:2|1:2|1:2,0:0:0:0:
339,158,122304,1,0,1:2:0:0:
329,152,122404,5,8,0:0:0:0:
299,230,122604,1,2,1:2:0:0:
257,107,122804,1,0,1:2:0:0:
216,230,123004,1,2,1:2:0:0:
187,152,123204,1,8,0:0:0:0:
176,152,123304,1,8,0:0:0:0:
165,152,123404,1,10,3:0:0:0:
154,152,123504,1,8,3:0:0:0:
143,152,123604,2,0,P|151:134|139:117,2,38.5000011749268,8|8|10,3:0|3:0|3:0,0:0:0:0:
61,247,124004,6,0,B|44:233|22:233|22:233|44:233|60:219,1,83.9999974365235,4|2,1:2|1:2,0:0:0:0:
139,265,124404,1,2,1:2:0:0:
118,340,124604,1,2,1:2:0:0:
40,322,124804,2,0,L|28:154,1,167.999994873047,10|2,0:0|0:0,0:0:0:0:
114,60,125404,6,0,B|166:71|198:37|198:37|274:37,2,167.999994873047,2|2|2,0:0|1:2|1:2,0:0:0:0:
65,168,126404,2,0,B|25:177|25:177|-11:153,1,83.9999974365235,8|8,0:0|0:0,0:0:0:0:
43,94,126804,1,2,1:2:0:0:
43,94,127004,1,2,1:2:0:0:
164,226,127204,6,0,P|200:211|218:172,1,83.9999974365235,14|10,0:0|3:0,0:0:0:0:
218,172,127604,1,10,3:0:0:0:
244,294,127804,2,0,B|173:277|173:277|163:262|163:262|88:243,2,167.999994873047,10|2|14,0:0|1:2|0:0,0:0:0:0:
360,345,128804,6,0,B|364:370|364:370|368:397|408:393|404:365|404:365|391:264|391:264|386:225|425:201|465:217|471:254|471:254|476:285,1,346.49998942566,0|8,0:0|0:0,0:0:0:0:
229,108,130404,5,14,0:0:0:0:
229,108,130604,2,0,B|266:117|266:117|299:99,1,77.0000023498536,2|0,0:0|1:2,0:0:0:0:
256,37,131004,2,0,L|276:201,1,154.000004699707,10|2,0:0|1:2,0:0:0:0:
287,278,131604,1,8,0:0:0:0:
227,350,131804,1,2,1:2:0:0:
128,366,132004,6,0,P|66:320|-5:333,1,154.000004699707,8|2,0:0|1:2,0:0:0:0:
79,282,132604,2,0,B|54:177|54:177|60:201|80:213,1,154.000004699707,10|0,0:0|1:2,0:0:0:0:
162,196,133204,1,10,0:0:0:0:
243,178,133404,1,0,1:2:0:0:
336,278,133604,5,10,0:0:0:0:
336,278,133804,2,0,B|351:263|371:263|371:263|351:263|335:248,1,77.0000023498536,2|0,0:0|1:2,0:0:0:0:
253,316,134204,2,0,P|329:311|387:358,1,154.000004699707,10|0,0:0|1:2,0:0:0:0:
498,318,134804,1,10,0:0:0:0:
426,262,135004,1,2,1:2:0:0:
512,178,135204,6,0,B|450:156|450:156|430:161|430:161|366:140,1,154.000004699707,8|0,0:0|1:2,0:0:0:0:
450,57,135804,1,8,0:0:0:0:
450,57,135904,1,8,0:0:0:0:
450,57,136004,2,0,P|464:90|445:131,1,77.0000023498536,0|0,1:2|1:2,0:0:0:0:
366,140,136404,1,10,0:0:0:0:
282,153,136604,1,2,1:2:0:0:
190,73,136804,5,14,0:0:0:0:
190,73,137004,2,0,B|162:62|162:62|226:51,1,77.0000023498536,2|0,0:0|1:2,0:0:0:0:
311,37,137404,2,0,L|290:118,1,77.0000023498536,10|0,0:0|0:0,0:0:0:0:
302,211,137804,2,0,L|227:191,1,77.0000023498536,2|8,1:2|0:0,0:0:0:0:
361,320,138204,6,0,P|433:312|463:243,2,154.000004699707,2|2|10,1:2|0:0|0:0,0:0:0:0:
227,191,139404,5,0,1:2:0:0:
312,165,139604,1,10,0:0:0:0:
404,146,139804,1,0,1:2:0:0:
404,146,139904,1,0,1:2:0:0:
404,146,140004,5,10,0:0:0:0:
358,51,140204,2,0,B|343:32|349:14|349:14|343:32|320:39,1,77.0000023498536,2|0,0:0|1:2,0:0:0:0:
462,81,140604,2,0,L|423:233,1,154.000004699707,10|0,0:0|1:2,0:0:0:0:
325,218,141204,1,10,0:0:0:0:
241,266,141404,1,2,1:2:0:0:
247,275,141504,1,0,1:2:0:0:
253,285,141604,6,0,L|209:284,2,41.9999987182618,8|8|8,0:0|0:0|0:0,0:0:0:0:
325,218,142004,2,0,L|308:177,2,41.9999987182618,0|0|10,1:2|1:2|0:0,0:0:0:0:
423,230,142404,1,8,3:0:0:0:
426,219,142504,1,8,3:0:0:0:
429,208,142604,1,2,1:2:0:0:
432,197,142704,1,0,1:2:0:0:
435,186,142804,6,0,P|477:193|516:176,1,83.9999974365235,8|2,0:0|1:2,0:0:0:0:
402,49,143204,6,0,B|414:31|409:13|409:13|414:31|437:38,1,77.0000023498536,4|0,1:2|1:2,0:0:0:0:
329,85,143604,1,2,0:0:0:0:
251,120,143804,2,0,B|202:133|174:96|174:96|105:86,1,154.000004699707,2|2,1:2|1:2,0:0:0:0:
1,155,144404,1,0,1:2:0:0:
22,69,144604,1,2,0:0:0:0:
89,174,144804,5,0,1:2:0:0:
89,174,145004,2,0,L|60:329,1,154.000004699707,0|2,1:2|1:2,0:0:0:0:
109,384,145604,2,0,B|85:384|85:384|51:384|55:367|25:367|25:367|-5:367,2,115.50000352478,10|0|10,0:0|0:0|0:0,0:0:0:0:
120,375,146304,1,8,0:0:0:0:
133,367,146404,5,0,1:2:0:0:
224,384,146604,1,0,1:2:0:0:
309,338,146804,1,2,0:0:0:0:
339,242,147004,2,0,P|263:245|214:190,1,154.000004699707,2|0,1:2|1:2,0:0:0:0:
273,133,147604,1,2,1:2:0:0:
331,75,147804,1,2,0:0:0:0:
474,75,148004,6,0,B|489:61|509:61|509:61|489:61|473:46,1,77.0000023498536,0|8,1:2|0:0,0:0:0:0:
399,133,148404,1,0,1:2:0:0:
331,75,148604,1,0,1:2:0:0:
209,100,148804,6,0,P|235:128|273:133,1,77.0000023498536,8|0,0:0|1:2,0:0:0:0:
81,141,149204,6,0,P|60:108|66:69,1,77.0000023498536,8|2,0:0|1:2,0:0:0:0:
204,29,149604,6,0,L|217:189,1,154.000004699707,6|2,1:2|1:2,0:0:0:0:
139,293,150204,2,0,B|123:258|123:258|140:220,1,77.0000023498536,10|0,0:0|0:0,0:0:0:0:
217,313,150604,1,2,1:2:0:0:
295,330,150804,1,8,0:0:0:0:
394,261,151004,1,10,0:0:0:0:
397,272,151104,1,8,0:0:0:0:
400,283,151204,5,0,1:2:0:0:
319,215,151404,2,0,L|305:139,1,77.0000023498536,2|0,0:0|1:2,0:0:0:0:
295,330,151804,2,0,P|369:318|434:363,1,154.000004699707,10|0,0:0|1:2,0:0:0:0:
210,256,152404,1,8,0:0:0:0:
199,259,152504,1,8,3:0:0:0:
188,262,152604,1,8,3:0:0:0:
177,266,152704,1,0,1:2:0:0:
166,269,152804,5,6,1:2:0:0:
71,199,153004,2,0,B|58:184|33:184|33:184|58:184|73:167,1,83.9999974365235,10|0,0:0|1:2,0:0:0:0:
0,261,153404,5,10,0:0:0:0:
71,213,153604,1,0,1:2:0:0:
167,207,153804,1,10,0:0:0:0:
264,241,154004,1,0,1:2:0:0:
328,332,154204,6,0,P|411:336|459:273,1,167.999994873047,10|8,0:0|0:0,0:0:0:0:
452,262,154704,1,8,0:0:0:0:
446,250,154804,1,8,3:0:0:0:
512,182,155004,1,2,1:2:0:0:
369,123,155204,5,10,0:0:0:0:
369,123,156004,6,0,L|534:77,1,167.999994873047,4|0,1:2|0:0,0:0:0:0:
409,47,156604,6,0,P|424:59|445:56,1,41.9999987182618,4|0,1:2|0:0,0:0:0:0:
294,212,157004,6,0,P|311:200|334:202,1,41.9999987182618,4|0,1:2|0:0,0:0:0:0:
171,28,157404,6,0,P|186:40|207:37,1,41.9999987182618,4|0,1:2|0:0,0:0:0:0:
0,166,158204,5,8,0:0:0:0:
89,144,158404,1,10,0:0:0:0:
87,153,158504,1,8,3:0:0:0:
85,162,158604,1,10,3:0:0:0:
203,181,158804,1,10,0:0:0:0:
195,186,158904,1,8,0:0:0:0:
187,191,159004,1,10,0:0:0:0:
179,196,159104,1,8,0:0:0:0:
171,202,159204,6,0,L|255:193,1,83.9999974365235,4|0,1:2|1:2,0:0:0:0:
327,248,159604,1,8,0:0:0:0:
386,179,159804,1,4,1:2:0:0:
457,236,160004,2,0,B|486:224|496:197|496:197|452:310,1,167.999994873047,12|8,0:0|0:0,0:0:0:0:
338,384,160604,1,4,1:2:0:0:
334,371,160704,1,0,1:2:0:0:
329,358,160804,6,0,P|363:364|348:333,1,83.9999974365235,12|2,0:0|1:2,0:0:0:0:
243,358,161204,2,0,B|187:358|187:358|176:351|176:351|116:351,1,125.999996154785,10|0,0:2|1:2,0:0:0:0:
105,367,161604,5,10,0:2:0:0:
55,234,161804,1,2,1:2:0:0:
39,315,162004,5,8,0:2:0:0:
135,211,162204,1,2,1:2:0:0:
31,97,162404,6,0,B|18:84|-7:84|-7:84|18:84|31:69,1,83.9999974365235,12|0,0:0|1:2,0:0:0:0:
111,85,162804,1,8,0:0:0:0:
43,175,163004,1,4,1:2:0:0:
123,163,163204,2,0,B|159:155|159:155|206:146|205:172|252:163|252:163|288:156,1,167.999994873047,12|8,0:2|0:2,0:0:0:0:
354,76,163804,1,4,1:2:0:0:
351,65,163904,1,0,1:2:0:0:
349,54,164004,6,0,L|338:12,2,41.9999987182618,12|0|0,0:0|1:2|1:2,0:0:0:0:
445,65,164404,2,0,L|474:28,2,41.9999987182618,8|0|0,0:2|1:2|1:2,0:0:0:0:
495,144,164804,2,0,L|539:135,2,41.9999987182618,8|0|0,0:2|1:2|1:2,0:0:0:0:
456,233,165204,1,8,0:2:0:0:
440,218,165304,1,0,1:2:0:0:
419,211,165404,1,0,1:2:0:0:
398,211,165504,1,0,1:2:0:0:
378,218,165604,6,0,B|393:137|393:137|388:162|368:176,2,125.999996154785,14|0|6,0:2|1:2|1:2,0:0:0:0:
296,280,166404,2,0,B|256:268|256:268|214:281,1,83.9999974365235,14|2,0:2|1:2,0:0:0:0:
207,268,166704,2,0,P|145:279|100:238,1,125.999996154785,0|4,1:2|1:2,0:0:0:0:
174,97,167204,5,14,0:2:0:0:
87,71,167404,1,0,1:2:0:0:
0,44,167604,2,0,L|10:129,1,83.9999974365235,10|2,0:2|1:2,0:0:0:0:
0,247,168004,5,8,0:2:0:0:
162,231,168204,1,0,1:2:0:0:
79,216,168404,5,8,0:2:0:0:
205,302,168604,1,0,1:2:0:0:
380,216,168804,6,0,B|342:176|349:140|349:140|342:176|291:192,1,167.999994873047,12|8,0:2|0:0,0:0:0:0:
441,295,169404,1,6,1:2:0:0:
303,345,169604,6,0,B|262:366|215:334|223:329|232:323|186:291|148:314,1,167.999994873047,14|8,0:0|0:0,0:0:0:0:
156,301,170104,1,8,0:0:0:0:
163,289,170204,1,8,0:0:0:0:
377,73,172193,6,0,L|359:124,2,48.9999985046387,4|0|0,1:2|1:2|1:2,0:0:0:0:
464,91,172693,5,2,1:2:0:0:
279,143,172943,1,0,1:2:0:0:
408,271,173193,1,10,0:0:0:0:
413,254,173318,1,0,1:2:0:0:
419,237,173443,6,0,L|317:253,1,97.9999970092774,0|2,1:2|1:2,0:0:0:0:
197,158,173943,1,0,1:2:0:0:
216,155,174068,1,0,1:2:0:0:
235,152,174193,6,0,L|229:103,2,48.9999985046387,2|0|0,1:2|1:2|1:2,0:0:0:0:
107,123,174693,2,0,L|141:82,2,48.9999985046387,2|0|0,1:2|1:2|1:2,0:0:0:0:
0,20,175193,6,0,L|100:6,1,97.9999970092774,10|0,0:0|1:2,0:0:0:0:
276,63,175693,1,2,1:2:0:0:
256,66,175818,1,0,1:2:0:0:
236,69,175943,1,0,1:2:0:0:
256,192,176193,12,10,178193,0:0:0:0:
70,271,179443,5,0,1:2:0:0:
75,262,179568,1,0,1:0:0:0:
80,253,179693,2,0,B|61:241|32:246|32:246|114:231,1,125.999996154785,8|0,3:0|0:0,0:0:0:0:
160,156,180193,6,0,L|150:109,2,48.9999985046387,4|0|0,1:2|1:2|1:2,0:0:0:0:
149,345,180693,5,2,1:2:0:0:
256,285,180943,1,0,1:2:0:0:
395,272,181193,1,10,0:0:0:0:
388,285,181318,1,0,1:2:0:0:
381,298,181443,2,0,L|354:202,1,97.9999970092774,0|2,1:2|1:2,0:0:0:0:
454,76,181943,1,0,1:2:0:0:
451,94,182068,1,0,1:2:0:0:
448,112,182193,6,0,L|497:112,1,48.9999985046387,2|0,1:2|1:2,0:0:0:0:
312,178,182568,1,0,1:2:0:0:
312,178,182693,2,0,L|358:205,2,48.9999985046387,2|0|0,1:2|1:2|1:2,0:0:0:0:
139,172,183193,6,0,L|184:258,1,97.9999970092774,10|0,0:0|1:2,0:0:0:0:
346,357,183693,1,2,1:2:0:0:
339,343,183818,1,0,1:2:0:0:
332,329,183943,1,0,1:2:0:0:
325,315,184068,1,0,1:2:0:0:
256,192,184193,12,8,186193,0:0:0:0:
481,182,187693,6,0,B|455:170|455:144|455:144|455:170|435:203|398:210|364:194,1,173.250001652241,2|0,0:0|0:0,0:0:0:0:
364,218,188193,6,0,B|325:193|325:193|274:210,1,97.9999970092774,6|0,1:2|1:2,0:0:0:0:
256,218,188568,1,2,1:2:0:0:
55,58,188943,2,0,B|63:-1|63:-1|108:127,1,195.999994018555,2|2,1:2|1:2,0:0:0:0:
145,230,189693,1,2,1:2:0:0:
256,276,189943,1,2,1:2:0:0:
377,236,190193,6,0,B|443:236|443:236|461:247|461:247|528:247,2,146.999995513916,2|2|2,1:2|1:2|1:2,0:0:0:0:
264,144,191193,1,8,1:2:0:0:
286,141,191318,1,0,1:2:0:0:
308,138,191443,1,0,1:2:0:0:
434,35,191693,1,10,1:2:0:0:
412,32,191818,1,8,1:2:0:0:
390,29,191943,1,8,1:2:0:0:
368,26,192068,1,0,0:0:0:0:
348,23,192193,5,0,0:0:0:0:
256,192,192318,12,2,195693,0:0:0:0:
90,241,196193,5,0,1:2:0:0:
0,290,196443,2,0,B|192:252,1,195.999994018555,0|0,1:2|1:2,0:0:0:0:
392,160,197443,5,0,1:2:0:0:
301,90,197693,1,0,1:2:0:0:
402,37,197943,1,0,1:2:0:0:
512,107,198193,5,0,1:2:0:0:
419,157,198443,1,0,1:2:0:0:
349,64,198693,1,0,1:2:0:0:
217,107,198943,2,0,B|238:77|238:77|221:44|206:13|206:13|178:42|157:65|157:65|167:97,1,210.000008010865,0|0,1:2|1:2,0:0:0:0:
0,206,199693,1,0,1:2:0:0:
24,201,199818,1,0,1:2:0:0:
48,205,199943,1,0,1:2:0:0:
69,217,200068,1,0,1:2:0:0:
82,237,200193,5,2,0:0:0:0:
182,219,200443,5,2,0:0:0:0:
288,250,200693,5,2,0:0:0:0:
343,349,200943,5,2,0:0:0:0:
484,214,201193,6,0,B|476:163|476:163|473:158|473:158|479:157|479:157|475:152|475:152|467:98,1,119.000002269745,2|2,0:0|0:0,0:0:0:0:
176,137,201693,6,0,B|183:86|183:86|187:81|187:81|180:80|180:80|184:75|184:75|192:21,1,119.000002269745,2|2,0:0|1:2,0:0:0:0:
194,14,202068,1,0,0:0:0:0:
197,0,202193,5,10,0:0:0:0:
277,87,202443,1,8,3:0:0:0:
83,130,202693,1,10,3:0:0:0:
81,146,202818,1,8,3:0:0:0:
79,162,202943,1,0,1:0:0:0:
77,178,203068,1,0,1:0:0:0:
75,194,203193,1,10,0:0:0:0:
216,314,203443,6,0,L|172:276,1,48.9999985046387,8|0,3:0|0:0,0:0:0:0:
301,280,203693,2,0,L|296:225,1,48.9999985046387,8|0,3:0|0:0,0:0:0:0:
394,294,203943,2,0,L|421:249,1,48.9999985046387,10|0,3:0|0:0,0:0:0:0:
312,384,204204,5,4,0:0:0:0:
416,135,213804,5,14,0:0:0:0:
416,135,214004,2,0,L|335:118,1,77.0000023498536,2|0,0:0|1:2,0:0:0:0:
396,52,214404,2,0,L|362:203,1,154.000004699707,10|2,0:0|1:2,0:0:0:0:
429,300,215004,1,8,0:0:0:0:
448,218,215204,1,2,1:2:0:0:
509,353,215404,6,0,P|430:340|373:382,1,154.000004699707,8|2,0:0|1:2,0:0:0:0:
276,327,216004,2,0,B|254:300|206:300|206:300|254:300|276:275,1,154.000004699707,10|0,0:0|1:2,0:0:0:0:
363,223,216604,1,10,0:0:0:0:
266,173,216804,1,0,1:2:0:0:
373,118,217004,5,10,0:0:0:0:
373,118,217204,2,0,P|382:79|372:44,1,77.0000023498536,2|0,0:0|1:2,0:0:0:0:
458,91,217604,2,0,L|303:79,1,154.000004699707,10|0,0:0|1:2,0:0:0:0:
210,71,218204,1,10,0:0:0:0:
124,121,218404,1,2,1:2:0:0:
110,231,218604,6,0,B|185:221|185:221|212:248|257:238,1,154.000004699707,8|0,0:0|1:2,0:0:0:0:
335,328,219204,1,8,0:0:0:0:
335,328,219304,1,8,0:0:0:0:
335,328,219404,2,0,L|253:328,1,77.0000023498536,0|0,1:2|1:2,0:0:0:0:
406,363,219804,1,10,0:0:0:0:
477,328,220004,1,2,1:2:0:0:
440,209,220204,5,14,0:0:0:0:
440,209,220404,2,0,B|456:193|451:175|451:175|456:193|477:201,1,77.0000023498536,2|0,0:0|1:2,0:0:0:0:
318,180,220804,2,0,B|340:178|348:161|348:161|340:178|351:197,1,77.0000023498536,10|0,0:0|0:0,0:0:0:0:
238,88,221204,2,0,B|255:101|273:92|273:92|255:101|252:123,1,77.0000023498536,2|8,1:2|0:0,0:0:0:0:
389,52,221604,6,0,P|472:56|514:-1,2,154.000004699707,2|2|10,1:2|0:0|0:0,0:0:0:0:
197,137,222804,1,0,1:2:0:0:
256,230,223004,1,10,0:0:0:0:
322,144,223204,1,0,1:2:0:0:
322,144,223304,1,0,1:2:0:0:
322,144,223404,5,10,0:0:0:0:
256,75,223604,2,0,B|271:39|271:39|253:2,1,77.0000023498536,2|0,0:0|1:2,0:0:0:0:
172,105,224004,2,0,L|322:144,1,154.000004699707,10|0,0:0|1:2,0:0:0:0:
296,226,224604,1,10,0:0:0:0:
344,307,224804,1,2,1:2:0:0:
444,307,225004,5,8,0:0:0:0:
457,310,225104,1,8,0:0:0:0:
470,313,225204,2,0,P|482:276|466:242,1,77.0000023498536,8|0,0:0|1:2,0:0:0:0:
353,289,225604,1,10,0:0:0:0:
242,333,225804,1,8,3:0:0:0:
229,330,225904,1,8,3:0:0:0:
216,327,226004,1,2,1:2:0:0:
203,324,226104,1,0,1:2:0:0:
190,321,226204,2,0,B|168:330|168:349|168:349|168:330|145:320,1,77.0000023498536,8|2,0:0|1:2,0:0:0:0:
46,232,226604,6,0,P|18:242|46:255,1,77.0000023498536,4|0,1:2|1:2,0:0:0:0:
108,184,227004,1,2,0:0:0:0:
170,133,227204,2,0,B|183:111|176:83|176:83|204:187,1,154.000004699707,2|2,1:2|1:2,0:0:0:0:
298,207,227804,1,0,1:2:0:0:
225,278,228004,1,2,0:0:0:0:
330,330,228204,5,0,1:2:0:0:
330,330,228404,2,0,B|395:343|395:343|408:358|408:358|474:371,1,154.000004699707,0|2,1:2|1:2,0:0:0:0:
474,279,229004,2,0,P|529:265|529:213,2,115.50000352478,10|2|10,0:0|0:0|0:0,0:0:0:0:
474,269,229704,1,8,0:0:0:0:
474,259,229804,5,0,1:2:0:0:
403,340,230004,1,0,1:2:0:0:
330,279,230204,1,2,0:0:0:0:
260,340,230404,2,0,B|212:346|187:312|187:312|115:302,1,154.000004699707,2|0,1:2|1:2,0:0:0:0:
57,238,231004,1,2,1:2:0:0:
150,207,231204,1,2,0:0:0:0:
256,177,231404,6,0,B|268:161|289:161|289:161|268:161|255:145,2,77.0000023498536,0|8|0,1:2|0:0|1:2,0:0:0:0:
129,117,232004,6,0,B|136:97|125:79|125:79|136:97|156:99,1,77.0000023498536,0|8,1:2|0:0,0:0:0:0:
161,243,232404,6,0,B|140:246|130:264|130:264|140:246|131:229,1,77.0000023498536,0|8,1:2|0:0,0:0:0:0:
243,270,232804,1,2,1:2:0:0:
290,382,233004,6,0,P|347:333|423:338,1,154.000004699707,6|2,1:2|1:2,0:0:0:0:
499,265,233604,2,0,P|461:265|429:241,1,77.0000023498536,10|0,0:0|0:0,0:0:0:0:
443,165,234004,1,2,1:2:0:0:
455,87,234204,1,8,0:0:0:0:
310,7,234404,5,10,0:0:0:0:
312,18,234504,1,8,0:0:0:0:
314,30,234604,1,0,1:2:0:0:
378,98,234804,2,0,L|468:84,1,77.0000023498536,2|0,0:0|1:2,0:0:0:0:
293,173,235204,2,0,P|234:131|159:150,1,154.000004699707,10|0,0:0|1:2,0:0:0:0:
54,82,235804,1,8,0:0:0:0:
62,82,235904,1,8,3:0:0:0:
70,82,236004,1,8,3:0:0:0:
78,82,236104,1,0,1:2:0:0:
86,82,236204,5,6,1:2:0:0:
1,4,236404,2,0,L|24:172,1,167.999994873047,2|10,0:0|0:0,0:0:0:0:
228,306,237204,1,2,1:2:0:0:
293,258,237404,1,8,0:0:0:0:
218,228,237604,1,2,1:2:0:0:
165,384,237804,6,0,P|227:341|313:360,1,167.999994873047,12|0,0:0|1:2,0:0:0:0:
408,344,238404,2,0,B|348:332|348:332|364:226,1,167.999994873047,8|0,0:0|1:2,0:0:0:0:
462,143,239004,1,8,0:0:0:0:
465,153,239104,1,8,3:0:0:0:
468,164,239204,1,10,3:0:0:0:
471,175,239304,1,0,1:2:0:0:
474,186,239404,5,10,0:0:0:0:
508,63,239604,2,0,B|488:50|488:28|488:28|488:50|469:63,1,83.9999974365235,10|0,0:0|1:2,0:0:0:0:
512,221,240004,5,10,0:0:0:0:
433,170,240204,1,0,1:2:0:0:
332,165,240404,1,10,0:0:0:0:
237,210,240604,1,0,1:2:0:0:
216,321,240804,6,0,B|296:305|296:305|327:335|377:324,1,167.999994873047,10|8,0:0|0:0,0:0:0:0:
381,336,241304,1,8,0:0:0:0:
387,347,241404,1,8,0:0:0:0:
432,266,241604,1,10,3:0:0:0:
477,199,241804,2,0,P|464:184|477:169,2,41.9999987182618,10|8|0,3:0|3:0|1:2,0:0:0:0:
416,66,242204,1,2,1:2:0:0:
402,87,242304,1,0,1:2:0:0:
379,98,242404,1,2,1:2:0:0:
353,100,242504,1,0,1:2:0:0:
329,91,242604,5,4,1:2:0:0:
256,158,242804,2,0,L|207:158,2,41.9999987182618,8|8|8,0:0|0:0|0:0,0:0:0:0:
356,216,243204,2,0,B|369:233|393:233|393:233|369:233|355:251,1,83.9999974365235,4|0,1:2|1:2,0:0:0:0:
286,349,243604,2,0,P|225:302|142:322,1,167.999994873047,8|8,0:0|3:0,0:0:0:0:
83,192,244204,5,4,1:2:0:0:
256,192,244304,12,0,252204,0:0:0:0:
