osu file format v14

[General]
AudioFilename: audio.mp3
AudioLeadIn: 0
PreviewTime: 212404
Countdown: 0
SampleSet: Soft
StackLeniency: 0.5
Mode: 0
LetterboxInBreaks: 0
WidescreenStoryboard: 1

[Editor]
Bookmarks: 25898,40134,53604,66404,92004,98404,111204,117604,130404,156004,159204,172204,188193,213804,242604
DistanceSpacing: 0.8
BeatDivisor: 4
GridSize: 32
TimelineZoom: 1.9

[Metadata]
Title:Enjoy Your Slay (feat. Sam Kubrick)
TitleUnicode:Enjoy Your Slay (feat. Sam Kubrick)
Artist:Ice Nine Kills
ArtistUnicode:Ice Nine Kills
Creator:Blitzifyyy
Version:Mimari's Normal
Source:
Tags:Niva Mimari WashedUp Player Shining The Silver Scream INK Spencer Charnas Ricky Armellino Patrick Galante Joe Occhiuti Dan Sugarman Justin DeBlieck Metal Metalcore Rock English
BeatmapID:3027939
BeatmapSetID:1445099

[Difficulty]
HPDrainRate:3
CircleSize:3.8
OverallDifficulty:4
ApproachRate:5
SliderMultiplier:1.2
SliderTickRate:1

[Events]
//Background and Video events
0,0,"comeplaywithus.jpg",0,0
//Break Periods
2,26298,38934
2,92204,97204
2,156204,158004
2,205804,212204
//Storyboard Layer 0 (Background)
//Storyboard Layer 1 (Fail)
//Storyboard Layer 2 (Pass)
//Storyboard Layer 3 (Foreground)
//Storyboard Layer 4 (Overlay)
//Storyboard Sound Samples

[TimingPoints]
13098,400,4,2,1,80,1,0
13098,-100,4,2,1,80,0,0
40134,439.56043956044,4,2,1,55,1,0
40134,-111.111111111111,4,2,1,80,0,0
43650,427.046263345196,4,2,1,55,1,0
43650,-111.111111111111,4,2,1,55,0,0
47066,418.118466898955,4,2,1,55,1,0
47066,-111.111111111111,4,2,1,55,0,0
48529,406.779661016949,4,2,1,55,1,0
48529,-111.111111111111,4,2,1,55,0,0
48732,426.287744227353,4,2,1,55,1,0
48732,-111.111111111111,4,2,1,55,0,0
50437,396.039603960396,4,2,1,55,1,0
50437,-111.111111111111,4,2,1,55,0,0
53604,400,4,2,1,70,1,0
53604,-105.263157894737,4,2,1,55,0,0
66404,-100,4,2,1,55,0,1
92004,-100,4,2,1,55,0,0
98404,-100,4,2,1,55,0,0
111204,-105.263157894737,4,2,1,55,0,0
130404,-100,4,2,1,55,0,1
156004,-100,4,2,1,55,0,0
159204,-100,4,2,1,55,0,0
172193,500,4,2,1,65,1,0
172193,-90.9090909090909,4,2,1,65,0,0
204204,400,4,2,1,55,1,0
213804,-100,4,2,1,55,0,1
242604,-100,4,2,1,55,0,0

[Colours]
Combo1 : 128,0,0
Combo2 : 98,98,98
Combo3 : 164,164,164
Combo4 : 228,228,228

[HitObjects]
422,332,13098,6,0,L|433:187,1,120,6|0,1:2|1:0,0:0:0:0:
458,172,13698,1,0,1:0:0:0:
458,172,13898,2,0,L|452:101,1,60,0|2,1:0|1:2,0:0:0:0:
448,64,14298,1,2,1:2:0:0:
368,9,14698,6,0,P|325:9|292:91,1,120,4|0,1:2|1:0,0:0:0:0:
233,148,15498,2,0,L|242:231,1,60,8|2,0:0|1:2,0:0:0:0:
278,236,15898,2,0,L|269:319,1,60,2|2,1:2|1:2,0:0:0:0:
266,343,16298,6,0,B|224:370|224:370|143:343,1,120,4|0,1:2|1:0,0:0:0:0:
115,323,16898,2,0,P|105:290|117:256,1,60,2|0,1:2|1:0,0:0:0:0:
133,223,17298,1,2,1:2:0:0:
63,157,17698,1,2,1:2:0:0:
63,157,17898,6,0,B|39:88|39:88|87:38,2,120,4|0|8,1:2|1:0|0:0,0:0:0:0:
156,135,19098,2,0,P|187:128|229:143,1,60,10|2,1:2|1:2,0:0:0:0:
254,159,19498,6,0,L|265:304,1,120,6|0,1:2|1:0,0:0:0:0:
271,330,20098,1,0,1:0:0:0:
271,330,20298,2,0,P|300:335|329:328,1,60,0|2,1:0|1:2,0:0:0:0:
367,298,20698,1,2,1:2:0:0:
451,253,21098,6,0,B|480:291|480:291|453:364,2,120,4|0|8,1:2|1:0|0:0,0:0:0:0:
421,221,22098,1,2,1:2:0:0:
421,221,22298,2,0,L|343:216,1,60,2|2,1:2|1:2,0:0:0:0:
313,210,22698,5,4,1:2:0:0:
313,210,22898,2,0,P|291:154|332:90,1,120,2|2,1:2|1:2,0:0:0:0:
379,31,23698,1,2,1:2:0:0:
287,4,24098,1,6,1:2:0:0:
287,4,24298,6,0,L|150:23,1,120,0|0,1:2|1:2,0:0:0:0:
121,30,24898,2,0,P|113:60|123:97,1,60,14|0,0:0|1:2,0:0:0:0:
135,132,25298,2,0,P|143:162|133:199,1,60,10|8,0:0|0:0,0:0:0:0:
120,234,25698,2,0,B|77:230|77:230|58:236|58:236|42:228|42:228|-12:223,1,120,10|0,0:0|0:0,0:0:0:0:
295,144,40134,6,0,B|348:104|313:29|243:16|195:73|215:123|215:123|221:153|205:186|171:191|171:191|94:195|94:195|115:180|119:157,1,431.999986816407,2|0,0:0|0:0,0:0:0:0:
133,104,43650,6,0,B|166:47|235:69|235:69|374:108|374:108|277:125|277:125|237:131|224:176,1,431.999986816407,2|0,0:0|0:0,0:0:0:0:
305,240,47066,6,0,B|346:219|361:174|349:118|310:89|277:83|277:83|288:-2|377:-22|415:49|415:49,1,377.999988464356,2|8,0:0|1:3,0:0:0:0:
416,74,48732,2,0,P|307:64|185:53,1,215.999993408203,8|0,1:3|0:0,0:0:0:0:
125,13,50010,6,0,P|98:47|99:73,1,53.9999983520508,0|2,0:0|0:0,0:0:0:0:
99,102,50437,2,0,L|116:274,1,161.999995056153,2|0,0:0|0:0,0:0:0:0:
170,324,51427,6,0,P|118:312|72:338,2,107.999996704102
251,352,52615,6,0,B|337:378|315:296|406:324,1,161.999995056153,2|0,0:0|0:0,0:0:0:0:
441,337,53407,1,0,0:0:0:0:
441,337,53604,6,0,B|459:184|459:184|446:228|410:238,1,227.999993911743,6|0,1:2|0:0,0:0:0:0:
252,149,55204,2,0,B|238:92|238:92|226:41|277:19|324:30|348:62|327:111,1,227.999993911743,4|0,1:2|0:0,0:0:0:0:
327,183,56404,2,0,P|311:210|277:228,1,56.9999984779358,8|0,3:0|1:0,0:0:0:0:
244,227,56804,6,0,B|163:212|163:212|133:227|112:244|112:244|24:230,1,227.999993911743,6|0,1:2|0:0,0:0:0:0:
1,143,58004,2,0,L|10:73,1,56.9999984779358,8|2,0:0|1:2,0:0:0:0:
18,41,58404,6,0,P|75:24|135:52,1,113.999996955872,4|0,1:2|0:0,0:0:0:0:
164,74,59004,1,2,1:2:0:0:
164,74,59204,1,8,0:0:0:0:
234,15,59604,1,8,3:0:0:0:
300,79,60004,6,0,B|289:159|289:159|274:184|274:184|280:217|280:217|267:328,2,227.999993911743,4|2|2,1:2|0:0|0:0,0:0:0:0:
466,5,62404,2,0,P|507:75|461:166,1,170.999995433807,2|2,0:0|0:0,0:0:0:0:
436,174,63204,6,0,B|391:169|391:169|364:179|364:179|307:171,1,113.999996955872,6|2,1:2|0:0,0:0:0:0:
279,169,63804,1,6,1:2:0:0:
226,243,64204,1,6,1:2:0:0:
297,299,64604,1,6,1:2:0:0:
44,345,66404,5,14,0:0:0:0:
48,349,66604,2,0,L|43:281,1,60,2|0,0:0|1:2,0:0:0:0:
39,241,67004,1,10,0:0:0:0:
125,282,67404,1,2,1:2:0:0:
202,224,67804,1,2,1:2:0:0:
202,224,68004,6,0,P|258:205|313:225,1,120,8|2,0:0|1:2,0:0:0:0:
350,256,68604,2,0,L|349:338,1,60,10|0,0:0|0:0,0:0:0:0:
352,367,69004,1,0,1:2:0:0:
352,367,69204,1,10,0:0:0:0:
451,371,69604,5,10,0:0:0:0:
451,371,69804,2,0,P|469:314|449:259,1,120,2|10,0:0|0:0,0:0:0:0:
397,184,70604,1,0,1:2:0:0:
397,184,70804,2,0,L|314:176,1,60,10|2,0:0|1:2,0:0:0:0:
289,173,71204,6,0,B|208:167|208:167|165:215,1,120,8|0,0:0|1:2,0:0:0:0:
164,242,71804,1,8,0:0:0:0:
164,242,72004,1,0,1:2:0:0:
137,334,72404,2,0,L|65:321,1,60,10|2,0:0|1:2,0:0:0:0:
36,310,72804,5,14,0:0:0:0:
36,310,73004,2,0,P|25:279|49:236,1,60,2|0,0:0|1:2,0:0:0:0:
62,216,73404,1,10,0:0:0:0:
3,139,73804,1,2,1:2:0:0:
64,64,74204,1,2,1:2:0:0:
64,64,74404,6,0,B|113:64|113:64|136:80|136:80|195:81,1,120,8|0,0:0|1:2,0:0:0:0:
221,59,75004,2,0,P|274:54|306:109,1,120,10|0,0:0|1:2,0:0:0:0:
310,153,75604,1,10,0:0:0:0:
395,206,76004,5,10,0:0:0:0:
395,206,76204,2,0,L|473:201,1,60,2|0,0:0|1:2,0:0:0:0:
502,205,76604,2,0,L|486:340,1,120,10|0,0:0|1:2,0:0:0:0:
480,371,77204,1,10,0:0:0:0:
396,323,77604,6,0,P|365:315|335:323,1,60,8|8,0:0|0:0,0:0:0:0:
298,346,78004,1,0,1:2:0:0:
298,346,78204,1,10,0:0:0:0:
232,276,78604,1,2,1:2:0:0:
300,208,79004,1,2,1:2:0:0:
300,208,79204,6,0,B|329:155|329:155|299:92,1,120,4|2,1:2|0:0,0:0:0:0:
277,60,79804,2,0,P|247:40|162:69,1,120,2|2,1:2|1:2,0:0:0:0:
93,116,80604,1,2,0:0:0:0:
93,116,80804,6,0,L|105:239,1,120,0|0,1:2|0:0,0:0:0:0:
57,320,81604,1,10,0:0:0:0:
57,320,81804,2,0,P|113:296|187:324,1,120,0|10,0:0|0:0,0:0:0:0:
202,343,82404,5,0,1:2:0:0:
294,317,82804,2,0,L|301:233,1,60,2|2,0:0|1:2,0:0:0:0:
268,220,83204,2,0,L|256:82,1,120,8|2,0:0|1:2,0:0:0:0:
318,26,84004,6,0,B|381:10|377:56|444:38,1,120,0|0,1:2|1:2,0:0:0:0:
484,32,84604,1,0,1:2:0:0:
484,32,84804,1,8,0:0:0:0:
502,126,85204,2,0,L|497:207,1,60,8|2,0:0|1:2,0:0:0:0:
500,237,85604,5,6,1:2:0:0:
500,237,85804,2,0,L|432:242,1,60,0|2,0:0|1:2,0:0:0:0:
392,245,86204,1,10,0:0:0:0:
316,185,86604,1,2,1:2:0:0:
244,249,87004,1,10,0:0:0:0:
244,249,87204,6,0,P|188:268|133:248,1,120,0|0,1:2|1:2,0:0:0:0:
99,212,87804,2,0,L|111:81,1,120,10|0,0:0|1:2,0:0:0:0:
117,44,88404,1,8,0:0:0:0:
212,19,88804,5,6,1:2:0:0:
212,19,89004,1,10,0:0:0:0:
304,45,89404,1,10,0:0:0:0:
396,21,89804,2,0,L|460:21,1,60,10|0,0:0|1:2,0:0:0:0:
494,49,90204,6,0,P|515:106|482:182,1,120,10|8,0:0|0:0,0:0:0:0:
467,196,90804,1,8,3:0:0:0:
377,161,91204,1,10,0:0:0:0:
425,346,92004,5,8,0:0:0:0:
78,77,98404,6,0,P|137:64|202:86,1,120,4|0,1:2|1:2,0:0:0:0:
231,108,99004,1,8,0:0:0:0:
231,108,99204,2,0,L|222:183,1,60,0|8,1:2|0:0,0:0:0:0:
197,207,99604,2,0,L|206:282,1,60,0|10,1:2|0:0,0:0:0:0:
217,312,100004,6,0,B|268:318|268:318|284:335|284:335|345:343,1,120,2|0,1:2|1:2,0:0:0:0:
419,307,100804,2,0,P|427:276|410:242,1,60,2|8,1:2|0:0,0:0:0:0:
388,212,101204,1,2,1:2:0:0:
406,117,101604,6,0,B|355:123|355:123|339:140|339:140|278:148,1,120,0|2,1:2|1:2,0:0:0:0:
250,157,102204,1,10,0:0:0:0:
250,157,102404,2,0,P|198:149|163:78,1,120,2|2,1:2|1:2,0:0:0:0:
36,27,103404,5,10,0:0:0:0:
2,167,104004,2,0,L|78:156,1,60,2|8,1:2|0:0,0:0:0:0:
108,150,104404,1,2,1:2:0:0:
190,198,104804,6,0,P|197:229|177:280,1,60,14|10,0:0|0:0,0:0:0:0:
161,293,105204,1,10,0:0:0:0:
85,352,105604,2,0,L|23:340,2,60,10|10|10,0:0|0:0|0:0,0:0:0:0:
131,377,106204,1,10,0:0:0:0:
131,377,106404,6,0,B|166:374|166:374|176:369|176:369|189:372|189:372|239:366,1,90,10|10,0:0|0:0,0:0:0:0:
270,317,107004,2,0,B|305:320|305:320|315:325|315:325|328:322|328:322|378:328,1,90,10|10,0:0|0:0,0:0:0:0:
423,355,107604,2,0,P|430:324|410:273,1,60,10|10,0:0|0:0,0:0:0:0:
400,260,108004,5,14,0:0:0:0:
400,260,108204,2,0,L|411:129,1,120,10|10,0:0|0:0,0:0:0:0:
421,96,108804,1,10,0:0:0:0:
421,96,109004,1,10,0:0:0:0:
334,43,109404,1,10,0:0:0:0:
334,43,109604,6,0,B|290:30|290:30|233:48,1,90,10|10,0:0|0:0,0:0:0:0:
178,24,110204,2,0,B|165:68|165:68|183:125,1,90,10|10,0:0|0:0,0:0:0:0:
160,179,110804,2,0,B|188:190|188:190|234:174,1,60,10|8,0:0|0:0,0:0:0:0:
260,161,111204,6,0,P|299:152|355:217,1,113.999996955872,6|4,1:2|1:2,0:0:0:0:
382,282,112004,2,0,L|269:263,1,113.999996955872,12|4,0:0|1:2,0:0:0:0:
182,289,112804,1,4,1:2:0:0:
131,365,113204,1,4,0:0:0:0:
58,309,113604,2,0,L|-21:321,2,56.9999984779358,10|0|0,0:0|1:2|1:2,0:0:0:0:
96,280,114204,1,8,0:0:0:0:
96,280,114404,6,0,L|114:142,1,113.999996955872,6|4,1:2|1:2,0:0:0:0:
69,85,115204,2,0,B|122:67|122:67|181:103,1,113.999996955872,12|4,0:0|1:2,0:0:0:0:
248,47,116004,1,4,1:2:0:0:
319,102,116404,2,0,P|340:161|306:227,1,113.999996955872,4|8,0:0|0:0,0:0:0:0:
294,242,117004,1,8,1:3:0:0:
294,242,117204,2,0,L|294:323,1,56.9999984779358,8|10,1:3|1:3,0:0:0:0:
298,344,117604,6,0,B|348:342|348:342|366:356|366:356|428:354,1,113.999996955872,14|0,0:0|1:2,0:0:0:0:
452,353,118204,1,2,1:2:0:0:
511,283,118604,2,0,P|526:229|505:177,1,113.999996955872,2|2,1:2|1:2,0:0:0:0:
460,169,119204,6,0,L|333:166,1,113.999996955872,8|2,0:0|1:2,0:0:0:0:
300,164,119804,1,2,1:2:0:0:
214,149,120204,1,2,1:2:0:0:
214,149,120404,2,0,L|222:216,1,56.9999984779358,8|0,0:0|1:2,0:0:0:0:
224,255,120804,5,14,0:0:0:0:
224,255,121004,2,0,P|166:274|104:243,1,113.999996955872,2|2,1:2|1:2,0:0:0:0:
46,201,121804,1,2,1:2:0:0:
107,134,122204,1,2,1:2:0:0:
107,134,122404,6,0,L|99:64,1,56.9999984779358,8|2,0:0|1:2,0:0:0:0:
94,32,122804,1,0,1:2:0:0:
94,32,123004,2,0,P|147:14|199:33,1,113.999996955872,2|10,1:2|3:0,0:0:0:0:
280,87,123804,1,10,3:0:0:0:
280,87,124004,6,0,L|271:204,1,113.999996955872,4|2,1:2|1:2,0:0:0:0:
272,249,124604,1,2,1:2:0:0:
272,249,124804,1,10,0:0:0:0:
299,335,125204,6,0,B|351:357|351:357|422:325,1,113.999996955872,2|0,0:0|0:0,0:0:0:0:
442,309,125804,2,0,L|436:365,2,56.9999984779358,2|0|2,1:2|1:2|1:2,0:0:0:0:
447,263,126404,1,8,0:0:0:0:
368,216,126804,2,0,L|360:135,1,56.9999984779358,2|2,1:2|1:2,0:0:0:0:
352,114,127204,6,0,P|319:105|279:125,1,56.9999984779358,14|10,0:0|3:0,0:0:0:0:
256,131,127604,1,10,3:0:0:0:
256,131,127804,1,10,0:0:0:0:
189,193,128204,2,0,L|58:181,1,113.999996955872,2|14,1:2|0:0,0:0:0:0:
37,60,130004,5,8,0:0:0:0:
127,21,130404,5,14,0:0:0:0:
127,21,130604,2,0,L|195:16,1,60,2|0,0:0|1:2,0:0:0:0:
235,12,131004,1,10,0:0:0:0:
295,86,131404,1,2,1:2:0:0:
237,163,131804,1,2,1:2:0:0:
237,163,132004,6,0,P|218:219|238:274,1,120,8|2,0:0|1:2,0:0:0:0:
275,303,132604,2,0,L|338:309,1,60,10|0,0:0|0:0,0:0:0:0:
386,314,133004,1,0,1:2:0:0:
386,314,133204,1,10,0:0:0:0:
473,364,133604,5,10,0:0:0:0:
473,364,133804,2,0,B|495:310|495:310|463:252,1,120,2|10,0:0|0:0,0:0:0:0:
378,226,134604,1,0,1:2:0:0:
378,226,134804,2,0,L|383:139,1,60,10|2,0:0|1:2,0:0:0:0:
380,117,135204,6,0,P|333:96|260:124,1,120,8|0,0:0|1:2,0:0:0:0:
236,149,135804,1,8,0:0:0:0:
236,149,136004,1,0,1:2:0:0:
142,169,136404,2,0,L|147:82,1,60,10|2,0:0|1:2,0:0:0:0:
149,61,136804,5,14,0:0:0:0:
149,61,137004,1,2,0:0:0:0:
64,14,137404,1,10,0:0:0:0:
9,93,137804,1,2,1:2:0:0:
58,175,138204,1,2,1:2:0:0:
58,175,138404,6,0,L|41:307,1,120,8|0,0:0|1:2,0:0:0:0:
37,341,139004,2,0,P|77:309|157:333,1,120,10|0,0:0|1:2,0:0:0:0:
183,342,139604,1,10,0:0:0:0:
279,370,140004,5,10,0:0:0:0:
279,370,140204,2,0,L|284:292,1,60,2|0,0:0|1:2,0:0:0:0:
253,271,140604,2,0,L|242:143,1,120,10|0,0:0|1:2,0:0:0:0:
237,103,141204,1,10,0:0:0:0:
307,37,141604,6,0,P|338:29|368:37,1,60,8|8,0:0|0:0,0:0:0:0:
404,61,142004,1,0,1:2:0:0:
404,61,142204,1,10,0:0:0:0:
459,139,142604,1,2,1:2:0:0:
396,212,143004,1,2,1:2:0:0:
396,212,143204,6,0,B|370:265|370:265|399:318,1,120,4|2,1:2|0:0,0:0:0:0:
420,362,143804,2,0,L|291:353,1,120,2|2,1:2|1:2,0:0:0:0:
234,290,144604,1,2,0:0:0:0:
234,290,144804,6,0,L|111:302,1,120,0|0,1:2|0:0,0:0:0:0:
38,359,145604,1,10,0:0:0:0:
38,359,145804,2,0,P|20:303|52:232,1,120,0|10,0:0|0:0,0:0:0:0:
70,210,146404,5,0,1:2:0:0:
155,165,146804,2,0,L|230:175,1,60,2|2,0:0|1:2,0:0:0:0:
253,201,147204,2,0,L|390:191,1,120,8|2,0:0|1:2,0:0:0:0:
457,238,148004,6,0,B|486:205|486:205|452:126,1,120,0|0,1:2|1:2,0:0:0:0:
435,97,148604,1,0,1:2:0:0:
435,97,148804,1,8,0:0:0:0:
352,48,149204,2,0,L|277:57,1,60,8|2,0:0|1:2,0:0:0:0:
258,88,149604,5,6,1:2:0:0:
258,88,149804,2,0,L|190:83,1,60,0|2,0:0|1:2,0:0:0:0:
150,79,150204,1,10,0:0:0:0:
67,30,150604,1,2,1:2:0:0:
8,106,151004,1,10,0:0:0:0:
8,106,151204,6,0,P|-11:162|9:217,1,120,0|0,1:2|1:2,0:0:0:0:
45,249,151804,2,0,L|178:237,1,120,10|0,0:0|1:2,0:0:0:0:
212,235,152404,1,8,0:0:0:0:
280,167,152804,5,6,1:2:0:0:
280,167,153004,1,10,0:0:0:0:
353,229,153404,1,10,0:0:0:0:
418,158,153804,2,0,P|448:154|488:166,1,60,10|0,0:0|1:2,0:0:0:0:
502,201,154204,6,0,L|489:339,1,120,10|8,0:0|0:0,0:0:0:0:
480,367,154804,1,8,3:0:0:0:
385,347,155204,1,10,0:0:0:0:
336,161,156004,5,4,1:2:0:0:
181,308,159204,6,0,P|165:253|198:183,1,120,4|8,1:2|0:0,0:0:0:0:
219,162,159804,1,4,1:2:0:0:
219,162,160004,1,12,0:0:0:0:
302,209,160404,2,0,L|378:201,1,60,8|4,0:0|1:2,0:0:0:0:
408,193,160804,6,0,P|416:158|396:118,1,60,12|2,0:0|1:2,0:0:0:0:
386,93,161204,1,10,0:2:0:0:
301,58,161604,1,10,0:2:0:0:
301,58,161804,2,0,L|176:71,1,120,2|2,1:2|1:2,0:0:0:0:
133,74,162404,6,0,L|140:-1,2,60,12|0|8,0:0|1:2|0:0,0:0:0:0:
97,106,163004,1,4,1:2:0:0:
97,106,163204,2,0,B|71:159|71:159|104:239,1,120,12|8,0:2|0:2,0:0:0:0:
38,293,164004,6,0,P|93:313|149:296,1,120,12|8,0:0|0:2,0:0:0:0:
194,274,164604,1,0,1:2:0:0:
194,274,164804,1,8,0:2:0:0:
273,328,165204,1,8,0:2:0:0:
355,277,165604,5,14,0:2:0:0:
355,277,165804,2,0,L|360:205,1,60,2|8,1:2|0:0,0:0:0:0:
361,169,166204,1,6,1:2:0:0:
361,169,166404,1,14,0:2:0:0:
301,93,166804,1,8,0:2:0:0:
362,19,167204,6,0,L|434:27,1,60,14|0,0:2|1:2,0:0:0:0:
469,33,167604,1,10,0:2:0:0:
507,121,168004,2,0,B|499:168|499:168|505:192|505:192|493:250,1,120,8|8,0:2|0:2,0:0:0:0:
486,288,168604,1,0,1:2:0:0:
486,288,168804,6,0,P|424:309|358:270,1,120,12|8,0:2|0:0,0:0:0:0:
339,266,169404,1,6,1:2:0:0:
339,266,169604,1,14,0:0:0:0:
251,306,170004,1,8,0:0:0:0:
251,306,170204,1,8,0:0:0:0:
388,260,172193,6,0,L|394:122,1,132.00000402832,4|2,1:2|1:2,0:0:0:0:
396,78,172943,1,0,1:2:0:0:
396,78,173193,2,0,P|356:66|322:79,1,66.0000020141602,10|0,0:0|1:2,0:0:0:0:
248,134,173943,1,0,1:2:0:0:
248,134,174193,6,0,P|186:155|112:124,1,132.00000402832,2|2,1:2|1:2,0:0:0:0:
86,99,174943,2,0,P|52:90|12:104,1,66.0000020141602,0|10,1:2|0:0,0:0:0:0:
1,145,175443,2,0,L|14:300,1,132.00000402832,0|0,1:2|1:2,0:0:0:0:
256,192,176193,12,10,178193,0:0:0:0:
323,127,179693,5,8,3:0:0:0:
255,45,180193,6,0,B|205:46|205:46|175:73|175:73|103:71,1,132.00000402832,4|2,1:2|1:2,0:0:0:0:
84,70,180943,1,0,1:2:0:0:
84,70,181193,2,0,P|72:101|85:144,1,66.0000020141602,10|0,0:0|1:2,0:0:0:0:
27,228,181943,1,0,1:2:0:0:
27,228,182193,6,0,L|168:239,1,132.00000402832,2|2,1:2|1:2,0:0:0:0:
198,272,182943,2,0,L|289:262,1,66.0000020141602,0|10,1:2|0:0,0:0:0:0:
316,259,183443,2,0,P|384:268|396:341,1,132.00000402832,0|0,1:2|1:2,0:0:0:0:
390,372,184193,1,2,0:0:0:0:
256,192,185193,12,8,187443,3:0:0:0:
188,127,188193,6,0,B|169:83|169:83|199:25,2,99.0000030212403,6|2|2,1:2|1:2|1:2,0:0:0:0:
228,169,189193,1,8,1:2:0:0:
228,169,189443,2,0,L|310:161,1,66.0000020141602,2|2,1:2|1:2,0:0:0:0:
382,104,190193,6,0,L|368:241,1,132.00000402832,2|0,1:2|1:2,0:0:0:0:
366,291,190943,1,2,1:2:0:0:
366,291,191193,1,8,1:2:0:0:
277,348,191693,1,10,1:2:0:0:
184,296,192193,1,0,0:0:0:0:
256,192,192693,12,2,195443,0:0:0:0:
308,135,196193,6,0,P|339:129|390:149,1,66.0000020141602,0|0,1:2|1:2,0:0:0:0:
410,173,196693,2,0,P|417:204|411:237,1,66.0000020141602,0|0,1:2|1:2,0:0:0:0:
390,285,197193,1,8,0:0:0:0:
390,285,197443,2,0,L|317:277,1,66.0000020141602,0|0,1:2|1:2,0:0:0:0:
221,302,198193,6,0,L|228:377,2,66.0000020141602,0|0|0,1:2|1:2|1:2,0:0:0:0:
217,253,198943,1,0,1:2:0:0:
217,253,199193,1,8,0:0:0:0:
139,181,199693,2,0,P|80:158|0:195,1,132.00000402832,0|2,1:2|0:0,0:0:0:0:
246,246,202193,6,0,L|325:246,1,66.0000020141602,10|8,0:0|3:0,0:0:0:0:
365,244,202693,1,10,3:0:0:0:
458,192,203193,1,10,0:0:0:0:
458,192,203443,2,0,P|468:159|454:123,1,66.0000020141602,8|8,3:0|3:0,0:0:0:0:
427,94,203943,1,10,3:0:0:0:
427,94,204204,1,0,0:0:0:0:
438,53,213804,5,14,0:0:0:0:
438,53,214004,2,0,P|446:77|439:120,1,60,2|0,0:0|1:2,0:0:0:0:
422,154,214404,1,10,0:0:0:0:
338,107,214804,1,2,1:2:0:0:
261,164,215204,1,2,1:2:0:0:
261,164,215404,6,0,B|207:189|207:189|149:161,1,120,8|2,0:0|1:2,0:0:0:0:
112,135,216004,2,0,P|80:127|42:141,1,60,10|0,0:0|0:0,0:0:0:0:
17,162,216404,1,0,1:2:0:0:
17,162,216604,1,10,0:0:0:0:
14,261,217004,5,10,0:0:0:0:
14,261,217204,2,0,L|150:262,1,120,2|10,0:0|0:0,0:0:0:0:
226,303,218004,1,0,1:2:0:0:
226,303,218204,2,0,L|232:221,1,60,10|2,0:0|1:2,0:0:0:0:
232,195,218604,6,0,P|290:211|361:187,1,120,8|0,0:0|1:2,0:0:0:0:
367,155,219204,1,8,0:0:0:0:
367,155,219404,1,0,1:2:0:0:
402,65,219804,2,0,L|474:78,1,60,10|2,0:0|1:2,0:0:0:0:
504,86,220204,5,14,0:0:0:0:
504,86,220404,2,0,P|515:117|491:160,1,60,2|0,0:0|1:2,0:0:0:0:
477,179,220804,1,10,0:0:0:0:
508,269,221204,1,2,1:2:0:0:
447,342,221604,1,2,1:2:0:0:
447,342,221804,6,0,B|398:342|398:342|375:326|375:326|316:325,1,120,8|0,0:0|1:2,0:0:0:0:
284,325,222404,2,0,P|271:274|292:200,1,120,10|0,0:0|1:2,0:0:0:0:
307,166,223004,1,10,0:0:0:0:
221,122,223404,5,10,0:0:0:0:
221,122,223604,2,0,L|143:127,1,60,2|0,0:0|1:2,0:0:0:0:
113,133,224004,2,0,P|57:111|45:51,1,120,10|0,0:0|1:2,0:0:0:0:
64,14,224604,1,10,0:0:0:0:
153,48,225004,6,0,L|222:43,1,60,8|8,0:0|0:0,0:0:0:0:
264,42,225404,1,0,1:2:0:0:
264,42,225604,1,10,0:0:0:0:
338,102,226004,1,2,1:2:0:0:
266,165,226404,1,2,1:2:0:0:
266,165,226604,6,0,B|237:218|237:218|267:281,1,120,4|2,1:2|0:0,0:0:0:0:
289,311,227204,2,0,P|350:331|420:302,1,120,2|2,1:2|1:2,0:0:0:0:
460,240,228004,1,2,0:0:0:0:
460,240,228204,6,0,L|448:117,1,120,0|0,1:2|0:0,0:0:0:0:
487,35,229004,1,10,0:0:0:0:
487,35,229204,2,0,B|440:31|440:31|417:43|417:43|351:36,1,120,0|10,0:0|0:0,0:0:0:0:
322,32,229804,5,0,1:2:0:0:
229,59,230204,2,0,L|222:143,1,60,2|2,0:0|1:2,0:0:0:0:
243,162,230604,2,0,L|255:300,1,120,8|2,0:0|1:2,0:0:0:0:
192,355,231404,6,0,B|147:377|147:377|70:347,1,120,0|0,1:2|1:2,0:0:0:0:
42,334,232004,1,0,1:2:0:0:
42,334,232204,1,8,0:0:0:0:
0,247,232604,2,0,L|5:166,1,60,8|2,0:0|1:2,0:0:0:0:
11,143,233004,5,6,1:2:0:0:
11,143,233204,2,0,L|79:138,1,60,0|2,0:0|1:2,0:0:0:0:
119,135,233604,1,10,0:0:0:0:
195,195,234004,1,2,1:2:0:0:
267,131,234404,1,10,0:0:0:0:
267,131,234604,6,0,P|323:112|378:132,1,120,0|0,1:2|1:2,0:0:0:0:
412,168,235204,2,0,L|400:299,1,120,10|0,0:0|1:2,0:0:0:0:
394,336,235804,1,8,0:0:0:0:
308,373,236204,5,6,1:2:0:0:
308,373,236404,1,2,0:0:0:0:
226,323,236804,1,10,0:0:0:0:
140,365,237204,2,0,L|76:365,1,60,2|8,1:2|0:0,0:0:0:0:
35,368,237604,1,2,1:2:0:0:
35,368,237804,5,12,0:0:0:0:
6,281,238204,1,0,1:2:0:0:
6,281,238404,1,8,0:0:0:0:
60,202,238804,1,0,1:2:0:0:
60,202,239004,2,0,L|69:119,1,60,8|10,0:0|3:0,0:0:0:0:
75,95,239404,5,10,0:0:0:0:
75,95,239604,1,10,0:0:0:0:
151,36,240004,2,0,P|179:32|226:47,1,60,10|0,0:0|1:2,0:0:0:0:
248,67,240404,2,0,P|276:71|323:56,1,60,10|0,0:0|1:2,0:0:0:0:
349,41,240804,2,0,P|377:37|424:52,1,60,10|0,0:0|1:2,0:0:0:0:
453,70,241204,5,8,0:0:0:0:
453,70,241404,2,0,L|441:204,1,120,8|10,0:0|3:0,0:0:0:0:
471,281,242204,2,0,B|441:295|441:295|397:277,1,60,2|2,1:2|1:2,0:0:0:0:
372,264,242604,6,0,L|300:267,1,60,4|8,1:2|0:0,0:0:0:0:
267,270,243004,1,8,0:0:0:0:
267,270,243204,1,4,1:2:0:0:
180,312,243604,1,8,0:0:0:0:
97,274,244004,1,8,3:0:0:0:
97,274,244204,1,4,1:2:0:0:
256,192,244404,12,0,252204,0:0:0:0:
