osu file format v14

[General]
AudioFilename: audio.mp3
AudioLeadIn: 0
PreviewTime: -1
Countdown: 1
SampleSet: Normal
StackLeniency: 0.7
Mode: 1
LetterboxInBreaks: 0
WidescreenStoryboard: 1

[Editor]
Bookmarks: 44227,45524,50389,50713,54605,55902,97416,98713,109092,155146,155794,165524,206389,207686,212875
DistanceSpacing: 0.8
BeatDivisor: 4
GridSize: 8
TimelineZoom: 2.6

[Metadata]
Title:Bloodbath & Beyond
TitleUnicode:Bloodbath & Beyond
Artist:Ice Nine Kills
ArtistUnicode:Ice Nine Kills
Creator:Rufoel
Version:muzukashii
Source:
Tags:
BeatmapID:991616
BeatmapSetID:452608

[Difficulty]
HPDrainRate:5
CircleSize:5
OverallDifficulty:5
ApproachRate:5
SliderMultiplier:1.5
SliderTickRate:1

[Events]
//Background and Video events
0,0,"ea890b0617b3d7d56449bebea35cfefa.600x598x1.png",0,0
//Break Periods
//Storyboard Layer 0 (Background)
//Storyboard Layer 1 (Fail)
//Storyboard Layer 2 (Pass)
//Storyboard Layer 3 (Foreground)
//Storyboard Sound Samples

[TimingPoints]
4011,324.324324324324,4,1,0,100,1,0
66119,-100,4,1,0,100,0,1
86875,-100,4,1,0,100,0,0
119308,-100,4,1,0,100,0,1
140227,-100,4,1,0,100,0,0
176389,-100,4,1,0,100,0,1
197146,-100,4,1,0,100,0,0

[HitObjects]
256,192,4010,5,0,0:0:0:0:
240,192,4497,1,8,0:0:0:0:
240,192,4821,1,8,0:0:0:0:
240,192,5146,1,0,0:0:0:0:
240,192,5470,1,8,0:0:0:0:
272,216,5794,1,0,0:0:0:0:
256,208,6119,1,0,0:0:0:0:
256,208,6443,1,8,0:0:0:0:
256,208,6767,1,0,0:0:0:0:
256,208,7092,1,8,0:0:0:0:
256,208,7416,1,8,0:0:0:0:
256,208,7740,1,0,0:0:0:0:
256,208,8065,1,8,0:0:0:0:
274,204,8389,1,8,0:0:0:0:
272,200,8713,1,0,0:0:0:0:
276,196,9200,5,8,0:0:0:0:
280,194,9686,1,8,0:0:0:0:
275,189,10010,1,8,0:0:0:0:
288,177,10335,1,0,0:0:0:0:
288,176,10659,1,8,0:0:0:0:
288,176,10983,1,0,0:0:0:0:
288,177,11308,1,0,0:0:0:0:
288,176,11632,1,8,0:0:0:0:
280,168,11956,1,8,0:0:0:0:
280,168,12281,1,0,0:0:0:0:
280,168,12605,1,8,0:0:0:0:
280,168,12929,1,0,0:0:0:0:
280,168,13254,1,8,0:0:0:0:
280,168,13578,1,0,0:0:0:0:
280,168,13902,1,0,0:0:0:0:
264,184,14227,1,0,0:0:0:0:
258,187,14389,1,0,0:0:0:0:
258,187,14551,1,0,0:0:0:0:
258,187,14875,1,8,0:0:0:0:
258,187,15200,1,8,0:0:0:0:
258,187,15524,1,8,0:0:0:0:
258,187,15848,1,0,0:0:0:0:
266,194,16173,1,8,0:0:0:0:
263,194,16497,1,0,0:0:0:0:
263,194,16821,1,8,0:0:0:0:
266,194,17146,1,0,0:0:0:0:
263,194,17470,1,8,0:0:0:0:
263,194,17794,1,8,0:0:0:0:
256,190,18119,1,0,0:0:0:0:
256,190,18281,1,0,0:0:0:0:
256,190,18443,1,0,0:0:0:0:
263,194,18605,1,0,0:0:0:0:
261,202,19092,1,0,0:0:0:0:
261,202,19416,1,8,0:0:0:0:
261,202,19740,1,8,0:0:0:0:
261,202,20065,1,0,0:0:0:0:
261,202,20389,1,0,0:0:0:0:
261,202,20713,1,0,0:0:0:0:
261,202,21038,1,0,0:0:0:0:
261,202,21362,1,8,0:0:0:0:
256,184,21686,1,8,0:0:0:0:
256,184,21848,1,0,0:0:0:0:
256,192,22173,5,0,0:0:0:0:
256,192,22821,1,0,0:0:0:0:
256,192,23470,1,0,0:0:0:0:
256,192,23794,1,0,0:0:0:0:
256,192,24119,1,8,0:0:0:0:
256,192,24281,1,8,0:0:0:0:
256,192,24443,1,0,0:0:0:0:
256,192,24605,1,0,0:0:0:0:
256,192,24767,1,8,0:0:0:0:
256,192,25092,1,0,0:0:0:0:
256,192,25254,1,8,0:0:0:0:
256,192,25578,1,0,0:0:0:0:
256,192,25740,1,8,0:0:0:0:
256,192,25902,1,0,0:0:0:0:
256,192,26065,1,8,0:0:0:0:
256,192,26389,1,0,0:0:0:0:
264,176,26551,1,8,0:0:0:0:
256,184,26875,1,0,0:0:0:0:
256,184,27038,1,8,0:0:0:0:
256,184,27200,1,0,0:0:0:0:
256,184,27362,1,8,0:0:0:0:
256,184,27686,1,0,0:0:0:0:
256,184,27848,1,8,0:0:0:0:
265,203,28173,1,0,0:0:0:0:
256,192,28335,1,8,0:0:0:0:
256,205,28497,1,0,0:0:0:0:
256,184,28659,1,8,0:0:0:0:
264,184,28983,1,0,0:0:0:0:
256,192,29146,1,8,0:0:0:0:
251,188,29308,1,8,0:0:0:0:
264,184,29470,1,0,0:0:0:0:
264,184,29632,1,8,0:0:0:0:
264,184,29794,1,0,0:0:0:0:
264,184,29956,1,8,0:0:0:0:
264,176,30281,1,0,0:0:0:0:
264,184,30443,1,8,0:0:0:0:
264,184,30767,1,0,0:0:0:0:
264,184,30929,1,8,0:0:0:0:
264,184,31092,1,0,0:0:0:0:
264,184,31254,1,8,0:0:0:0:
264,184,31578,1,0,0:0:0:0:
264,184,31740,1,8,0:0:0:0:
264,184,32065,1,0,0:0:0:0:
264,184,32227,1,8,0:0:0:0:
264,184,32389,1,0,0:0:0:0:
264,184,32551,1,8,0:0:0:0:
264,184,32875,1,0,0:0:0:0:
264,184,33038,1,8,0:0:0:0:
264,184,33200,1,8,0:0:0:0:
264,184,33362,1,0,0:0:0:0:
264,184,33524,1,8,0:0:0:0:
264,184,33686,1,0,0:0:0:0:
264,184,33848,1,8,0:0:0:0:
264,184,34010,1,0,0:0:0:0:
264,184,34173,1,8,0:0:0:0:
264,184,34335,1,0,0:0:0:0:
258,182,34497,1,8,0:0:0:0:
264,184,34659,1,0,0:0:0:0:
264,184,34821,1,8,0:0:0:0:
264,184,34983,1,0,0:0:0:0:
264,184,35146,1,8,0:0:0:0:
264,184,35308,1,0,0:0:0:0:
266,182,35470,1,8,0:0:0:0:
264,184,35632,1,8,0:0:0:0:
264,184,35794,1,0,0:0:0:0:
264,184,35956,1,8,0:0:0:0:
264,184,36119,1,0,0:0:0:0:
264,184,36281,1,8,0:0:0:0:
256,184,36443,1,0,0:0:0:0:
272,176,36605,1,8,0:0:0:0:
272,176,36767,1,0,0:0:0:0:
264,184,36929,1,8,0:0:0:0:
264,176,37092,1,0,0:0:0:0:
272,176,37254,1,8,0:0:0:0:
280,184,37416,1,0,0:0:0:0:
272,176,37578,1,8,0:0:0:0:
272,176,37740,1,0,0:0:0:0:
272,176,37902,1,8,0:0:0:0:
272,176,38065,1,0,0:0:0:0:
280,176,38227,1,8,0:0:0:0:
272,176,38389,1,0,0:0:0:0:
272,176,38551,1,8,0:0:0:0:
272,176,38713,1,0,0:0:0:0:
261,181,38794,1,0,0:0:0:0:
272,176,38875,1,8,0:0:0:0:
272,176,39038,1,0,0:0:0:0:
272,176,39200,1,8,0:0:0:0:
272,176,39362,1,0,0:0:0:0:
264,176,39524,1,8,0:0:0:0:
264,176,39686,1,0,0:0:0:0:
264,176,39848,1,8,0:0:0:0:
264,176,40010,1,8,0:0:0:0:
255,187,40092,1,8,0:0:0:0:
264,176,40173,1,8,0:0:0:0:
264,176,40335,1,0,0:0:0:0:
264,176,40497,1,8,0:0:0:0:
264,176,40659,1,0,0:0:0:0:
264,192,40821,1,8,0:0:0:0:
264,192,40983,1,0,0:0:0:0:
264,192,41146,1,8,0:0:0:0:
264,192,41308,1,0,0:0:0:0:
264,192,41470,1,8,0:0:0:0:
264,192,41551,1,8,0:0:0:0:
264,192,41632,1,0,0:0:0:0:
264,192,41794,1,8,0:0:0:0:
264,192,41956,1,0,0:0:0:0:
264,192,42119,1,8,0:0:0:0:
264,192,42281,1,0,0:0:0:0:
264,192,42443,1,8,0:0:0:0:
264,192,42524,1,8,0:0:0:0:
264,192,42605,1,0,0:0:0:0:
264,192,42767,1,8,0:0:0:0:
264,192,42929,1,0,0:0:0:0:
264,192,43092,1,8,0:0:0:0:
264,192,43254,1,0,0:0:0:0:
258,191,43335,1,0,0:0:0:0:
264,192,43416,1,8,0:0:0:0:
264,192,43578,1,0,0:0:0:0:
264,192,43740,1,8,0:0:0:0:
271,191,43902,1,0,0:0:0:0:
271,191,44065,1,8,0:0:0:0:
264,192,44227,1,8,0:0:0:0:
272,192,44389,1,8,0:0:0:0:
272,192,44551,1,0,0:0:0:0:
272,192,44713,1,8,0:0:0:0:
271,191,44875,1,0,0:0:0:0:
271,191,45038,1,8,0:0:0:0:
272,184,45200,1,0,0:0:0:0:
255,192,45362,1,0,0:0:0:0:
245,191,45524,1,0,0:0:0:0:
255,192,45686,1,8,0:0:0:0:
255,192,45848,1,0,0:0:0:0:
255,192,46010,1,8,0:0:0:0:
255,192,46173,1,0,0:0:0:0:
255,192,46335,1,8,0:0:0:0:
245,191,46497,1,0,0:0:0:0:
255,192,46659,1,8,0:0:0:0:
255,192,46740,1,8,0:0:0:0:
255,192,46821,1,0,0:0:0:0:
255,192,46983,1,8,0:0:0:0:
255,192,47145,1,0,0:0:0:0:
255,192,47307,1,8,0:0:0:0:
255,192,47470,1,0,0:0:0:0:
255,192,47632,1,8,0:0:0:0:
245,191,47794,1,0,0:0:0:0:
255,192,47956,1,8,0:0:0:0:
255,192,48037,1,8,0:0:0:0:
255,192,48118,1,0,0:0:0:0:
255,192,48281,1,8,0:0:0:0:
255,192,48443,1,0,0:0:0:0:
255,192,48605,1,8,0:0:0:0:
255,192,48768,1,0,0:0:0:0:
255,192,48930,1,8,0:0:0:0:
245,191,49092,1,0,0:0:0:0:
255,192,49254,1,8,0:0:0:0:
255,192,49335,1,8,0:0:0:0:
255,192,49416,1,0,0:0:0:0:
255,192,49578,1,8,0:0:0:0:
255,192,49740,1,0,0:0:0:0:
255,192,49902,1,8,0:0:0:0:
255,192,50065,1,0,0:0:0:0:
255,192,50227,1,8,0:0:0:0:
245,191,50389,1,0,0:0:0:0:
251,209,50470,1,0,0:0:0:0:
255,192,50551,1,8,0:0:0:0:
255,192,50713,1,0,0:0:0:0:
255,192,50875,1,8,0:0:0:0:
255,192,51037,1,0,0:0:0:0:
255,192,51199,1,8,0:0:0:0:
255,192,51362,1,0,0:0:0:0:
255,192,51524,1,8,0:0:0:0:
245,191,51686,1,0,0:0:0:0:
255,192,51848,1,8,0:0:0:0:
255,192,51929,1,8,0:0:0:0:
255,192,52010,1,0,0:0:0:0:
255,192,52173,1,8,0:0:0:0:
255,192,52335,1,0,0:0:0:0:
255,192,52497,1,8,0:0:0:0:
255,192,52660,1,0,0:0:0:0:
255,192,52822,1,8,0:0:0:0:
245,191,52984,1,0,0:0:0:0:
255,192,53146,1,8,0:0:0:0:
255,192,53227,1,8,0:0:0:0:
255,192,53308,1,0,0:0:0:0:
255,192,53470,1,8,0:0:0:0:
255,192,53632,1,0,0:0:0:0:
255,192,53794,1,8,0:0:0:0:
245,191,53956,1,0,0:0:0:0:
255,192,54119,1,8,0:0:0:0:
255,192,54281,1,0,0:0:0:0:
255,192,54443,1,0,0:0:0:0:
255,192,54605,5,8,0:0:0:0:
255,192,54767,1,0,0:0:0:0:
255,192,54929,1,8,0:0:0:0:
255,192,55092,1,0,0:0:0:0:
255,192,55173,1,0,0:0:0:0:
255,192,55254,1,8,0:0:0:0:
255,192,55416,1,0,0:0:0:0:
255,192,55578,1,8,0:0:0:0:
255,192,55740,1,0,0:0:0:0:
255,192,55902,1,0,0:0:0:0:
255,192,56227,1,0,0:0:0:0:
255,192,56389,1,0,0:0:0:0:
255,192,56551,1,0,0:0:0:0:
255,192,56875,1,8,0:0:0:0:
255,192,57200,1,0,0:0:0:0:
255,192,57362,1,0,0:0:0:0:
255,192,57524,1,8,0:0:0:0:
255,192,57848,1,0,0:0:0:0:
255,192,58173,1,8,0:0:0:0:
255,192,58335,1,0,0:0:0:0:
258,187,58416,1,0,0:0:0:0:
255,192,58497,1,8,0:0:0:0:
255,192,58659,1,0,0:0:0:0:
255,192,58821,1,0,0:0:0:0:
255,192,58983,1,8,0:0:0:0:
255,192,59146,1,0,0:0:0:0:
255,192,59308,1,8,0:0:0:0:
255,192,59470,1,0,0:0:0:0:
255,192,59632,1,0,0:0:0:0:
255,192,59713,1,0,0:0:0:0:
255,192,59794,1,8,0:0:0:0:
255,192,59956,1,0,0:0:0:0:
255,192,60119,1,8,0:0:0:0:
255,192,60281,1,0,0:0:0:0:
255,192,60443,1,8,0:0:0:0:
255,192,60605,1,0,0:0:0:0:
255,192,60767,1,8,0:0:0:0:
255,192,60929,1,8,0:0:0:0:
255,192,61092,1,0,0:0:0:0:
255,192,61254,1,0,0:0:0:0:
255,192,61335,1,0,0:0:0:0:
255,192,61416,1,8,0:0:0:0:
255,192,61578,1,0,0:0:0:0:
255,192,61740,1,8,0:0:0:0:
255,192,61902,1,0,0:0:0:0:
255,192,62065,1,8,0:0:0:0:
255,192,62227,1,0,0:0:0:0:
255,192,62308,1,0,0:0:0:0:
255,192,62389,1,8,0:0:0:0:
255,192,62551,1,0,0:0:0:0:
251,188,62713,1,8,0:0:0:0:
255,192,62875,1,0,0:0:0:0:
255,192,63038,1,8,0:0:0:0:
255,192,63200,1,0,0:0:0:0:
255,192,63362,1,8,0:0:0:0:
268,191,63686,1,4,0:0:0:0:
264,197,63848,1,12,0:0:0:0:
261,192,64173,1,4,0:0:0:0:
261,192,64335,1,12,0:0:0:0:
259,187,64659,1,0,0:0:0:0:
259,187,64821,1,0,0:0:0:0:
260,180,65146,1,0,0:0:0:0:
259,187,65470,1,8,0:0:0:0:
258,199,65794,1,0,0:0:0:0:
251,204,66119,1,12,0:0:0:0:
256,208,66605,1,0,0:0:0:0:
264,216,66767,1,0,0:0:0:0:
264,208,66929,1,12,0:0:0:0:
264,208,67254,1,8,0:0:0:0:
264,208,67578,1,0,0:0:0:0:
272,224,67740,1,0,0:0:0:0:
272,224,67902,1,8,0:0:0:0:
272,224,68227,1,0,0:0:0:0:
264,216,68551,1,8,0:0:0:0:
272,224,68713,1,8,0:0:0:0:
272,224,69200,1,0,0:0:0:0:
272,224,69362,1,0,0:0:0:0:
272,224,69524,1,12,0:0:0:0:
256,192,69848,1,8,0:0:0:0:
272,224,70173,1,0,0:0:0:0:
272,224,70335,1,0,0:0:0:0:
272,224,70497,1,8,0:0:0:0:
272,216,70821,1,0,0:0:0:0:
248,176,71146,1,0,0:0:0:0:
256,192,71308,1,0,0:0:0:0:
262,191,71470,1,0,0:0:0:0:
256,192,71794,1,8,0:0:0:0:
256,192,71956,1,8,0:0:0:0:
256,192,72119,1,8,0:0:0:0:
256,192,72443,1,0,0:0:0:0:
256,192,72605,1,0,0:0:0:0:
256,192,72767,1,0,0:0:0:0:
256,192,72929,1,8,0:0:0:0:
256,192,73092,1,8,0:0:0:0:
256,192,73254,1,0,0:0:0:0:
256,192,73416,1,8,0:0:0:0:
253,206,73578,1,0,0:0:0:0:
253,197,73902,1,12,0:0:0:0:
248,208,74389,1,0,0:0:0:0:
248,208,74551,1,0,0:0:0:0:
248,208,74713,1,12,0:0:0:0:
256,192,75038,1,8,0:0:0:0:
256,192,75200,1,4,0:0:0:0:
256,192,75524,1,4,0:0:0:0:
256,192,75848,1,12,0:0:0:0:
256,192,76173,1,4,0:0:0:0:
256,192,76497,1,12,0:0:0:0:
272,192,76983,1,0,0:0:0:0:
272,192,77146,1,0,0:0:0:0:
272,192,77308,1,8,0:0:0:0:
272,192,77632,1,8,0:0:0:0:
272,192,77956,1,0,0:0:0:0:
272,192,78119,1,0,0:0:0:0:
272,192,78281,1,8,0:0:0:0:
272,192,78605,1,8,0:0:0:0:
272,184,78929,1,0,0:0:0:0:
272,184,79092,1,8,0:0:0:0:
272,184,79578,1,0,0:0:0:0:
272,192,79740,1,0,0:0:0:0:
272,192,79902,1,12,0:0:0:0:
272,192,80227,1,8,0:0:0:0:
272,192,80551,1,0,0:0:0:0:
272,192,80713,1,0,0:0:0:0:
264,192,80875,1,8,0:0:0:0:
272,192,81200,1,8,0:0:0:0:
272,192,81524,1,0,0:0:0:0:
272,192,81686,1,0,0:0:0:0:
272,192,81848,1,8,0:0:0:0:
272,192,82010,1,8,0:0:0:0:
272,192,82173,1,8,0:0:0:0:
272,192,82335,1,0,0:0:0:0:
256,192,82497,1,8,0:0:0:0:
256,192,82821,1,0,0:0:0:0:
256,192,82983,1,8,0:0:0:0:
256,192,83146,1,8,0:0:0:0:
256,192,83308,1,8,0:0:0:0:
256,192,83470,1,0,0:0:0:0:
256,192,83632,1,8,0:0:0:0:
256,192,83794,1,0,0:0:0:0:
256,192,83956,1,8,0:0:0:0:
240,192,84281,1,12,0:0:0:0:
240,192,84767,1,0,0:0:0:0:
240,192,84929,1,0,0:0:0:0:
240,192,85092,1,12,0:0:0:0:
240,192,85416,1,8,0:0:0:0:
240,192,85578,1,4,0:0:0:0:
240,192,85902,1,4,0:0:0:0:
232,196,86227,1,12,0:0:0:0:
240,192,86551,1,4,0:0:0:0:
256,192,86875,1,12,0:0:0:0:
256,192,87038,5,8,0:0:0:0:
248,192,87200,1,0,0:0:0:0:
256,192,87362,1,8,0:0:0:0:
256,192,87524,1,8,0:0:0:0:
256,192,87686,1,0,0:0:0:0:
256,192,87848,1,8,0:0:0:0:
256,192,88010,1,8,0:0:0:0:
248,192,88173,1,8,0:0:0:0:
258,186,88254,1,8,0:0:0:0:
251,191,88335,1,0,0:0:0:0:
255,192,88497,1,8,0:0:0:0:
255,192,88659,1,0,0:0:0:0:
255,192,88821,1,8,0:0:0:0:
256,192,88983,1,0,0:0:0:0:
255,192,89146,1,8,0:0:0:0:
245,191,89308,1,0,0:0:0:0:
255,192,89470,1,8,0:0:0:0:
255,192,89551,1,8,0:0:0:0:
255,192,89632,1,0,0:0:0:0:
255,192,89794,1,8,0:0:0:0:
255,192,89956,1,0,0:0:0:0:
255,192,90118,1,8,0:0:0:0:
255,192,90281,1,0,0:0:0:0:
255,192,90443,1,8,0:0:0:0:
245,191,90605,1,0,0:0:0:0:
255,192,90767,1,8,0:0:0:0:
255,192,90848,1,8,0:0:0:0:
255,192,90929,1,0,0:0:0:0:
255,192,91092,1,8,0:0:0:0:
255,192,91254,1,0,0:0:0:0:
255,192,91416,1,8,0:0:0:0:
255,192,91579,1,0,0:0:0:0:
255,192,91741,1,8,0:0:0:0:
245,191,91903,1,0,0:0:0:0:
255,192,92065,1,8,0:0:0:0:
255,192,92146,1,8,0:0:0:0:
255,192,92227,1,0,0:0:0:0:
255,192,92389,1,8,0:0:0:0:
255,192,92551,1,0,0:0:0:0:
255,192,92713,1,8,0:0:0:0:
255,192,92876,1,0,0:0:0:0:
255,192,93038,1,8,0:0:0:0:
245,191,93200,1,0,0:0:0:0:
255,192,93362,1,8,0:0:0:0:
255,192,93443,1,8,0:0:0:0:
255,192,93524,1,0,0:0:0:0:
255,192,93686,1,8,0:0:0:0:
255,192,93848,1,0,0:0:0:0:
255,192,94010,1,8,0:0:0:0:
255,192,94173,1,0,0:0:0:0:
255,192,94335,1,8,0:0:0:0:
245,191,94497,1,0,0:0:0:0:
255,192,94659,1,8,0:0:0:0:
255,192,94740,1,8,0:0:0:0:
255,192,94821,1,0,0:0:0:0:
255,192,94984,1,8,0:0:0:0:
255,192,95146,1,0,0:0:0:0:
255,192,95308,1,8,0:0:0:0:
255,192,95471,1,0,0:0:0:0:
255,192,95633,1,8,0:0:0:0:
245,191,95795,1,0,0:0:0:0:
255,192,95957,1,8,0:0:0:0:
255,192,96038,1,8,0:0:0:0:
255,192,96119,1,0,0:0:0:0:
255,192,96281,5,8,0:0:0:0:
255,192,96443,1,0,0:0:0:0:
255,192,96605,1,8,0:0:0:0:
245,191,96767,1,0,0:0:0:0:
255,192,96930,1,8,0:0:0:0:
255,192,97092,1,0,0:0:0:0:
255,192,97254,1,0,0:0:0:0:
256,192,97416,5,8,0:0:0:0:
256,192,97578,1,8,0:0:0:0:
256,192,97740,1,0,0:0:0:0:
256,192,97902,1,0,0:0:0:0:
264,176,98065,1,8,0:0:0:0:
256,192,98227,1,0,0:0:0:0:
256,192,98389,1,8,0:0:0:0:
256,192,98551,1,0,0:0:0:0:
256,192,98713,1,8,0:0:0:0:
272,192,98875,1,0,0:0:0:0:
264,184,99038,1,0,0:0:0:0:
264,184,99200,1,0,0:0:0:0:
264,192,99686,1,0,0:0:0:0:
256,184,100010,1,8,0:0:0:0:
256,192,100659,1,0,0:0:0:0:
256,192,100821,1,0,0:0:0:0:
257,192,100983,1,4,0:0:0:0:
256,200,101308,1,0,0:0:0:0:
256,200,101470,1,0,0:0:0:0:
264,192,102281,1,0,0:0:0:0:
256,192,102605,1,8,0:0:0:0:
248,184,102929,1,0,0:0:0:0:
248,184,103092,1,0,0:0:0:0:
259,187,103254,1,4,0:0:0:0:
248,184,103740,1,0,0:0:0:0:
248,184,103902,1,0,0:0:0:0:
248,184,104065,1,0,0:0:0:0:
256,184,104227,1,0,0:0:0:0:
248,192,104389,1,8,0:0:0:0:
256,184,105200,1,8,0:0:0:0:
264,176,105686,1,0,0:0:0:0:
264,176,105848,1,0,0:0:0:0:
272,192,106173,1,8,0:0:0:0:
272,192,106497,1,0,0:0:0:0:
272,192,106659,1,0,0:0:0:0:
272,200,106983,1,8,0:0:0:0:
272,192,107470,1,0,0:0:0:0:
272,192,107632,1,0,0:0:0:0:
272,192,107794,1,8,0:0:0:0:
256,192,108443,1,8,0:0:0:0:
256,192,108605,1,0,0:0:0:0:
256,192,108767,1,8,0:0:0:0:
256,192,109092,1,0,0:0:0:0:
255,192,109416,1,0,0:0:0:0:
255,192,109578,1,0,0:0:0:0:
255,192,109740,1,0,0:0:0:0:
255,192,110064,1,8,0:0:0:0:
255,192,110389,1,0,0:0:0:0:
255,192,110551,1,0,0:0:0:0:
255,192,110713,1,8,0:0:0:0:
255,192,111037,1,0,0:0:0:0:
255,192,111362,1,8,0:0:0:0:
255,192,111524,1,0,0:0:0:0:
258,187,111605,1,0,0:0:0:0:
255,192,111686,1,8,0:0:0:0:
255,192,111848,1,0,0:0:0:0:
255,192,112010,1,0,0:0:0:0:
255,192,112172,1,8,0:0:0:0:
255,192,112335,1,0,0:0:0:0:
255,192,112497,1,8,0:0:0:0:
255,192,112659,1,0,0:0:0:0:
255,192,112821,1,0,0:0:0:0:
255,192,112902,1,0,0:0:0:0:
255,192,112983,1,8,0:0:0:0:
255,192,113145,1,0,0:0:0:0:
255,192,113308,1,8,0:0:0:0:
255,192,113470,1,0,0:0:0:0:
255,192,113632,1,8,0:0:0:0:
255,192,113794,1,0,0:0:0:0:
255,192,113956,1,8,0:0:0:0:
255,192,114118,1,8,0:0:0:0:
255,192,114281,1,0,0:0:0:0:
255,192,114443,1,0,0:0:0:0:
255,192,114524,1,0,0:0:0:0:
255,192,114605,1,8,0:0:0:0:
255,192,114767,1,0,0:0:0:0:
255,192,114929,1,8,0:0:0:0:
255,192,115091,1,0,0:0:0:0:
255,192,115254,1,8,0:0:0:0:
255,192,115416,1,0,0:0:0:0:
255,192,115497,1,0,0:0:0:0:
255,192,115578,1,8,0:0:0:0:
255,192,115740,1,0,0:0:0:0:
251,188,115902,1,8,0:0:0:0:
255,192,116064,1,0,0:0:0:0:
255,192,116227,1,8,0:0:0:0:
255,192,116389,1,0,0:0:0:0:
255,192,116551,1,8,0:0:0:0:
268,191,116875,1,4,0:0:0:0:
264,197,117037,1,12,0:0:0:0:
261,192,117362,1,4,0:0:0:0:
261,192,117524,1,12,0:0:0:0:
259,187,117848,1,0,0:0:0:0:
259,187,118010,1,0,0:0:0:0:
260,180,118335,5,0,0:0:0:0:
259,187,118659,1,8,0:0:0:0:
258,199,118983,1,0,0:0:0:0:
251,204,119308,5,12,0:0:0:0:
256,208,119794,1,0,0:0:0:0:
264,216,119956,1,0,0:0:0:0:
264,208,120118,1,12,0:0:0:0:
264,208,120443,1,8,0:0:0:0:
264,208,120767,1,0,0:0:0:0:
272,224,120929,1,0,0:0:0:0:
272,224,121091,1,8,0:0:0:0:
272,224,121416,1,0,0:0:0:0:
264,216,121740,1,8,0:0:0:0:
272,224,121902,1,8,0:0:0:0:
272,224,122389,1,0,0:0:0:0:
272,224,122551,1,0,0:0:0:0:
272,224,122713,1,12,0:0:0:0:
256,192,123037,1,8,0:0:0:0:
272,224,123362,1,0,0:0:0:0:
272,224,123524,1,0,0:0:0:0:
272,224,123686,1,8,0:0:0:0:
272,216,124010,1,0,0:0:0:0:
248,176,124335,1,0,0:0:0:0:
256,192,124497,1,0,0:0:0:0:
262,191,124659,1,0,0:0:0:0:
256,192,124983,1,8,0:0:0:0:
256,192,125145,1,8,0:0:0:0:
256,192,125308,1,8,0:0:0:0:
256,192,125632,1,0,0:0:0:0:
256,192,125794,1,0,0:0:0:0:
256,192,125956,1,0,0:0:0:0:
256,192,126118,1,8,0:0:0:0:
256,192,126281,1,8,0:0:0:0:
256,192,126443,1,0,0:0:0:0:
256,192,126605,1,8,0:0:0:0:
253,206,126767,1,0,0:0:0:0:
253,197,127091,1,12,0:0:0:0:
248,208,127578,1,0,0:0:0:0:
248,208,127740,1,0,0:0:0:0:
248,208,127902,1,12,0:0:0:0:
256,192,128227,1,8,0:0:0:0:
256,192,128389,1,4,0:0:0:0:
256,192,128713,1,4,0:0:0:0:
256,192,129037,1,12,0:0:0:0:
256,192,129362,1,4,0:0:0:0:
256,192,129686,1,12,0:0:0:0:
272,192,130172,1,0,0:0:0:0:
272,192,130335,1,0,0:0:0:0:
272,192,130497,1,8,0:0:0:0:
272,192,130821,1,8,0:0:0:0:
272,192,131145,1,0,0:0:0:0:
272,192,131308,1,0,0:0:0:0:
272,192,131470,1,8,0:0:0:0:
272,192,131794,1,8,0:0:0:0:
272,184,132118,1,0,0:0:0:0:
272,184,132281,1,8,0:0:0:0:
272,184,132767,1,0,0:0:0:0:
272,192,132929,1,0,0:0:0:0:
272,192,133091,1,12,0:0:0:0:
272,192,133416,1,8,0:0:0:0:
272,192,133740,1,0,0:0:0:0:
272,192,133902,1,0,0:0:0:0:
264,192,134064,1,8,0:0:0:0:
272,192,134389,1,8,0:0:0:0:
272,192,134713,1,0,0:0:0:0:
272,192,134875,1,0,0:0:0:0:
272,192,135037,1,8,0:0:0:0:
272,192,135199,1,8,0:0:0:0:
272,192,135362,1,8,0:0:0:0:
272,192,135524,1,0,0:0:0:0:
256,192,135686,1,8,0:0:0:0:
256,192,136010,1,0,0:0:0:0:
256,192,136172,1,8,0:0:0:0:
256,192,136335,1,8,0:0:0:0:
256,192,136497,1,8,0:0:0:0:
256,192,136659,1,0,0:0:0:0:
256,192,136821,1,8,0:0:0:0:
256,192,136983,1,0,0:0:0:0:
256,192,137145,1,8,0:0:0:0:
240,192,137470,1,12,0:0:0:0:
240,192,137956,1,0,0:0:0:0:
240,192,138118,1,0,0:0:0:0:
240,192,138281,1,12,0:0:0:0:
240,192,138605,1,8,0:0:0:0:
240,192,138767,1,4,0:0:0:0:
240,192,139091,1,4,0:0:0:0:
232,196,139416,5,12,0:0:0:0:
240,192,139740,1,4,0:0:0:0:
256,192,140064,1,12,0:0:0:0:
256,186,140227,1,0,0:0:0:0:
256,186,140389,1,0,0:0:0:0:
264,184,140551,1,8,0:0:0:0:
267,188,141686,1,8,0:0:0:0:
267,188,141848,1,8,0:0:0:0:
267,188,141929,1,0,0:0:0:0:
267,188,142010,1,8,0:0:0:0:
267,188,142335,1,8,0:0:0:0:
267,188,142821,1,8,0:0:0:0:
267,188,142983,1,8,0:0:0:0:
267,188,143065,1,0,0:0:0:0:
267,188,143146,1,8,0:0:0:0:
248,184,143794,1,4,0:0:0:0:
248,184,144119,1,4,0:0:0:0:
248,192,144443,1,12,0:0:0:0:
248,192,144767,1,12,0:0:0:0:
256,192,145416,1,4,0:0:0:0:
256,192,145740,1,0,0:0:0:0:
256,192,145902,1,0,0:0:0:0:
256,192,146065,1,8,0:0:0:0:
256,192,146389,1,8,0:0:0:0:
264,200,146551,1,0,0:0:0:0:
264,200,146875,1,0,0:0:0:0:
264,200,147038,1,8,0:0:0:0:
256,192,147362,1,8,0:0:0:0:
256,192,147524,1,0,0:0:0:0:
256,192,147686,1,8,0:0:0:0:
258,188,147848,1,0,0:0:0:0:
259,187,148010,1,8,0:0:0:0:
256,192,148335,1,8,0:0:0:0:
256,184,148497,1,0,0:0:0:0:
256,184,148659,1,8,0:0:0:0:
256,184,148983,1,0,0:0:0:0:
256,184,149146,1,8,0:0:0:0:
256,184,149470,1,0,0:0:0:0:
258,177,149632,1,0,0:0:0:0:
264,188,149794,1,0,0:0:0:0:
264,184,150119,1,0,0:0:0:0:
274,170,150281,1,8,0:0:0:0:
271,179,150443,1,8,0:0:0:0:
271,179,150605,1,8,0:0:0:0:
270,180,150929,1,0,0:0:0:0:
270,180,151092,1,0,0:0:0:0:
274,184,151254,1,8,0:0:0:0:
271,184,151578,1,8,0:0:0:0:
271,184,151740,1,0,0:0:0:0:
260,190,152065,1,0,0:0:0:0:
260,190,152227,1,0,0:0:0:0:
260,190,152389,1,0,0:0:0:0:
262,186,152551,1,8,0:0:0:0:
262,186,152713,1,0,0:0:0:0:
260,190,152875,1,8,0:0:0:0:
260,190,153038,1,0,0:0:0:0:
260,190,153200,1,0,0:0:0:0:
252,192,153362,1,0,0:0:0:0:
252,192,153524,1,0,0:0:0:0:
252,192,153686,1,0,0:0:0:0:
252,192,153848,1,8,0:0:0:0:
252,192,154173,1,0,0:0:0:0:
252,192,154335,1,0,0:0:0:0:
252,192,154497,1,0,0:0:0:0:
252,192,154659,1,0,0:0:0:0:
252,192,154821,1,8,0:0:0:0:
252,192,154983,1,0,0:0:0:0:
256,192,155146,5,8,0:0:0:0:
256,184,155308,1,0,0:0:0:0:
256,184,155470,1,0,0:0:0:0:
256,192,155632,1,8,0:0:0:0:
256,192,155794,1,8,0:0:0:0:
256,192,156119,1,0,0:0:0:0:
259,191,156281,1,0,0:0:0:0:
259,191,156443,1,8,0:0:0:0:
256,192,156767,1,0,0:0:0:0:
256,192,156929,1,0,0:0:0:0:
256,192,157092,1,0,0:0:0:0:
256,192,157740,1,8,0:0:0:0:
256,192,157902,1,0,0:0:0:0:
256,192,158065,1,0,0:0:0:0:
259,191,158227,1,0,0:0:0:0:
259,191,158389,1,0,0:0:0:0:
256,192,158713,1,0,0:0:0:0:
256,192,158875,1,0,0:0:0:0:
256,192,159038,1,8,0:0:0:0:
256,192,159362,1,0,0:0:0:0:
256,192,159524,1,0,0:0:0:0:
256,192,159687,1,0,0:0:0:0:
259,191,159849,1,0,0:0:0:0:
256,192,160335,1,8,0:0:0:0:
256,192,160497,1,0,0:0:0:0:
256,192,160660,1,0,0:0:0:0:
259,191,160822,1,0,0:0:0:0:
259,191,160984,1,0,0:0:0:0:
256,192,161308,1,0,0:0:0:0:
256,192,161470,1,0,0:0:0:0:
256,192,161633,1,8,0:0:0:0:
256,192,161956,1,0,0:0:0:0:
256,192,162118,1,0,0:0:0:0:
256,192,162281,1,0,0:0:0:0:
259,191,162443,1,0,0:0:0:0:
259,191,162605,1,0,0:0:0:0:
256,192,162929,1,8,0:0:0:0:
256,192,163091,1,0,0:0:0:0:
256,192,163254,1,0,0:0:0:0:
259,191,163416,1,0,0:0:0:0:
259,191,163578,1,0,0:0:0:0:
256,192,163902,1,0,0:0:0:0:
256,192,164064,1,0,0:0:0:0:
256,192,164227,1,8,0:0:0:0:
264,184,164551,1,0,0:0:0:0:
264,184,164713,1,0,0:0:0:0:
264,184,164875,1,0,0:0:0:0:
264,184,165038,1,8,0:0:0:0:
264,184,165200,1,0,0:0:0:0:
264,184,165362,1,8,0:0:0:0:
264,184,165524,1,8,0:0:0:0:
272,176,165686,1,8,0:0:0:0:
255,192,166497,1,0,0:0:0:0:
255,192,166659,1,0,0:0:0:0:
255,192,166821,1,0,0:0:0:0:
255,192,167145,1,8,0:0:0:0:
255,192,167470,1,0,0:0:0:0:
255,192,167632,1,0,0:0:0:0:
255,192,167794,1,8,0:0:0:0:
255,192,168118,1,0,0:0:0:0:
255,192,168443,1,8,0:0:0:0:
255,192,168605,1,0,0:0:0:0:
258,187,168686,1,0,0:0:0:0:
255,192,168767,1,8,0:0:0:0:
255,192,168929,1,0,0:0:0:0:
255,192,169091,1,0,0:0:0:0:
255,192,169253,1,8,0:0:0:0:
255,192,169416,1,0,0:0:0:0:
255,192,169578,1,8,0:0:0:0:
255,192,169740,1,0,0:0:0:0:
255,192,169902,1,0,0:0:0:0:
255,192,169983,1,0,0:0:0:0:
255,192,170064,1,8,0:0:0:0:
255,192,170226,1,0,0:0:0:0:
255,192,170389,1,8,0:0:0:0:
255,192,170551,1,0,0:0:0:0:
255,192,170713,1,8,0:0:0:0:
255,192,170875,1,0,0:0:0:0:
255,192,171037,1,8,0:0:0:0:
255,192,171199,1,8,0:0:0:0:
255,192,171362,1,0,0:0:0:0:
255,192,171524,1,0,0:0:0:0:
255,192,171605,1,0,0:0:0:0:
255,192,171686,1,8,0:0:0:0:
255,192,171848,1,0,0:0:0:0:
255,192,172010,1,8,0:0:0:0:
255,192,172172,1,0,0:0:0:0:
255,192,172335,1,8,0:0:0:0:
255,192,172497,1,0,0:0:0:0:
255,192,172578,1,0,0:0:0:0:
255,192,172659,1,8,0:0:0:0:
255,192,172821,1,0,0:0:0:0:
251,188,172983,1,8,0:0:0:0:
255,192,173145,1,0,0:0:0:0:
255,192,173308,1,8,0:0:0:0:
255,192,173470,1,0,0:0:0:0:
255,192,173632,1,8,0:0:0:0:
268,191,173956,1,4,0:0:0:0:
264,197,174118,1,12,0:0:0:0:
261,192,174443,1,4,0:0:0:0:
261,192,174605,1,12,0:0:0:0:
259,187,174929,1,0,0:0:0:0:
259,187,175091,1,0,0:0:0:0:
260,180,175416,1,0,0:0:0:0:
259,187,175740,1,8,0:0:0:0:
258,199,176064,1,0,0:0:0:0:
251,204,176389,1,12,0:0:0:0:
256,208,176875,1,0,0:0:0:0:
264,216,177037,1,0,0:0:0:0:
264,208,177199,1,12,0:0:0:0:
264,208,177524,1,8,0:0:0:0:
264,208,177848,1,0,0:0:0:0:
272,224,178010,1,0,0:0:0:0:
272,224,178172,1,8,0:0:0:0:
272,224,178497,1,0,0:0:0:0:
264,216,178821,1,8,0:0:0:0:
272,224,178983,1,8,0:0:0:0:
272,224,179470,1,0,0:0:0:0:
272,224,179632,1,0,0:0:0:0:
272,224,179794,1,12,0:0:0:0:
256,192,180118,1,8,0:0:0:0:
272,224,180443,1,0,0:0:0:0:
272,224,180605,1,0,0:0:0:0:
272,224,180767,1,8,0:0:0:0:
272,216,181091,1,0,0:0:0:0:
248,176,181416,1,0,0:0:0:0:
256,192,181578,1,0,0:0:0:0:
262,191,181740,1,0,0:0:0:0:
256,192,182064,1,8,0:0:0:0:
256,192,182226,1,8,0:0:0:0:
256,192,182389,1,8,0:0:0:0:
256,192,182713,1,0,0:0:0:0:
256,192,182875,1,0,0:0:0:0:
256,192,183037,1,0,0:0:0:0:
256,192,183199,1,8,0:0:0:0:
256,192,183362,1,8,0:0:0:0:
256,192,183524,1,0,0:0:0:0:
256,192,183686,1,8,0:0:0:0:
253,206,183848,1,0,0:0:0:0:
253,197,184172,1,12,0:0:0:0:
248,208,184659,1,0,0:0:0:0:
248,208,184821,1,0,0:0:0:0:
248,208,184983,1,12,0:0:0:0:
256,192,185308,1,8,0:0:0:0:
256,192,185470,1,4,0:0:0:0:
256,192,185794,1,4,0:0:0:0:
256,192,186118,1,12,0:0:0:0:
256,192,186443,1,4,0:0:0:0:
256,192,186767,1,12,0:0:0:0:
272,192,187253,1,0,0:0:0:0:
272,192,187416,1,0,0:0:0:0:
272,192,187578,1,8,0:0:0:0:
272,192,187902,1,8,0:0:0:0:
272,192,188226,1,0,0:0:0:0:
272,192,188389,1,0,0:0:0:0:
272,192,188551,1,8,0:0:0:0:
272,192,188875,1,8,0:0:0:0:
272,184,189199,1,0,0:0:0:0:
272,184,189362,1,8,0:0:0:0:
272,184,189848,1,0,0:0:0:0:
272,192,190010,1,0,0:0:0:0:
272,192,190172,1,12,0:0:0:0:
272,192,190497,1,8,0:0:0:0:
272,192,190821,1,0,0:0:0:0:
272,192,190983,1,0,0:0:0:0:
264,192,191145,1,8,0:0:0:0:
272,192,191470,1,8,0:0:0:0:
272,192,191794,1,0,0:0:0:0:
272,192,191956,1,0,0:0:0:0:
272,192,192118,1,8,0:0:0:0:
272,192,192280,1,8,0:0:0:0:
272,192,192443,1,8,0:0:0:0:
272,192,192605,1,0,0:0:0:0:
256,192,192767,1,8,0:0:0:0:
256,192,193091,1,0,0:0:0:0:
256,192,193253,1,8,0:0:0:0:
256,192,193416,1,8,0:0:0:0:
256,192,193578,1,8,0:0:0:0:
256,192,193740,1,0,0:0:0:0:
256,192,193902,1,8,0:0:0:0:
256,192,194064,1,0,0:0:0:0:
256,192,194226,1,8,0:0:0:0:
240,192,194551,1,12,0:0:0:0:
240,192,195037,1,0,0:0:0:0:
240,192,195199,1,0,0:0:0:0:
240,192,195362,1,12,0:0:0:0:
240,192,195686,1,8,0:0:0:0:
240,192,195848,1,4,0:0:0:0:
240,192,196172,5,4,0:0:0:0:
232,196,196497,1,12,0:0:0:0:
240,192,196821,1,4,0:0:0:0:
256,192,197145,1,12,0:0:0:0:
232,196,197308,1,8,0:0:0:0:
231,200,197470,1,0,0:0:0:0:
231,200,197632,1,0,0:0:0:0:
221,193,197794,1,8,0:0:0:0:
231,200,197956,1,0,0:0:0:0:
231,200,198119,1,0,0:0:0:0:
221,193,198281,1,8,0:0:0:0:
231,200,198443,1,0,0:0:0:0:
231,200,198524,1,0,0:0:0:0:
221,193,198605,1,8,0:0:0:0:
231,200,198767,1,0,0:0:0:0:
231,200,198929,1,0,0:0:0:0:
221,193,199092,1,8,0:0:0:0:
231,200,199254,1,0,0:0:0:0:
231,200,199416,1,0,0:0:0:0:
221,193,199578,1,8,0:0:0:0:
221,193,199740,1,0,0:0:0:0:
221,193,199821,1,0,0:0:0:0:
221,193,199902,1,8,0:0:0:0:
221,193,200065,1,0,0:0:0:0:
222,189,200227,1,0,0:0:0:0:
211,192,200389,1,8,0:0:0:0:
221,193,200551,1,0,0:0:0:0:
221,193,200713,1,0,0:0:0:0:
215,192,200875,1,8,0:0:0:0:
221,193,201038,1,0,0:0:0:0:
222,189,201119,1,0,0:0:0:0:
211,192,201200,1,8,0:0:0:0:
222,189,201362,1,0,0:0:0:0:
221,193,201524,1,0,0:0:0:0:
265,189,201605,1,0,0:0:0:0:
215,192,201686,1,8,0:0:0:0:
222,189,201848,1,0,0:0:0:0:
221,193,202010,1,0,0:0:0:0:
211,192,202173,1,8,0:0:0:0:
222,189,202335,1,0,0:0:0:0:
257,192,202497,5,8,0:0:0:0:
242,203,202659,1,0,0:0:0:0:
257,192,202821,1,8,0:0:0:0:
245,207,202983,1,0,0:0:0:0:
257,192,203146,1,8,0:0:0:0:
245,207,203308,1,0,0:0:0:0:
257,192,203470,1,8,0:0:0:0:
246,206,203632,1,0,0:0:0:0:
257,192,203794,1,8,0:0:0:0:
245,207,203956,1,0,0:0:0:0:
245,211,204119,1,8,0:0:0:0:
245,207,204281,1,0,0:0:0:0:
245,211,204443,1,8,0:0:0:0:
246,206,204605,1,0,0:0:0:0:
245,211,204767,1,8,0:0:0:0:
245,207,204929,1,0,0:0:0:0:
245,211,205092,1,8,0:0:0:0:
240,203,205254,1,0,0:0:0:0:
240,203,205416,1,0,0:0:0:0:
240,203,205578,1,8,0:0:0:0:
235,202,205740,1,0,0:0:0:0:
237,200,205902,1,0,0:0:0:0:
235,200,206065,1,8,0:0:0:0:
235,200,206227,1,0,0:0:0:0:
256,192,206389,5,8,0:0:0:0:
256,192,206551,1,8,0:0:0:0:
256,192,206713,1,0,0:0:0:0:
256,192,206875,1,0,0:0:0:0:
264,176,207038,1,8,0:0:0:0:
256,192,207200,1,0,0:0:0:0:
256,192,207362,1,8,0:0:0:0:
256,192,207524,1,0,0:0:0:0:
256,192,207686,1,8,0:0:0:0:
251,192,208010,1,0,0:0:0:0:
256,192,208173,1,0,0:0:0:0:
256,192,208335,1,8,0:0:0:0:
256,192,208659,1,0,0:0:0:0:
256,192,208821,1,0,0:0:0:0:
256,192,208984,1,0,0:0:0:0:
259,191,209146,1,0,0:0:0:0:
256,192,209632,1,8,0:0:0:0:
256,192,209794,1,0,0:0:0:0:
256,192,209957,1,0,0:0:0:0:
259,191,210119,1,0,0:0:0:0:
259,191,210281,1,0,0:0:0:0:
256,192,210605,1,0,0:0:0:0:
256,192,210767,1,0,0:0:0:0:
256,192,210930,1,8,0:0:0:0:
259,191,211254,1,0,0:0:0:0:
256,192,211416,1,0,0:0:0:0:
256,192,211578,1,0,0:0:0:0:
256,192,211740,1,0,0:0:0:0:
256,192,211902,1,0,0:0:0:0:
259,191,212065,1,8,0:0:0:0:
259,191,212227,1,0,0:0:0:0:
256,192,212389,1,8,0:0:0:0:
256,192,212551,1,0,0:0:0:0:
256,192,212713,1,8,0:0:0:0:
256,192,212875,5,4,0:0:0:0:
