osu file format v14

[General]
AudioFilename: audio.mp3
AudioLeadIn: 0
PreviewTime: 170279
Countdown: 0
SampleSet: Soft
StackLeniency: 0.7
Mode: 0
LetterboxInBreaks: 0
WidescreenStoryboard: 1

[Editor]
DistanceSpacing: 0.8
BeatDivisor: 4
GridSize: 4
TimelineZoom: 1

[Metadata]
Title:Assault & Batteries
TitleUnicode:Assault & Batteries
Artist:Ice Nine Kills
ArtistUnicode:Ice Nine Kills
Creator:Blitzifyyy
Version:Normal
Source:
Tags:WashedUp Player 1103 we vibing we_vibing and Chucky Child's Play Horror Metal Metalcore English INK The Silver Scream 2 Welcome to Horrorwood
BeatmapID:3159552
BeatmapSetID:1545821

[Difficulty]
HPDrainRate:3
CircleSize:3
OverallDifficulty:5
ApproachRate:6
SliderMultiplier:1.2
SliderTickRate:1

[Events]
//Background and Video events
0,0,"800172.jpg",0,0
//Break Periods
//Storyboard Layer 0 (Background)
//Storyboard Layer 1 (Fail)
//Storyboard Layer 2 (Pass)
//Storyboard Layer 3 (Foreground)
//Storyboard Layer 4 (Overlay)
//Storyboard Sound Samples

[TimingPoints]
15825,491.803278688525,4,2,1,45,1,0
30579,371.517027863777,4,2,1,75,1,0
30579,-100,4,2,1,75,0,0
32065,-100,4,2,1,75,0,0
32250,-100,4,2,1,5,0,0
32436,-100,4,2,1,75,0,0
32993,-100,4,2,1,5,0,0
33179,-100,4,2,1,75,0,0
33364,-100,4,2,1,5,0,0
33551,-100,4,2,1,75,0,0
36523,-100,4,2,1,65,0,0
45811,-100,4,2,1,55,0,0
46554,-100,4,2,1,65,0,0
48411,-100,4,2,1,75,0,0
49339,-100,4,2,1,5,0,0
49526,-100,4,2,1,75,0,0
50825,-100,4,2,1,5,0,0
51012,-100,4,2,1,75,0,0
52311,-100,4,2,1,5,0,0
52498,-100,4,2,1,75,0,0
53798,-100,4,2,1,5,0,0
53984,-100,4,2,1,75,0,0
54541,-100,4,2,1,5,0,0
54727,-100,4,2,1,75,0,0
54912,-100,4,2,1,5,0,0
55099,-100,4,2,1,75,0,0
55284,-100,4,2,1,5,0,0
55470,-100,4,2,1,75,0,0
56027,-100,4,2,1,5,0,0
56213,-100,4,2,1,75,0,0
56398,-100,4,2,1,5,0,0
56585,-100,4,2,1,75,0,0
56770,-100,4,2,1,5,0,0
56956,-100,4,2,1,75,0,0
58256,-100,4,2,1,5,0,0
58442,-100,4,2,1,75,0,0
59742,-100,4,2,1,5,0,0
59928,-100,4,2,1,75,0,0
61786,392.156862745098,4,2,1,85,1,0
61786,-100,4,2,1,85,0,1
63942,-100,4,2,1,5,0,1
64138,-100,4,2,1,85,0,1
67472,-100,4,2,1,5,0,1
67668,-100,4,2,1,85,0,1
71197,388.349514563107,4,2,1,85,1,0
71197,-100,4,2,1,85,0,1
74303,371.517027863777,4,2,1,65,1,0
74303,-100,4,2,1,65,0,0
77368,-100,4,2,1,55,0,0
78018,-100,4,2,1,65,0,0
78111,-100,4,2,1,55,0,0
78761,-100,4,2,1,65,0,0
78854,-100,4,2,1,55,0,0
79504,-100,4,2,1,65,0,0
86191,-100,4,2,1,55,0,0
87306,-100,4,2,1,65,0,0
89163,-100,4,2,1,75,0,0
90091,-100,4,2,1,5,0,0
90278,-100,4,2,1,75,0,0
91577,-100,4,2,1,5,0,0
91764,-100,4,2,1,75,0,0
93063,-100,4,2,1,5,0,0
93250,-100,4,2,1,75,0,0
94549,-100,4,2,1,5,0,0
94736,-100,4,2,1,75,0,0
95292,-100,4,2,1,5,0,0
95479,-100,4,2,1,75,0,0
95664,-100,4,2,1,5,0,0
95850,-100,4,2,1,75,0,0
96035,-100,4,2,1,5,0,0
96222,-100,4,2,1,75,0,0
96779,-100,4,2,1,5,0,0
96965,-100,4,2,1,75,0,0
97150,-100,4,2,1,5,0,0
97337,-100,4,2,1,75,0,0
97522,-100,4,2,1,5,0,0
97708,-100,4,2,1,75,0,0
99008,-100,4,2,1,5,0,0
99194,-100,4,2,1,75,0,0
100494,-100,4,2,1,5,0,0
100680,-100,4,2,1,75,0,0
101001,394.088669950739,4,2,1,45,1,0
101780,392.156862745098,4,2,1,85,1,1
103936,-100,4,2,1,5,0,1
104132,-100,4,2,1,85,0,1
107466,-100,4,2,1,5,0,1
107662,-100,4,2,1,85,0,1
109623,388.978930307942,4,2,1,85,1,1
114290,371.517027863777,4,2,1,75,1,0
117818,-100,4,2,1,5,0,0
118005,-100,4,2,1,75,0,0
118190,-100,4,2,1,5,0,0
118376,-100,4,2,1,75,0,0
118933,-100,4,2,1,5,0,0
119119,-100,4,2,1,75,0,0
121905,-100,4,2,1,5,0,0
122091,-100,4,2,1,75,0,0
122276,-100,4,2,1,5,0,0
122463,-100,4,2,1,75,0,0
123762,-100,4,2,1,5,0,0
123949,-100,4,2,1,75,0,0
126735,-100,4,2,1,5,0,0
126921,-100,4,2,1,75,0,0
127106,-100,4,2,1,5,0,0
127293,-100,4,2,1,75,0,0
130078,-100,4,2,1,5,0,0
130265,-100,4,2,1,75,0,0
131565,-100,4,2,1,5,0,0
131751,-100,4,2,1,75,0,0
132308,-100,4,2,1,5,0,0
132680,-100,4,2,1,75,0,0
134908,-100,4,2,1,5,0,0
135094,-100,4,2,1,65,0,0
139738,-100,4,2,1,5,0,0
139924,-100,4,2,1,65,0,0
141410,-100,4,2,1,55,0,0
144382,-100,4,2,1,65,0,0
146797,375,4,2,1,85,1,1
146984,-100,4,2,1,5,0,1
147172,-100,4,2,1,85,0,1
148484,-100,4,2,1,5,0,1
148672,-100,4,2,1,85,0,1
158422,-100,4,2,1,65,0,0
158797,-100,4,2,1,85,0,1
166109,-100,4,2,1,5,0,1
166297,-100,4,2,1,85,0,1
166859,-100,4,2,1,5,0,1
167234,-100,4,2,1,85,0,1
169859,413.793103448276,4,2,1,85,1,1
170272,392.156862745098,4,2,1,85,1,1
170302,368.663594470046,4,2,1,75,1,0
171056,390.879478827362,4,2,1,75,1,0
174183,-100,4,2,1,65,0,0
176722,-100,4,2,1,5,0,0
176919,-100,4,2,1,65,0,0
177310,-100,4,2,1,85,0,1
185713,-100,4,2,1,5,0,1
185909,-100,4,2,1,85,0,1
189231,-100,4,2,1,5,0,1
189427,-100,4,2,1,85,0,1
192945,-100,4,2,1,75,0,0
200762,-100,4,2,1,65,0,0
205453,-100,4,2,1,5,0,0

[Colours]
Combo1 : 141,14,14
Combo2 : 96,96,96
Combo3 : 10,81,158
Combo4 : 182,182,182

[HitObjects]
285,320,30579,6,0,B|346:269|423:320|354:357|431:423|522:385|552:306|489:236|419:276,1,360,6|4,1:2|2:0,0:0:0:0:
361,207,32065,2,0,P|353:177|361:148,1,60,2|0,2:0|0:0,0:0:0:0:
392,113,32436,1,6,2:0:0:0:
321,47,32808,2,0,L|259:48,1,60,10|0,1:3|0:0,0:0:0:0:
220,74,33179,2,0,L|158:73,1,60,0|0,1:3|0:0,0:0:0:0:
116,52,33551,5,4,2:0:0:0:
36,226,34294,1,6,2:0:0:0:
168,365,35037,2,0,L|231:361,2,60,4|2|2,2:0|1:2|1:2,0:0:0:0:
120,368,35594,1,0,1:0:0:0:
32,144,36523,6,0,P|64:135|93:144,1,60,4|8,2:0|2:0,0:0:0:0:
120,178,36894,2,0,L|118:251,1,60,2|10,1:2|2:0,0:0:0:0:
117,286,37266,2,0,B|176:268|176:315|237:295,1,120,2|2,1:2|1:2,0:0:0:0:
272,269,37823,1,10,2:0:0:0:
327,190,38195,1,10,2:0:0:0:
327,190,38380,2,0,L|324:118,1,60,2|10,1:2|2:0,0:0:0:0:
348,88,38752,2,0,P|380:94|410:87,2,60,2|10|2,1:2|2:0|1:2,0:0:0:0:
300,80,39309,1,10,2:0:0:0:
176,154,39866,6,0,P|146:162|114:154,1,60,2|10,1:2|2:0,0:0:0:0:
81,134,40238,1,2,1:2:0:0:
81,134,40424,2,0,L|84:63,1,60,10|0,2:0|1:2,0:0:0:0:
90,26,40795,1,10,2:0:0:0:
186,4,41167,1,10,2:0:0:0:
186,4,41352,2,0,P|215:-4|251:7,1,60,2|10,1:2|2:0,0:0:0:0:
277,36,41724,2,0,L|273:102,2,60,2|10|0,1:2|2:0|1:2,0:0:0:0:
320,15,42281,1,10,2:0:0:0:
389,89,42653,5,10,2:0:0:0:
389,89,42839,2,0,L|449:87,1,60,2|10,1:2|2:0,0:0:0:0:
500,96,43210,1,2,1:2:0:0:
500,96,43396,2,0,B|508:127|508:127|500:156,1,60,10|0,2:0|1:2,0:0:0:0:
480,197,43767,1,10,2:0:0:0:
390,224,44139,1,10,2:0:0:0:
390,224,44325,2,0,L|326:221,1,60,2|10,1:2|2:0,0:0:0:0:
289,195,44696,1,2,1:2:0:0:
289,195,44882,2,0,L|225:198,1,60,10|0,2:0|1:2,0:0:0:0:
184,214,45253,1,10,2:0:0:0:
104,265,45625,5,8,2:0:0:0:
104,265,45811,2,0,P|92:295|100:324,1,60,2|8,1:2|2:0,0:0:0:0:
115,365,46182,2,0,L|175:362,1,60,10|8,1:2|2:0,0:0:0:0:
224,363,46554,1,10,1:2:0:0:
281,286,46925,2,0,P|288:252|279:223,1,60,8|10,1:2|2:0,0:0:0:0:
245,195,47297,2,0,P|238:161|247:132,1,60,10|10,2:3|2:3,0:0:0:0:
277,101,47668,2,0,L|336:103,1,60,10|8,1:3|1:3,0:0:0:0:
381,121,48040,1,10,1:3:0:0:
448,189,48411,6,0,B|448:212|464:229|464:229|459:244|449:258|449:258|489:299|455:353,1,180,2|2,2:0|2:0,0:0:0:0:
415,379,49154,2,0,L|349:376,1,60,8|0,2:0|0:0,0:0:0:0:
306,374,49526,1,0,1:2:0:0:
229,316,49897,2,0,B|193:302|156:331|156:331|146:322|146:322|108:349|51:329,1,180,6|2,2:0|2:0,0:0:0:0:
24,301,50640,2,0,L|26:222,1,60,8|0,2:0|0:0,0:0:0:0:
28,192,51012,1,0,1:2:0:0:
93,122,51383,6,0,B|148:99|148:99|205:123,1,120,6|2,2:0|2:0,0:0:0:0:
235,159,51941,1,0,0:0:0:0:
235,159,52126,2,0,L|231:234,1,60,10|0,2:0|0:0,0:0:0:0:
229,267,52498,1,2,1:2:0:0:
288,342,52870,2,0,P|319:360|405:336,1,120,6|6,1:2|1:2,0:0:0:0:
427,306,53427,1,0,0:0:0:0:
427,306,53613,2,0,L|426:237,1,60,14|0,2:0|0:0,0:0:0:0:
429,198,53984,1,2,2:0:0:0:
368,123,54356,6,0,B|338:132|338:132|303:125,1,60,10|0,1:3|0:0,0:0:0:0:
266,106,54727,2,0,B|238:96|238:96|201:104,1,60,10|0,1:3|0:0,0:0:0:0:
168,129,55099,2,0,B|171:189,1,60,10|0,2:0|0:0,0:0:0:0:
174,236,55470,1,2,2:0:0:0:
261,275,55842,2,0,B|285:270|285:270|298:276|298:276|323:273,1,60,10|0,1:3|0:0,0:0:0:0:
356,243,56213,2,0,B|380:248|380:248|393:242|393:242|418:245,1,60,10|0,1:3|0:0,0:0:0:0:
451,275,56585,2,0,P|462:305|456:336,1,60,10|0,2:0|0:0,0:0:0:0:
432,372,56956,1,2,2:0:0:0:
338,350,57328,6,0,B|287:352|287:352|273:361|273:361|214:360,1,120,6|6,1:2|1:2,0:0:0:0:
179,335,57885,1,0,0:0:0:0:
179,335,58071,2,0,P|169:302|176:268,1,60,14|0,2:0|0:0,0:0:0:0:
193,233,58442,1,2,1:2:0:0:
258,162,58814,2,0,B|293:152|306:126|306:126|318:149|353:165,1,120,6|6,1:2|1:2,0:0:0:0:
394,192,59371,1,0,0:0:0:0:
394,192,59557,2,0,L|455:190,1,60,14|0,2:0|0:0,0:0:0:0:
493,162,59928,1,10,1:3:0:0:
133,26,61414,1,10,2:0:0:0:
59,79,61786,6,0,P|67:108|61:142,1,60,6|2,1:2|2:0,0:0:0:0:
39,180,62178,1,10,2:0:0:0:
38,180,62374,2,0,B|75:164|75:164|163:184,1,120,2|2,2:0|2:0,0:0:0:0:
189,212,62962,1,10,2:0:0:0:
262,273,63354,2,0,L|324:270,1,60,6|2,1:2|2:0,0:0:0:0:
362,242,63746,2,0,L|424:245,1,60,10|0,2:0|0:0,0:0:0:0:
461,271,64138,1,6,1:2:0:0:
510,188,64531,2,0,P|517:151|505:120,1,60,10|2,2:0|1:2,0:0:0:0:
484,90,64923,6,0,L|421:94,1,60,6|2,1:2|2:0,0:0:0:0:
386,123,65315,2,0,L|323:119,1,60,10|2,2:0|2:0,0:0:0:0:
281,138,65707,2,0,B|271:171|271:171|274:200,1,60,6|2,1:2|2:0,0:0:0:0:
286,242,66099,1,10,2:0:0:0:
342,319,66491,2,0,L|402:316,2,60,6|2|10,1:2|1:2|2:0,0:0:0:0:
302,347,67080,2,0,B|248:346|248:346|239:351|239:351|179:350,1,120,10|0,2:0|0:0,0:0:0:0:
135,349,67668,1,10,2:0:0:0:
63,284,68060,6,0,P|53:255|61:221,1,60,6|2,1:2|2:0,0:0:0:0:
84,186,68452,1,10,2:0:0:0:
84,186,68648,2,0,B|117:193|117:193|142:182|142:182|180:193|216:185,1,120,2|2,2:0|2:0,0:0:0:0:
246,176,69236,1,10,2:0:0:0:
315,109,69629,2,0,L|313:48,1,60,6|8,1:2|2:0,0:0:0:0:
283,19,70021,1,2,1:2:0:0:
283,18,70217,2,0,B|253:11|253:11|211:20,1,60,10|0,2:0|1:2,0:0:0:0:
187,47,70609,1,8,2:0:0:0:
133,127,71001,1,10,2:0:0:0:
133,127,71197,6,0,L|135:190,1,60,6|10,1:2|2:0,0:0:0:0:
164,224,71585,2,0,L|162:287,1,60,2|10,1:2|2:0,0:0:0:0:
185,325,71973,2,0,P|219:311|259:320,1,60,2|10,1:2|2:0,0:0:0:0:
283,338,72362,1,2,1:2:0:0:
356,276,72750,2,0,B|360:243|360:243|351:216,1,60,10|8,2:0|2:0,0:0:0:0:
312,189,73138,2,0,B|308:156|308:156|317:129,1,60,8|8,2:0|2:0,0:0:0:0:
344,91,73527,1,0,1:2:0:0:
487,372,76532,5,6,1:2:0:0:
410,313,76903,1,6,1:2:0:0:
334,373,77275,6,0,L|270:371,1,60,6|8,1:2|2:0,0:0:0:0:
235,342,77646,2,0,L|166:344,1,60,10|10,2:0|2:0,0:0:0:0:
128,357,78018,2,0,P|156:299|134:245,1,120,10|10,1:2|2:0,0:0:0:0:
97,223,78575,1,10,2:0:0:0:
175,102,79132,2,0,P|205:95|235:101,1,60,10|10,2:0|2:0,0:0:0:0:
271,129,79504,2,0,L|270:189,2,60,10|10|10,1:2|2:0|1:2,0:0:0:0:
317,110,80061,1,10,2:0:0:0:
317,110,80247,5,10,1:2:0:0:
244,47,80618,2,0,B|215:40|215:40|175:48,1,60,8|8,1:2|2:0,0:0:0:0:
142,68,80990,2,0,L|145:134,2,60,8|8|8,1:2|2:0|1:2,0:0:0:0:
98,47,81547,1,8,2:0:0:0:
29,117,81919,1,10,2:0:0:0:
29,117,82104,2,0,L|31:181,1,60,10|10,1:2|2:0,0:0:0:0:
55,218,82476,2,0,L|52:283,1,60,14|10,1:2|2:0,0:0:0:0:
31,321,82847,1,14,1:2:0:0:
109,376,83219,6,0,P|140:385|169:378,1,60,6|10,1:2|2:0,0:0:0:0:
200,345,83590,2,0,L|199:276,1,60,2|10,1:2|2:0,0:0:0:0:
179,240,83962,2,0,P|148:231|119:238,2,60,2|10|2,1:2|2:0|1:2,0:0:0:0:
216,210,84519,1,10,2:0:0:0:
302,168,84891,1,10,2:0:0:0:
302,168,85076,2,0,B|331:162|331:162|368:170,1,60,2|10,1:2|2:0,0:0:0:0:
397,199,85448,2,0,L|396:265,2,60,2|10|2,1:2|2:0|1:2,0:0:0:0:
437,173,86005,1,10,2:0:0:0:
473,33,86563,6,0,P|434:23|402:37,1,60,2|10,1:2|2:0,0:0:0:0:
381,60,86934,2,0,B|330:58|330:58|316:63|316:63|250:60,1,120,10|10,1:2|1:2,0:0:0:0:
188,122,87677,2,0,P|180:153|191:187,1,60,10|10,1:2|2:0,0:0:0:0:
222,212,88049,2,0,P|230:243|219:277,1,60,10|10,2:3|2:3,0:0:0:0:
187,301,88420,2,0,L|112:300,1,60,10|8,1:3|1:3,0:0:0:0:
78,295,88792,1,10,1:3:0:0:
17,220,89163,6,0,B|-9:175|-9:175|17:35,1,180,2|2,2:0|2:0,0:0:0:0:
40,8,89906,2,0,L|104:13,1,60,8|0,2:0|0:0,0:0:0:0:
143,32,90278,1,0,1:2:0:0:
220,88,90649,2,0,B|259:108|299:84|299:84|307:94|307:94|352:71|396:95,1,180,6|2,2:0|2:0,0:0:0:0:
414,131,91392,2,0,B|402:162|402:162|407:195,1,60,8|0,2:0|0:0,0:0:0:0:
428,231,91764,1,0,1:2:0:0:
370,307,92135,6,0,L|238:303,1,120,6|2,2:0|2:0,0:0:0:0:
208,278,92693,1,0,0:0:0:0:
208,278,92878,2,0,L|136:280,1,60,10|0,2:0|0:0,0:0:0:0:
103,297,93250,1,2,1:2:0:0:
157,376,93621,2,0,B|221:373|221:373|230:379|230:379|281:377,1,120,6|6,1:2|1:2,0:0:0:0:
318,353,94179,1,0,0:0:0:0:
318,353,94364,2,0,B|325:320|325:320|316:284,1,60,14|0,2:0|0:0,0:0:0:0:
290,255,94736,1,2,2:0:0:0:
212,197,95107,6,0,B|183:190|183:190|146:200,1,60,10|0,1:3|0:0,0:0:0:0:
119,231,95479,2,0,B|90:238|90:238|53:228,1,60,10|0,1:3|0:0,0:0:0:0:
27,195,95850,2,0,B|33:173|33:173|26:159|26:159|33:136,1,60,10|0,2:0|0:0,0:0:0:0:
51,94,96222,1,2,2:0:0:0:
137,51,96594,2,0,L|201:50,1,60,10|0,1:3|0:0,0:0:0:0:
241,32,96965,2,0,L|305:33,1,60,10|0,1:3|0:0,0:0:0:0:
337,64,97337,2,0,B|341:80|341:80|334:89|334:89|340:106|340:106|334:122,1,60,10|0,2:0|0:0,0:0:0:0:
332,167,97708,1,2,2:0:0:0:
259,230,98080,6,0,B|217:218|217:218|196:228|196:228|163:216|126:232,1,120,6|6,1:2|1:2,0:0:0:0:
109,258,98637,1,0,0:0:0:0:
109,258,98823,2,0,L|112:329,1,60,14|0,2:0|0:0,0:0:0:0:
122,364,99194,1,2,1:2:0:0:
210,325,99566,2,0,B|246:310|246:310|326:337,1,120,6|6,1:2|1:2,0:0:0:0:
362,363,100123,1,0,0:0:0:0:
362,363,100309,2,0,L|432:361,1,60,14|0,2:0|0:0,0:0:0:0:
469,357,100680,1,10,1:3:0:0:
283,161,101780,6,0,B|252:152|252:152|219:162,1,60,6|2,1:2|2:0,0:0:0:0:
193,196,102172,1,10,2:0:0:0:
193,196,102368,2,0,L|73:193,1,120,2|2,2:0|2:0,0:0:0:0:
29,172,102956,1,10,2:0:0:0:
65,83,103348,2,0,P|99:74|126:81,1,60,6|2,1:2|2:0,0:0:0:0:
166,98,103740,2,0,P|200:107|227:100,1,60,10|0,2:0|0:0,0:0:0:0:
260,71,104132,1,6,1:2:0:0:
345,114,104525,2,0,P|355:144|350:178,1,60,10|2,2:0|1:2,0:0:0:0:
319,207,104917,6,0,P|309:237|314:271,1,60,6|2,1:2|2:0,0:0:0:0:
347,297,105309,2,0,P|357:327|352:361,1,60,10|2,2:0|2:0,0:0:0:0:
315,383,105701,2,0,L|249:381,1,60,6|2,1:2|2:0,0:0:0:0:
207,377,106093,1,10,2:0:0:0:
124,327,106485,2,0,P|95:322|63:330,2,60,6|2|10,1:2|1:2|2:0,0:0:0:0:
161,296,107074,2,0,B|186:236|129:234|156:170,1,120,2|0,1:2|0:0,0:0:0:0:
173,137,107662,1,10,2:0:0:0:
253,84,108054,6,0,L|319:86,1,60,6|2,1:2|2:0,0:0:0:0:
355,118,108446,1,10,2:0:0:0:
355,118,108642,2,0,B|340:148|340:148|355:239,1,120,2|2,2:0|2:0,0:0:0:0:
379,273,109230,1,10,2:0:0:0:
467,232,109623,2,0,P|475:202|468:171,1,60,6|8,1:2|2:0,0:0:0:0:
445,132,110011,2,0,P|437:102|444:71,1,60,2|10,1:2|2:0,0:0:0:0:
452,27,110400,2,0,L|385:24,1,60,0|8,1:2|2:0,0:0:0:0:
344,16,110789,1,0,1:2:0:0:
259,61,111178,6,0,B|251:93|251:93|258:122,1,60,6|10,1:2|2:0,0:0:0:0:
282,160,111567,2,0,B|290:192|290:192|283:221,1,60,2|10,1:2|2:0,0:0:0:0:
247,250,111956,2,0,L|181:247,1,60,2|10,1:2|2:0,0:0:0:0:
138,248,112345,1,2,1:2:0:0:
51,200,112734,2,0,P|37:156|55:112,2,90,14|6|6,2:0|1:2|1:2,0:0:0:0:
33,244,113512,2,0,P|47:288|29:332,2,90,14|6|2,2:0|1:2|1:2,0:0:0:0:
51,200,114290,6,0,B|114:182|106:230|182:214,1,120,6|6,1:2|1:2,0:0:0:0:
411,64,115776,2,0,B|348:46|356:94|280:78,1,120,6|6,1:2|1:2,0:0:0:0:
110,26,116890,6,0,B|93:82|93:82|117:138,1,120,6|0,1:2|0:0,0:0:0:0:
192,197,117633,2,0,L|257:193,1,60,6|0,2:0|0:0,0:0:0:0:
295,172,118005,2,0,L|360:176,1,60,14|0,2:0|0:0,0:0:0:0:
394,203,118376,1,6,2:0:0:0:
465,267,118748,2,0,P|472:297|464:327,1,60,14|0,2:0|0:0,0:0:0:0:
435,363,119119,1,14,2:0:0:0:
342,337,119491,2,0,B|312:332|312:332|281:341,1,60,10|8,2:0|2:0,0:0:0:0:
245,369,119862,2,0,B|215:374|215:374|184:365,1,60,10|8,2:0|2:0,0:0:0:0:
148,335,120234,6,0,B|150:279|150:279|156:270|156:270|157:200,2,120,6|6|14,1:2|2:0|2:0,0:0:0:0:
233,379,121348,1,6,2:0:0:0:
317,333,121720,2,0,P|325:297|314:260,1,60,6|0,1:2|0:0,0:0:0:0:
285,242,122091,2,0,P|277:206|288:169,1,60,6|0,2:0|0:0,0:0:0:0:
315,149,122463,1,10,2:0:0:0:
246,81,122834,6,0,B|206:61|206:61|125:80,1,120,6|0,1:2|2:0,0:0:0:0:
96,110,123392,1,8,2:0:0:0:
96,110,123577,2,0,L|98:188,1,60,2|0,1:2|0:0,0:0:0:0:
101,218,123949,1,14,2:0:0:0:
163,290,124320,2,0,L|227:287,1,60,2|2,1:2|1:2,0:0:0:0:
260,257,124692,2,0,P|274:213|256:169,2,90,14|4|6,2:0|1:2|1:2,0:0:0:0:
278,301,125435,2,0,P|264:345|282:389,2,90,14|4|4,2:0|1:2|1:2,0:0:0:0:
313,268,126178,5,4,1:2:0:0:
228,222,126550,2,0,P|197:214|163:227,1,60,6|0,2:0|0:0,0:0:0:0:
142,260,126921,2,0,P|111:268|77:255,1,60,14|0,2:0|0:0,0:0:0:0:
39,242,127293,1,6,2:0:0:0:
0,154,127664,2,0,L|3:93,1,60,6|8,1:2|2:0,0:0:0:0:
36,59,128036,2,0,L|33:-2,2,60,6|0|10,1:2|1:2|2:0,0:0:0:0:
110,119,128779,6,0,B|175:143|175:91|235:110,1,120,6|4,1:2|2:0,0:0:0:0:
261,139,129336,1,8,2:0:0:0:
261,139,129522,2,0,L|260:208,1,60,6|2,1:2|1:2,0:0:0:0:
243,244,129893,2,0,L|244:313,1,60,14|0,2:0|0:0,0:0:0:0:
261,348,130265,1,6,2:0:0:0:
350,313,130636,2,0,P|404:293|463:313,1,120,14|6,2:0|1:2,0:0:0:0:
493,347,131194,2,0,L|500:224,1,120,10|0,2:0|0:0,0:0:0:0:
483,182,131751,6,0,B|452:151|386:179|424:201|367:228|320:188,1,180,6|0,1:2|0:0,0:0:0:0:
230,153,132680,1,0,1:2:0:0:
230,153,132865,2,0,L|233:91,1,60,10|2,2:0|1:2,0:0:0:0:
236,44,133237,1,2,2:0:0:0:
327,15,133608,2,0,L|395:19,1,60,10|10,2:3|2:3,0:0:0:0:
451,90,134166,2,0,P|459:123|451:158,1,60,10|8,2:3|2:3,0:0:0:0:
407,231,134723,2,0,P|399:264|407:299,1,60,0|0,1:2|0:0,0:0:0:0:
434,325,135094,5,4,1:2:0:0:
434,325,135280,1,0,1:2:0:0:
23,52,137509,6,0,B|78:30|78:30|144:53,1,120,4|4,1:2|1:2,0:0:0:0:
437,287,139367,5,0,1:2:0:0:
437,287,139553,2,0,L|439:223,1,60,0|0,1:2|0:0,0:0:0:0:
455,182,139924,2,0,P|485:190|519:180,2,60,8|0|8,2:0|1:2|2:0,0:0:0:0:
413,158,140481,1,4,1:2:0:0:
323,121,140853,1,4,1:2:0:0:
212,213,141410,6,0,P|182:219|148:212,1,60,8|8,2:0|2:0,0:0:0:0:
117,181,141782,2,0,P|87:175|53:182,1,60,8|8,2:0|2:0,0:0:0:0:
22,211,142153,1,8,2:0:0:0:
24,307,142525,2,0,L|95:305,1,60,8|8,2:0|2:0,0:0:0:0:
127,285,142896,2,0,L|198:287,2,60,8|8|8,2:0|2:0|2:0,0:0:0:0:
88,256,143454,1,0,1:2:0:0:
25,183,143825,1,4,1:2:0:0:
89,111,144197,5,0,0:0:0:0:
89,111,144382,2,0,L|157:112,1,60,8|8,2:0|2:0,0:0:0:0:
187,141,144754,2,0,L|250:139,1,60,8|8,2:0|2:0,0:0:0:0:
284,108,145125,2,0,P|296:78|288:46,1,60,8|8,2:0|2:0,0:0:0:0:
58,352,146797,6,0,L|55:281,1,60,6|0,1:2|0:0,0:0:0:0:
30,250,147172,1,2,1:2:0:0:
30,250,147359,2,0,L|33:179,1,60,6|0,1:2|0:0,0:0:0:0:
56,148,147734,1,10,2:0:0:0:
184,83,148297,2,0,P|216:76|246:82,1,60,6|0,1:2|0:0,0:0:0:0:
278,113,148672,1,2,1:2:0:0:
278,113,148859,2,0,P|310:120|340:114,1,60,6|0,1:2|0:0,0:0:0:0:
374,85,149234,2,0,L|370:22,2,60,10|10|10,2:0|2:0|2:0,0:0:0:0:
399,125,149797,5,6,1:2:0:0:
458,200,150172,1,2,1:2:0:0:
458,200,150359,2,0,P|464:235|455:271,1,60,6|0,1:2|0:0,0:0:0:0:
433,299,150734,1,10,2:0:0:0:
310,234,151297,1,8,1:3:0:0:
310,234,151484,2,0,B|280:226|280:226|247:235,1,60,8|0,2:0|1:2,0:0:0:0:
217,267,151859,2,0,B|187:275|187:275|154:266,1,60,8|0,2:3|1:2,0:0:0:0:
119,240,152234,1,8,2:0:0:0:
23,347,152797,6,0,P|72:325|137:352,1,120,10|0,2:3|0:0,0:0:0:0:
173,368,153359,2,0,B|241:365,1,60,10|0,2:3|0:0,0:0:0:0:
278,350,153734,1,10,2:0:0:0:
360,232,154297,2,0,B|375:199|357:156|357:156|333:135|330:105,1,120,6|0,1:2|0:0,0:0:0:0:
320,75,154859,2,0,L|250:76,1,60,2|0,1:2|1:2,0:0:0:0:
215,57,155234,2,0,P|205:21|212:-8,2,60,10|10|10,2:0|2:0|2:0,0:0:0:0:
186,96,155797,5,6,1:2:0:0:
90,203,156359,2,0,P|81:243|88:270,1,60,6|0,1:2|0:0,0:0:0:0:
111,301,156734,1,14,2:0:0:0:
200,265,157109,2,0,L|266:261,1,60,6|6,1:2|1:2,0:0:0:0:
303,243,157484,2,0,L|369:247,1,60,8|0,2:0|1:2,0:0:0:0:
406,266,157859,2,0,P|418:297|415:328,2,60,8|0|8,2:3|1:2|1:3,0:0:0:0:
289,350,158797,6,0,B|237:347|237:347|212:353|212:353|161:351,1,120,6|0,1:2|0:0,0:0:0:0:
122,348,159359,2,0,P|112:315|118:288,1,60,8|0,1:2|1:2,0:0:0:0:
146,252,159734,2,0,L|214:256,2,60,2|2|10,1:2|1:2|1:2,0:0:0:0:
107,222,160297,1,6,1:2:0:0:
50,144,160672,1,2,1:2:0:0:
50,144,160859,2,0,P|40:109|45:82,1,60,10|2,1:2|1:2,0:0:0:0:
76,50,161234,2,0,L|135:51,1,60,2|2,1:2|1:2,0:0:0:0:
179,72,161609,1,10,1:2:0:0:
249,203,162172,5,0,1:2:0:0:
249,203,162359,2,0,P|283:211|311:205,1,60,8|10,1:2|1:2,0:0:0:0:
385,149,162922,1,2,1:2:0:0:
385,149,163109,2,0,L|381:89,1,60,10|0,1:2|1:2,0:0:0:0:
350,53,163484,2,0,P|319:45|290:55,1,60,10|10,2:0|1:3,0:0:0:0:
262,90,163859,2,0,P|231:98|202:88,1,60,10|2,2:3|1:2,0:0:0:0:
167,59,164234,1,10,2:0:0:0:
91,118,164609,1,10,2:0:0:0:
91,118,164797,6,0,B|93:147|81:162|81:162|94:179|114:182|114:182|137:223|117:281,1,180,10|8,1:3|1:3,0:0:0:0:
145,365,165734,2,0,B|191:349|191:349|270:367,1,120,14|0,2:0|0:0,0:0:0:0:
305,381,166297,1,2,1:2:0:0:
305,381,166484,2,0,P|326:318|297:253,1,120,2|0,2:0|0:0,0:0:0:0:
227,220,167234,2,0,P|216:192|223:157,1,60,10|8,2:0|2:0,0:0:0:0:
255,130,167609,1,8,2:0:0:0:
329,69,167984,6,0,L|400:72,1,60,2|2,1:2|1:2,0:0:0:0:
428,99,168359,2,0,P|438:131|430:164,1,60,2|2,1:2|1:2,0:0:0:0:
398,189,168734,1,10,2:0:0:0:
317,240,169109,2,0,L|253:239,1,60,2|2,1:2|1:2,0:0:0:0:
209,232,169484,1,10,2:0:0:0:
69,131,171056,6,0,B|55:87|92:50|92:50|223:151|103:296,1,360,6|2,1:2|2:0,0:0:0:0:
39,349,172619,2,0,B|82:308|162:340|133:359|204:392|269:353,1,240,6|2,1:2|2:0,0:0:0:0:
295,318,173596,2,0,L|292:254,2,60,10|10|10,1:3|1:3|1:3,0:0:0:0:
432,42,175746,6,0,P|462:35|502:45,2,60,10|2|10,2:0|1:2|2:3,0:0:0:0:
395,73,176332,2,0,L|267:72,1,120,10|0,2:0|0:0,0:0:0:0:
229,54,176919,1,10,2:0:0:0:
159,120,177310,6,0,P|152:148|157:186,1,60,6|10,1:2|2:0,0:0:0:0:
181,225,177700,1,2,2:0:0:0:
181,225,177896,2,0,B|211:210|211:210|302:225,1,120,10|10,1:2|1:2,0:0:0:0:
343,236,178482,1,2,2:0:0:0:
414,300,178873,2,0,P|422:330|415:361,1,60,2|10,1:2|1:2,0:0:0:0:
375,382,179264,2,0,L|312:380,1,60,2|10,2:0|1:2,0:0:0:0:
275,354,179655,2,0,L|212:356,1,60,0|10,1:2|1:2,0:0:0:0:
170,374,180046,1,0,1:0:0:0:
91,318,180437,6,0,B|83:286|83:286|90:257,1,60,2|10,1:2|1:2,0:0:0:0:
120,223,180827,2,0,B|128:191|128:191|121:162,1,60,2|10,1:2|1:2,0:0:0:0:
103,120,181218,2,0,L|168:121,1,60,2|10,1:2|1:2,0:0:0:0:
210,123,181609,1,2,1:2:0:0:
299,83,182000,2,0,B|313:39|313:39|295:-5,2,90,10|10|10,1:2|1:2|1:2,0:0:0:0:
320,126,182782,2,0,L|318:188,1,60,10|8,1:2|1:2,0:0:0:0:
313,233,183173,1,8,1:2:0:0:
240,296,183564,6,0,L|176:292,1,60,6|2,1:2|2:0,0:0:0:0:
136,272,183955,2,0,P|128:237|138:204,1,60,2|2,2:0|2:0,0:0:0:0:
165,178,184345,2,0,P|188:138|145:71,1,120,12|2,2:0|2:0,0:0:0:0:
62,92,185127,2,0,L|64:165,1,60,6|2,2:0|1:2,0:0:0:0:
91,191,185518,2,0,L|89:264,1,60,2|0,2:0|0:0,0:0:0:0:
62,290,185909,1,14,2:0:0:0:
135,352,186300,2,0,P|166:359|201:349,1,60,6|10,2:0|2:0,0:0:0:0:
228,320,186691,6,0,P|259:313|294:323,1,60,6|2,1:2|1:2,0:0:0:0:
320,352,187082,2,0,P|351:359|386:349,1,60,2|2,2:0|1:2,0:0:0:0:
418,327,187472,1,14,2:0:0:0:
470,246,187863,1,10,2:0:0:0:
411,170,188254,2,0,L|349:172,1,60,6|10,2:0|2:0,0:0:0:0:
310,197,188645,1,2,1:2:0:0:
310,197,188841,2,0,B|237:192|237:192|223:197|223:197|169:196,1,120,2|0,1:2|0:0,0:0:0:0:
146,176,189427,1,14,2:0:0:0:
76,109,189818,6,0,P|55:78|112:21,1,120,6|2,1:2|2:0,0:0:0:0:
145,7,190404,1,2,2:0:0:0:
145,7,190599,2,0,B|226:6,1,60,8|2,2:0|1:2,0:0:0:0:
245,31,190990,1,2,1:2:0:0:
296,111,191381,2,0,P|304:142|296:169,1,60,10|2,2:3|1:2,0:0:0:0:
261,201,191772,2,0,P|253:232|261:259,1,60,10|10,2:3|1:3,0:0:0:0:
479,356,192945,5,6,1:2:0:0:
479,356,193140,2,0,B|425:335|425:335|349:356,1,120,8|8,2:0|2:0,0:0:0:0:
323,375,193727,2,0,L|249:370,1,60,2|8,1:2|2:0,0:0:0:0:
217,356,194117,1,2,2:0:0:0:
147,290,194508,1,6,1:2:0:0:
147,290,194704,2,0,P|137:257|143:227,1,60,8|0,2:0|0:0,0:0:0:0:
171,195,195095,1,8,2:0:0:0:
171,195,195290,2,0,P|175:165|165:137,1,60,2|8,1:2|2:0,0:0:0:0:
127,107,195681,1,2,2:0:0:0:
193,37,196072,6,0,L|256:39,1,60,6|8,1:2|2:0,0:0:0:0:
294,62,196463,2,0,L|357:60,1,60,0|8,0:0|2:0,0:0:0:0:
395,35,196854,1,6,1:2:0:0:
448,114,197244,1,2,2:0:0:0:
377,179,197635,2,0,L|310:175,1,60,10|8,2:0|2:3,0:0:0:0:
274,153,198026,2,0,L|207:157,1,60,8|8,1:3|2:0,0:0:0:0:
178,187,198417,1,8,2:3:0:0:
178,187,198613,2,0,P|171:219|188:259,2,60,8|8|8,1:3|2:0|2:0,0:0:0:0:
138,160,199199,5,0,1:2:0:0:
171,158,200762,6,0,P|227:178|284:155,1,120,6|8,1:2|0:0,0:0:0:0:
313,121,201349,1,8,0:0:0:0:
313,121,201544,2,0,P|369:101|426:124,1,120,0|8,1:0|0:0,0:0:0:0:
486,194,202326,2,0,L|481:319,1,120,0|8,1:0|0:0,0:0:0:0:
481,366,202912,1,8,0:0:0:0:
481,366,203108,1,4,1:2:0:0:
395,323,203498,1,4,1:2:0:0:
311,369,203889,6,0,L|244:366,1,60,2|2,2:0|2:0,0:0:0:0:
209,342,204280,2,0,L|142:345,1,60,2|2,2:0|2:0,0:0:0:0:
63,314,204867,1,14,1:2:0:0:
63,314,205062,2,0,B|39:257|39:257|64:186,1,120,14|0,1:2|0:0,0:0:0:0:
