osu file format v14

[General]
AudioFilename: audio.ogg
AudioLeadIn: 0
PreviewTime: 46907
Countdown: 0
SampleSet: Soft
StackLeniency: 0.5
Mode: 0
LetterboxInBreaks: 0
WidescreenStoryboard: 1

[Editor]
Bookmarks: 189,11849,23509,35158,46815,58465,70119,78855,81769,93426,105077,116734,128388,140045,151696,160983,169171,174998,186652,198292,209946
DistanceSpacing: 1.2
BeatDivisor: 8
GridSize: 8
TimelineZoom: 2.1

[Metadata]
Title:It Was A Good Day
TitleUnicode:It Was A Good Day
Artist:Ice Cube
ArtistUnicode:Ice Cube
Creator:Aranel
Version:Shake 'em Up
Source:
Tags:hip hop rap english today o'shea jackson the predator orkay gta san andreas grand theft auto radio los santos
BeatmapID:3104462
BeatmapSetID:1516490

[Difficulty]
HPDrainRate:5
CircleSize:5
OverallDifficulty:7.5
ApproachRate:8
SliderMultiplier:2.6
SliderTickRate:1

[Events]
//Background and Video events
0,0,"Ice-Cube-Wallpaper-PC.jpg",0,0
Video,310,"video (2).mp4"
//Break Periods
//Storyboard Layer 0 (Background)
//Storyboard Layer 1 (Fail)
//Storyboard Layer 2 (Pass)
//Storyboard Layer 3 (Foreground)
//Storyboard Layer 4 (Overlay)
//Storyboard Sound Samples

[TimingPoints]
372,728.74788966757,4,2,1,80,1,0
372,-100,4,2,1,80,0,1
5837,-100,4,2,2,80,0,1
6201,-100,4,2,1,80,0,1
11667,-100,4,2,2,80,0,1
12031,-100,4,2,1,80,0,1
17497,-100,4,2,2,80,0,1
17861,-100,4,2,1,80,0,1
23327,-100,4,2,2,80,0,1
23683,728.597449908925,4,2,1,80,1,0
23683,-111.111111111111,4,2,1,80,0,0
29147,-111.111111111111,4,2,2,80,0,0
29420,-111.111111111111,4,2,2,5,0,0
29511,-111.111111111111,4,2,1,80,0,0
34976,-111.111111111111,4,2,2,80,0,0
35249,-111.111111111111,4,2,2,5,0,0
35340,-111.111111111111,4,2,1,80,0,0
40805,-111.111111111111,4,2,2,80,0,0
41169,-111.111111111111,4,2,1,80,0,0
46633,-111.111111111111,4,2,2,80,0,0
46994,728.376327769348,4,2,1,80,1,0
46994,-111.111111111111,4,2,1,80,0,0
47267,-111.111111111111,4,2,2,5,0,0
47358,-111.111111111111,4,2,1,80,0,0
47995,-111.111111111111,4,2,2,5,0,0
48086,-111.111111111111,4,2,1,80,0,0
52456,-111.111111111111,4,2,2,80,0,0
52729,-111.111111111111,4,2,2,5,0,0
52821,-111.111111111111,4,2,1,80,0,1
52912,-111.111111111111,4,2,1,80,0,0
57464,-111.111111111111,4,2,2,5,0,0
57555,-111.111111111111,4,2,1,80,0,0
58283,-111.111111111111,4,2,2,80,0,0
58648,-111.111111111111,4,2,1,80,0,0
64110,-111.111111111111,4,2,2,80,0,0
64383,-111.111111111111,4,2,2,5,0,0
64475,-111.111111111111,4,2,1,80,0,1
64566,-111.111111111111,4,2,1,80,0,0
67661,-111.111111111111,4,2,1,5,0,0
67752,-111.111111111111,4,2,1,80,0,0
69937,-111.111111111111,4,2,2,80,0,0
70294,728.597449908925,4,2,1,80,1,0
70294,-111.111111111111,4,2,1,80,0,0
75758,-111.111111111111,4,2,2,80,0,0
76122,-111.111111111111,4,2,1,80,0,0
80767,-111.111111111111,4,2,1,5,0,0
80858,-111.111111111111,4,2,1,80,0,0
81587,-111.111111111111,4,2,2,80,0,0
81951,-100,4,2,1,80,0,1
87416,-100,4,2,2,80,0,1
87780,-100,4,2,1,80,0,1
93244,-100,4,2,2,80,0,1
93602,728.597449908925,4,2,1,80,1,0
93602,-111.111111111111,4,2,1,80,0,0
93875,-111.111111111111,4,2,1,5,0,0
93966,-111.111111111111,4,2,1,80,0,0
99066,-111.111111111111,4,2,2,80,0,0
99430,-111.111111111111,4,2,1,80,0,0
99704,-111.111111111111,4,2,1,5,0,0
99795,-111.111111111111,4,2,1,80,0,0
104075,-111.111111111111,4,2,2,5,0,0
104166,-111.111111111111,4,2,1,80,0,0
104895,-111.111111111111,4,2,2,80,0,0
105259,-111.111111111111,4,2,1,80,0,0
110450,-111.111111111111,4,2,1,5,0,0
110541,-111.111111111111,4,2,1,80,0,0
110724,-111.111111111111,4,2,2,80,0,0
111088,-111.111111111111,4,2,1,80,0,0
112818,-111.111111111111,4,2,1,5,0,0
112909,-111.111111111111,4,2,1,80,0,0
115004,-111.111111111111,4,2,2,5,0,0
115095,-111.111111111111,4,2,1,80,0,0
116552,-111.111111111111,4,2,2,80,0,0
116913,728.597449908925,4,2,1,80,1,0
116913,-100,4,2,1,80,0,0
119827,-111.111111111111,4,2,1,80,0,0
122377,-111.111111111111,4,2,2,80,0,0
122741,-111.111111111111,4,2,1,80,0,0
128206,-111.111111111111,4,2,2,80,0,0
128570,-111.111111111111,4,2,1,80,0,0
133215,-111.111111111111,4,2,2,5,0,0
133306,-111.111111111111,4,2,1,80,0,0
134035,-111.111111111111,4,2,2,80,0,0
134399,-111.111111111111,4,2,1,80,0,0
134672,-111.111111111111,4,2,2,5,0,0
134763,-111.111111111111,4,2,1,80,0,0
135765,-111.111111111111,4,2,2,5,0,0
135856,-111.111111111111,4,2,1,80,0,0
139044,-111.111111111111,4,2,2,5,0,0
139135,-111.111111111111,4,2,1,80,0,0
139863,-111.111111111111,4,2,2,80,0,0
140225,728.376327769348,4,2,1,80,1,1
140225,-100,4,2,1,80,0,1
145687,-100,4,2,2,80,0,1
146052,-100,4,2,1,80,0,1
151514,-100,4,2,2,80,0,1
151879,-111.111111111111,4,2,1,80,0,0
156522,-111.111111111111,4,2,2,5,0,0
156613,-111.111111111111,4,2,1,80,0,0
157341,-111.111111111111,4,2,2,80,0,0
157614,-111.111111111111,4,2,2,5,0,0
157706,-111.111111111111,4,2,1,80,0,0
158707,-111.111111111111,4,2,2,5,0,0
158798,-111.111111111111,4,2,1,80,0,0
161803,-111.111111111111,4,2,2,5,0,0
161894,-111.111111111111,4,2,1,80,0,0
163168,-111.111111111111,4,2,2,80,0,0
163435,-111.111111111111,4,2,2,5,0,0
163527,728.376327769348,4,2,1,80,1,0
163527,-111.111111111111,4,2,1,80,0,0
168989,-111.111111111111,4,2,2,80,0,0
169354,-111.111111111111,4,2,1,80,0,0
169991,-111.111111111111,4,2,2,5,0,0
170082,-111.111111111111,4,2,1,80,0,0
174361,-111.111111111111,4,2,1,5,0,0
174452,-111.111111111111,4,2,1,80,0,0
174816,-111.111111111111,4,2,2,80,0,0
175181,-111.111111111111,4,2,1,80,0,0
179824,-111.111111111111,4,2,1,5,0,0
179915,-111.111111111111,4,2,1,80,0,0
180643,-111.111111111111,4,2,2,80,0,0
181008,-111.111111111111,4,2,1,80,0,0
186470,-111.111111111111,4,2,2,80,0,0
186821,728.376327769348,4,2,1,80,1,0
186821,-111.111111111111,4,2,1,80,0,0
188550,-111.111111111111,4,2,2,5,0,0
188641,-111.111111111111,4,2,1,80,0,0
191100,-111.111111111111,4,2,2,5,0,0
191191,-111.111111111111,4,2,1,80,0,0
192283,-111.111111111111,4,2,2,80,0,0
192556,-111.111111111111,4,2,2,5,0,0
192648,-111.111111111111,4,2,1,80,0,0
195470,-111.111111111111,4,2,2,5,0,0
195561,-111.111111111111,4,2,1,80,0,0
198110,-111.111111111111,4,2,2,80,0,0
198475,-111.111111111111,4,2,1,80,0,0
203937,-111.111111111111,4,2,2,80,0,0
204302,-111.111111111111,4,2,1,80,0,0
208945,-111.111111111111,4,2,2,5,0,0
209036,-111.111111111111,4,2,1,80,0,0
209309,-111.111111111111,4,2,2,5,0,0
209400,-111.111111111111,4,2,1,80,0,0
209764,-111.111111111111,4,2,2,80,0,0
210117,728.376327769348,4,2,1,80,1,0
210117,-111.111111111111,4,2,1,80,0,0
211664,-111.111111111111,4,2,2,5,0,0
211755,-111.111111111111,4,2,1,80,0,0
212211,-111.111111111111,4,2,2,5,0,0
212302,-111.111111111111,4,2,1,80,0,0
214032,-111.111111111111,4,2,1,5,0,0
214123,-111.111111111111,4,2,1,80,0,0
215124,-111.111111111111,4,2,2,5,0,0
215215,-111.111111111111,4,2,1,80,0,0
215579,-111.111111111111,4,2,2,80,0,0
215944,-111.111111111111,4,2,1,80,0,0
218766,-111.111111111111,4,2,2,5,0,0
218857,-111.111111111111,4,2,1,80,0,0
221406,-111.111111111111,4,2,2,80,0,0
221771,-100,4,2,1,80,0,1
227233,-100,4,2,2,80,0,1
227598,-100,4,2,1,80,0,1
233060,-100,4,2,2,80,0,1
233414,728.155339805825,4,2,1,80,1,1
238875,-100,4,2,2,80,0,1
239239,-100,4,2,1,80,0,1
244700,-100,4,2,2,80,0,1
245064,-100,4,2,1,80,0,0
245792,-100,4,2,2,60,0,0
246156,-100,4,2,1,80,0,0
250525,-100,4,2,2,60,0,0
250889,-100,4,2,1,80,0,0
251617,-100,4,2,2,60,0,0
251981,-100,4,2,1,80,0,0
256350,-100,4,2,2,60,0,0
256714,-100,4,2,1,80,0,0
257443,-100,4,2,2,60,0,0
257807,-100,4,2,1,80,0,0
258171,-100,4,2,1,50,0,0
258535,-100,4,2,1,45,0,0
258899,-100,4,2,1,40,0,0

[Colours]
Combo1 : 225,113,0
Combo2 : 0,108,0
Combo3 : 0,155,155
Combo4 : 166,166,166

[HitObjects]
22,45,372,6,0,B|163:21|118:147|255:120,1,260,2|8,1:2|0:0,0:0:0:0:
426,36,1465,1,2,0:0:0:0:
357,87,1647,1,2,0:0:0:0:
391,164,1829,2,0,P|387:133|374:92,1,65,0|2,1:2|0:0,0:0:0:0:
499,155,2193,2,0,P|470:212|456:280,2,130,2|8|2,0:0|0:0|0:0,0:0:0:0:
343,336,3286,5,0,1:2:0:0:
343,336,3468,1,0,0:0:0:0:
282,277,3651,2,0,L|267:347,1,65,2|0,0:0|0:0,0:0:0:0:
138,293,4016,5,8,0:0:0:0:
138,293,4198,1,0,0:0:0:0:
199,234,4380,1,2,0:0:0:0:
199,234,4562,1,2,0:0:0:0:
104,162,4744,2,0,L|117:226,1,65,0|2,1:2|0:0,0:0:0:0:
152,49,5108,5,2,1:2:0:0:
244,86,5291,1,0,1:2:0:0:
137,57,5473,1,8,0:0:0:0:
257,0,5655,2,0,B|352:27|352:27|383:20,1,130,0|0,1:2|0:0,0:0:0:0:
492,0,6201,6,0,B|534:83|405:130|537:156|484:264,1,260,2|8,1:2|0:0,0:0:0:0:
378,362,7295,1,2,0:0:0:0:
309,311,7477,1,2,0:0:0:0:
225,317,7659,2,0,P|254:305|296:298,1,65,0|2,1:2|0:0,0:0:0:0:
351,206,8023,2,0,P|281:191|215:167,2,130,2|8|2,0:0|0:0|0:0,0:0:0:0:
437,52,9116,5,0,1:2:0:0:
437,52,9299,1,0,0:0:0:0:
376,111,9481,2,0,L|361:41,1,65,2|0,0:0|0:0,0:0:0:0:
237,14,9845,5,8,0:0:0:0:
237,14,10028,1,0,0:0:0:0:
298,73,10210,1,2,0:0:0:0:
298,73,10392,1,2,0:0:0:0:
203,145,10574,2,0,L|216:81,1,65,0|2,1:2|0:0,0:0:0:0:
73,13,10938,5,2,1:2:0:0:
38,120,11121,1,0,1:2:0:0:
57,0,11303,1,8,0:0:0:0:
120,116,11485,2,0,B|140:213|140:213|126:246,1,130,0|0,1:2|0:0,0:0:0:0:
59,324,12031,6,0,B|135:318|135:318|219:374|219:374|301:366,1,260,2|8,1:2|0:0,0:0:0:0:
425,166,13125,1,2,0:0:0:0:
377,240,13307,1,2,0:0:0:0:
454,290,13489,2,0,B|474:262|474:262|467:232,1,65,0|2,1:2|0:0,0:0:0:0:
374,322,13853,2,0,B|407:372|407:372|475:384,2,130,2|8|2,0:0|0:0|0:0,0:0:0:0:
197,272,14946,5,0,1:2:0:0:
197,272,15129,1,0,0:0:0:0:
258,213,15311,2,0,L|273:283,1,65,2|0,0:0|0:0,0:0:0:0:
355,195,15675,5,8,0:0:0:0:
355,195,15858,1,0,0:0:0:0:
304,142,16040,1,2,0:0:0:0:
304,142,16222,1,2,0:0:0:0:
399,70,16404,2,0,L|386:133,1,65,0|2,1:2|0:0,0:0:0:0:
512,50,16768,5,2,1:2:0:0:
429,0,16951,1,0,1:2:0:0:
305,74,17133,1,8,0:0:0:0:
196,0,17315,2,0,B|223:95|223:95|215:125,1,130,0|0,1:2|0:0,0:0:0:0:
118,201,17861,6,0,B|243:213|243:213|250:210|250:210|387:223,1,260,2|8,1:2|0:0,0:0:0:0:
461,384,18955,1,2,0:0:0:0:
509,310,19137,1,2,0:0:0:0:
432,260,19319,2,0,B|412:288|412:288|418:317,1,65,0|2,1:2|0:0,0:0:0:0:
512,228,19683,2,0,B|478:177|478:177|410:165,2,130,2|8|2,0:0|0:0|0:0,0:0:0:0:
438,39,20776,5,0,1:2:0:0:
438,39,20959,1,0,0:0:0:0:
377,98,21141,2,0,L|362:28,1,65,2|0,0:0|0:0,0:0:0:0:
253,78,21505,5,8,0:0:0:0:
253,78,21688,1,0,0:0:0:0:
304,131,21870,1,2,0:0:0:0:
304,131,22052,1,2,0:0:0:0:
208,202,22234,2,0,L|221:139,1,65,0|2,1:2|0:0,0:0:0:0:
124,43,22598,5,2,1:2:0:0:
74,126,22781,1,0,1:2:0:0:
148,250,22963,1,8,0:0:0:0:
74,359,23145,2,0,B|169:332|169:332|199:340,1,130,0|0,1:2|0:0,0:0:0:0:
327,379,23683,5,2,1:2:0:0:
378,214,24047,1,2,0:0:0:0:
405,278,24229,1,0,0:0:0:0:
495,306,24411,2,0,L|477:164,1,116.999996429443,8|2,0:0|0:0,0:0:0:0:
480,189,24958,1,2,0:0:0:0:
420,98,25140,5,0,1:2:0:0:
358,132,25322,1,2,0:0:0:0:
403,32,25504,1,2,0:0:0:0:
470,51,25686,1,0,0:0:0:0:
292,158,25868,2,0,B|253:154|253:154|226:132|226:132|183:128,1,116.999996429443,8|2,0:0|0:0,0:0:0:0:
0,0,26597,5,0,1:2:0:0:
117,176,26961,1,2,0:0:0:0:
109,245,27143,1,0,0:0:0:0:
33,311,27325,1,8,0:0:0:0:
226,337,27690,5,2,0:0:0:0:
199,273,27872,1,2,0:0:0:0:
109,245,28054,1,0,1:2:0:0:
321,370,28418,1,2,1:2:0:0:
434,170,28783,1,8,0:0:0:0:
470,240,28965,1,0,1:2:0:0:
504,96,29147,2,0,L|417:81,1,87.7499973220826,2|0,0:0|0:0,0:0:0:0:
383,73,29511,5,2,1:2:0:0:
165,146,29876,1,2,0:0:0:0:
134,359,30240,1,8,0:0:0:0:
87,301,30422,1,0,0:0:0:0:
158,287,30604,1,2,0:0:0:0:
63,371,30786,1,2,0:0:0:0:
14,275,30968,2,0,P|10:217|34:164,1,116.999996429443,0|2,1:2|0:0,0:0:0:0:
159,32,31697,5,8,0:0:0:0:
269,174,32061,2,0,P|211:178|164:145,1,116.999996429443,2|0,0:0|1:2,0:0:0:0:
509,8,32972,5,0,0:0:0:0:
426,95,33154,1,8,0:0:0:0:
461,155,33336,1,0,0:0:0:0:
356,218,33519,1,2,0:0:0:0:
392,158,33701,1,2,0:0:0:0:
503,210,33883,6,0,P|505:248|480:291,1,77.999997619629,0|0,1:2|0:0,0:0:0:0:
451,297,34247,1,2,1:2:0:0:
297,267,34520,1,0,0:0:0:0:
304,273,34611,1,8,0:0:0:0:
179,370,34976,2,0,P|140:341|93:324,1,87.7499973220826,2|0,0:0|0:0,0:0:0:0:
70,315,35340,1,2,1:2:0:0:
57,146,35583,6,0,L|6:156,1,38.9999988098145,0|2,0:0|0:0,0:0:0:0:
70,157,35887,1,0,0:0:0:0:
146,71,36069,2,0,L|263:91,2,116.999996429443,8|2|0,0:0|0:0|1:2,0:0:0:0:
236,20,36979,5,2,0:0:0:0:
261,90,37162,1,2,0:0:0:0:
261,90,37344,1,0,0:0:0:0:
315,45,37526,2,0,L|432:65,1,116.999996429443,8|2,0:0|0:0,0:0:0:0:
481,235,38254,5,0,1:2:0:0:
448,172,38437,1,0,0:0:0:0:
474,254,38619,1,2,0:0:0:0:
512,160,38801,1,0,0:0:0:0:
467,273,38983,2,0,B|411:277|411:277|405:280|405:280|350:284,1,116.999996429443,8|2,0:0|0:0,0:0:0:0:
281,291,39529,1,2,0:0:0:0:
183,268,39712,5,0,1:2:0:0:
150,331,39895,1,2,0:0:0:0:
176,249,40077,1,2,1:2:0:0:
214,343,40259,1,0,1:2:0:0:
169,230,40440,2,0,B|98:220|123:247|52:241,1,116.999996429443,8|2,0:0|0:0,0:0:0:0:
52,53,41169,6,0,L|66:134,1,77.999997619629,2|0,1:2|0:0,0:0:0:0:
76,166,41533,1,2,0:0:0:0:
115,13,41776,1,0,0:0:0:0:
152,22,41897,2,0,L|292:54,1,116.999996429443,8|2,0:0|0:0,0:0:0:0:
352,7,42444,2,0,P|311:38|321:113,1,116.999996429443,2|2,0:0|0:0,0:0:0:0:
350,156,42990,5,2,0:0:0:0:
410,120,43172,1,0,0:0:0:0:
476,228,43355,1,8,0:0:0:0:
414,194,43537,1,0,0:0:0:0:
473,92,43719,2,0,P|489:110|497:146,1,58.4999982147217,2|2,0:0|1:2,0:0:0:0:
487,4,44083,5,0,1:2:0:0:
420,27,44265,1,0,0:0:0:0:
340,7,44448,1,2,0:0:0:0:
273,30,44630,1,0,0:0:0:0:
182,0,44812,2,0,L|197:116,1,116.999996429443,8|2,0:0|0:0,0:0:0:0:
197,116,45358,5,2,0:0:0:0:
163,243,45540,1,0,1:2:0:0:
226,215,45723,1,2,0:0:0:0:
171,322,45905,1,2,1:2:0:0:
108,294,46088,1,0,1:2:0:0:
233,352,46269,1,8,0:0:0:0:
102,369,46451,2,0,L|236:334,1,116.999996429443,0|0,1:2|0:0,0:0:0:0:
409,356,46994,6,0,L|413:261,1,87.7499973220826,2|0,1:2|0:0,0:0:0:0:
414,233,47358,1,2,0:0:0:0:
476,282,47540,1,0,0:0:0:0:
325,245,47722,2,0,L|317:148,1,87.7499973220826,8|0,0:0|0:0,0:0:0:0:
315,123,48086,5,2,0:0:0:0:
253,172,48268,1,2,0:0:0:0:
383,161,48450,1,0,1:2:0:0:
184,50,48814,1,2,0:0:0:0:
246,99,48996,1,0,0:0:0:0:
116,88,49178,1,8,0:0:0:0:
366,18,49543,2,0,P|396:41|412:76,1,77.999997619629,2|0,0:0|0:0,0:0:0:0:
420,122,49907,5,0,1:2:0:0:
353,142,50089,1,0,0:0:0:0:
476,210,50271,1,2,0:0:0:0:
409,190,50453,1,0,0:0:0:0:
335,293,50635,2,0,B|345:283|362:284|362:284|318:261|277:287|302:302|264:322|229:314,1,175.499994644165,8|2,0:0|0:0,0:0:0:0:
114,286,51364,5,0,1:2:0:0:
177,257,51546,1,2,0:0:0:0:
123,360,51728,1,2,1:2:0:0:
60,331,51910,1,0,1:2:0:0:
240,230,52092,2,0,B|218:107|218:107|259:36,1,204.749993751526,8|0,0:0|0:0,0:0:0:0:
245,243,52821,1,2,1:2:0:0:
0,1,53549,6,0,B|73:33|73:33|80:72,1,116.999996429443,8|2,0:0|0:0,0:0:0:0:
33,238,54277,1,0,1:2:0:0:
267,147,54641,1,2,0:0:0:0:
197,135,54824,1,0,0:0:0:0:
171,232,55006,1,8,0:0:0:0:
292,43,55369,1,2,0:0:0:0:
476,135,55734,5,0,1:2:0:0:
407,149,55916,1,0,0:0:0:0:
359,63,56098,1,2,0:0:0:0:
428,77,56280,1,0,0:0:0:0:
337,162,56462,1,8,0:0:0:0:
337,162,56644,1,0,0:0:0:0:
292,43,56827,5,2,0:0:0:0:
223,57,57009,1,2,0:0:0:0:
114,36,57191,2,0,P|139:72|146:127,1,87.7499973220826,0|0,1:2|0:0,0:0:0:0:
139,148,57555,2,0,L|22:136,1,116.999996429443,2|8,1:2|0:0,0:0:0:0:
176,210,58101,2,0,L|293:198,1,116.999996429443,0|0,1:2|0:0,0:0:0:0:
447,184,58648,5,2,1:2:0:0:
495,235,58830,1,0,0:0:0:0:
479,318,59012,1,2,0:0:0:0:
410,334,59194,1,0,0:0:0:0:
346,278,59376,1,8,0:0:0:0:
367,210,59558,1,0,0:0:0:0:
447,183,59740,2,0,P|474:117|453:66,2,116.999996429443,2|0|2,0:0|1:2|0:0,0:0:0:0:
307,86,60833,5,8,0:0:0:0:
187,153,61015,1,0,0:0:0:0:
250,181,61197,1,2,0:0:0:0:
242,111,61379,1,2,1:2:0:0:
118,143,61561,2,0,L|154:268,1,116.999996429443,0|2,1:2|0:0,0:0:0:0:
33,119,62289,1,8,0:0:0:0:
33,119,62471,1,0,0:0:0:0:
34,360,62836,5,2,0:0:0:0:
91,319,63018,1,0,1:2:0:0:
157,352,63200,1,2,0:0:0:0:
280,295,63382,1,2,1:2:0:0:
496,372,63746,2,0,P|387:352|369:258,1,204.749993751526,8|0,0:0|0:0,0:0:0:0:
507,366,64475,1,2,1:2:0:0:
503,5,65203,6,0,L|386:19,1,116.999996429443,8|2,0:0|0:0,0:0:0:0:
317,33,65749,1,2,0:0:0:0:
336,152,65931,1,0,1:2:0:0:
292,99,66113,1,2,0:0:0:0:
426,75,66295,1,2,0:0:0:0:
403,140,66478,1,0,0:0:0:0:
317,33,66660,2,0,L|200:21,1,116.999996429443,8|2,0:0|0:0,0:0:0:0:
119,107,67297,1,0,0:0:0:0:
126,113,67388,2,0,L|141:220,1,87.7499973220826,0|0,1:2|0:0,0:0:0:0:
145,234,67752,5,2,0:0:0:0:
38,384,68116,2,0,B|58:351|58:351|46:273,1,116.999996429443,8|2,0:0|0:0,0:0:0:0:
7,215,68663,1,2,0:0:0:0:
71,122,68845,2,0,B|149:109|149:109|181:130,1,116.999996429443,0|2,1:2|1:2,0:0:0:0:
233,177,69391,1,0,1:2:0:0:
315,107,69573,2,0,B|311:147|311:147|315:179|315:179|310:223,1,116.999996429443,8|2,0:0|0:0,0:0:0:0:
163,361,70294,1,2,1:2:0:0:
483,384,71022,6,0,L|464:291,1,77.999997619629,8|0,0:0|0:0,0:0:0:0:
444,276,71386,2,0,L|454:203,1,58.4999982147217,2|2,0:0|0:0,0:0:0:0:
474,94,71751,2,0,L|465:151,1,58.4999982147217,0|2,1:2|0:0,0:0:0:0:
487,29,72115,1,2,0:0:0:0:
418,12,72297,1,0,0:0:0:0:
310,57,72479,2,0,P|356:84|363:151,1,116.999996429443,8|2,0:0|0:0,0:0:0:0:
293,354,73208,1,0,1:2:0:0:
104,248,73572,5,2,0:0:0:0:
287,133,73936,1,8,0:0:0:0:
11,26,74301,1,2,0:0:0:0:
73,57,74483,1,2,0:0:0:0:
193,12,74665,2,0,L|134:18,1,58.4999982147217,0|2,1:2|0:0,0:0:0:0:
255,55,75029,1,2,1:2:0:0:
255,55,75212,1,0,1:2:0:0:
305,7,75394,5,8,0:0:0:0:
305,7,75485,1,0,0:0:0:0:
305,7,75576,1,0,1:2:0:0:
408,43,75758,5,2,0:0:0:0:
408,43,75940,1,0,0:0:0:0:
305,7,76122,1,2,1:2:0:0:
434,252,76487,6,0,P|412:220|411:178,1,77.999997619629,2|0,0:0|0:0,0:0:0:0:
431,149,76851,1,8,0:0:0:0:
498,167,77033,1,0,0:0:0:0:
434,252,77215,1,2,0:0:0:0:
367,270,77397,1,2,0:0:0:0:
284,344,77579,2,0,P|320:298|324:239,1,116.999996429443,0|2,1:2|0:0,0:0:0:0:
199,99,78308,1,8,0:0:0:0:
136,275,78672,1,2,0:0:0:0:
0,0,79037,5,0,1:2:0:0:
65,25,79219,1,0,0:0:0:0:
82,121,79401,1,2,0:0:0:0:
147,146,79583,1,0,0:0:0:0:
257,70,79765,2,0,B|228:60|228:60|246:159,1,116.999996429443,8|2,0:0|0:0,0:0:0:0:
268,210,80312,5,2,0:0:0:0:
373,164,80494,2,0,L|355:277,1,87.7499973220826,0|0,1:2|0:0,0:0:0:0:
356,288,80858,1,2,1:2:0:0:
356,288,81040,1,0,1:2:0:0:
268,210,81222,1,8,0:0:0:0:
315,379,81587,1,2,0:0:0:0:
501,135,81951,6,0,B|360:111|405:237|268:210,1,260,2|8,1:2|0:0,0:0:0:0:
104,103,83044,1,2,0:0:0:0:
124,190,83226,1,2,0:0:0:0:
40,221,83408,2,0,P|29:188|44:158,1,65,0|2,1:2|0:0,0:0:0:0:
113,266,83772,2,0,P|65:303|-1:295,2,130,2|8|2,0:0|0:0|0:0,0:0:0:0:
241,355,84865,5,0,1:2:0:0:
241,355,85048,1,0,0:0:0:0:
302,296,85230,2,0,L|317:366,1,65,2|0,0:0|0:0,0:0:0:0:
446,283,85594,5,8,0:0:0:0:
446,283,85776,1,0,0:0:0:0:
385,224,85958,1,2,0:0:0:0:
385,224,86140,1,2,0:0:0:0:
480,152,86323,2,0,L|467:215,1,65,0|2,1:2|0:0,0:0:0:0:
414,55,86687,5,2,1:2:0:0:
323,88,86870,1,0,1:2:0:0:
429,63,87052,1,8,0:0:0:0:
293,1,87234,2,0,B|198:28|198:28|168:20,1,130,0|0,1:2|0:0,0:0:0:0:
20,0,87780,6,0,B|35:91|35:91|23:151|23:151|39:256,1,260,2|8,1:2|0:0,0:0:0:0:
169,371,88873,1,2,0:0:0:0:
121,297,89055,1,2,0:0:0:0:
198,247,89237,2,0,B|218:275|218:275|211:305,1,65,0|2,1:2|0:0,0:0:0:0:
118,215,89601,2,0,B|151:165|151:165|219:153,2,130,2|8|2,0:0|0:0|0:0,0:0:0:0:
275,361,90694,5,0,1:2:0:0:
275,361,90876,1,0,0:0:0:0:
336,302,91059,2,0,L|351:372,1,65,2|0,0:0|0:0,0:0:0:0:
478,378,91423,5,8,0:0:0:0:
478,378,91605,1,0,0:0:0:0:
417,319,91787,1,2,0:0:0:0:
417,319,91969,1,2,0:0:0:0:
512,247,92151,2,0,L|499:311,1,65,0|2,1:2|0:0,0:0:0:0:
438,169,92516,5,2,1:2:0:0:
311,218,92699,1,0,1:2:0:0:
455,174,92881,1,8,0:0:0:0:
314,123,93063,2,0,B|219:150|219:150|189:142,1,130,0|0,1:2|0:0,0:0:0:0:
88,80,93602,6,0,B|94:181|94:181,1,87.7499973220826,2|0,1:2|0:0,0:0:0:0:
98,205,93966,1,2,0:0:0:0:
98,205,94148,1,0,0:0:0:0:
24,277,94330,2,0,L|28:211,1,58.4999982147217,8|0,0:0|0:0,0:0:0:0:
67,329,94694,1,2,0:0:0:0:
0,345,94877,1,2,0:0:0:0:
118,384,95059,2,0,B|190:350|190:350|226:359,1,116.999996429443,0|2,1:2|0:0,0:0:0:0:
419,384,95787,6,0,L|408:304,1,77.999997619629,8|0,0:0|0:0,0:0:0:0:
402,267,96152,1,2,0:0:0:0:
446,321,96334,1,2,1:2:0:0:
466,210,96516,1,0,1:2:0:0:
349,384,96880,1,2,0:0:0:0:
190,305,97244,5,8,0:0:0:0:
226,244,97427,1,0,0:0:0:0:
186,185,97609,2,0,L|106:175,1,58.4999982147217,2|2,0:0|0:0,0:0:0:0:
31,108,97973,2,0,L|130:98,1,87.7499973220826,0|0,1:2|0:0,0:0:0:0:
153,95,98337,1,2,1:2:0:0:
270,19,98611,5,0,0:0:0:0:
278,27,98702,2,0,L|413:42,1,116.999996429443,8|2,0:0|0:0,0:0:0:0:
512,130,99339,1,0,0:0:0:0:
504,138,99430,2,0,L|413:151,1,87.7499973220826,2|0,1:2|0:0,0:0:0:0:
382,158,99795,5,2,0:0:0:0:
331,384,100159,1,8,0:0:0:0:
102,345,100523,1,2,0:0:0:0:
166,373,100705,1,2,0:0:0:0:
261,290,100887,2,0,P|280:178|212:87,1,233.999992858887,0|8,1:2|0:0,0:0:0:0:
0,384,102345,5,0,1:2:0:0:
56,344,102527,1,0,0:0:0:0:
156,380,102709,2,0,L|252:363,1,87.7499973220826,2|0,0:0|0:0,0:0:0:0:
275,354,103073,1,8,0:0:0:0:
275,354,103255,1,0,0:0:0:0:
341,376,103438,2,0,L|399:382,1,58.4999982147217,2|2,0:0|0:0,0:0:0:0:
465,307,103802,6,0,L|448:219,1,87.7499973220826,0|0,1:2|0:0,0:0:0:0:
439,186,104166,2,0,L|374:173,1,58.4999982147217,2|0,1:2|1:2,0:0:0:0:
271,232,104530,2,0,P|252:120|320:29,1,233.999992858887,8|2,0:0|1:2,0:0:0:0:
215,185,105623,5,2,0:0:0:0:
61,98,105988,2,0,L|73:201,1,87.7499973220826,8|0,0:0|0:0,0:0:0:0:
88,215,106352,2,0,L|79:274,1,58.4999982147217,2|2,0:0|0:0,0:0:0:0:
0,365,106716,5,0,1:2:0:0:
0,365,106898,1,2,0:0:0:0:
69,344,107081,1,2,0:0:0:0:
69,344,107263,1,0,0:0:0:0:
179,383,107445,2,0,L|161:241,1,116.999996429443,8|2,0:0|0:0,0:0:0:0:
164,266,107992,1,2,1:2:0:0:
260,189,108173,5,0,1:2:0:0:
296,249,108356,1,0,0:0:0:0:
182,193,108538,2,0,P|199:138|223:119,1,87.7499973220826,2|0,0:0|0:0,0:0:0:0:
255,114,108902,1,8,0:0:0:0:
321,136,109084,1,0,0:0:0:0:
375,45,109266,1,2,0:0:0:0:
309,67,109448,1,2,0:0:0:0:
394,151,109631,6,0,L|405:216,1,58.4999982147217,0|2,1:2|0:0,0:0:0:0:
421,314,109995,1,2,1:2:0:0:
377,367,110177,2,0,L|464:350,1,87.7499973220826,0|0,1:2|0:0,0:0:0:0:
477,372,110541,2,0,L|362:349,1,116.999996429443,0|0,1:2|0:0,0:0:0:0:
299,323,111088,1,2,1:2:0:0:
157,369,111452,5,2,0:0:0:0:
197,311,111634,1,0,0:0:0:0:
147,227,111816,2,0,P|112:196|65:198,1,87.7499973220826,8|0,0:0|0:0,0:0:0:0:
36,207,112181,1,2,0:0:0:0:
129,164,112454,2,0,P|153:111|145:54,1,116.999996429443
126,25,112909,5,2,0:0:0:0:
57,41,113091,1,0,0:0:0:0:
184,94,113274,1,8,0:0:0:0:
184,94,113456,1,0,0:0:0:0:
247,61,113638,1,2,0:0:0:0:
315,106,113820,1,2,1:2:0:0:
419,38,114002,6,0,B|392:50|392:50|404:96,1,77.999997619629,0|0,1:2|0:0,0:0:0:0:
417,134,114367,1,2,0:0:0:0:
491,209,114609,1,0,0:0:0:0:
484,248,114731,2,0,L|471:341,1,87.7499973220826,8|0,0:0|0:0,0:0:0:0:
462,368,115095,5,2,0:0:0:0:
401,341,115277,1,2,0:0:0:0:
318,381,115459,2,0,P|365:328|361:270,1,116.999996429443,0|2,1:2|1:2,0:0:0:0:
321,229,116006,1,0,1:2:0:0:
222,375,116188,2,0,P|178:318|186:261,1,116.999996429443,8|2,0:0|0:0,0:0:0:0:
296,78,116913,6,0,P|330:87|305:112,1,86.6666666666667,2|0,1:2|0:0,0:0:0:0:
235,108,117277,1,2,0:0:0:0:
419,158,117641,2,0,P|384:167|409:192,1,86.6666666666667,8|0,0:0|0:0,0:0:0:0:
487,187,118005,1,2,0:0:0:0:
259,240,118370,2,0,P|293:249|268:274,1,86.6666666666667,0|0,1:2|0:0,0:0:0:0:
176,279,118734,1,2,0:0:0:0:
512,351,119098,1,8,0:0:0:0:
347,307,119341,1,0,0:0:0:0:
85,145,119827,5,0,1:2:0:0:
155,123,120009,1,0,0:0:0:0:
119,274,120191,1,2,0:0:0:0:
64,223,120373,1,0,0:0:0:0:
213,180,120555,1,8,0:0:0:0:
197,253,120738,1,0,0:0:0:0:
72,138,120919,1,2,0:0:0:0:
160,114,121102,2,0,P|163:82|156:57,2,58.4999982147217,2|0|2,0:0|1:2|0:0,0:0:0:0:
119,288,121648,5,2,1:2:0:0:
55,224,121831,1,0,1:2:0:0:
217,170,122013,2,0,P|245:162|274:166,1,58.4999982147217,8|0,0:0|1:2,0:0:0:0:
345,227,122377,1,2,0:0:0:0:
345,227,122559,1,0,0:0:0:0:
437,154,122741,6,0,P|434:122|400:71,1,87.7499973220826,2|0,1:2|0:0,0:0:0:0:
106,74,123470,5,8,0:0:0:0:
106,74,123652,1,0,0:0:0:0:
75,153,123834,2,0,P|78:121|112:70,2,87.7499973220826,2|0|2,0:0|0:0|0:0,0:0:0:0:
405,74,124927,5,8,0:0:0:0:
405,74,125109,1,0,0:0:0:0:
437,153,125291,2,0,P|434:121|400:70,2,87.7499973220826,2|0|0,0:0|0:0|0:0,0:0:0:0:
200,358,126384,5,8,0:0:0:0:
214,286,126566,1,0,0:0:0:0:
323,329,126749,1,2,0:0:0:0:
309,257,126931,1,2,0:0:0:0:
143,205,127113,5,0,1:2:0:0:
369,176,127477,1,2,1:2:0:0:
84,87,127841,5,8,0:0:0:0:
84,87,127963,1,0,0:0:0:0:
255,61,128206,1,2,0:0:0:0:
426,35,128570,1,2,1:2:0:0:
511,337,129177,5,0,0:0:0:0:
485,308,129299,2,0,B|499:278|499:278|493:175,1,116.999996429443,8|2,0:0|0:0,0:0:0:0:
488,124,129845,1,2,0:0:0:0:
426,35,130027,2,0,B|367:13|314:49|347:55|290:105|239:83,1,204.749993751526,0|0,1:2|0:0,0:0:0:0:
209,64,130756,1,8,0:0:0:0:
70,369,131484,5,0,1:2:0:0:
108,309,131667,1,0,0:0:0:0:
60,229,131849,2,0,L|3:239,1,58.4999982147217,2|0,0:0|0:0,0:0:0:0:
101,158,132213,2,0,L|227:180,1,116.999996429443,8|2,0:0|0:0,0:0:0:0:
301,241,132759,5,2,0:0:0:0:
378,179,132942,2,0,P|370:214|389:198,1,87.7499973220826,0|0,1:2|0:0,0:0:0:0:
411,174,133306,1,2,1:2:0:0:
411,174,133488,1,0,1:2:0:0:
325,118,133670,1,8,0:0:0:0:
283,174,133852,1,0,1:2:0:0:
357,282,134035,1,2,0:0:0:0:
471,54,134399,6,0,L|370:37,1,87.7499973220826,2|0,1:2|0:0,0:0:0:0:
354,21,134763,2,0,L|292:30,1,58.4999982147217,2|0,0:0|0:0,0:0:0:0:
203,55,135127,1,8,0:0:0:0:
203,55,135310,1,0,0:0:0:0:
232,137,135492,2,0,B|242:185|242:185|223:219,1,87.7499973220826,2|0,0:0|0:0,0:0:0:0:
202,247,135856,5,0,1:2:0:0:
7,331,136220,1,2,0:0:0:0:
248,384,136585,1,8,0:0:0:0:
331,357,136767,1,0,0:0:0:0:
248,384,136949,1,2,0:0:0:0:
471,383,137313,5,0,1:2:0:0:
486,314,137495,1,0,0:0:0:0:
398,249,137678,1,2,0:0:0:0:
496,119,137920,1,0,0:0:0:0:
507,131,138042,2,0,B|473:117|473:117|393:130,1,116.999996429443,8|2,0:0|0:0,0:0:0:0:
325,145,138588,5,2,0:0:0:0:
251,225,138770,2,0,L|269:338,1,87.7499973220826,0|0,1:2|0:0,0:0:0:0:
273,349,139135,1,2,1:2:0:0:
273,349,139317,1,0,1:2:0:0:
352,232,139499,1,8,0:0:0:0:
154,345,139863,1,2,0:0:0:0:
0,164,140225,6,0,B|13:134|66:122|123:156|130:252|27:301,1,260,2|8,1:2|0:0,0:0:0:0:
149,133,141317,1,2,0:0:0:0:
223,181,141499,1,2,0:0:0:0:
273,104,141681,2,0,B|245:84|245:84|215:91,1,65,0|2,1:2|0:0,0:0:0:0:
305,184,142045,2,0,B|355:151|355:151|367:83,2,130,2|8|2,0:0|0:0|0:0,0:0:0:0:
166,339,143138,5,0,1:2:0:0:
166,339,143320,1,0,0:0:0:0:
227,280,143502,2,0,L|242:350,1,65,2|0,0:0|0:0,0:0:0:0:
389,353,143866,5,8,0:0:0:0:
389,353,144048,1,0,0:0:0:0:
328,294,144231,1,2,0:0:0:0:
328,294,144413,1,2,0:0:0:0:
423,222,144596,2,0,L|410:285,1,65,0|2,1:2|0:0,0:0:0:0:
475,145,144960,5,2,1:2:0:0:
377,109,145141,1,0,1:2:0:0:
490,137,145323,1,8,0:0:0:0:
353,197,145505,2,0,B|258:170|258:170|228:178,1,130,0|0,1:2|0:0,0:0:0:0:
152,294,146052,6,0,B|166:232|166:232|145:173|145:173|149:166|149:166|127:108|127:108|139:45,1,260,2|8,1:2|0:0,0:0:0:0:
293,163,147144,1,2,0:0:0:0:
322,77,147326,1,2,0:0:0:0:
409,105,147508,2,0,P|400:138|371:155,1,65,0|2,1:2|0:0,0:0:0:0:
372,27,147872,2,0,P|432:21|484:64,2,130,2|8|2,0:0|0:0|0:0,0:0:0:0:
186,119,148965,5,0,1:2:0:0:
186,119,149148,1,0,0:0:0:0:
247,178,149330,2,0,L|262:108,1,65,2|0,0:0|0:0,0:0:0:0:
398,104,149694,5,8,0:0:0:0:
398,104,149876,1,0,0:0:0:0:
337,163,150058,1,2,0:0:0:0:
337,163,150240,1,2,0:0:0:0:
432,235,150423,2,0,L|419:172,1,65,0|2,1:2|0:0,0:0:0:0:
496,308,150787,5,2,1:2:0:0:
379,363,150968,1,0,1:2:0:0:
511,316,151150,1,8,0:0:0:0:
357,261,151332,2,0,B|262:288|262:288|232:280,1,130,0|0,1:2|0:0,0:0:0:0:
107,216,151879,6,0,P|196:256|185:328,1,175.499994644165,2|0,1:2|0:0,0:0:0:0:
122,374,152607,1,8,0:0:0:0:
54,360,152789,1,0,0:0:0:0:
190,321,152971,1,2,0:0:0:0:
258,307,153153,1,2,0:0:0:0:
351,364,153335,2,0,L|343:285,1,58.4999982147217,0|2,1:2|0:0,0:0:0:0:
439,228,153699,2,0,L|426:355,1,116.999996429443,2|8,0:0|0:0,0:0:0:0:
427,344,154246,1,0,0:0:0:0:
370,240,154428,6,0,L|378:161,1,58.4999982147217,2|2,0:0|1:2,0:0:0:0:
511,114,154792,2,0,B|516:86|516:86|430:64,1,116.999996429443,0|2,1:2|0:0,0:0:0:0:
364,3,155338,2,0,B|278:25|278:25|283:52,1,116.999996429443
340,101,155885,1,2,0:0:0:0:
340,101,156067,1,2,0:0:0:0:
272,187,156249,6,0,P|224:185|188:148,1,87.7499973220826,0|0,1:2|0:0,0:0:0:0:
174,132,156613,1,2,1:2:0:0:
108,157,156795,1,0,1:2:0:0:
27,100,156977,2,0,B|21:50|21:50|45:18,1,87.7499973220826,8|0,0:0|0:0,0:0:0:0:
74,1,157341,2,0,P|116:11|159:19,1,87.7499973220826,2|0,0:0|0:0,0:0:0:0:
194,27,157706,1,2,1:2:0:0:
0,372,158434,6,0,L|8:267,1,87.7499973220826,8|0,0:0|0:0,0:0:0:0:
11,249,158798,1,2,0:0:0:0:
88,309,158980,2,0,P|132:326|198:301,1,116.999996429443,2|2,0:0|0:0,0:0:0:0:
230,242,159526,1,2,0:0:0:0:
175,38,159891,6,0,P|219:21|285:46,1,116.999996429443,8|2,0:0|0:0,0:0:0:0:
336,87,160437,1,2,1:2:0:0:
279,187,160619,1,0,1:2:0:0:
210,172,160801,1,0,0:0:0:0:
298,253,160983,1,2,0:0:0:0:
367,238,161165,1,0,0:0:0:0:
210,172,161347,1,8,0:0:0:0:
134,255,161530,2,0,B|125:235|103:223|103:223|126:220|141:237,1,87.7499973220826
161,267,161894,5,2,0:0:0:0:
96,331,162076,2,0,L|27:321,1,58.4999982147217,0|2,1:2|0:0,0:0:0:0:
159,380,162440,1,2,1:2:0:0:
159,380,162622,1,0,1:2:0:0:
239,309,162804,2,0,L|296:300,1,58.4999982147217,8|0,0:0|1:2,0:0:0:0:
362,366,163168,2,0,L|455:379,1,87.7499973220826,2|0,0:0|0:0,0:0:0:0:
487,384,163527,1,2,1:2:0:0:
451,0,164073,5,0,0:0:0:0:
510,36,164255,2,0,P|452:44|396:61,1,116.999996429443,8|2,0:0|0:0,0:0:0:0:
286,100,164862,1,0,0:0:0:0:
258,72,164983,2,0,P|273:111|252:174,1,77.999997619629,0|0,1:2|0:0,0:0:0:0:
245,177,165347,1,2,0:0:0:0:
130,15,165712,2,0,P|115:50|119:89,1,77.999997619629,8|0,0:0|0:0,0:0:0:0:
0,367,166440,6,0,P|55:350|113:342,1,116.999996429443,0|2,1:2|0:0,0:0:0:0:
183,334,166986,1,0,0:0:0:0:
285,384,167168,2,0,P|300:345|279:282,1,77.999997619629,8|0,0:0|0:0,0:0:0:0:
387,187,167715,5,2,0:0:0:0:
435,135,167897,2,0,P|379:151|321:159,1,116.999996429443,0|2,1:2|1:2,0:0:0:0:
230,118,168443,2,0,P|214:62|243:9,2,116.999996429443,0|0|0,1:2|1:2|0:0,0:0:0:0:
23,380,169536,5,0,0:0:0:0:
69,329,169718,2,0,P|66:299|45:232,1,87.7499973220826,2|0,0:0|0:0,0:0:0:0:
32,214,170082,1,8,0:0:0:0:
128,371,170446,1,2,0:0:0:0:
305,290,170810,2,0,B|242:235|216:282|259:315|333:258|322:210,1,175.499994644165,0|0,1:2|0:0,0:0:0:0:
289,82,171539,1,8,0:0:0:0:
416,208,171903,2,0,B|479:153|505:200|462:233|388:176|399:128,1,175.499994644165,2|0,0:0|0:0,0:0:0:0:
432,0,172632,1,2,0:0:0:0:
265,159,172995,1,8,0:0:0:0:
31,42,173360,5,2,0:0:0:0:
31,42,173542,1,2,0:0:0:0:
127,103,173724,2,0,B|59:118,1,58.4999982147217,0|2,1:2|0:0,0:0:0:0:
160,32,174088,2,0,B|247:51,1,87.7499973220826,2|0,1:2|0:0,0:0:0:0:
279,59,174452,1,8,0:0:0:0:
511,384,175181,5,2,1:2:0:0:
359,257,175545,1,2,0:0:0:0:
379,324,175727,1,0,0:0:0:0:
285,231,175909,1,8,0:0:0:0:
265,298,176091,1,0,0:0:0:0:
342,185,176273,1,2,0:0:0:0:
195,94,176637,2,0,B|220:80|220:80|205:175,1,116.999996429443,0|2,1:2|0:0,0:0:0:0:
151,289,177184,5,0,0:0:0:0:
129,226,177366,1,8,0:0:0:0:
129,226,177548,1,0,0:0:0:0:
223,287,177730,1,2,0:0:0:0:
201,350,177912,1,2,1:2:0:0:
312,272,178094,2,0,B|387:262|356:297|433:290,1,116.999996429443,0|2,1:2|0:0,0:0:0:0:
509,243,178640,5,0,0:0:0:0:
509,243,178822,1,8,0:0:0:0:
440,41,179187,1,2,0:0:0:0:
250,0,179551,2,0,L|234:91,1,87.7499973220826,0|0,1:2|0:0,0:0:0:0:
224,120,179915,1,2,1:2:0:0:
282,176,180097,2,0,P|315:191|349:188,1,58.4999982147217,0|8,1:2|0:0,0:0:0:0:
224,120,180461,2,0,B|148:116|182:148|105:148,1,116.999996429443,0|0,1:2|0:0,0:0:0:0:
0,102,181008,5,2,1:2:0:0:
25,167,181190,1,0,0:0:0:0:
1,270,181372,2,0,P|3:308|22:342,1,77.999997619629,2|0,0:0|0:0,0:0:0:0:
52,367,181736,2,0,L|197:350,1,116.999996429443,8|2,0:0|0:0,0:0:0:0:
168,353,182282,1,2,0:0:0:0:
270,384,182464,2,0,P|294:348|293:305,1,87.7499973220826,0|0,1:2|0:0,0:0:0:0:
442,34,183193,6,0,L|384:45,1,58.4999982147217,8|0,0:0|0:0,0:0:0:0:
325,84,183557,2,0,L|267:73,1,58.4999982147217,2|2,0:0|1:2,0:0:0:0:
170,17,183921,2,0,P|176:75|182:133,1,116.999996429443,0|2,1:2|0:0,0:0:0:0:
182,133,184467,1,0,0:0:0:0:
141,191,184649,1,8,0:0:0:0:
141,191,184832,1,0,0:0:0:0:
288,216,185014,5,2,0:0:0:0:
258,151,185196,1,2,0:0:0:0:
163,266,185378,1,0,1:2:0:0:
163,266,185469,1,0,0:0:0:0:
163,266,185560,1,2,0:0:0:0:
244,329,185742,2,0,B|234:272,1,58.4999982147217,2|0,1:2|1:2,0:0:0:0:
317,375,186106,2,0,L|444:386,1,116.999996429443,8|2,0:0|0:0,0:0:0:0:
234,272,186821,1,2,1:2:0:0:
14,384,187185,5,2,0:0:0:0:
55,327,187367,1,0,0:0:0:0:
5,248,187549,2,0,P|-1:191|30:143,1,116.999996429443,8|2,0:0|0:0,0:0:0:0:
93,111,188095,1,2,0:0:0:0:
162,160,188277,2,0,L|257:142,1,87.7499973220826,0|0,1:2|0:0,0:0:0:0:
282,134,188641,1,2,0:0:0:0:
412,64,188915,2,0,B|368:59|368:59|359:136,1,116.999996429443
354,165,189370,1,2,0:0:0:0:
512,0,189734,1,0,1:2:0:0:
507,382,190462,5,8,0:0:0:0:
457,332,190644,1,0,0:0:0:0:
371,369,190826,2,0,P|313:366|278:336,1,87.7499973220826,2|0,0:0|0:0,0:0:0:0:
267,321,191191,1,0,1:2:0:0:
267,321,191372,1,2,0:0:0:0:
308,264,191555,1,2,1:2:0:0:
232,197,191737,6,0,L|150:214,1,58.4999982147217,0|8,1:2|0:0,0:0:0:0:
124,371,192192,1,0,0:0:0:0:
129,364,192283,2,0,L|109:260,1,87.7499973220826,2|0,0:0|0:0,0:0:0:0:
104,243,192648,1,2,1:2:0:0:
0,0,193194,5,0,0:0:0:0:
0,0,193376,1,8,0:0:0:0:
37,59,193558,1,0,0:0:0:0:
135,21,193740,1,2,0:0:0:0:
272,131,194104,2,0,L|199:120,1,58.4999982147217,0|2,1:2|0:0,0:0:0:0:
156,162,194468,1,2,0:0:0:0:
325,85,194833,1,8,0:0:0:0:
451,200,195197,2,0,L|464:298,1,87.7499973220826,2|0,0:0|0:0,0:0:0:0:
471,324,195561,5,0,1:2:0:0:
471,324,195743,1,0,0:0:0:0:
383,371,195925,2,0,L|389:307,1,58.4999982147217,2|0,0:0|0:0,0:0:0:0:
327,241,196289,1,8,0:0:0:0:
327,241,196471,1,0,0:0:0:0:
250,294,196654,2,0,L|244:230,1,58.4999982147217,2|2,0:0|0:0,0:0:0:0:
176,144,197018,6,0,B|147:134|147:134|120:140,1,58.4999982147217,0|2,1:2|0:0,0:0:0:0:
30,180,197382,1,2,1:2:0:0:
30,180,197564,1,0,1:2:0:0:
110,257,197746,2,0,L|120:141,1,116.999996429443,8|2,0:0|0:0,0:0:0:0:
0,0,198475,1,2,1:2:0:0:
472,157,199203,5,8,0:0:0:0:
418,333,199567,1,2,0:0:0:0:
400,265,199749,1,2,0:0:0:0:
480,369,199931,2,0,L|379:362,1,87.7499973220826,0|0,1:2|0:0,0:0:0:0:
292,227,200569,1,0,0:0:0:0:
297,234,200660,2,0,L|292:311,1,58.4999982147217,8|0,0:0|0:0,0:0:0:0:
288,362,201024,1,2,0:0:0:0:
143,203,201388,1,0,1:2:0:0:
151,272,201570,1,0,0:0:0:0:
240,31,202116,6,0,B|257:19|271:20|283:28|281:47|258:70|258:70|299:61,1,116.999996429443,8|2,0:0|0:0,0:0:0:0:
290,62,202663,1,2,0:0:0:0:
395,126,202845,1,0,1:2:0:0:
380,57,203027,1,2,0:0:0:0:
465,9,203209,1,2,1:2:0:0:
450,78,203391,1,0,1:2:0:0:
512,222,203573,1,8,0:0:0:0:
381,379,203937,2,0,L|388:287,1,87.7499973220826,2|0,0:0|0:0,0:0:0:0:
391,256,204302,1,2,1:2:0:0:
22,339,205030,5,8,0:0:0:0:
86,367,205212,1,0,0:0:0:0:
140,265,205394,1,2,0:0:0:0:
76,293,205576,1,2,0:0:0:0:
213,297,205758,2,0,P|211:227|172:191,1,116.999996429443,0|2,1:2|0:0,0:0:0:0:
116,165,206305,1,0,0:0:0:0:
185,120,206487,2,0,P|143:131|116:165,1,87.7499973220826,8|0,0:0|0:0,0:0:0:0:
258,246,207124,1,0,0:0:0:0:
263,239,207215,1,0,1:2:0:0:
368,66,207579,5,2,0:0:0:0:
432,93,207761,1,0,0:0:0:0:
340,4,207943,2,0,P|317:21|304:47,1,58.4999982147217,8|0,0:0|0:0,0:0:0:0:
294,130,208308,1,2,0:0:0:0:
419,277,208672,2,0,L|426:185,1,87.7499973220826,0|0,1:2|0:0,0:0:0:0:
430,154,209036,2,0,L|447:246,1,87.7499973220826,2|0,1:2|0:0,0:0:0:0:
452,274,209400,1,8,0:0:0:0:
282,336,209764,1,2,0:0:0:0:
512,384,210117,1,2,1:2:0:0:
14,242,210845,6,0,L|27:332,1,87.7499973220826,8|0,0:0|0:0,0:0:0:0:
126,365,211391,2,0,L|137:271,1,87.7499973220826,2|0,0:0|0:0,0:0:0:0:
139,242,211755,1,2,0:0:0:0:
89,192,211937,2,0,L|77:84,1,87.7499973220826,2|0,0:0|0:0,0:0:0:0:
76,71,212302,1,8,0:0:0:0:
136,34,212484,1,0,0:0:0:0:
206,98,212666,1,2,0:0:0:0:
408,0,213030,6,0,P|353:32|339:84,1,116.999996429443,0|2,1:2|0:0,0:0:0:0:
438,165,213667,2,0,P|376:149|331:177,1,116.999996429443
310,202,214123,1,2,0:0:0:0:
310,202,214305,1,2,0:0:0:0:
363,305,214487,1,0,1:2:0:0:
302,271,214669,1,2,0:0:0:0:
432,265,214851,2,0,L|444:355,1,87.7499973220826,2|0,1:2|0:0,0:0:0:0:
457,384,215215,2,0,L|318:366,1,116.999996429443,8|2,0:0|0:0,0:0:0:0:
502,285,215852,1,0,0:0:0:0:
508,291,215944,1,2,1:2:0:0:
199,39,216581,5,0,0:0:0:0:
204,46,216672,1,8,0:0:0:0:
135,23,216854,1,0,0:0:0:0:
72,91,217036,1,2,0:0:0:0:
7,126,217218,1,2,0:0:0:0:
7,126,217309,1,0,0:0:0:0:
7,126,217400,6,0,B|-4:153|-4:153|0:182,1,58.4999982147217,0|2,1:2|0:0,0:0:0:0:
11,254,217764,1,2,0:0:0:0:
11,254,217946,1,0,0:0:0:0:
111,216,218129,2,0,B|122:243|122:243|118:272,1,58.4999982147217,8|0,0:0|0:0,0:0:0:0:
51,351,218493,2,0,B|78:340|78:340|141:359,1,87.7499973220826,2|0,0:0|0:0,0:0:0:0:
166,369,218857,2,0,B|235:383|293:325|269:240|216:241|208:317|280:323,1,233.999992858887,0|8,1:2|0:0,0:0:0:0:
275,322,219767,5,0,0:0:0:0:
341,293,219950,1,2,0:0:0:0:
341,293,220132,1,2,0:0:0:0:
393,349,220314,1,0,1:2:0:0:
464,267,220496,2,0,B|459:239|452:202,2,58.4999982147217,2|2|0,0:0|1:2|1:2,0:0:0:0:
512,326,221042,1,8,0:0:0:0:
393,168,221406,1,2,0:0:0:0:
512,0,221771,6,0,B|438:-21|406:19|441:11|391:74|342:29|366:24|322:-6|261:25,1,260,2|8,1:2|0:0,0:0:0:0:
109,84,222863,1,2,0:0:0:0:
178,135,223045,1,2,0:0:0:0:
125,199,223227,2,0,B|93:207|93:207|66:190,1,65,0|2,1:2|0:0,0:0:0:0:
212,209,223591,2,0,B|264:240|264:240|277:310,2,130,2|8|2,0:0|0:0|0:0,0:0:0:0:
498,375,224684,5,0,1:2:0:0:
498,375,224867,1,0,0:0:0:0:
437,316,225049,2,0,L|422:386,1,65,2|0,0:0|0:0,0:0:0:0:
276,308,225413,5,8,0:0:0:0:
276,308,225595,1,0,0:0:0:0:
337,249,225777,1,2,0:0:0:0:
337,249,225959,1,2,0:0:0:0:
242,177,226142,2,0,L|255:240,1,65,0|2,1:2|0:0,0:0:0:0:
376,66,226505,5,2,1:2:0:0:
274,109,226687,1,0,1:2:0:0:
393,76,226869,1,8,0:0:0:0:
263,16,227051,2,0,B|168:43|168:43|133:37,1,130,0|0,1:2|0:0,0:0:0:0:
0,0,227598,6,0,B|3:45|44:63|44:63|9:88|12:132|12:132|20:231,1,260,2|8,1:2|0:0,0:0:0:0:
153,322,228690,1,2,0:0:0:0:
226,274,228872,1,2,0:0:0:0:
277,351,229054,2,0,B|249:371|249:371|219:364,1,65,0|2,1:2|0:0,0:0:0:0:
309,271,229418,2,0,B|359:304|359:304|371:372,2,130,2|8|2,0:0|0:0|0:0,0:0:0:0:
99,231,230511,5,0,1:2:0:0:
99,231,230693,1,0,0:0:0:0:
160,172,230875,2,0,L|175:242,1,65,2|0,0:0|0:0,0:0:0:0:
309,271,231239,5,8,0:0:0:0:
309,271,231422,1,0,0:0:0:0:
248,212,231604,1,2,0:0:0:0:
248,212,231786,1,2,0:0:0:0:
343,140,231968,2,0,L|330:204,1,65,0|2,1:2|0:0,0:0:0:0:
422,324,232332,5,2,1:2:0:0:
324,368,232513,1,0,1:2:0:0:
437,332,232695,1,8,0:0:0:0:
309,271,232877,2,0,B|214:298|214:298|184:290,1,130,0|0,1:2|0:0,0:0:0:0:
24,306,233414,2,0,B|83:280|113:301|104:347|67:352|56:296|56:296|42:230|69:182,1,260,2|8,1:2|0:0,0:0:0:0:
180,30,234506,1,2,0:0:0:0:
111,81,234688,1,2,0:0:0:0:
145,158,234870,2,0,P|141:127|128:86,1,65,0|2,1:2|0:0,0:0:0:0:
262,141,235234,2,0,P|234:199|221:267,2,130,2|8|2,0:0|0:0|0:0,0:0:0:0:
425,15,236326,5,0,1:2:0:0:
425,15,236508,1,0,0:0:0:0:
364,74,236690,2,0,L|349:4,1,65,2|0,0:0|0:0,0:0:0:0:
201,82,237054,5,8,0:0:0:0:
201,82,237237,1,0,0:0:0:0:
262,141,237418,1,2,0:0:0:0:
262,141,237600,1,2,0:0:0:0:
167,213,237782,2,0,L|180:150,1,65,0|2,1:2|0:0,0:0:0:0:
83,261,238147,5,2,1:2:0:0:
167,213,238330,1,0,1:2:0:0:
267,294,238512,1,8,0:0:0:0:
379,204,238693,2,0,B|364:231|364:231|369:330,1,130,0|0,1:2|0:0,0:0:0:0:
512,379,239239,6,0,B|502:367|502:367|497:255|497:255|501:254|501:254|495:125,1,260,2|8,1:2|0:0,0:0:0:0:
336,0,240331,1,2,0:0:0:0:
405,51,240513,1,2,0:0:0:0:
371,128,240695,2,0,P|375:97|388:56,1,65,0|2,1:2|0:0,0:0:0:0:
254,103,241059,2,0,P|281:161|294:229,2,130,2|8|2,0:0|0:0|0:0,0:0:0:0:
69,52,242152,5,0,1:2:0:0:
69,52,242333,1,0,0:0:0:0:
130,111,242515,2,0,L|145:41,1,65,2|0,0:0|0:0,0:0:0:0:
258,104,242881,5,8,0:0:0:0:
258,104,243062,1,0,0:0:0:0:
207,157,243244,1,2,0:0:0:0:
207,157,243426,1,2,0:0:0:0:
303,228,243608,2,0,L|290:165,1,65,0|2,1:2|0:0,0:0:0:0:
424,51,243972,5,2,1:2:0:0:
374,134,244154,1,0,1:2:0:0:
439,253,244336,1,8,0:0:0:0:
362,358,244518,1,0,1:2:0:0:
512,384,244700,1,2,0:0:0:0:
512,384,245064,6,0,B|484:364|484:364|496:164|438:6,1,390,2|2,1:2|0:0,0:0:0:0:
375,0,246338,2,0,P|424:46|524:157,1,195,2|2,0:0|0:0,0:0:0:0:
314,239,247248,2,0,P|345:182|369:121,1,130,8|2,0:0|0:0,0:0:0:0:
215,43,247977,6,0,L|123:29,2,65,0|0|2,1:2|0:0|0:0,0:0:0:0:
67,140,248705,2,0,L|159:126,3,65,8|0|2|2,0:0|0:0|0:0|0:0,0:0:0:0:
131,130,249433,1,0,1:2:0:0:
188,302,249797,2,0,B|172:282|203:225|261:229|295:265|252:301,1,130,2|8,1:2|0:0,0:0:0:0:
268,268,250343,1,0,1:2:0:0:
217,357,250525,2,0,P|177:338|136:323,1,65,2|0,0:0|0:0,0:0:0:0:
0,384,250889,6,0,B|28:364|28:364|16:164|74:6,1,390,2|2,1:2|0:0,0:0:0:0:
137,0,252163,2,0,P|87:46|-12:157,1,195,2|2,0:0|0:0,0:0:0:0:
198,239,253073,2,0,P|166:182|142:121,1,130,8|2,0:0|0:0,0:0:0:0:
297,43,253802,6,0,L|389:29,2,65,0|0|2,1:2|0:0|0:0,0:0:0:0:
445,140,254530,2,0,L|353:126,3,65,8|0|2|2,0:0|0:0|0:0|0:0,0:0:0:0:
380,130,255258,1,0,1:2:0:0:
324,302,255622,2,0,B|339:282|309:225|251:229|216:265|259:301,1,130,2|8,1:2|0:0,0:0:0:0:
242,268,256168,1,0,1:2:0:0:
295,357,256350,2,0,P|334:338|375:323,1,65,2|0,0:0|0:0,0:0:0:0:
512,384,256714,6,0,B|484:364|484:364|496:164|438:6,1,390,2|0,1:2|0:0,0:0:0:0:
440,13,258171,2,0,P|459:74|473:139,2,130,0|0|0,1:2|0:0|0:0,0:0:0:0:
