osu file format v14

[General]
AudioFilename: 9d430cfd1e0510.mp3
AudioLeadIn: 0
PreviewTime: 88710
Countdown: 0
SampleSet: Soft
StackLeniency: 0.7
Mode: 0
LetterboxInBreaks: 0
WidescreenStoryboard: 1

[Editor]
DistanceSpacing: 1.1
BeatDivisor: 4
GridSize: 4
TimelineZoom: 0.7999998

[Metadata]
Title:Go to Church (feat. Snoop Dogg & Lil Jon)
TitleUnicode:Go to Church (feat. Snoop Dogg & Lil Jon)
Artist:Ice Cube
ArtistUnicode:Ice Cube
Creator:TicClick
Version:Easy
Source:
Tags:Laugh Now Cry Later rap collaboration alacat EvilElvis FCL
BeatmapID:895792
BeatmapSetID:319999

[Difficulty]
HPDrainRate:3
CircleSize:3
OverallDifficulty:2
ApproachRate:4
SliderMultiplier:1.59999990463257
SliderTickRate:1

[Events]
//Background and Video events
0,0,"ic.png",0,0
//Break Periods
2,100874,110674
2,169445,176497
//Storyboard Layer 0 (Background)
Sprite,Background,Centre,"sb\tc.png",320,240 M,0,0,,0,0,320,394 S,0,0,,0.5 R,0,0,,-0.15 F,0,20674,21074,0,1 F,0,100274,100674,1,0 F,0,112103,112503,0,1 F,0,168845,169245,1,0 F,0,180674,181074,0,1 F,0,237410,237810,1,0
//Storyboard Layer 1 (Fail)
//Storyboard Layer 2 (Pass)
//Storyboard Layer 3 (Foreground)
//Storyboard Sound Samples

[TimingPoints]
9246,714.285714285714,4,2,0,40,1,0
32013,-100,4,2,0,60,0,0
32192,-100,4,2,0,40,0,0
77817,-100,4,2,0,40,0,1
77862,-100,4,2,0,40,0,0
89245,-100,4,1,0,40,0,1
89290,-100,4,2,0,40,0,0
146388,-100,4,2,0,40,0,1
146433,-100,4,2,0,40,0,0
157817,-100,4,2,0,40,0,1
157862,-100,4,2,0,40,0,0
192103,-100,4,2,0,40,0,1
203487,-100,4,2,0,40,0,0
203531,-100,4,2,0,40,0,1
214953,714.285714285714,4,2,0,40,1,0

[Colours]
Combo1 : 136,88,137
Combo2 : 98,140,210
Combo3 : 114,107,199
Combo4 : 82,103,177

[HitObjects]
64,56,20674,6,0,P|65:132|130:172,1,159.999990463257,4|8,0:0|0:0,0:0:0:0:
216,144,21745,1,0,1:0:0:0:
300,164,22103,2,0,P|317:199|320:239,1,79.9999952316285,2|0,0:0|1:0,0:0:0:0:
280,316,22817,1,8,0:0:0:0:
104,312,23531,6,0,P|83:235|95:156,1,159.999990463257,0|8,1:0|0:0,0:0:0:0:
168,112,24603,1,0,1:0:0:0:
112,44,24960,2,0,L|20:48,2,79.9999952316285,2|0|8,0:0|1:0|0:0,0:0:0:0:
288,36,26388,6,0,L|380:32,1,79.9999952316285,0|2,1:0|0:0,0:0:0:0:
452,56,27103,1,8,0:0:0:0:
388,116,27460,1,0,1:0:0:0:
472,148,27817,2,0,P|478:187|474:227,1,79.9999952316285,2|0,0:0|1:0,0:0:0:0:
396,276,28531,1,8,0:0:0:0:
240,200,29245,6,0,P|202:205|152:200,1,79.9999952316285,0|2,1:0|0:0,0:0:0:0:
76,228,29960,2,0,P|68:266|68:306,1,79.9999952316285,8|0,0:0|1:0,0:0:0:0:
144,348,30674,2,0,P|186:341|224:348,1,79.9999952316285,2|0,0:0|1:0,0:0:0:0:
308,324,31388,1,8,0:0:0:0:
292,152,32103,6,0,P|224:114|145:119,1,159.999990463257,4|8,1:0|1:0,0:0:0:0:
100,200,33174,1,0,1:0:0:0:
108,292,33531,2,0,P|183:319|261:304,1,159.999990463257,0|8,0:0|1:0,0:0:0:0:
344,328,34603,1,2,0:0:0:0:
416,276,34960,6,0,P|412:231|412:184,1,79.9999952316285,4|0,1:0|0:0,0:0:0:0:
448,116,35674,1,8,1:0:0:0:
368,76,36031,1,0,1:0:0:0:
328,156,36388,2,0,P|289:224|290:303,1,159.999990463257,0|8,0:0|1:0,0:0:0:0:
124,360,37817,6,0,L|112:276,1,79.9999952316285,4|0,1:0|0:0,0:0:0:0:
100,192,38531,1,8,1:0:0:0:
248,96,39245,2,0,L|260:180,1,79.9999952316285,0|0,0:0|1:0,0:0:0:0:
272,264,39959,1,8,1:0:0:0:
444,296,40674,6,0,P|456:220|444:136,1,159.999990463257,4|8,1:0|1:0,0:0:0:0:
400,60,41745,1,0,1:0:0:0:
312,68,42103,2,0,P|275:76|232:79,1,79.9999952316285,0|0,0:0|1:0,0:0:0:0:
152,48,42817,1,8,1:0:0:0:
120,132,43174,1,2,0:0:0:0:
200,166,43531,6,0,P|279:172|348:212,1,159.999990463257,4|8,1:0|1:0,0:0:0:0:
364,300,44603,1,0,1:0:0:0:
292,348,44960,1,0,0:0:0:0:
212,308,45317,1,0,1:0:0:0:
136,348,45674,2,0,L|48:352,1,79.9999952316285,8|0,1:0|1:0,0:0:0:0:
8,280,46388,6,0,L|0:100,1,159.999990463257,4|8,1:0|1:0,0:0:0:0:
176,88,47817,1,0,0:0:0:0:
260,112,48174,1,0,1:0:0:0:
196,172,48531,2,0,P|191:211|191:251,1,79.9999952316285,8|2,1:0|0:0,0:0:0:0:
256,312,49245,6,0,P|320:288|392:216,1,159.999990463257,4|8,1:0|1:0,0:0:0:0:
420,144,50317,1,0,1:0:0:0:
496,104,50674,2,0,P|432:60|356:88,1,159.999990463257,0|8,0:0|1:0,0:0:0:0:
188,44,52103,6,0,P|116:76|33:60,1,159.999990463257,4|8,1:0|1:0,0:0:0:0:
4,144,53174,1,0,1:0:0:0:
48,220,53531,2,0,P|87:220|125:207,1,79.9999952316285,0|0,0:0|1:0,0:0:0:0:
172,280,54245,2,0,P|211:278|246:260,1,79.9999952316285,8|0,1:0|0:0,0:0:0:0:
324,300,54960,6,0,P|344:232|336:128,1,159.999990463257,4|8,1:0|1:0,0:0:0:0:
268,96,56031,1,4,3:0:0:0:
184,60,56388,1,0,0:0:0:0:
124,124,56745,1,4,0:3:0:0:
88,208,57103,2,0,L|80:296,1,79.9999952316285,8|0,1:0|0:0,0:0:0:0:
164,320,57817,6,0,L|171:240,1,79.9999952316285,4|2,1:3|0:0,0:0:0:0:
260,248,58531,1,8,1:0:0:0:
268,160,58888,1,4,0:3:0:0:
180,152,59245,1,0,0:0:0:0:
328,56,59960,2,0,P|365:43|405:48,1,79.9999952316285,10|0,1:0|0:0,0:0:0:0:
476,100,60674,5,4,1:0:0:0:
480,188,61031,1,2,0:0:0:0:
480,276,61388,2,0,P|404:288|308:284,1,159.999990463257,8|4,1:0|0:2,0:0:0:0:
236,260,62460,1,4,0:3:0:0:
160,216,62817,2,0,P|166:176|178:138,1,79.9999952316285,8|4,1:0|0:0,0:0:0:0:
176,52,63531,5,4,0:3:0:0:
32,156,64245,2,0,P|31:235|55:311,1,159.999990463257,8|2,1:0|0:0,0:0:0:0:
140,328,65317,1,4,0:3:0:0:
212,276,65674,2,0,B|252:264|252:288|291:276,1,79.9999952316285,10|0,1:0|0:0,0:0:0:0:
380,276,66388,5,4,1:0:0:0:
428,200,66745,1,2,0:0:0:0:
384,124,67103,2,0,P|347:116|284:120,1,79.9999952316285,8|6,1:0|1:3,0:0:0:0:
224,144,67817,2,0,P|145:147|65:108,1,159.999990463257,0|8,0:0|1:0,0:0:0:0:
20,284,69245,6,0,P|8:324|8:368,2,79.9999952316285,6|2|8,1:3|0:0|1:0,0:0:0:0:
108,288,70317,1,6,1:3:0:0:
196,292,70674,2,0,P|200:334|192:380,2,79.9999952316285,0|6|10,0:0|1:3|1:0,0:0:0:0:
172,208,71745,1,0,0:0:0:0:
168,120,72103,5,4,1:0:0:0:
328,188,72817,2,0,P|396:180|440:148,2,119.999992847443,8|6|4,1:0|1:3|1:3,0:0:0:0:
264,132,74245,1,8,1:0:0:0:
200,292,74960,6,0,L|100:296,2,79.9999952316285,4|0|8,1:0|0:0|1:0,0:0:0:0:
264,132,76388,2,0,L|343:128,1,79.9999952316285,2|2,0:0|0:0,0:0:0:0:
320,44,77103,2,0,L|240:47,1,79.9999952316285,14|4,1:0|1:2,0:0:0:0:
156,28,77817,6,0,P|163:107|144:184,1,159.999990463257,4|8,1:0|1:0,0:0:0:0:
64,220,78888,1,0,1:0:0:0:
132,276,79245,2,0,P|171:271|206:252,1,79.9999952316285,2|0,0:0|1:0,0:0:0:0:
280,199,79960,2,0,P|319:198|359:203,1,79.9999952316285,8|0,1:0|0:0,0:0:0:0:
420,268,80674,6,0,P|408:305|384:340,2,79.9999952316285,4|0|8,1:0|0:0|1:0,0:0:0:0:
444,184,81745,1,0,1:0:0:0:
399,107,82103,2,0,P|322:89|242:90,1,159.999990463257,2|8,0:0|1:0,0:0:0:0:
180,152,83174,1,0,0:0:0:0:
91,159,83531,6,0,P|76:122|67:84,2,79.9999952316285,4|0|8,1:0|0:0|1:0,0:0:0:0:
40,232,84603,1,0,1:0:0:0:
68,316,84960,2,0,P|100:338|139:345,1,79.9999952316285,2|0,0:0|1:0,0:0:0:0:
224,316,85674,1,8,1:0:0:0:
236,228,86031,1,0,0:0:0:0:
312,180,86388,6,0,P|387:156|467:158,2,159.999990463257,4|8|2,1:0|1:0|0:0,0:0:0:0:
255,112,88174,1,0,1:0:0:0:
202,184,88531,2,0,P|163:183|123:176,1,79.9999952316285,8|0,1:0|0:0,0:0:0:0:
59,236,89245,6,0,P|74:312|141:351,1,159.999990463257,4|8,0:0|1:0,0:0:0:0:
220,312,90317,1,2,1:3:0:0:
272,240,90674,2,0,P|235:170|162:143,1,159.999990463257,0|8,1:0|1:0,0:0:0:0:
184,60,91745,1,2,0:0:0:0:
268,84,92103,6,0,P|307:92|346:87,1,79.9999952316285,0|2,1:0|0:0,0:0:0:0:
420,132,92817,2,0,L|432:216,1,79.9999952316285,8|2,1:0|1:3,0:0:0:0:
368,272,93531,2,0,P|331:281|280:280,1,79.9999952316285,0|2,1:0|0:0,0:0:0:0:
252,204,94245,1,8,1:0:0:0:
172,240,94603,1,2,0:0:0:0:
207,320,94960,6,0,P|128:321|49:333,1,159.999990463257,4|8,1:0|1:0,0:0:0:0:
28,248,96031,1,2,1:3:0:0:
80,176,96388,2,0,P|71:136|52:100,2,79.9999952316285,0|2|8,1:0|0:0|1:0,0:0:0:0:
160,216,97460,1,2,0:0:0:0:
230,162,97817,6,0,P|240:124|240:84,1,79.9999952316285,0|2,1:0|0:0,0:0:0:0:
320,44,98531,2,0,P|357:58|392:84,1,79.9999952316285,8|2,1:0|1:3,0:0:0:0:
468,120,99245,1,0,1:0:0:0:
428,200,99603,1,4,0:0:0:0:
348,160,99960,2,0,P|308:159|268:163,1,79.9999952316285,8|2,1:0|0:0,0:0:0:0:
204,228,100674,5,4,1:0:0:0:
88,252,112103,6,0,L|264:248,1,159.999990463257,4|8,1:0|0:0,0:0:0:0:
312,192,113174,1,0,1:0:0:0:
372,256,113531,2,0,P|449:255|496:192,1,159.999990463257,0|8,0:0|0:0,0:0:0:0:
396,52,114960,6,0,P|320:68|286:138,1,159.999990463257,2|8,1:2|0:0,0:0:0:0:
352,192,116031,1,0,1:0:0:0:
384,272,116388,1,0,0:0:0:0:
244,372,117103,1,8,0:0:0:0:
143,227,117817,6,0,P|121:151|115:71,1,159.999990463257,4|8,1:0|0:0,0:0:0:0:
192,28,118888,1,0,1:0:0:0:
276,52,119245,2,0,P|294:129|295:209,1,159.999990463257,0|8,0:0|0:0,0:0:0:0:
268,292,120317,1,0,0:0:0:0:
348,332,120674,5,0,1:0:0:0:
452,192,121388,1,8,0:0:0:0:
375,32,122103,2,0,P|336:33|296:39,1,79.9999952316285,0|0,0:0|1:0,0:0:0:0:
256,116,122817,1,2,1:2:0:0:
319,280,123531,6,0,P|241:295|162:292,1,159.999990463257,4|8,1:0|0:0,0:0:0:0:
116,216,124603,2,0,P|63:155|-2:110,2,159.999990463257,4|4|6,0:0|0:0|0:0,0:0:0:0:
204,208,126388,6,0,P|208:168|206:128,1,79.9999952316285,0|2,1:0|0:0,0:0:0:0:
264,64,127103,2,0,P|305:71|352:72,1,79.9999952316285,8|4,0:0|0:0,0:0:0:0:
420,116,127817,1,2,0:0:0:0:
412,204,128174,1,2,0:0:0:0:
403,292,128531,2,0,P|364:300|325:298,1,79.9999952316285,8|2,0:0|0:0,0:0:0:0:
259,356,129245,6,0,P|187:323|104:304,1,159.999990463257,4|8,1:0|0:0,0:0:0:0:
20,304,130317,1,2,0:0:0:0:
40,136,131031,2,0,P|77:150|117:152,1,79.9999952316285,2|8,0:0|0:0,0:0:0:0:
188,100,131745,1,2,0:0:0:0:
276,104,132103,6,0,P|314:115|348:136,1,79.9999952316285,0|2,1:0|0:0,0:0:0:0:
431,107,132817,1,8,0:0:0:0:
460,192,133174,1,2,0:0:0:0:
375,220,133531,2,0,P|313:265|240:241,1,159.999990463257,4|2,0:0|0:0,0:0:0:0:
68,192,134960,6,0,L|76:364,1,159.999990463257,4|8,1:0|0:0,0:0:0:0:
164,360,136031,1,2,1:3:0:0:
196,276,136388,2,0,L|192:180,1,79.9999952316285,2|2,0:0|1:2,0:0:0:0:
188,108,137103,1,8,0:0:0:0:
344,188,137817,6,0,P|412:196|488:136,1,159.999990463257,4|8,1:0|0:0,0:0:0:0:
456,60,138888,1,2,1:3:0:0:
367,44,139245,2,0,P|334:65|309:96,2,79.9999952316285,2|0|8,0:0|1:2|0:0,0:0:0:0:
192,28,140674,6,0,P|120:40|8:24,1,159.999990463257,4|8,1:0|0:0,0:0:0:0:
8,116,141745,1,2,1:3:0:0:
80,164,142103,2,0,L|72:264,1,79.9999952316285,2|2,0:0|1:2,0:0:0:0:
160,228,142817,2,0,L|166:148,1,79.9999952316285,12|2,0:0|0:0,0:0:0:0:
252,124,143531,6,0,L|238:283,1,159.999990463257,4|8,1:0|0:0,0:0:0:0:
312,332,144603,1,0,1:0:0:0:
324,244,144960,2,0,L|340:64,1,159.999990463257,2|12,0:0|0:0,0:0:0:0:
172,32,146388,6,0,P|129:98|59:135,1,159.999990463257,4|8,1:0|1:0,0:0:0:0:
12,212,147460,1,0,1:0:0:0:
60,284,147817,2,0,P|99:288|137:277,1,79.9999952316285,0|0,0:0|1:0,0:0:0:0:
224,272,148531,2,0,L|236:351,1,79.9999952316285,8|2,1:0|0:0,0:0:0:0:
324,356,149245,6,0,P|363:349|396:328,1,79.9999952316285,4|0,1:0|0:0,0:0:0:0:
480,352,149960,1,8,1:0:0:0:
504,268,150317,1,0,1:0:0:0:
419,243,150674,2,0,P|343:223|264:236,1,159.999990463257,0|8,0:0|1:0,0:0:0:0:
192,284,151745,1,0,0:0:0:0:
120,231,152103,6,0,P|109:152|110:72,1,159.999990463257,4|8,1:0|1:0,0:0:0:0:
188,28,153174,1,0,1:0:0:0:
264,68,153531,2,0,P|271:107|271:147,1,79.9999952316285,0|0,0:0|1:0,0:0:0:0:
356,123,154245,2,0,P|385:97|424:80,1,79.9999952316285,8|2,1:0|0:0,0:0:0:0:
504,112,154960,6,0,P|492:200|444:256,1,159.999990463257,4|8,1:0|1:0,0:0:0:0:
360,252,156031,1,0,1:0:0:0:
284,296,156388,2,0,P|252:272|216:252,1,79.9999952316285,0|0,0:0|1:0,0:0:0:0:
140,292,157103,2,0,P|127:254|104:208,1,79.9999952316285,10|0,1:0|0:0,0:0:0:0:
24,240,157817,6,0,P|12:184|4:72,1,159.999990463257,4|8,1:0|0:0,0:0:0:0:
76,32,158888,1,2,1:3:0:0:
140,92,159245,2,0,L|232:80,1,79.9999952316285,2|0,0:0|1:0,0:0:0:0:
212,168,159960,2,0,L|132:178,1,79.9999952316285,8|2,0:0|0:0,0:0:0:0:
112,264,160674,6,0,P|173:314|249:334,1,159.999990463257,4|8,1:0|0:0,0:0:0:0:
328,292,161745,1,2,1:3:0:0:
416,276,162103,2,0,P|442:305|458:341,2,79.9999952316285,2|0|12,0:0|1:0|0:0,0:0:0:0:
360,208,163174,1,2,0:0:0:0:
336,124,163531,6,0,P|396:76|480:92,1,159.999990463257,4|8,1:0|0:0,0:0:0:0:
512,168,164603,1,2,1:3:0:0:
487,252,164960,2,0,P|451:268|412:272,1,79.9999952316285,2|2,0:0|0:0,0:0:0:0:
327,244,165674,2,0,P|288:245|248:256,1,79.9999952316285,8|2,0:0|0:0,0:0:0:0:
215,336,166388,6,0,P|137:322|57:319,1,159.999990463257,4|8,1:0|0:0,0:0:0:0:
20,240,167460,1,2,1:3:0:0:
56,160,167817,2,0,P|97:151|136:148,1,79.9999952316285,2|0,0:0|1:0,0:0:0:0:
183,75,168531,2,0,P|147:59|108:49,1,79.9999952316285,12|2,0:0|0:0,0:0:0:0:
24,76,169245,5,4,1:0:0:0:
256,192,177817,12,4,180674,1:0:0:0:
216,108,182103,6,0,L|208:268,1,159.999990463257,0|8,0:0|0:1,0:0:0:0:
296,248,183174,1,0,0:0:0:0:
276,332,183531,6,0,P|335:324|382:236,2,159.999990463257,2|8|0,1:2|0:1|0:0,0:0:0:0:
104,360,185674,1,8,0:1:0:0:
12,208,186388,6,0,L|36:49,1,159.999990463257,4|8,1:0|0:1,0:0:0:0:
212,24,187817,2,0,L|187:182,1,159.999990463257,0|0,0:0|0:0,0:0:0:0:
348,252,189245,6,0,L|359:172,1,79.9999952316285,2|0,1:2|0:0,0:0:0:0:
444,152,189960,2,0,L|455:72,1,79.9999952316285,8|0,0:1|0:0,0:0:0:0:
379,28,190674,2,0,P|301:44|222:38,1,159.999990463257,2|8,0:0|0:1,0:0:0:0:
88,152,192103,6,0,L|88:244,1,79.9999952316285,4|0,1:0|0:0,0:0:0:0:
172,264,192817,2,0,P|211:264|251:256,1,79.9999952316285,8|2,1:0|1:3,0:0:0:0:
288,176,193531,1,0,1:0:0:0:
376,184,193888,1,0,1:0:0:0:
391,272,194245,2,0,P|361:297|323:308,1,79.9999952316285,8|2,1:0|0:0,0:0:0:0:
244,344,194960,6,0,P|184:332|60:344,1,159.999990463257,4|8,1:0|1:0,0:0:0:0:
12,292,196031,1,2,1:3:0:0:
88,248,196388,2,0,L|80:168,1,79.9999952316285,0|0,1:0|1:0,0:0:0:0:
48,88,197103,2,0,L|128:80,1,79.9999952316285,10|2,1:0|0:0,0:0:0:0:
208,43,197817,6,0,P|287:40|365:58,1,159.999990463257,4|8,1:0|1:0,0:0:0:0:
376,148,198888,1,2,1:3:0:0:
460,176,199245,1,0,1:0:0:0:
452,264,199603,1,0,1:0:0:0:
367,283,199960,2,0,P|328:276|288:273,1,79.9999952316285,8|2,1:0|0:0,0:0:0:0:
208,236,200674,6,0,L|210:156,1,79.9999952316285,4|0,1:0|0:0,0:0:0:0:
124,164,201388,2,0,P|84:153|32:152,1,79.9999952316285,8|2,1:0|1:3,0:0:0:0:
24,68,202103,1,0,1:0:0:0:
100,24,202460,1,4,1:2:0:0:
164,84,202817,2,0,P|203:92|242:89,1,79.9999952316285,10|0,1:0|0:0,0:0:0:0:
228,176,203531,6,0,P|255:249|319:295,1,159.999990463257,4|8,1:0|1:0,0:0:0:0:
404,276,204603,1,0,1:0:0:0:
427,191,204960,2,0,P|415:154|392:122,1,79.9999952316285,0|0,0:0|1:0,0:0:0:0:
324,64,205674,1,8,1:0:0:0:
240,88,206031,1,2,0:0:0:0:
155,115,206388,6,0,P|121:96|92:68,1,79.9999952316285,4|0,1:0|0:0,0:0:0:0:
24,124,207103,1,8,1:0:0:0:
32,212,207460,1,0,1:0:0:0:
92,276,207817,2,0,P|131:280|171:274,1,79.9999952316285,0|0,0:0|1:0,0:0:0:0:
252,244,208531,2,0,P|291:241|345:258,1,79.9999952316285,8|2,1:0|0:0,0:0:0:0:
416,280,209245,6,0,P|440:204|436:124,1,159.999990463257,4|8,1:0|1:0,0:0:0:0:
356,84,210317,1,0,1:0:0:0:
292,144,210674,2,0,L|212:124,1,79.9999952316285,0|0,0:0|1:0,0:0:0:0:
176,204,211388,2,0,L|253:223,1,79.9999952316285,8|2,1:0|0:0,0:0:0:0:
296,300,212103,6,0,P|272:331|236:352,1,79.9999952316285,4|0,1:0|0:0,0:0:0:0:
152,340,212817,2,0,P|125:310|112:272,1,79.9999952316285,8|0,1:0|1:0,0:0:0:0:
120,184,213531,2,0,P|122:147|112:92,1,79.9999952316285,0|0,0:0|1:0,0:0:0:0:
204,115,214245,2,0,P|241:103|276:76,1,79.9999952316285,8|2,1:0|0:0,0:0:0:0:
316,4,214953,5,4,1:0:0:0:
396,44,215310,1,0,0:0:0:0:
352,120,215667,1,8,1:0:0:0:
483,235,216381,2,0,P|444:235|405:244,1,79.9999952316285,0|0,1:0|1:0,0:0:0:0:
364,324,217095,1,8,1:0:0:0:
196,264,217810,6,0,P|182:301|158:333,1,79.9999952316285,4|0,1:0|1:0,0:0:0:0:
72,348,218524,1,8,1:0:0:0:
96,172,219238,2,0,P|58:186|26:210,2,79.9999952316285,0|0|8,1:0|1:0|1:0,0:0:0:0:
144,100,220310,1,2,0:0:0:0:
184,176,220667,6,0,P|263:176|330:135,1,159.999990463257,4|8,1:0|1:0,0:0:0:0:
388,68,221738,1,2,1:3:0:0:
413,152,222095,2,0,L|415:232,1,79.9999952316285,0|0,1:0|1:0,0:0:0:0:
332,256,222810,2,0,L|329:176,1,79.9999952316285,8|4,1:0|1:2,0:0:0:0:
244,160,223524,6,0,P|164:160|104:216,1,159.999990463257,6|8,1:0|1:0,0:0:0:0:
120,296,224595,1,2,1:0:0:0:
208,280,224953,2,0,P|249:292|281:323,2,79.9999952316285,2|4|8,1:0|1:2|1:0,0:0:0:0:
376,231,226381,6,0,P|437:183|448:104,1,159.999990463257,4|8,1:0|1:0,0:0:0:0:
388,44,227453,1,0,1:0:0:0:
307,84,227810,2,0,P|228:88|149:77,1,159.999990463257,0|8,0:0|1:0,0:0:0:0:
56,228,229238,5,4,1:0:0:0:
84,312,229595,1,0,0:0:0:0:
144,247,229953,2,0,P|183:239|222:240,1,79.9999952316285,8|0,1:0|0:0,0:0:0:0:
300,284,230667,1,0,0:0:0:0:
376,240,231024,1,2,1:2:0:0:
299,195,231381,2,0,P|274:165|257:129,1,79.9999952316285,8|4,1:0|1:2,0:0:0:0:
304,56,232095,6,0,P|375:88|411:158,1,159.999990463257,4|8,1:0|1:0,0:0:0:0:
408,248,233167,1,0,1:0:0:0:
356,320,233524,2,0,L|252:312,1,79.9999952316285,0|0,0:0|1:0,0:0:0:0:
240,236,234238,2,0,L|136:228,1,79.9999952316285,8|4,1:0|0:0,0:0:0:0:
76,252,234953,6,0,L|92:92,1,159.999990463257,4|8,1:0|1:0,0:0:0:0:
252,16,236381,1,0,0:0:0:0:
244,104,236738,1,0,1:0:0:0:
232,192,237095,2,0,L|223:271,1,79.9999952316285,8|0,1:0|0:0,0:0:0:0:
212,360,237810,5,0,3:0:0:0:
