osu file format v14

[General]
AudioFilename: audio.mp3
AudioLeadIn: 0
PreviewTime: 91049
Countdown: 0
SampleSet: Normal
StackLeniency: 0.7
Mode: 1
LetterboxInBreaks: 0
WidescreenStoryboard: 1

[Editor]
DistanceSpacing: 1
BeatDivisor: 2
GridSize: 32
TimelineZoom: 2.599999

[Metadata]
Title:citanLu
TitleUnicode:citanLu
Artist:Ice
ArtistUnicode:Ice
Creator:DarkVortex
Version:Futsuu
Source:VOEZ
Tags:cytus chapter L L6 lunatic meteo
BeatmapID:1345499
BeatmapSetID:634062

[Difficulty]
HPDrainRate:6
CircleSize:5
OverallDifficulty:4
ApproachRate:5
SliderMultiplier:1.4
SliderTickRate:1

[Events]
//Background and Video events
0,0,"citanLu BG.jpg",0,0
//Break Periods
//Storyboard Layer 0 (Background)
//Storyboard Layer 1 (Fail)
//Storyboard Layer 2 (Pass)
//Storyboard Layer 3 (Foreground)
//Storyboard Sound Samples

[TimingPoints]
1050,357.142857142857,3,1,0,100,1,0
56764,-100,3,1,0,100,0,1
73907,-100,3,1,0,100,0,0
108192,-100,3,1,0,100,0,1
125335,-100,3,1,0,100,0,0

[HitObjects]
256,192,1050,5,8,0:0:0:0:
256,192,1228,1,8,0:0:0:0:
256,192,1585,1,8,0:0:0:0:
256,192,1764,1,8,0:0:0:0:
256,192,2121,1,8,0:0:0:0:
256,192,2299,1,8,0:0:0:0:
256,192,2657,1,8,0:0:0:0:
256,192,3014,1,8,0:0:0:0:
256,192,3192,1,0,0:0:0:0:
256,192,3371,1,0,0:0:0:0:
256,192,3728,1,0,0:0:0:0:
256,192,3907,1,0,0:0:0:0:
256,192,4264,1,0,0:0:0:0:
256,192,4442,1,0,0:0:0:0:
256,192,4799,1,0,0:0:0:0:
256,192,5157,1,0,0:0:0:0:
256,192,5335,1,8,0:0:0:0:
256,192,5514,1,8,0:0:0:0:
256,192,5871,1,8,0:0:0:0:
256,192,6049,1,8,0:0:0:0:
256,192,6407,1,8,0:0:0:0:
256,192,6585,1,8,0:0:0:0:
256,192,6942,1,8,0:0:0:0:
256,192,7299,1,0,0:0:0:0:
256,192,7478,1,8,0:0:0:0:
256,192,7657,1,0,0:0:0:0:
256,192,8014,1,8,0:0:0:0:
256,192,8192,1,0,0:0:0:0:
256,192,8549,1,8,0:0:0:0:
256,192,8728,1,0,0:0:0:0:
256,192,9085,1,8,0:0:0:0:
256,192,9442,1,0,0:0:0:0:
256,192,9621,1,8,0:0:0:0:
256,192,9799,1,8,0:0:0:0:
256,192,10157,1,8,0:0:0:0:
256,192,10335,1,8,0:0:0:0:
256,192,10692,1,8,0:0:0:0:
256,192,10871,1,8,0:0:0:0:
256,192,11228,1,8,0:0:0:0:
256,192,11585,1,8,0:0:0:0:
256,192,11764,1,0,0:0:0:0:
256,192,11942,1,0,0:0:0:0:
256,192,12299,1,0,0:0:0:0:
256,192,12478,1,0,0:0:0:0:
256,192,12835,1,0,0:0:0:0:
256,192,13014,1,0,0:0:0:0:
256,192,13371,1,0,0:0:0:0:
256,192,13728,1,0,0:0:0:0:
256,192,13907,1,8,0:0:0:0:
256,192,14085,1,8,0:0:0:0:
256,192,14442,1,8,0:0:0:0:
256,192,14621,1,8,0:0:0:0:
256,192,14978,1,8,0:0:0:0:
256,192,15157,1,8,0:0:0:0:
256,192,15514,1,8,0:0:0:0:
256,192,15871,1,0,0:0:0:0:
256,192,16049,1,8,0:0:0:0:
256,192,16228,1,0,0:0:0:0:
256,192,16585,1,8,0:0:0:0:
256,192,16764,1,0,0:0:0:0:
256,192,17121,1,8,0:0:0:0:
256,192,17299,1,0,0:0:0:0:
256,192,17657,1,8,0:0:0:0:
256,192,18014,1,0,0:0:0:0:
256,192,18192,1,12,0:0:0:0:
256,192,18371,12,0,20335,0:0:0:0:
256,192,22121,5,12,0:0:0:0:
256,192,22478,1,4,0:0:0:0:
256,192,23014,1,8,0:0:0:0:
256,192,23192,1,0,0:0:0:0:
256,192,23549,1,8,0:0:0:0:
256,192,23907,1,8,0:0:0:0:
256,192,24264,1,0,0:0:0:0:
256,192,24621,1,8,0:0:0:0:
256,192,25157,1,0,0:0:0:0:
256,192,25335,1,0,0:0:0:0:
256,192,25692,1,8,0:0:0:0:
256,192,26049,1,8,0:0:0:0:
256,192,26407,1,0,0:0:0:0:
256,192,26585,1,0,0:0:0:0:
256,192,26764,1,8,0:0:0:0:
256,192,27299,1,8,0:0:0:0:
256,192,27478,1,0,0:0:0:0:
256,192,27835,1,8,0:0:0:0:
256,192,28192,1,8,0:0:0:0:
256,192,28549,1,0,0:0:0:0:
256,192,28907,1,12,0:0:0:0:
256,192,29442,1,4,0:0:0:0:
256,192,29978,1,12,0:0:0:0:
256,192,30514,1,4,0:0:0:0:
256,192,31049,1,12,0:0:0:0:
256,192,31585,1,0,0:0:0:0:
256,192,31764,1,0,0:0:0:0:
256,192,32121,1,8,0:0:0:0:
256,192,32478,1,8,0:0:0:0:
256,192,32835,1,8,0:0:0:0:
256,192,33014,1,0,0:0:0:0:
256,192,33192,1,8,0:0:0:0:
256,192,33728,1,0,0:0:0:0:
256,192,33907,1,0,0:0:0:0:
256,192,34264,1,8,0:0:0:0:
256,192,34978,1,8,0:0:0:0:
256,192,35335,1,0,0:0:0:0:
256,192,35871,1,8,0:0:0:0:
256,192,36049,1,0,0:0:0:0:
256,192,36407,1,8,0:0:0:0:
256,192,37121,1,8,0:0:0:0:
256,192,37478,1,0,0:0:0:0:
256,192,38014,1,0,0:0:0:0:
256,192,38192,1,0,0:0:0:0:
256,192,38371,1,8,0:0:0:0:
256,192,38549,1,0,0:0:0:0:
256,192,39264,1,0,0:0:0:0:
256,192,39442,1,0,0:0:0:0:
256,192,39621,1,12,0:0:0:0:
256,192,40157,1,0,0:0:0:0:
256,192,40335,1,0,0:0:0:0:
256,192,40514,1,8,0:0:0:0:
256,192,40692,1,8,0:0:0:0:
256,192,41407,1,8,0:0:0:0:
256,192,41764,1,8,0:0:0:0:
256,192,42478,1,8,0:0:0:0:
256,192,42835,1,0,0:0:0:0:
256,192,43371,1,8,0:0:0:0:
256,192,43549,1,0,0:0:0:0:
256,192,43728,1,0,0:0:0:0:
256,192,43907,1,8,0:0:0:0:
256,192,44442,1,8,0:0:0:0:
256,192,44621,1,0,0:0:0:0:
256,192,44799,1,8,0:0:0:0:
256,192,44978,1,8,0:0:0:0:
256,192,45335,1,8,0:0:0:0:
256,192,45692,1,8,0:0:0:0:
256,192,46049,1,8,0:0:0:0:
256,192,46585,1,8,0:0:0:0:
256,192,46764,1,8,0:0:0:0:
256,192,46942,1,0,0:0:0:0:
256,192,47121,1,8,0:0:0:0:
256,192,47835,1,0,0:0:0:0:
256,192,48192,1,8,0:0:0:0:
256,192,48549,1,0,0:0:0:0:
256,192,49085,1,0,0:0:0:0:
256,192,49264,1,0,0:0:0:0:
256,192,49621,1,8,0:0:0:0:
256,192,49978,1,0,0:0:0:0:
256,192,50335,1,8,0:0:0:0:
256,192,50692,1,0,0:0:0:0:
256,192,51228,1,0,0:0:0:0:
256,192,51407,1,0,0:0:0:0:
256,192,51764,1,8,0:0:0:0:
256,192,52121,1,0,0:0:0:0:
256,192,52478,1,8,0:0:0:0:
256,192,53192,1,8,0:0:0:0:
256,192,53549,1,0,0:0:0:0:
256,192,54085,1,0,0:0:0:0:
256,192,54264,1,8,0:0:0:0:
256,192,54442,1,0,0:0:0:0:
256,192,54621,1,8,0:0:0:0:
256,192,55335,1,0,0:0:0:0:
256,192,55514,1,8,0:0:0:0:
256,192,55692,1,0,0:0:0:0:
256,192,56049,1,0,0:0:0:0:
256,192,56407,1,0,0:0:0:0:
256,192,56764,1,12,0:0:0:0:
256,192,56942,1,8,0:0:0:0:
256,192,57299,1,8,0:0:0:0:
256,192,57478,1,8,0:0:0:0:
256,192,57835,1,0,0:0:0:0:
256,192,58014,1,0,0:0:0:0:
256,192,58371,1,8,0:0:0:0:
256,192,58728,1,0,0:0:0:0:
256,192,58907,1,8,0:0:0:0:
256,192,59085,1,8,0:0:0:0:
256,192,59442,1,8,0:0:0:0:
256,192,59621,1,8,0:0:0:0:
256,192,59978,1,0,0:0:0:0:
256,192,60157,1,0,0:0:0:0:
256,192,60514,1,8,0:0:0:0:
256,192,60871,1,0,0:0:0:0:
256,192,61049,1,8,0:0:0:0:
256,192,61228,1,0,0:0:0:0:
256,192,61585,1,8,0:0:0:0:
256,192,61764,1,0,0:0:0:0:
256,192,62121,1,8,0:0:0:0:
256,192,62299,1,0,0:0:0:0:
256,192,62657,1,8,0:0:0:0:
256,192,63014,1,0,0:0:0:0:
256,192,63192,1,8,0:0:0:0:
256,192,63371,1,8,0:0:0:0:
256,192,63728,1,8,0:0:0:0:
256,192,63907,1,8,0:0:0:0:
256,192,64264,1,0,0:0:0:0:
256,192,64621,1,0,0:0:0:0:
256,192,64978,1,0,0:0:0:0:
256,192,65335,1,8,0:0:0:0:
256,192,65514,1,8,0:0:0:0:
256,192,65871,1,8,0:0:0:0:
256,192,66049,1,8,0:0:0:0:
256,192,66407,1,0,0:0:0:0:
256,192,66585,1,0,0:0:0:0:
256,192,66942,1,8,0:0:0:0:
256,192,67299,1,0,0:0:0:0:
256,192,67478,1,8,0:0:0:0:
256,192,67657,1,8,0:0:0:0:
256,192,68014,1,8,0:0:0:0:
256,192,68192,1,8,0:0:0:0:
256,192,68549,1,8,0:0:0:0:
256,192,68728,1,8,0:0:0:0:
256,192,69085,1,0,0:0:0:0:
256,192,69264,1,8,0:0:0:0:
256,192,69621,1,8,0:0:0:0:
256,192,69799,1,8,0:0:0:0:
256,192,70157,1,8,0:0:0:0:
256,192,70335,1,8,0:0:0:0:
256,192,70692,1,8,0:0:0:0:
256,192,70871,1,8,0:0:0:0:
256,192,71228,1,8,0:0:0:0:
256,192,71585,1,0,0:0:0:0:
256,192,71764,1,8,0:0:0:0:
256,192,71942,1,0,0:0:0:0:
256,192,72299,1,8,0:0:0:0:
256,192,72478,1,0,0:0:0:0:
256,192,72835,1,8,0:0:0:0:
256,192,73014,1,0,0:0:0:0:
256,192,73371,1,0,0:0:0:0:
256,192,73549,1,8,0:0:0:0:
256,192,73728,1,0,0:0:0:0:
256,192,73907,1,12,0:0:0:0:
256,192,76049,1,0,0:0:0:0:
256,192,78192,1,8,0:0:0:0:
256,192,80335,1,0,0:0:0:0:
256,192,81407,1,8,0:0:0:0:
256,192,81764,1,0,0:0:0:0:
256,192,82121,1,0,0:0:0:0:
256,192,82478,1,12,0:0:0:0:
256,192,82657,1,8,0:0:0:0:
256,192,83014,1,8,0:0:0:0:
256,192,83192,1,8,0:0:0:0:
256,192,83549,1,0,0:0:0:0:
256,192,83907,1,0,0:0:0:0:
256,192,84264,1,0,0:0:0:0:
256,192,84621,1,8,0:0:0:0:
256,192,84799,1,8,0:0:0:0:
256,192,85157,1,8,0:0:0:0:
256,192,85335,1,8,0:0:0:0:
256,192,85692,1,8,0:0:0:0:
256,192,86049,1,0,0:0:0:0:
256,192,86407,1,0,0:0:0:0:
256,192,86585,1,0,0:0:0:0:
256,192,86764,1,8,0:0:0:0:
256,192,86942,1,0,0:0:0:0:
256,192,87299,1,8,0:0:0:0:
256,192,87478,1,0,0:0:0:0:
256,192,87835,1,8,0:0:0:0:
256,192,88192,1,8,0:0:0:0:
256,192,88549,1,8,0:0:0:0:
256,192,88907,1,8,0:0:0:0:
256,192,89085,1,8,0:0:0:0:
256,192,89442,1,8,0:0:0:0:
256,192,89621,1,8,0:0:0:0:
256,192,89978,1,0,0:0:0:0:
256,192,90157,1,0,0:0:0:0:
256,192,90514,1,0,0:0:0:0:
256,192,90692,1,0,0:0:0:0:
256,192,90871,1,0,0:0:0:0:
256,192,91049,1,12,0:0:0:0:
256,192,91407,1,0,0:0:0:0:
256,192,91764,1,8,0:0:0:0:
256,192,92121,1,8,0:0:0:0:
256,192,92478,1,8,0:0:0:0:
256,192,92835,1,0,0:0:0:0:
256,192,93192,1,8,0:0:0:0:
256,192,93549,1,0,0:0:0:0:
256,192,93907,1,8,0:0:0:0:
256,192,94264,1,8,0:0:0:0:
256,192,94621,1,8,0:0:0:0:
256,192,94978,1,0,0:0:0:0:
256,192,95335,1,8,0:0:0:0:
256,192,95692,1,8,0:0:0:0:
256,192,95871,1,0,0:0:0:0:
256,192,96228,1,0,0:0:0:0:
256,192,96407,1,8,0:0:0:0:
256,192,96764,1,8,0:0:0:0:
256,192,96942,1,0,0:0:0:0:
256,192,97299,1,0,0:0:0:0:
256,192,97478,1,8,0:0:0:0:
256,192,98014,1,8,0:0:0:0:
256,192,98549,1,8,0:0:0:0:
256,192,98907,1,8,0:0:0:0:
256,192,99264,1,0,0:0:0:0:
256,192,99442,1,0,0:0:0:0:
256,192,99621,1,8,0:0:0:0:
256,192,99978,1,8,0:0:0:0:
256,192,100335,1,8,0:0:0:0:
256,192,100692,1,0,0:0:0:0:
256,192,101049,1,8,0:0:0:0:
256,192,101407,1,8,0:0:0:0:
256,192,101764,1,0,0:0:0:0:
256,192,102121,1,8,0:0:0:0:
256,192,102478,1,0,0:0:0:0:
256,192,102835,1,8,0:0:0:0:
256,192,103192,1,8,0:0:0:0:
256,192,103549,1,0,0:0:0:0:
256,192,103907,1,8,0:0:0:0:
256,192,104264,1,0,0:0:0:0:
256,192,104621,1,8,0:0:0:0:
256,192,104978,1,8,0:0:0:0:
256,192,105335,1,0,0:0:0:0:
256,192,105692,1,8,0:0:0:0:
256,192,106049,1,4,0:0:0:0:
256,192,106585,1,12,0:0:0:0:
256,192,107121,1,12,0:0:0:0:
256,192,108192,1,12,0:0:0:0:
256,192,108728,1,0,0:0:0:0:
256,192,108907,1,8,0:0:0:0:
256,192,109085,1,8,0:0:0:0:
256,192,109264,1,0,0:0:0:0:
256,192,109621,1,0,0:0:0:0:
256,192,109978,1,8,0:0:0:0:
256,192,110335,1,8,0:0:0:0:
256,192,111049,1,8,0:0:0:0:
256,192,111407,1,8,0:0:0:0:
256,192,111942,1,0,0:0:0:0:
256,192,112121,1,8,0:0:0:0:
256,192,112478,1,8,0:0:0:0:
256,192,113014,1,8,0:0:0:0:
256,192,113192,1,8,0:0:0:0:
256,192,113371,1,8,0:0:0:0:
256,192,113549,1,0,0:0:0:0:
256,192,113907,1,8,0:0:0:0:
256,192,114264,1,0,0:0:0:0:
256,192,114621,1,0,0:0:0:0:
256,192,115692,1,0,0:0:0:0:
256,192,116049,1,0,0:0:0:0:
256,192,116407,1,0,0:0:0:0:
256,192,116764,1,8,0:0:0:0:
256,192,117299,1,8,0:0:0:0:
256,192,117478,1,0,0:0:0:0:
256,192,117657,1,8,0:0:0:0:
256,192,117835,1,0,0:0:0:0:
256,192,118192,1,0,0:0:0:0:
256,192,118549,1,8,0:0:0:0:
256,192,118907,1,8,0:0:0:0:
256,192,119442,1,0,0:0:0:0:
256,192,119621,1,0,0:0:0:0:
256,192,119978,1,8,0:0:0:0:
256,192,120335,1,8,0:0:0:0:
256,192,120692,1,0,0:0:0:0:
256,192,121049,1,8,0:0:0:0:
256,192,121407,1,0,0:0:0:0:
256,192,121585,1,0,0:0:0:0:
256,192,121764,1,0,0:0:0:0:
256,192,122121,1,8,0:0:0:0:
256,192,122478,1,0,0:0:0:0:
256,192,122657,1,0,0:0:0:0:
256,192,122835,1,8,0:0:0:0:
256,192,123192,1,8,0:0:0:0:
256,192,123549,1,0,0:0:0:0:
256,192,123728,1,8,0:0:0:0:
256,192,124085,1,0,0:0:0:0:
256,192,124264,1,8,0:0:0:0:
256,192,124621,1,8,0:0:0:0:
256,192,124978,1,8,0:0:0:0:
256,192,125157,1,8,0:0:0:0:
256,192,126407,1,4,0:0:0:0:
