osu file format v14

[General]
AudioFilename: audio.mp3
AudioLeadIn: 0
PreviewTime: 55414
Countdown: 0
SampleSet: Soft
StackLeniency: 0.7
Mode: 3
LetterboxInBreaks: 0
SpecialStyle: 0
WidescreenStoryboard: 0

[Editor]
DistanceSpacing: 2
BeatDivisor: 4
GridSize: 16
TimelineZoom: 2

[Metadata]
Title:citanLu
TitleUnicode:citanLu
Artist:Ice
ArtistUnicode:Ice
Creator:Awang411
Version:Special
Source:VOEZ
Tags:
BeatmapID:996056
BeatmapSetID:465275

[Difficulty]
HPDrainRate:9
CircleSize:4
OverallDifficulty:9
ApproachRate:5
SliderMultiplier:1.4
SliderTickRate:1

[Events]
//Background and Video events
0,0,"citanlu.jpg",0,0
//Break Periods
//Storyboard Layer 0 (Background)
//Storyboard Layer 1 (Fail)
//Storyboard Layer 2 (Pass)
//Storyboard Layer 3 (Foreground)
//Storyboard Sound Samples

[TimingPoints]
772,357.142857142857,3,2,0,30,1,0
21843,-66.6666666666667,3,2,0,30,0,0
22021,-200,3,2,0,30,0,0
22200,-100,3,2,0,30,0,0
56486,-100,3,2,0,30,0,1
73629,-100,3,2,0,30,0,0
82200,-100,3,2,0,30,0,1
90771,-100,3,2,0,30,0,0
107914,-100,3,2,0,30,0,1
125057,-100,3,2,0,30,0,0

[HitObjects]
64,192,772,5,0,0:0:0:0:
192,192,772,1,0,0:0:0:0:
320,192,772,1,0,0:0:0:0:
320,192,950,1,0,0:0:0:0:
192,192,950,1,0,0:0:0:0:
64,192,950,1,0,0:0:0:0:
64,192,1307,1,0,0:0:0:0:
192,192,1307,1,0,0:0:0:0:
320,192,1307,1,0,0:0:0:0:
320,192,1486,1,0,0:0:0:0:
192,192,1486,1,0,0:0:0:0:
64,192,1486,1,0,0:0:0:0:
64,192,1843,1,0,0:0:0:0:
192,192,1843,1,0,0:0:0:0:
320,192,1843,1,0,0:0:0:0:
320,192,2021,1,0,0:0:0:0:
192,192,2021,1,0,0:0:0:0:
64,192,2021,1,0,0:0:0:0:
448,192,2379,1,0,0:0:0:0:
192,192,2379,1,0,0:0:0:0:
320,192,2379,1,0,0:0:0:0:
320,192,2736,1,0,0:0:0:0:
192,192,2736,1,0,0:0:0:0:
64,192,2736,1,0,0:0:0:0:
64,192,2914,1,0,0:0:0:0:
192,192,2914,1,0,0:0:0:0:
448,192,2914,1,0,0:0:0:0:
448,192,3093,1,0,0:0:0:0:
192,192,3093,1,0,0:0:0:0:
64,192,3093,1,0,0:0:0:0:
64,192,3450,1,0,0:0:0:0:
192,192,3450,1,0,0:0:0:0:
448,192,3450,1,0,0:0:0:0:
448,192,3629,1,0,0:0:0:0:
192,192,3629,1,0,0:0:0:0:
64,192,3629,1,0,0:0:0:0:
64,192,3986,1,0,0:0:0:0:
192,192,3986,1,0,0:0:0:0:
448,192,3986,1,0,0:0:0:0:
448,192,4164,1,0,0:0:0:0:
192,192,4164,1,0,0:0:0:0:
64,192,4164,1,0,0:0:0:0:
320,192,4521,1,0,0:0:0:0:
448,192,4521,1,0,0:0:0:0:
64,192,4521,1,0,0:0:0:0:
64,192,4879,1,0,0:0:0:0:
192,192,4879,1,0,0:0:0:0:
448,192,4879,1,0,0:0:0:0:
448,192,5057,1,0,0:0:0:0:
320,192,5057,1,0,0:0:0:0:
64,192,5057,1,0,0:0:0:0:
64,192,5236,1,0,0:0:0:0:
320,192,5236,1,0,0:0:0:0:
448,192,5236,1,0,0:0:0:0:
448,192,5593,1,0,0:0:0:0:
320,192,5593,1,0,0:0:0:0:
64,192,5593,1,0,0:0:0:0:
64,192,5771,1,0,0:0:0:0:
320,192,5771,1,0,0:0:0:0:
448,192,5771,1,0,0:0:0:0:
448,192,6129,1,0,0:0:0:0:
320,192,6129,1,0,0:0:0:0:
64,192,6129,1,0,0:0:0:0:
64,192,6307,1,0,0:0:0:0:
320,192,6307,1,0,0:0:0:0:
448,192,6307,1,0,0:0:0:0:
448,192,6664,1,0,0:0:0:0:
192,192,6664,1,0,0:0:0:0:
64,192,6664,1,0,0:0:0:0:
64,192,7021,1,0,0:0:0:0:
320,192,7021,1,0,0:0:0:0:
448,192,7021,1,0,0:0:0:0:
192,192,7200,1,0,0:0:0:0:
320,192,7200,1,0,0:0:0:0:
448,192,7200,1,0,0:0:0:0:
192,192,7379,1,0,0:0:0:0:
320,192,7379,1,0,0:0:0:0:
448,192,7379,1,0,0:0:0:0:
192,192,7736,1,0,0:0:0:0:
320,192,7736,1,0,0:0:0:0:
448,192,7736,1,0,0:0:0:0:
192,192,7914,1,0,0:0:0:0:
320,192,7914,1,0,0:0:0:0:
448,192,7914,1,0,0:0:0:0:
448,192,8271,1,0,0:0:0:0:
192,192,8271,1,0,0:0:0:0:
64,192,8271,1,0,0:0:0:0:
192,192,8450,1,0,0:0:0:0:
448,192,8450,1,0,0:0:0:0:
64,192,8450,1,0,0:0:0:0:
64,192,8807,1,0,0:0:0:0:
448,192,8807,1,0,0:0:0:0:
320,192,8807,1,0,0:0:0:0:
320,192,9164,1,0,0:0:0:0:
448,192,9164,1,0,0:0:0:0:
64,192,9164,1,0,0:0:0:0:
64,192,9343,5,0,0:0:0:0:
192,192,9343,1,0,0:0:0:0:
448,192,9432,1,0,0:0:0:0:
192,192,9521,1,0,0:0:0:0:
320,192,9521,1,0,0:0:0:0:
448,192,9611,1,0,0:0:0:0:
64,192,9700,1,0,0:0:0:0:
320,192,9879,1,0,0:0:0:0:
448,192,9879,1,0,0:0:0:0:
64,192,9968,1,0,0:0:0:0:
192,192,10057,1,0,0:0:0:0:
320,192,10057,1,0,0:0:0:0:
64,192,10146,1,0,0:0:0:0:
448,192,10236,1,0,0:0:0:0:
320,192,10414,1,0,0:0:0:0:
64,192,10414,1,0,0:0:0:0:
192,192,10504,1,0,0:0:0:0:
448,192,10593,1,0,0:0:0:0:
320,192,10593,1,0,0:0:0:0:
64,192,10682,1,0,0:0:0:0:
192,192,10771,1,0,0:0:0:0:
320,192,10861,1,0,0:0:0:0:
64,192,10950,1,0,0:0:0:0:
448,192,10950,1,0,0:0:0:0:
192,192,11039,1,0,0:0:0:0:
320,192,11129,1,0,0:0:0:0:
448,192,11218,1,0,0:0:0:0:
64,192,11307,1,0,0:0:0:0:
192,192,11307,1,0,0:0:0:0:
320,192,11396,1,0,0:0:0:0:
448,192,11486,1,0,0:0:0:0:
64,192,11486,1,0,0:0:0:0:
192,192,11575,1,0,0:0:0:0:
320,192,11664,1,0,0:0:0:0:
448,192,11664,1,0,0:0:0:0:
192,192,11754,1,0,0:0:0:0:
64,192,11843,1,0,0:0:0:0:
448,192,12021,1,0,0:0:0:0:
320,192,12021,1,0,0:0:0:0:
192,192,12111,1,0,0:0:0:0:
64,192,12200,1,0,0:0:0:0:
448,192,12200,1,0,0:0:0:0:
192,192,12289,1,0,0:0:0:0:
320,192,12379,1,0,0:0:0:0:
448,192,12557,1,0,0:0:0:0:
64,192,12557,1,0,0:0:0:0:
192,192,12646,1,0,0:0:0:0:
320,192,12736,1,0,0:0:0:0:
448,192,12736,1,0,0:0:0:0:
192,192,12825,1,0,0:0:0:0:
64,192,12914,1,0,0:0:0:0:
448,192,13004,1,0,0:0:0:0:
320,192,13093,1,0,0:0:0:0:
192,192,13093,1,0,0:0:0:0:
64,192,13182,1,0,0:0:0:0:
448,192,13271,1,0,0:0:0:0:
320,192,13361,1,0,0:0:0:0:
192,192,13450,1,0,0:0:0:0:
64,192,13450,1,0,0:0:0:0:
320,192,13539,1,0,0:0:0:0:
64,192,13629,1,0,0:0:0:0:
448,192,13629,1,0,0:0:0:0:
192,192,13718,1,0,0:0:0:0:
448,192,13807,1,0,0:0:0:0:
320,192,13807,1,0,0:0:0:0:
64,192,13896,1,0,0:0:0:0:
192,192,13986,1,0,0:0:0:0:
64,192,14164,1,0,0:0:0:0:
448,192,14164,1,0,0:0:0:0:
320,192,14254,1,0,0:0:0:0:
192,192,14343,1,0,0:0:0:0:
64,192,14343,1,0,0:0:0:0:
320,192,14432,1,0,0:0:0:0:
448,192,14521,1,0,0:0:0:0:
192,192,14700,1,0,0:0:0:0:
320,192,14700,1,0,0:0:0:0:
64,192,14789,1,0,0:0:0:0:
448,192,14879,1,0,0:0:0:0:
320,192,14879,1,0,0:0:0:0:
64,192,14968,1,0,0:0:0:0:
192,192,15057,1,0,0:0:0:0:
320,192,15146,1,0,0:0:0:0:
448,192,15236,1,0,0:0:0:0:
64,192,15236,1,0,0:0:0:0:
192,192,15325,1,0,0:0:0:0:
320,192,15414,1,0,0:0:0:0:
192,192,15504,1,0,0:0:0:0:
448,192,15593,1,0,0:0:0:0:
64,192,15593,1,0,0:0:0:0:
320,192,15682,1,0,0:0:0:0:
192,192,15771,1,0,0:0:0:0:
64,192,15771,1,0,0:0:0:0:
320,192,15861,1,0,0:0:0:0:
448,192,15950,1,0,0:0:0:0:
64,192,15950,1,0,0:0:0:0:
192,192,16039,1,0,0:0:0:0:
320,192,16129,1,0,0:0:0:0:
64,192,16307,1,0,0:0:0:0:
192,192,16307,1,0,0:0:0:0:
448,192,16396,1,0,0:0:0:0:
320,192,16486,1,0,0:0:0:0:
192,192,16486,1,0,0:0:0:0:
448,192,16575,1,0,0:0:0:0:
64,192,16664,1,0,0:0:0:0:
448,192,16843,1,0,0:0:0:0:
320,192,16843,1,0,0:0:0:0:
64,192,16932,1,0,0:0:0:0:
192,192,17021,1,0,0:0:0:0:
320,192,17021,1,0,0:0:0:0:
64,192,17111,1,0,0:0:0:0:
448,192,17200,1,0,0:0:0:0:
320,192,17289,1,0,0:0:0:0:
64,192,17379,1,0,0:0:0:0:
192,192,17379,1,0,0:0:0:0:
320,192,17468,1,0,0:0:0:0:
448,192,17557,1,0,0:0:0:0:
320,192,17646,1,0,0:0:0:0:
64,192,17736,1,0,0:0:0:0:
192,192,17736,1,0,0:0:0:0:
320,192,17825,1,0,0:0:0:0:
448,192,17914,1,0,0:0:0:0:
192,192,17914,1,0,0:0:0:0:
64,192,18004,1,0,0:0:0:0:
192,192,18093,1,0,0:0:0:0:
320,192,18182,1,0,0:0:0:0:
448,192,18271,1,0,0:0:0:0:
320,192,18361,1,0,0:0:0:0:
192,192,18450,1,0,0:0:0:0:
64,192,18539,1,0,0:0:0:0:
320,192,18629,1,0,0:0:0:0:
192,192,18718,1,0,0:0:0:0:
448,192,18807,1,0,0:0:0:0:
320,192,18896,1,0,0:0:0:0:
192,192,18986,1,0,0:0:0:0:
64,192,19075,1,0,0:0:0:0:
448,192,19164,1,0,0:0:0:0:
320,192,19254,1,0,0:0:0:0:
192,192,19343,1,0,0:0:0:0:
64,192,19432,1,0,0:0:0:0:
320,192,19521,1,0,0:0:0:0:
192,192,19611,1,0,0:0:0:0:
448,192,19700,1,0,0:0:0:0:
320,192,19789,1,0,0:0:0:0:
192,192,19879,1,0,0:0:0:0:
64,192,19968,1,0,0:0:0:0:
320,192,20057,1,0,0:0:0:0:
64,192,21843,1,0,0:0:0:0:
192,192,21843,1,0,0:0:0:0:
448,192,21843,1,0,0:0:0:0:
320,192,21843,1,0,0:0:0:0:
448,192,22200,1,0,0:0:0:0:
320,192,22200,1,0,0:0:0:0:
64,192,22200,1,0,0:0:0:0:
192,192,22557,1,0,0:0:0:0:
320,192,22557,1,0,0:0:0:0:
64,192,22736,1,0,0:0:0:0:
320,192,22914,1,0,0:0:0:0:
448,192,22914,1,0,0:0:0:0:
192,192,23093,1,0,0:0:0:0:
64,192,23271,1,0,0:0:0:0:
448,192,23271,1,0,0:0:0:0:
192,192,23629,1,0,0:0:0:0:
448,192,23629,1,0,0:0:0:0:
448,192,23986,1,0,0:0:0:0:
320,192,23986,1,0,0:0:0:0:
192,192,24164,1,0,0:0:0:0:
320,192,24254,1,0,0:0:0:0:
448,192,24343,1,0,0:0:0:0:
64,192,24343,1,0,0:0:0:0:
64,192,24700,1,0,0:0:0:0:
320,192,24700,1,0,0:0:0:0:
192,192,24879,1,0,0:0:0:0:
320,192,25057,1,0,0:0:0:0:
448,192,25057,1,0,0:0:0:0:
64,192,25236,1,0,0:0:0:0:
192,192,25414,1,0,0:0:0:0:
320,192,25414,1,0,0:0:0:0:
64,192,25771,1,0,0:0:0:0:
192,192,25771,1,0,0:0:0:0:
192,192,26129,1,0,0:0:0:0:
320,192,26129,1,0,0:0:0:0:
64,192,26307,1,0,0:0:0:0:
192,192,26396,1,0,0:0:0:0:
448,192,26486,1,0,0:0:0:0:
320,192,26486,1,0,0:0:0:0:
320,192,26843,1,0,0:0:0:0:
192,192,26843,1,0,0:0:0:0:
64,192,27021,1,0,0:0:0:0:
320,192,27200,1,0,0:0:0:0:
448,192,27200,1,0,0:0:0:0:
192,192,27379,1,0,0:0:0:0:
64,192,27557,1,0,0:0:0:0:
448,192,27557,1,0,0:0:0:0:
64,192,27914,1,0,0:0:0:0:
320,192,27914,1,0,0:0:0:0:
64,192,28271,1,0,0:0:0:0:
192,192,28271,1,0,0:0:0:0:
320,192,28450,1,0,0:0:0:0:
192,192,28539,1,0,0:0:0:0:
448,192,28629,1,0,0:0:0:0:
64,192,28629,1,0,0:0:0:0:
320,192,28629,1,0,0:0:0:0:
192,192,28718,1,0,0:0:0:0:
320,192,28807,1,0,0:0:0:0:
192,192,28896,1,0,0:0:0:0:
64,192,28986,1,0,0:0:0:0:
192,192,29164,1,0,0:0:0:0:
320,192,29164,1,0,0:0:0:0:
448,192,29164,1,0,0:0:0:0:
64,192,29254,1,0,0:0:0:0:
192,192,29343,1,0,0:0:0:0:
320,192,29432,1,0,0:0:0:0:
448,192,29521,1,0,0:0:0:0:
64,192,29700,1,0,0:0:0:0:
192,192,29700,1,0,0:0:0:0:
320,192,29700,1,0,0:0:0:0:
448,192,29789,1,0,0:0:0:0:
320,192,29879,1,0,0:0:0:0:
192,192,29968,1,0,0:0:0:0:
64,192,30057,1,0,0:0:0:0:
320,192,30146,1,0,0:0:0:0:
448,192,30236,1,0,0:0:0:0:
192,192,30236,1,0,0:0:0:0:
64,192,30236,1,0,0:0:0:0:
320,192,30325,1,0,0:0:0:0:
192,192,30414,1,0,0:0:0:0:
64,192,30504,1,0,0:0:0:0:
448,192,30593,1,0,0:0:0:0:
320,192,30638,1,0,0:0:0:0:
192,192,30682,1,0,0:0:0:0:
64,192,30727,1,0,0:0:0:0:
448,192,30771,1,0,0:0:0:0:
320,192,30771,1,0,0:0:0:0:
192,192,31129,1,0,0:0:0:0:
320,192,31129,1,0,0:0:0:0:
448,192,31307,1,0,0:0:0:0:
64,192,31486,1,0,0:0:0:0:
192,192,31486,1,0,0:0:0:0:
448,192,31664,1,0,0:0:0:0:
64,192,31843,1,0,0:0:0:0:
320,192,31843,1,0,0:0:0:0:
192,192,32021,1,0,0:0:0:0:
320,192,32200,1,0,0:0:0:0:
448,192,32200,1,0,0:0:0:0:
64,192,32379,1,0,0:0:0:0:
192,192,32557,1,0,0:0:0:0:
448,192,32557,1,0,0:0:0:0:
320,192,32736,1,0,0:0:0:0:
192,192,32825,1,0,0:0:0:0:
64,192,32914,1,0,0:0:0:0:
448,192,32914,1,0,0:0:0:0:
320,192,33271,1,0,0:0:0:0:
192,192,33271,1,0,0:0:0:0:
64,192,33450,1,0,0:0:0:0:
192,192,33629,1,0,0:0:0:0:
448,192,33629,1,0,0:0:0:0:
320,192,33807,1,0,0:0:0:0:
448,192,33986,1,0,0:0:0:0:
64,192,33986,1,0,0:0:0:0:
64,192,34343,1,0,0:0:0:0:
192,192,34343,1,0,0:0:0:0:
448,192,34700,1,0,0:0:0:0:
320,192,34700,1,0,0:0:0:0:
192,192,34879,1,0,0:0:0:0:
320,192,34968,1,0,0:0:0:0:
448,192,35057,1,0,0:0:0:0:
64,192,35057,1,0,0:0:0:0:
192,192,35414,1,0,0:0:0:0:
64,192,35414,1,0,0:0:0:0:
320,192,35593,1,0,0:0:0:0:
448,192,35771,1,0,0:0:0:0:
192,192,35771,1,0,0:0:0:0:
320,192,35950,1,0,0:0:0:0:
64,192,36129,1,0,0:0:0:0:
448,192,36129,1,0,0:0:0:0:
192,192,36486,1,0,0:0:0:0:
320,192,36486,1,0,0:0:0:0:
448,192,36843,1,0,0:0:0:0:
320,192,36843,1,0,0:0:0:0:
64,192,37021,1,0,0:0:0:0:
192,192,37111,1,0,0:0:0:0:
320,192,37200,1,0,0:0:0:0:
448,192,37200,1,0,0:0:0:0:
192,192,37557,1,0,0:0:0:0:
320,192,37557,1,0,0:0:0:0:
64,192,37736,1,0,0:0:0:0:
320,192,37914,1,0,0:0:0:0:
448,192,37914,1,0,0:0:0:0:
192,192,38093,1,0,0:0:0:0:
64,192,38271,1,0,0:0:0:0:
448,192,38271,1,0,0:0:0:0:
192,192,38629,1,0,0:0:0:0:
320,192,38629,1,0,0:0:0:0:
448,192,38986,1,0,0:0:0:0:
64,192,38986,1,0,0:0:0:0:
192,192,39075,1,0,0:0:0:0:
320,192,39164,1,0,0:0:0:0:
448,192,39254,1,0,0:0:0:0:
64,192,39343,1,0,0:0:0:0:
192,192,39343,128,0,39879:0:0:0:0:
320,192,39700,1,0,0:0:0:0:
448,192,39700,1,0,0:0:0:0:
64,192,39879,128,0,40057:0:0:0:0:
192,192,40057,128,0,40236:0:0:0:0:
448,192,40057,1,0,0:0:0:0:
320,192,40236,1,0,0:0:0:0:
320,192,40414,128,0,41129:0:0:0:0:
64,192,40414,1,0,0:0:0:0:
64,192,40771,1,0,0:0:0:0:
192,192,40771,1,0,0:0:0:0:
448,192,41129,128,0,41486:0:0:0:0:
192,192,41129,1,0,0:0:0:0:
320,192,41486,128,0,42200:0:0:0:0:
64,192,41486,1,0,0:0:0:0:
64,192,41843,1,0,0:0:0:0:
448,192,41843,1,0,0:0:0:0:
192,192,42200,128,0,42557:0:0:0:0:
448,192,42200,1,0,0:0:0:0:
64,192,42557,128,0,43093:0:0:0:0:
320,192,42557,1,0,0:0:0:0:
320,192,42914,1,0,0:0:0:0:
448,192,42914,1,0,0:0:0:0:
192,192,43093,128,0,43271:0:0:0:0:
320,192,43271,128,0,43450:0:0:0:0:
448,192,43271,1,0,0:0:0:0:
64,192,43450,128,0,43629:0:0:0:0:
448,192,43629,128,0,44164:0:0:0:0:
192,192,43629,1,0,0:0:0:0:
192,192,43986,1,0,0:0:0:0:
320,192,43986,1,0,0:0:0:0:
64,192,44164,128,0,44343:0:0:0:0:
192,192,44343,128,0,44521:0:0:0:0:
448,192,44343,1,0,0:0:0:0:
320,192,44521,1,0,0:0:0:0:
320,192,44700,128,0,45057:0:0:0:0:
64,192,44700,1,0,0:0:0:0:
64,192,45057,128,0,45414:0:0:0:0:
192,192,45057,1,0,0:0:0:0:
448,192,45414,128,0,45771:0:0:0:0:
320,192,45414,1,0,0:0:0:0:
320,192,45771,128,0,46307:0:0:0:0:
192,192,45771,1,0,0:0:0:0:
64,192,46129,1,0,0:0:0:0:
448,192,46129,1,0,0:0:0:0:
192,192,46307,128,0,46486:0:0:0:0:
64,192,46486,128,0,46664:0:0:0:0:
448,192,46486,1,0,0:0:0:0:
192,192,46664,128,0,46843:0:0:0:0:
320,192,46843,128,0,47379:0:0:0:0:
448,192,46843,1,0,0:0:0:0:
64,192,47200,1,0,0:0:0:0:
192,192,47200,1,0,0:0:0:0:
64,192,47557,128,0,47914:0:0:0:0:
448,192,47557,1,0,0:0:0:0:
320,192,47646,1,0,0:0:0:0:
448,192,47736,1,0,0:0:0:0:
320,192,47825,1,0,0:0:0:0:
448,192,47914,128,0,48271:0:0:0:0:
192,192,47914,1,0,0:0:0:0:
320,192,48271,128,0,48450:0:0:0:0:
64,192,48271,1,0,0:0:0:0:
192,192,48629,1,0,0:0:0:0:
448,192,48629,1,0,0:0:0:0:
64,192,48807,128,0,48986:0:0:0:0:
192,192,48986,128,0,49343:0:0:0:0:
320,192,48986,1,0,0:0:0:0:
448,192,49343,128,0,49700:0:0:0:0:
320,192,49343,1,0,0:0:0:0:
320,192,49700,128,0,50057:0:0:0:0:
192,192,49700,1,0,0:0:0:0:
192,192,50057,128,0,50414:0:0:0:0:
64,192,50057,1,0,0:0:0:0:
64,192,50414,128,0,50593:0:0:0:0:
448,192,50414,1,0,0:0:0:0:
192,192,50771,1,0,0:0:0:0:
320,192,50771,1,0,0:0:0:0:
64,192,50950,128,0,51129:0:0:0:0:
192,192,51129,128,0,51486:0:0:0:0:
448,192,51129,1,0,0:0:0:0:
448,192,51486,128,0,51843:0:0:0:0:
320,192,51486,1,0,0:0:0:0:
320,192,51843,128,0,52021:0:0:0:0:
64,192,51843,1,0,0:0:0:0:
320,192,52200,128,0,52914:0:0:0:0:
192,192,52200,1,0,0:0:0:0:
64,192,52557,1,0,0:0:0:0:
448,192,52557,1,0,0:0:0:0:
192,192,52914,128,0,53271:0:0:0:0:
448,192,52914,1,0,0:0:0:0:
64,192,53271,128,0,53807:0:0:0:0:
320,192,53271,1,0,0:0:0:0:
448,192,53629,1,0,0:0:0:0:
320,192,53629,1,0,0:0:0:0:
192,192,53807,128,0,53986:0:0:0:0:
448,192,53986,128,0,54164:0:0:0:0:
64,192,53986,1,0,0:0:0:0:
320,192,54164,1,0,0:0:0:0:
320,192,54343,128,0,55057:0:0:0:0:
192,192,54343,1,0,0:0:0:0:
64,192,54700,1,0,0:0:0:0:
192,192,54700,1,0,0:0:0:0:
192,192,55057,128,0,55236:0:0:0:0:
448,192,55057,1,0,0:0:0:0:
64,192,55236,128,0,55414:0:0:0:0:
192,192,55414,1,0,0:0:0:0:
448,192,55414,1,0,0:0:0:0:
64,192,55593,1,0,0:0:0:0:
192,192,55682,1,0,0:0:0:0:
320,192,55771,1,0,0:0:0:0:
448,192,55771,1,0,0:0:0:0:
64,192,55861,1,0,0:0:0:0:
192,192,55950,1,0,0:0:0:0:
448,192,56039,1,0,0:0:0:0:
64,192,56129,1,0,0:0:0:0:
192,192,56129,1,0,0:0:0:0:
320,192,56218,1,0,0:0:0:0:
448,192,56307,1,0,0:0:0:0:
64,192,56396,1,0,0:0:0:0:
192,192,56486,1,0,0:0:0:0:
320,192,56486,1,0,0:0:0:0:
448,192,56486,128,0,57557:0:0:0:0:
192,192,56664,1,0,0:0:0:0:
320,192,56664,1,0,0:0:0:0:
192,192,57021,1,0,0:0:0:0:
320,192,57021,1,0,0:0:0:0:
320,192,57200,1,0,0:0:0:0:
192,192,57200,1,0,0:0:0:0:
64,192,57557,128,0,57914:0:0:0:0:
192,192,57557,1,0,0:0:0:0:
320,192,57736,1,0,0:0:0:0:
448,192,57736,1,0,0:0:0:0:
192,192,57914,128,0,58271:0:0:0:0:
448,192,58093,1,0,0:0:0:0:
64,192,58093,1,0,0:0:0:0:
320,192,58271,128,0,58450:0:0:0:0:
448,192,58450,128,0,58629:0:0:0:0:
64,192,58450,1,0,0:0:0:0:
192,192,58629,128,0,59343:0:0:0:0:
320,192,58629,1,0,0:0:0:0:
320,192,58807,1,0,0:0:0:0:
64,192,58807,1,0,0:0:0:0:
448,192,59164,1,0,0:0:0:0:
320,192,59164,1,0,0:0:0:0:
320,192,59343,128,0,59700:0:0:0:0:
448,192,59343,1,0,0:0:0:0:
64,192,59700,128,0,60593:0:0:0:0:
192,192,59700,1,0,0:0:0:0:
192,192,59879,1,0,0:0:0:0:
320,192,59879,1,0,0:0:0:0:
192,192,60236,1,0,0:0:0:0:
320,192,60236,1,0,0:0:0:0:
192,192,60593,1,0,0:0:0:0:
320,192,60593,1,0,0:0:0:0:
192,192,60771,128,0,61843:0:0:0:0:
64,192,60771,1,0,0:0:0:0:
448,192,60950,1,0,0:0:0:0:
64,192,60950,1,0,0:0:0:0:
320,192,61307,1,0,0:0:0:0:
448,192,61307,1,0,0:0:0:0:
448,192,61486,1,0,0:0:0:0:
320,192,61486,1,0,0:0:0:0:
64,192,61843,128,0,62200:0:0:0:0:
320,192,61843,1,0,0:0:0:0:
320,192,62021,1,0,0:0:0:0:
448,192,62021,1,0,0:0:0:0:
192,192,62200,128,0,62557:0:0:0:0:
448,192,62379,1,0,0:0:0:0:
64,192,62379,1,0,0:0:0:0:
320,192,62557,128,0,62736:0:0:0:0:
64,192,62736,1,0,0:0:0:0:
448,192,62736,1,0,0:0:0:0:
320,192,62914,128,0,63629:0:0:0:0:
192,192,62914,1,0,0:0:0:0:
192,192,63093,1,0,0:0:0:0:
64,192,63093,1,0,0:0:0:0:
192,192,63450,1,0,0:0:0:0:
64,192,63450,1,0,0:0:0:0:
448,192,63629,128,0,63986:0:0:0:0:
64,192,63629,1,0,0:0:0:0:
192,192,63986,128,0,64700:0:0:0:0:
320,192,63986,1,0,0:0:0:0:
64,192,64164,1,0,0:0:0:0:
320,192,64164,1,0,0:0:0:0:
448,192,64521,1,0,0:0:0:0:
320,192,64521,1,0,0:0:0:0:
64,192,64700,128,0,64879:0:0:0:0:
192,192,64879,128,0,65057:0:0:0:0:
448,192,64879,1,0,0:0:0:0:
448,192,65057,1,0,0:0:0:0:
320,192,65057,1,0,0:0:0:0:
64,192,65146,1,0,0:0:0:0:
192,192,65236,1,0,0:0:0:0:
320,192,65236,1,0,0:0:0:0:
448,192,65325,1,0,0:0:0:0:
64,192,65414,1,0,0:0:0:0:
192,192,65593,1,0,0:0:0:0:
320,192,65593,1,0,0:0:0:0:
448,192,65682,1,0,0:0:0:0:
64,192,65771,1,0,0:0:0:0:
192,192,65771,1,0,0:0:0:0:
320,192,65861,1,0,0:0:0:0:
448,192,65950,1,0,0:0:0:0:
64,192,66129,1,0,0:0:0:0:
192,192,66129,1,0,0:0:0:0:
320,192,66218,1,0,0:0:0:0:
448,192,66307,1,0,0:0:0:0:
64,192,66307,1,0,0:0:0:0:
192,192,66396,1,0,0:0:0:0:
320,192,66486,1,0,0:0:0:0:
192,192,66575,1,0,0:0:0:0:
64,192,66664,1,0,0:0:0:0:
448,192,66664,1,0,0:0:0:0:
320,192,66754,1,0,0:0:0:0:
192,192,66843,1,0,0:0:0:0:
64,192,66932,1,0,0:0:0:0:
320,192,67021,1,0,0:0:0:0:
192,192,67021,1,0,0:0:0:0:
64,192,67111,1,0,0:0:0:0:
448,192,67200,1,0,0:0:0:0:
320,192,67200,1,0,0:0:0:0:
192,192,67289,1,0,0:0:0:0:
64,192,67379,1,0,0:0:0:0:
448,192,67379,1,0,0:0:0:0:
320,192,67468,1,0,0:0:0:0:
192,192,67557,1,0,0:0:0:0:
64,192,67736,1,0,0:0:0:0:
448,192,67736,1,0,0:0:0:0:
192,192,67825,1,0,0:0:0:0:
320,192,67914,1,0,0:0:0:0:
448,192,67914,1,0,0:0:0:0:
64,192,68004,1,0,0:0:0:0:
192,192,68093,1,0,0:0:0:0:
448,192,68271,1,0,0:0:0:0:
320,192,68271,1,0,0:0:0:0:
64,192,68361,1,0,0:0:0:0:
192,192,68450,1,0,0:0:0:0:
320,192,68450,1,0,0:0:0:0:
448,192,68539,1,0,0:0:0:0:
64,192,68629,1,0,0:0:0:0:
192,192,68718,1,0,0:0:0:0:
448,192,68807,1,0,0:0:0:0:
320,192,68807,1,0,0:0:0:0:
192,192,68896,1,0,0:0:0:0:
64,192,68986,1,0,0:0:0:0:
448,192,69075,1,0,0:0:0:0:
320,192,69164,1,0,0:0:0:0:
192,192,69164,1,0,0:0:0:0:
64,192,69254,1,0,0:0:0:0:
192,192,69343,1,0,0:0:0:0:
320,192,69343,1,0,0:0:0:0:
448,192,69432,1,0,0:0:0:0:
64,192,69521,1,0,0:0:0:0:
192,192,69521,1,0,0:0:0:0:
320,192,69611,1,0,0:0:0:0:
448,192,69700,1,0,0:0:0:0:
64,192,69879,1,0,0:0:0:0:
192,192,69879,1,0,0:0:0:0:
320,192,69968,1,0,0:0:0:0:
448,192,70057,1,0,0:0:0:0:
64,192,70057,1,0,0:0:0:0:
192,192,70146,1,0,0:0:0:0:
320,192,70236,1,0,0:0:0:0:
448,192,70414,1,0,0:0:0:0:
64,192,70414,1,0,0:0:0:0:
192,192,70504,1,0,0:0:0:0:
320,192,70593,1,0,0:0:0:0:
448,192,70593,1,0,0:0:0:0:
192,192,70682,1,0,0:0:0:0:
64,192,70771,1,0,0:0:0:0:
448,192,70861,1,0,0:0:0:0:
320,192,70950,1,0,0:0:0:0:
192,192,70950,1,0,0:0:0:0:
64,192,71039,1,0,0:0:0:0:
448,192,71129,1,0,0:0:0:0:
320,192,71218,1,0,0:0:0:0:
64,192,71307,1,0,0:0:0:0:
192,192,71307,1,0,0:0:0:0:
320,192,71396,1,0,0:0:0:0:
448,192,71486,1,0,0:0:0:0:
64,192,71486,1,0,0:0:0:0:
192,192,71575,1,0,0:0:0:0:
320,192,71664,1,0,0:0:0:0:
448,192,71664,1,0,0:0:0:0:
192,192,71754,1,0,0:0:0:0:
64,192,71843,1,0,0:0:0:0:
448,192,71932,1,0,0:0:0:0:
320,192,72021,1,0,0:0:0:0:
192,192,72021,1,0,0:0:0:0:
64,192,72111,1,0,0:0:0:0:
448,192,72200,1,0,0:0:0:0:
320,192,72200,1,0,0:0:0:0:
192,192,72289,1,0,0:0:0:0:
64,192,72379,1,0,0:0:0:0:
448,192,72468,1,0,0:0:0:0:
192,192,72557,1,0,0:0:0:0:
64,192,72557,1,0,0:0:0:0:
320,192,72646,1,0,0:0:0:0:
192,192,72736,1,0,0:0:0:0:
320,192,72795,1,0,0:0:0:0:
192,192,72855,1,0,0:0:0:0:
320,192,72914,1,0,0:0:0:0:
192,192,72974,1,0,0:0:0:0:
320,192,73033,1,0,0:0:0:0:
192,192,73093,1,0,0:0:0:0:
320,192,73182,1,0,0:0:0:0:
448,192,73271,1,0,0:0:0:0:
320,192,73331,1,0,0:0:0:0:
192,192,73391,1,0,0:0:0:0:
64,192,73450,1,0,0:0:0:0:
192,192,73510,1,0,0:0:0:0:
320,192,73569,1,0,0:0:0:0:
448,192,73629,1,0,0:0:0:0:
64,192,73629,1,0,0:0:0:0:
320,192,73718,1,0,0:0:0:0:
192,192,73807,1,0,0:0:0:0:
448,192,73896,1,0,0:0:0:0:
320,192,73986,1,0,0:0:0:0:
64,192,74075,1,0,0:0:0:0:
448,192,74164,1,0,0:0:0:0:
192,192,74254,1,0,0:0:0:0:
64,192,74343,1,0,0:0:0:0:
320,192,74432,1,0,0:0:0:0:
192,192,74521,1,0,0:0:0:0:
64,192,74611,1,0,0:0:0:0:
448,192,74700,1,0,0:0:0:0:
320,192,74789,1,0,0:0:0:0:
192,192,74879,1,0,0:0:0:0:
448,192,74968,1,0,0:0:0:0:
320,192,75057,1,0,0:0:0:0:
64,192,75146,1,0,0:0:0:0:
448,192,75236,1,0,0:0:0:0:
192,192,75325,1,0,0:0:0:0:
64,192,75414,1,0,0:0:0:0:
320,192,75504,1,0,0:0:0:0:
192,192,75593,1,0,0:0:0:0:
64,192,75682,1,0,0:0:0:0:
448,192,75771,1,0,0:0:0:0:
192,192,75861,1,0,0:0:0:0:
320,192,75950,1,0,0:0:0:0:
64,192,76039,1,0,0:0:0:0:
320,192,76129,1,0,0:0:0:0:
192,192,76218,1,0,0:0:0:0:
448,192,76307,1,0,0:0:0:0:
192,192,76396,1,0,0:0:0:0:
320,192,76486,1,0,0:0:0:0:
64,192,76575,1,0,0:0:0:0:
320,192,76664,1,0,0:0:0:0:
192,192,76754,1,0,0:0:0:0:
448,192,76843,1,0,0:0:0:0:
64,192,76932,1,0,0:0:0:0:
320,192,77021,1,0,0:0:0:0:
64,192,77111,1,0,0:0:0:0:
448,192,77200,1,0,0:0:0:0:
192,192,77289,1,0,0:0:0:0:
448,192,77379,1,0,0:0:0:0:
64,192,77468,1,0,0:0:0:0:
320,192,77557,1,0,0:0:0:0:
64,192,77646,1,0,0:0:0:0:
448,192,77736,1,0,0:0:0:0:
192,192,77825,1,0,0:0:0:0:
448,192,77914,1,0,0:0:0:0:
320,192,78004,1,0,0:0:0:0:
192,192,78093,1,0,0:0:0:0:
448,192,78182,1,0,0:0:0:0:
320,192,78271,1,0,0:0:0:0:
64,192,78361,1,0,0:0:0:0:
448,192,78450,1,0,0:0:0:0:
320,192,78539,1,0,0:0:0:0:
192,192,78629,1,0,0:0:0:0:
64,192,78718,1,0,0:0:0:0:
192,192,78807,1,0,0:0:0:0:
320,192,78896,1,0,0:0:0:0:
448,192,78986,1,0,0:0:0:0:
320,192,79075,1,0,0:0:0:0:
64,192,79164,1,0,0:0:0:0:
448,192,79254,1,0,0:0:0:0:
320,192,79343,1,0,0:0:0:0:
192,192,79432,1,0,0:0:0:0:
448,192,79521,1,0,0:0:0:0:
64,192,79611,1,0,0:0:0:0:
320,192,79700,1,0,0:0:0:0:
192,192,79789,1,0,0:0:0:0:
320,192,79879,1,0,0:0:0:0:
64,192,79968,1,0,0:0:0:0:
448,192,80057,1,0,0:0:0:0:
320,192,80146,1,0,0:0:0:0:
64,192,80236,1,0,0:0:0:0:
448,192,80325,1,0,0:0:0:0:
192,192,80414,1,0,0:0:0:0:
64,192,80504,1,0,0:0:0:0:
320,192,80593,1,0,0:0:0:0:
192,192,80682,1,0,0:0:0:0:
64,192,80771,1,0,0:0:0:0:
448,192,80861,1,0,0:0:0:0:
320,192,80950,1,0,0:0:0:0:
192,192,81039,1,0,0:0:0:0:
64,192,81129,128,0,81486:0:0:0:0:
192,192,81218,1,0,0:0:0:0:
320,192,81307,1,0,0:0:0:0:
448,192,81396,1,0,0:0:0:0:
192,192,81486,128,0,81843:0:0:0:0:
320,192,81575,1,0,0:0:0:0:
448,192,81664,1,0,0:0:0:0:
64,192,81754,1,0,0:0:0:0:
320,192,81843,128,0,82200:0:0:0:0:
448,192,81932,1,0,0:0:0:0:
64,192,82021,1,0,0:0:0:0:
192,192,82111,1,0,0:0:0:0:
448,192,82200,1,0,0:0:0:0:
64,192,82200,1,0,0:0:0:0:
192,192,82289,1,0,0:0:0:0:
320,192,82379,1,0,0:0:0:0:
448,192,82379,1,0,0:0:0:0:
64,192,82468,1,0,0:0:0:0:
192,192,82557,1,0,0:0:0:0:
320,192,82646,1,0,0:0:0:0:
448,192,82736,1,0,0:0:0:0:
64,192,82825,1,0,0:0:0:0:
192,192,82825,1,0,0:0:0:0:
320,192,82914,1,0,0:0:0:0:
64,192,83004,1,0,0:0:0:0:
192,192,83004,1,0,0:0:0:0:
448,192,83093,1,0,0:0:0:0:
320,192,83182,1,0,0:0:0:0:
192,192,83271,1,0,0:0:0:0:
320,192,83361,1,0,0:0:0:0:
448,192,83361,1,0,0:0:0:0:
64,192,83450,1,0,0:0:0:0:
320,192,83539,1,0,0:0:0:0:
448,192,83539,1,0,0:0:0:0:
192,192,83629,1,0,0:0:0:0:
320,192,83718,1,0,0:0:0:0:
448,192,83807,1,0,0:0:0:0:
64,192,83807,1,0,0:0:0:0:
192,192,83896,1,0,0:0:0:0:
320,192,83986,1,0,0:0:0:0:
448,192,84075,1,0,0:0:0:0:
64,192,84164,1,0,0:0:0:0:
192,192,84164,1,0,0:0:0:0:
320,192,84254,1,0,0:0:0:0:
448,192,84343,1,0,0:0:0:0:
64,192,84343,1,0,0:0:0:0:
192,192,84432,1,0,0:0:0:0:
64,192,84521,1,0,0:0:0:0:
448,192,84521,1,0,0:0:0:0:
320,192,84611,1,0,0:0:0:0:
192,192,84700,1,0,0:0:0:0:
320,192,84789,1,0,0:0:0:0:
448,192,84879,1,0,0:0:0:0:
64,192,84879,1,0,0:0:0:0:
192,192,84968,1,0,0:0:0:0:
64,192,85057,1,0,0:0:0:0:
448,192,85057,1,0,0:0:0:0:
192,192,85146,1,0,0:0:0:0:
320,192,85236,1,0,0:0:0:0:
192,192,85325,1,0,0:0:0:0:
64,192,85414,1,0,0:0:0:0:
448,192,85414,1,0,0:0:0:0:
320,192,85504,1,0,0:0:0:0:
448,192,85593,1,0,0:0:0:0:
64,192,85593,1,0,0:0:0:0:
320,192,85682,1,0,0:0:0:0:
192,192,85771,1,0,0:0:0:0:
320,192,85861,1,0,0:0:0:0:
448,192,85950,1,0,0:0:0:0:
64,192,85950,1,0,0:0:0:0:
192,192,86039,1,0,0:0:0:0:
320,192,86129,1,0,0:0:0:0:
448,192,86218,1,0,0:0:0:0:
192,192,86307,1,0,0:0:0:0:
320,192,86307,1,0,0:0:0:0:
64,192,86396,1,0,0:0:0:0:
448,192,86486,1,0,0:0:0:0:
320,192,86486,1,0,0:0:0:0:
192,192,86575,1,0,0:0:0:0:
448,192,86664,1,0,0:0:0:0:
320,192,86664,1,0,0:0:0:0:
192,192,86754,1,0,0:0:0:0:
64,192,86843,1,0,0:0:0:0:
448,192,86932,1,0,0:0:0:0:
64,192,87021,1,0,0:0:0:0:
192,192,87021,1,0,0:0:0:0:
320,192,87111,1,0,0:0:0:0:
64,192,87200,1,0,0:0:0:0:
192,192,87200,1,0,0:0:0:0:
320,192,87289,1,0,0:0:0:0:
448,192,87379,1,0,0:0:0:0:
64,192,87468,1,0,0:0:0:0:
448,192,87557,1,0,0:0:0:0:
320,192,87557,1,0,0:0:0:0:
192,192,87646,1,0,0:0:0:0:
448,192,87736,1,0,0:0:0:0:
320,192,87736,1,0,0:0:0:0:
192,192,87825,1,0,0:0:0:0:
64,192,87914,1,0,0:0:0:0:
448,192,88004,1,0,0:0:0:0:
64,192,88093,1,0,0:0:0:0:
192,192,88093,1,0,0:0:0:0:
320,192,88182,1,0,0:0:0:0:
448,192,88271,1,0,0:0:0:0:
64,192,88361,1,0,0:0:0:0:
192,192,88450,1,0,0:0:0:0:
448,192,88450,1,0,0:0:0:0:
320,192,88539,1,0,0:0:0:0:
448,192,88629,1,0,0:0:0:0:
64,192,88629,1,0,0:0:0:0:
192,192,88718,1,0,0:0:0:0:
64,192,88807,1,0,0:0:0:0:
448,192,88807,1,0,0:0:0:0:
192,192,88896,1,0,0:0:0:0:
320,192,88986,1,0,0:0:0:0:
192,192,89075,1,0,0:0:0:0:
64,192,89164,1,0,0:0:0:0:
448,192,89164,1,0,0:0:0:0:
320,192,89254,1,0,0:0:0:0:
448,192,89343,1,0,0:0:0:0:
64,192,89343,1,0,0:0:0:0:
320,192,89432,1,0,0:0:0:0:
192,192,89521,1,0,0:0:0:0:
320,192,89611,1,0,0:0:0:0:
448,192,89700,1,0,0:0:0:0:
64,192,89700,1,0,0:0:0:0:
192,192,89789,1,0,0:0:0:0:
64,192,89879,1,0,0:0:0:0:
448,192,89879,1,0,0:0:0:0:
192,192,89968,1,0,0:0:0:0:
320,192,90057,1,0,0:0:0:0:
192,192,90146,1,0,0:0:0:0:
320,192,90236,1,0,0:0:0:0:
448,192,90236,1,0,0:0:0:0:
64,192,90325,1,0,0:0:0:0:
448,192,90414,1,0,0:0:0:0:
64,192,90474,1,0,0:0:0:0:
448,192,90533,1,0,0:0:0:0:
64,192,90593,1,0,0:0:0:0:
448,192,90652,1,0,0:0:0:0:
64,192,90712,1,0,0:0:0:0:
448,192,90771,1,0,0:0:0:0:
320,192,90771,1,0,0:0:0:0:
192,192,90950,1,0,0:0:0:0:
320,192,91039,1,0,0:0:0:0:
448,192,91129,1,0,0:0:0:0:
64,192,91129,1,0,0:0:0:0:
192,192,91218,1,0,0:0:0:0:
320,192,91307,1,0,0:0:0:0:
192,192,91396,1,0,0:0:0:0:
64,192,91486,1,0,0:0:0:0:
448,192,91486,1,0,0:0:0:0:
320,192,91664,1,0,0:0:0:0:
64,192,91843,1,0,0:0:0:0:
192,192,91843,1,0,0:0:0:0:
320,192,92021,1,0,0:0:0:0:
448,192,92200,1,0,0:0:0:0:
192,192,92200,1,0,0:0:0:0:
64,192,92379,1,0,0:0:0:0:
320,192,92557,1,0,0:0:0:0:
448,192,92557,1,0,0:0:0:0:
192,192,92736,1,0,0:0:0:0:
64,192,92914,1,0,0:0:0:0:
320,192,92914,1,0,0:0:0:0:
448,192,93093,1,0,0:0:0:0:
320,192,93182,1,0,0:0:0:0:
64,192,93271,1,0,0:0:0:0:
192,192,93271,1,0,0:0:0:0:
320,192,93361,1,0,0:0:0:0:
448,192,93450,1,0,0:0:0:0:
64,192,93539,1,0,0:0:0:0:
192,192,93629,1,0,0:0:0:0:
320,192,93629,1,0,0:0:0:0:
448,192,93807,1,0,0:0:0:0:
64,192,93986,1,0,0:0:0:0:
192,192,93986,1,0,0:0:0:0:
320,192,94164,1,0,0:0:0:0:
448,192,94343,1,0,0:0:0:0:
64,192,94343,1,0,0:0:0:0:
192,192,94521,1,0,0:0:0:0:
320,192,94700,1,0,0:0:0:0:
64,192,94700,1,0,0:0:0:0:
448,192,94879,1,0,0:0:0:0:
192,192,95057,1,0,0:0:0:0:
64,192,95057,1,0,0:0:0:0:
320,192,95057,1,0,0:0:0:0:
448,192,95146,1,0,0:0:0:0:
320,192,95236,1,0,0:0:0:0:
192,192,95325,1,0,0:0:0:0:
64,192,95414,1,0,0:0:0:0:
448,192,95504,1,0,0:0:0:0:
320,192,95593,1,0,0:0:0:0:
64,192,95593,1,0,0:0:0:0:
192,192,95593,1,0,0:0:0:0:
448,192,95682,1,0,0:0:0:0:
64,192,95771,1,0,0:0:0:0:
192,192,95861,1,0,0:0:0:0:
320,192,95950,1,0,0:0:0:0:
448,192,96039,1,0,0:0:0:0:
64,192,96129,1,0,0:0:0:0:
192,192,96129,1,0,0:0:0:0:
320,192,96129,1,0,0:0:0:0:
448,192,96218,1,0,0:0:0:0:
64,192,96307,1,0,0:0:0:0:
192,192,96396,1,0,0:0:0:0:
320,192,96486,1,0,0:0:0:0:
448,192,96575,1,0,0:0:0:0:
64,192,96664,1,0,0:0:0:0:
192,192,96664,1,0,0:0:0:0:
320,192,96664,1,0,0:0:0:0:
448,192,96754,1,0,0:0:0:0:
320,192,96843,1,0,0:0:0:0:
192,192,96932,1,0,0:0:0:0:
64,192,97021,1,0,0:0:0:0:
320,192,97111,1,0,0:0:0:0:
64,192,97200,1,0,0:0:0:0:
448,192,97200,1,0,0:0:0:0:
192,192,97289,1,0,0:0:0:0:
320,192,97379,1,0,0:0:0:0:
448,192,97468,1,0,0:0:0:0:
64,192,97557,1,0,0:0:0:0:
320,192,97736,1,0,0:0:0:0:
448,192,97736,1,0,0:0:0:0:
192,192,97736,1,0,0:0:0:0:
64,192,97825,1,0,0:0:0:0:
192,192,97914,1,0,0:0:0:0:
320,192,98004,1,0,0:0:0:0:
448,192,98093,1,0,0:0:0:0:
64,192,98271,1,0,0:0:0:0:
192,192,98271,1,0,0:0:0:0:
320,192,98271,1,0,0:0:0:0:
448,192,98361,1,0,0:0:0:0:
64,192,98450,1,0,0:0:0:0:
192,192,98539,1,0,0:0:0:0:
320,192,98539,1,0,0:0:0:0:
448,192,98629,1,0,0:0:0:0:
64,192,98718,1,0,0:0:0:0:
192,192,98807,1,0,0:0:0:0:
320,192,98896,1,0,0:0:0:0:
448,192,98986,1,0,0:0:0:0:
64,192,98986,1,0,0:0:0:0:
192,192,99075,1,0,0:0:0:0:
448,192,99164,1,0,0:0:0:0:
320,192,99209,1,0,0:0:0:0:
192,192,99254,1,0,0:0:0:0:
64,192,99298,1,0,0:0:0:0:
320,192,99343,1,0,0:0:0:0:
448,192,99343,1,0,0:0:0:0:
192,192,99432,1,0,0:0:0:0:
64,192,99521,1,0,0:0:0:0:
320,192,99611,1,0,0:0:0:0:
192,192,99700,1,0,0:0:0:0:
64,192,99700,1,0,0:0:0:0:
448,192,99789,1,0,0:0:0:0:
320,192,99879,1,0,0:0:0:0:
192,192,99968,1,0,0:0:0:0:
64,192,100057,1,0,0:0:0:0:
448,192,100057,1,0,0:0:0:0:
320,192,100414,1,0,0:0:0:0:
64,192,100414,1,0,0:0:0:0:
448,192,100504,1,0,0:0:0:0:
192,192,100593,1,0,0:0:0:0:
320,192,100682,1,0,0:0:0:0:
64,192,100771,1,0,0:0:0:0:
448,192,100771,1,0,0:0:0:0:
192,192,100861,1,0,0:0:0:0:
320,192,100950,1,0,0:0:0:0:
448,192,101039,1,0,0:0:0:0:
64,192,101129,1,0,0:0:0:0:
192,192,101129,1,0,0:0:0:0:
320,192,101486,1,0,0:0:0:0:
448,192,101486,1,0,0:0:0:0:
192,192,101575,1,0,0:0:0:0:
448,192,101664,1,0,0:0:0:0:
64,192,101754,1,0,0:0:0:0:
192,192,101843,1,0,0:0:0:0:
320,192,101843,1,0,0:0:0:0:
448,192,101932,1,0,0:0:0:0:
64,192,102021,1,0,0:0:0:0:
192,192,102111,1,0,0:0:0:0:
320,192,102200,1,0,0:0:0:0:
448,192,102200,1,0,0:0:0:0:
64,192,102289,1,0,0:0:0:0:
192,192,102379,1,0,0:0:0:0:
320,192,102468,1,0,0:0:0:0:
448,192,102557,1,0,0:0:0:0:
64,192,102557,1,0,0:0:0:0:
192,192,102646,1,0,0:0:0:0:
320,192,102736,1,0,0:0:0:0:
64,192,102825,1,0,0:0:0:0:
448,192,102914,1,0,0:0:0:0:
320,192,102914,1,0,0:0:0:0:
192,192,103004,1,0,0:0:0:0:
320,192,103093,1,0,0:0:0:0:
448,192,103182,1,0,0:0:0:0:
64,192,103271,1,0,0:0:0:0:
192,192,103271,1,0,0:0:0:0:
320,192,103361,1,0,0:0:0:0:
448,192,103450,1,0,0:0:0:0:
64,192,103539,1,0,0:0:0:0:
448,192,103629,1,0,0:0:0:0:
320,192,103629,1,0,0:0:0:0:
192,192,103629,1,0,0:0:0:0:
64,192,103718,1,0,0:0:0:0:
448,192,103807,1,0,0:0:0:0:
320,192,103896,1,0,0:0:0:0:
64,192,103986,1,0,0:0:0:0:
192,192,104075,1,0,0:0:0:0:
448,192,104164,1,0,0:0:0:0:
320,192,104164,1,0,0:0:0:0:
192,192,104254,1,0,0:0:0:0:
64,192,104343,1,0,0:0:0:0:
64,192,104700,1,0,0:0:0:0:
448,192,104700,1,0,0:0:0:0:
320,192,104700,1,0,0:0:0:0:
192,192,104789,1,0,0:0:0:0:
320,192,104879,1,0,0:0:0:0:
448,192,104968,1,0,0:0:0:0:
192,192,105057,1,0,0:0:0:0:
64,192,105146,1,0,0:0:0:0:
448,192,105236,1,0,0:0:0:0:
320,192,105236,1,0,0:0:0:0:
192,192,105325,1,0,0:0:0:0:
64,192,105414,1,0,0:0:0:0:
320,192,105593,1,0,0:0:0:0:
192,192,105682,1,0,0:0:0:0:
64,192,105771,1,0,0:0:0:0:
320,192,105771,1,0,0:0:0:0:
448,192,105771,1,0,0:0:0:0:
192,192,105861,1,0,0:0:0:0:
320,192,105950,1,0,0:0:0:0:
448,192,106039,1,0,0:0:0:0:
64,192,106129,1,0,0:0:0:0:
192,192,106218,1,0,0:0:0:0:
320,192,106307,1,0,0:0:0:0:
448,192,106307,1,0,0:0:0:0:
64,192,106307,1,0,0:0:0:0:
192,192,106396,1,0,0:0:0:0:
320,192,106486,1,0,0:0:0:0:
448,192,106575,1,0,0:0:0:0:
64,192,106664,1,0,0:0:0:0:
320,192,106754,1,0,0:0:0:0:
64,192,106843,1,0,0:0:0:0:
192,192,106843,1,0,0:0:0:0:
448,192,106843,1,0,0:0:0:0:
320,192,106932,1,0,0:0:0:0:
192,192,107021,1,0,0:0:0:0:
320,192,107111,1,0,0:0:0:0:
192,192,107200,1,0,0:0:0:0:
320,192,107289,1,0,0:0:0:0:
192,192,107379,1,0,0:0:0:0:
320,192,107468,1,0,0:0:0:0:
192,192,107557,1,0,0:0:0:0:
320,192,107617,1,0,0:0:0:0:
192,192,107676,1,0,0:0:0:0:
320,192,107736,1,0,0:0:0:0:
192,192,107795,1,0,0:0:0:0:
320,192,107855,1,0,0:0:0:0:
64,192,107914,1,0,0:0:0:0:
192,192,107914,1,0,0:0:0:0:
448,192,107914,1,0,0:0:0:0:
448,192,108093,1,0,0:0:0:0:
192,192,108093,1,0,0:0:0:0:
64,192,108093,1,0,0:0:0:0:
448,192,108450,1,0,0:0:0:0:
320,192,108450,1,0,0:0:0:0:
64,192,108450,1,0,0:0:0:0:
64,192,108629,1,0,0:0:0:0:
320,192,108629,1,0,0:0:0:0:
448,192,108629,1,0,0:0:0:0:
64,192,108986,1,0,0:0:0:0:
192,192,108986,1,0,0:0:0:0:
320,192,109075,1,0,0:0:0:0:
64,192,109164,1,0,0:0:0:0:
192,192,109164,1,0,0:0:0:0:
320,192,109254,1,0,0:0:0:0:
448,192,109343,1,0,0:0:0:0:
64,192,109432,1,0,0:0:0:0:
320,192,109521,1,0,0:0:0:0:
448,192,109521,1,0,0:0:0:0:
64,192,109611,1,0,0:0:0:0:
192,192,109700,1,0,0:0:0:0:
320,192,109789,1,0,0:0:0:0:
64,192,109879,1,0,0:0:0:0:
448,192,109879,1,0,0:0:0:0:
320,192,109968,1,0,0:0:0:0:
64,192,110057,1,0,0:0:0:0:
448,192,110057,1,0,0:0:0:0:
192,192,110057,1,0,0:0:0:0:
64,192,110236,1,0,0:0:0:0:
448,192,110236,1,0,0:0:0:0:
192,192,110236,1,0,0:0:0:0:
448,192,110593,1,0,0:0:0:0:
320,192,110593,1,0,0:0:0:0:
64,192,110593,1,0,0:0:0:0:
320,192,110771,1,0,0:0:0:0:
448,192,110771,1,0,0:0:0:0:
64,192,110771,1,0,0:0:0:0:
448,192,111129,1,0,0:0:0:0:
320,192,111129,1,0,0:0:0:0:
192,192,111218,1,0,0:0:0:0:
320,192,111307,1,0,0:0:0:0:
448,192,111307,1,0,0:0:0:0:
192,192,111396,1,0,0:0:0:0:
64,192,111486,1,0,0:0:0:0:
448,192,111575,1,0,0:0:0:0:
320,192,111664,1,0,0:0:0:0:
192,192,111664,1,0,0:0:0:0:
64,192,111754,1,0,0:0:0:0:
448,192,111843,1,0,0:0:0:0:
320,192,111932,1,0,0:0:0:0:
192,192,112021,1,0,0:0:0:0:
64,192,112021,1,0,0:0:0:0:
448,192,112111,1,0,0:0:0:0:
64,192,112200,1,0,0:0:0:0:
192,192,112200,1,0,0:0:0:0:
320,192,112200,1,0,0:0:0:0:
64,192,112379,1,0,0:0:0:0:
192,192,112379,1,0,0:0:0:0:
320,192,112379,1,0,0:0:0:0:
448,192,112736,1,0,0:0:0:0:
320,192,112736,1,0,0:0:0:0:
192,192,112736,1,0,0:0:0:0:
192,192,112914,1,0,0:0:0:0:
320,192,112914,1,0,0:0:0:0:
448,192,112914,1,0,0:0:0:0:
64,192,113271,1,0,0:0:0:0:
192,192,113271,1,0,0:0:0:0:
448,192,113361,1,0,0:0:0:0:
192,192,113450,1,0,0:0:0:0:
64,192,113450,1,0,0:0:0:0:
320,192,113539,1,0,0:0:0:0:
448,192,113629,1,0,0:0:0:0:
64,192,113718,1,0,0:0:0:0:
320,192,113807,1,0,0:0:0:0:
448,192,113807,1,0,0:0:0:0:
192,192,113896,1,0,0:0:0:0:
64,192,113986,1,0,0:0:0:0:
448,192,114075,1,0,0:0:0:0:
192,192,114164,1,0,0:0:0:0:
64,192,114164,1,0,0:0:0:0:
320,192,114254,1,0,0:0:0:0:
448,192,114343,1,0,0:0:0:0:
64,192,114343,1,0,0:0:0:0:
192,192,114432,1,0,0:0:0:0:
448,192,114521,1,0,0:0:0:0:
64,192,114521,1,0,0:0:0:0:
320,192,114611,1,0,0:0:0:0:
192,192,114700,1,0,0:0:0:0:
64,192,114789,1,0,0:0:0:0:
320,192,114879,1,0,0:0:0:0:
448,192,114879,1,0,0:0:0:0:
192,192,114968,1,0,0:0:0:0:
448,192,115057,1,0,0:0:0:0:
320,192,115057,1,0,0:0:0:0:
64,192,115146,1,0,0:0:0:0:
192,192,115236,1,0,0:0:0:0:
320,192,115325,1,0,0:0:0:0:
192,192,115414,1,0,0:0:0:0:
64,192,115414,1,0,0:0:0:0:
448,192,115504,1,0,0:0:0:0:
64,192,115593,1,0,0:0:0:0:
192,192,115593,1,0,0:0:0:0:
448,192,115682,1,0,0:0:0:0:
320,192,115771,1,0,0:0:0:0:
192,192,115861,1,0,0:0:0:0:
448,192,115950,1,0,0:0:0:0:
64,192,115950,1,0,0:0:0:0:
320,192,116039,1,0,0:0:0:0:
192,192,116129,1,0,0:0:0:0:
64,192,116218,1,0,0:0:0:0:
448,192,116307,1,0,0:0:0:0:
320,192,116307,1,0,0:0:0:0:
192,192,116396,1,0,0:0:0:0:
64,192,116486,1,0,0:0:0:0:
448,192,116486,1,0,0:0:0:0:
320,192,116575,1,0,0:0:0:0:
64,192,116664,1,0,0:0:0:0:
448,192,116664,1,0,0:0:0:0:
192,192,116754,1,0,0:0:0:0:
320,192,116843,1,0,0:0:0:0:
64,192,117021,1,0,0:0:0:0:
448,192,117021,1,0,0:0:0:0:
192,192,117111,1,0,0:0:0:0:
64,192,117200,1,0,0:0:0:0:
448,192,117200,1,0,0:0:0:0:
320,192,117289,1,0,0:0:0:0:
192,192,117379,1,0,0:0:0:0:
448,192,117557,1,0,0:0:0:0:
320,192,117557,1,0,0:0:0:0:
192,192,117646,1,0,0:0:0:0:
320,192,117736,1,0,0:0:0:0:
448,192,117736,1,0,0:0:0:0:
64,192,117825,1,0,0:0:0:0:
192,192,117914,1,0,0:0:0:0:
320,192,118004,1,0,0:0:0:0:
448,192,118093,1,0,0:0:0:0:
64,192,118093,1,0,0:0:0:0:
192,192,118182,1,0,0:0:0:0:
320,192,118271,1,0,0:0:0:0:
64,192,118361,1,0,0:0:0:0:
192,192,118450,1,0,0:0:0:0:
320,192,118450,1,0,0:0:0:0:
448,192,118539,1,0,0:0:0:0:
192,192,118629,1,0,0:0:0:0:
64,192,118629,1,0,0:0:0:0:
448,192,118718,1,0,0:0:0:0:
64,192,118807,1,0,0:0:0:0:
192,192,118807,1,0,0:0:0:0:
448,192,118896,1,0,0:0:0:0:
320,192,118986,1,0,0:0:0:0:
192,192,119075,1,0,0:0:0:0:
64,192,119164,1,0,0:0:0:0:
448,192,119164,1,0,0:0:0:0:
320,192,119254,1,0,0:0:0:0:
448,192,119343,1,0,0:0:0:0:
64,192,119343,1,0,0:0:0:0:
192,192,119432,1,0,0:0:0:0:
320,192,119521,1,0,0:0:0:0:
448,192,119611,1,0,0:0:0:0:
192,192,119700,1,0,0:0:0:0:
64,192,119700,1,0,0:0:0:0:
320,192,119789,1,0,0:0:0:0:
192,192,119879,1,0,0:0:0:0:
64,192,119879,1,0,0:0:0:0:
320,192,119968,1,0,0:0:0:0:
448,192,120057,1,0,0:0:0:0:
192,192,120146,1,0,0:0:0:0:
448,192,120236,1,0,0:0:0:0:
64,192,120236,1,0,0:0:0:0:
192,192,120325,1,0,0:0:0:0:
320,192,120414,1,0,0:0:0:0:
448,192,120504,1,0,0:0:0:0:
64,192,120593,1,0,0:0:0:0:
192,192,120593,1,0,0:0:0:0:
448,192,120682,1,0,0:0:0:0:
320,192,120771,1,0,0:0:0:0:
192,192,120771,1,0,0:0:0:0:
64,192,120861,1,0,0:0:0:0:
192,192,120950,1,0,0:0:0:0:
320,192,120950,1,0,0:0:0:0:
64,192,121039,1,0,0:0:0:0:
448,192,121129,1,0,0:0:0:0:
320,192,121218,1,0,0:0:0:0:
192,192,121307,1,0,0:0:0:0:
64,192,121307,1,0,0:0:0:0:
448,192,121396,1,0,0:0:0:0:
192,192,121486,1,0,0:0:0:0:
64,192,121486,1,0,0:0:0:0:
448,192,121575,1,0,0:0:0:0:
320,192,121664,1,0,0:0:0:0:
448,192,121843,1,0,0:0:0:0:
64,192,121843,1,0,0:0:0:0:
192,192,121932,1,0,0:0:0:0:
64,192,122021,1,0,0:0:0:0:
448,192,122021,1,0,0:0:0:0:
320,192,122111,1,0,0:0:0:0:
192,192,122200,1,0,0:0:0:0:
64,192,122289,1,0,0:0:0:0:
448,192,122379,1,0,0:0:0:0:
320,192,122379,1,0,0:0:0:0:
192,192,122468,1,0,0:0:0:0:
64,192,122557,1,0,0:0:0:0:
192,192,122736,1,0,0:0:0:0:
320,192,122736,1,0,0:0:0:0:
448,192,122914,5,0,0:0:0:0:
64,192,122914,1,0,0:0:0:0:
192,192,123004,1,0,0:0:0:0:
448,192,123093,1,0,0:0:0:0:
64,192,123093,1,0,0:0:0:0:
320,192,123182,1,0,0:0:0:0:
192,192,123271,1,0,0:0:0:0:
320,192,123361,1,0,0:0:0:0:
448,192,123450,1,0,0:0:0:0:
64,192,123450,1,0,0:0:0:0:
192,192,123539,1,0,0:0:0:0:
448,192,123629,1,0,0:0:0:0:
64,192,123629,1,0,0:0:0:0:
320,192,123718,1,0,0:0:0:0:
192,192,123807,1,0,0:0:0:0:
320,192,123896,1,0,0:0:0:0:
64,192,123986,1,0,0:0:0:0:
192,192,123986,1,0,0:0:0:0:
320,192,124075,5,0,0:0:0:0:
64,192,124164,1,0,0:0:0:0:
320,192,124224,1,0,0:0:0:0:
64,192,124283,1,0,0:0:0:0:
320,192,124343,1,0,0:0:0:0:
64,192,124402,1,0,0:0:0:0:
320,192,124462,1,0,0:0:0:0:
64,192,124521,1,0,0:0:0:0:
192,192,124566,1,0,0:0:0:0:
320,192,124611,1,0,0:0:0:0:
448,192,124655,1,0,0:0:0:0:
64,192,124700,1,0,0:0:0:0:
192,192,124745,1,0,0:0:0:0:
320,192,124789,1,0,0:0:0:0:
448,192,124834,1,0,0:0:0:0:
64,192,124879,1,0,0:0:0:0:
192,192,124923,1,0,0:0:0:0:
320,192,124968,1,0,0:0:0:0:
448,192,125013,1,0,0:0:0:0:
64,192,126129,1,0,0:0:0:0:
192,192,126129,1,0,0:0:0:0:
320,192,126129,1,0,0:0:0:0:
448,192,126129,1,0,0:0:0:0:
