osu file format v14

[General]
AudioFilename: audio.mp3
AudioLeadIn: 0
PreviewTime: 41448
Countdown: 0
SampleSet: None
StackLeniency: 0.7
Mode: 3
LetterboxInBreaks: 0
SpecialStyle: 0
WidescreenStoryboard: 1
SamplesMatchPlaybackRate: 1

[Editor]
DistanceSpacing: 0.8
BeatDivisor: 4
GridSize: 16
TimelineZoom: 2.5

[Metadata]
Title:Zetsu
TitleUnicode:็ตถ
Artist:Ice
ArtistUnicode:Ice
Creator:AHHHHHHHHHHHHHH
Version:End
Source:
Tags:diverse system team grimoire of darkness
BeatmapID:1243611
BeatmapSetID:587292

[Difficulty]
HPDrainRate:8.5
CircleSize:4
OverallDifficulty:8.5
ApproachRate:5
SliderMultiplier:1.4
SliderTickRate:1

[Events]
//Background and Video events
0,0,"Arctic.jpg",0,0
//Break Periods
//Storyboard Layer 0 (Background)
//Storyboard Layer 1 (Fail)
//Storyboard Layer 2 (Pass)
//Storyboard Layer 3 (Foreground)
//Storyboard Sound Samples

[TimingPoints]
5323.26107758103,314.13612565445,4,3,1,40,1,0
41763,-100,4,3,1,40,0,1
50558,-100,4,3,1,40,0,0
112129,-100,4,3,1,40,0,1
121867,-100,4,3,1,40,0,0
122181,-100,4,3,1,40,0,1
132548,-100,4,3,1,40,0,0
142286,-100,4,3,1,40,0,1
152338,-100,4,3,1,40,0,0
161448,-10000,4,3,1,40,0,0
161684,-26.3157894736842,4,3,1,40,0,0
161763,-10000,4,3,1,40,0,0
161998,-26.3157894736842,4,3,1,40,0,0
162077,-10000,4,3,1,40,0,0
162312,-26.3157894736842,4,3,1,40,0,0
162391,-100,4,3,1,40,0,0
166160,-200,4,3,1,40,0,0
166475,-10000,4,3,1,40,0,0
166710,-26.3157894736842,4,3,1,40,0,0
166789,-10000,4,3,1,40,0,0
167024,-26.3157894736842,4,3,1,40,0,0
167103,-10000,4,3,1,40,0,0
167338,-26.3157894736842,4,3,1,40,0,0
167417,-100,4,3,1,40,0,0
171187,-200,4,3,1,40,0,0
171501,-10000,4,3,1,40,0,0
171736,-26.3157894736842,4,3,1,40,0,0
171815,-10000,4,3,1,40,0,0
172051,-26.3157894736842,4,3,1,40,0,0
172129,-10000,4,3,1,40,0,0
172365,-26.3157894736842,4,3,1,40,0,0
172443,-100,4,3,1,40,0,0
182181,-10000,4,3,1,40,0,0
182417,-26.3157894736842,4,3,1,40,0,0
182496,-100,4,3,1,40,0,0
187208,-10000,4,3,1,40,0,0
187443,-26.3157894736842,4,3,1,40,0,0
187522,-100,4,3,1,40,0,0
217679,-100,4,3,1,40,0,1
227417,-100,4,3,1,40,0,0
227731,-100,4,3,1,40,0,1
237469,-100,4,3,1,40,0,0
237783,-100,4,3,1,40,0,1
247522,-100,4,3,1,40,0,0
247836,-100,4,3,1,40,0,1
257888,-100,4,3,1,40,0,0

[HitObjects]
64,192,297,5,0,0:0:0:0:
448,192,297,1,0,0:0:0:0:
192,192,297,128,0,1553:0:0:0:0:
320,192,297,1,0,0:0:0:0:
448,192,611,1,0,0:0:0:0:
320,192,768,1,0,0:0:0:0:
448,192,925,1,0,0:0:0:0:
448,192,1239,1,0,0:0:0:0:
64,192,1553,128,0,2181:0:0:0:0:
320,192,1553,1,0,0:0:0:0:
192,192,1867,1,0,0:0:0:0:
192,192,2181,128,0,2810:0:0:0:0:
448,192,2181,1,0,0:0:0:0:
320,192,2496,1,0,0:0:0:0:
64,192,2810,128,0,3438:0:0:0:0:
448,192,2810,1,0,0:0:0:0:
192,192,2967,1,0,0:0:0:0:
448,192,3124,1,0,0:0:0:0:
320,192,3281,1,0,0:0:0:0:
192,192,3438,128,0,4066:0:0:0:0:
448,192,3438,1,0,0:0:0:0:
320,192,3752,1,0,0:0:0:0:
64,192,4066,128,0,4694:0:0:0:0:
320,192,4066,1,0,0:0:0:0:
192,192,4380,1,0,0:0:0:0:
448,192,4537,1,0,0:0:0:0:
320,192,4694,128,0,5323:0:0:0:0:
192,192,4694,1,0,0:0:0:0:
64,192,5009,1,0,0:0:0:0:
64,192,5323,1,0,0:0:0:0:
192,192,5323,1,0,0:0:0:0:
448,192,5323,128,0,6579:0:0:0:0:
192,192,5637,1,0,0:0:0:0:
320,192,5794,1,0,0:0:0:0:
64,192,5951,1,0,0:0:0:0:
64,192,6265,1,0,0:0:0:0:
192,192,6579,1,0,0:0:0:0:
320,192,6579,128,0,8935:0:0:0:0:
192,192,6893,1,0,0:0:0:0:
64,192,7208,1,0,0:0:0:0:
64,192,7522,1,0,0:0:0:0:
448,192,7836,1,0,0:0:0:0:
192,192,7993,1,0,0:0:0:0:
64,192,8150,1,0,0:0:0:0:
192,192,8307,1,0,0:0:0:0:
448,192,8464,1,0,0:0:0:0:
192,192,8778,1,0,0:0:0:0:
448,192,9092,128,0,10349:0:0:0:0:
192,192,9092,1,0,0:0:0:0:
192,192,9407,1,0,0:0:0:0:
64,192,9721,1,0,0:0:0:0:
192,192,10035,1,0,0:0:0:0:
64,192,10349,128,0,10977:0:0:0:0:
192,192,10349,1,0,0:0:0:0:
320,192,10349,1,0,0:0:0:0:
448,192,10663,1,0,0:0:0:0:
320,192,10820,1,0,0:0:0:0:
448,192,10977,1,0,0:0:0:0:
192,192,10977,128,0,11605:0:0:0:0:
320,192,11291,1,0,0:0:0:0:
448,192,11605,128,0,12234:0:0:0:0:
64,192,11605,1,0,0:0:0:0:
64,192,11920,1,0,0:0:0:0:
192,192,12077,1,0,0:0:0:0:
320,192,12234,128,0,12862:0:0:0:0:
64,192,12234,1,0,0:0:0:0:
448,192,12548,1,0,0:0:0:0:
192,192,12862,1,0,0:0:0:0:
64,192,12862,128,0,13490:0:0:0:0:
192,192,13176,1,0,0:0:0:0:
320,192,13333,1,0,0:0:0:0:
192,192,13490,1,0,0:0:0:0:
448,192,13490,128,0,14119:0:0:0:0:
320,192,13804,1,0,0:0:0:0:
64,192,14119,1,0,0:0:0:0:
320,192,14119,128,0,14747:0:0:0:0:
192,192,14433,1,0,0:0:0:0:
64,192,14590,1,0,0:0:0:0:
448,192,14747,1,0,0:0:0:0:
192,192,14747,128,0,15375:0:0:0:0:
64,192,15061,1,0,0:0:0:0:
320,192,15375,1,0,0:0:0:0:
64,192,15375,1,0,0:0:0:0:
448,192,15375,128,0,16318:0:0:0:0:
192,192,15689,1,0,0:0:0:0:
64,192,15846,1,0,0:0:0:0:
320,192,16003,1,0,0:0:0:0:
64,192,16318,128,0,16632:0:0:0:0:
192,192,16318,1,0,0:0:0:0:
192,192,16632,128,0,17888:0:0:0:0:
448,192,16632,1,0,0:0:0:0:
64,192,16789,1,0,0:0:0:0:
320,192,16946,1,0,0:0:0:0:
64,192,17103,1,0,0:0:0:0:
448,192,17260,1,0,0:0:0:0:
320,192,17574,1,0,0:0:0:0:
448,192,17888,1,0,0:0:0:0:
64,192,17888,128,0,19459:0:0:0:0:
448,192,18202,1,0,0:0:0:0:
192,192,18359,1,0,0:0:0:0:
320,192,18516,1,0,0:0:0:0:
192,192,18831,1,0,0:0:0:0:
320,192,19145,1,0,0:0:0:0:
192,192,19459,1,0,0:0:0:0:
448,192,19773,1,0,0:0:0:0:
320,192,19773,128,0,20401:0:0:0:0:
192,192,20087,1,0,0:0:0:0:
448,192,20401,128,0,21658:0:0:0:0:
64,192,20401,1,0,0:0:0:0:
192,192,20401,1,0,0:0:0:0:
192,192,20715,1,0,0:0:0:0:
320,192,20872,1,0,0:0:0:0:
192,192,21030,1,0,0:0:0:0:
64,192,21344,1,0,0:0:0:0:
192,192,21658,1,0,0:0:0:0:
64,192,21658,128,0,22914:0:0:0:0:
320,192,21972,1,0,0:0:0:0:
448,192,22286,1,0,0:0:0:0:
320,192,22600,1,0,0:0:0:0:
192,192,22914,128,0,24171:0:0:0:0:
448,192,22914,1,0,0:0:0:0:
320,192,23229,1,0,0:0:0:0:
64,192,23386,1,0,0:0:0:0:
448,192,23543,1,0,0:0:0:0:
64,192,23857,1,0,0:0:0:0:
320,192,24171,1,0,0:0:0:0:
448,192,24171,128,0,25427:0:0:0:0:
64,192,24328,1,0,0:0:0:0:
192,192,24485,1,0,0:0:0:0:
64,192,24642,1,0,0:0:0:0:
320,192,24799,1,0,0:0:0:0:
192,192,24956,1,0,0:0:0:0:
320,192,25113,1,0,0:0:0:0:
64,192,25270,1,0,0:0:0:0:
320,192,25427,1,0,0:0:0:0:
64,192,25427,128,0,26684:0:0:0:0:
192,192,25427,1,0,0:0:0:0:
320,192,25742,1,0,0:0:0:0:
448,192,25899,1,0,0:0:0:0:
192,192,26056,1,0,0:0:0:0:
192,192,26370,1,0,0:0:0:0:
448,192,26684,1,0,0:0:0:0:
320,192,26684,128,0,27941:0:0:0:0:
64,192,26841,1,0,0:0:0:0:
192,192,26998,1,0,0:0:0:0:
448,192,27155,1,0,0:0:0:0:
192,192,27312,1,0,0:0:0:0:
64,192,27626,1,0,0:0:0:0:
192,192,27941,128,0,28569:0:0:0:0:
64,192,27941,1,0,0:0:0:0:
448,192,28255,1,0,0:0:0:0:
320,192,28412,1,0,0:0:0:0:
64,192,28569,1,0,0:0:0:0:
448,192,28569,128,0,29197:0:0:0:0:
64,192,28883,1,0,0:0:0:0:
192,192,29197,128,0,29825:0:0:0:0:
320,192,29197,1,0,0:0:0:0:
448,192,29511,1,0,0:0:0:0:
64,192,29668,1,0,0:0:0:0:
448,192,29825,1,0,0:0:0:0:
320,192,29825,128,0,30454:0:0:0:0:
192,192,30140,1,0,0:0:0:0:
64,192,30454,128,0,32967:0:0:0:0:
192,192,30454,1,0,0:0:0:0:
448,192,30454,1,0,0:0:0:0:
192,192,30768,1,0,0:0:0:0:
320,192,30925,1,0,0:0:0:0:
448,192,31082,1,0,0:0:0:0:
320,192,31396,1,0,0:0:0:0:
192,192,31710,1,0,0:0:0:0:
448,192,32024,1,0,0:0:0:0:
320,192,32338,1,0,0:0:0:0:
192,192,32653,1,0,0:0:0:0:
448,192,32967,1,0,0:0:0:0:
320,192,32967,128,0,33595:0:0:0:0:
64,192,33281,1,0,0:0:0:0:
448,192,33595,1,0,0:0:0:0:
192,192,33595,128,0,34223:0:0:0:0:
320,192,33909,1,0,0:0:0:0:
448,192,34223,1,0,0:0:0:0:
64,192,34223,128,0,34852:0:0:0:0:
320,192,34380,1,0,0:0:0:0:
448,192,34537,1,0,0:0:0:0:
192,192,34694,1,0,0:0:0:0:
320,192,34852,1,0,0:0:0:0:
448,192,34852,128,0,35480:0:0:0:0:
64,192,35166,1,0,0:0:0:0:
320,192,35480,128,0,37993:0:0:0:0:
192,192,35480,1,0,0:0:0:0:
64,192,35480,1,0,0:0:0:0:
192,192,35794,1,0,0:0:0:0:
448,192,35951,1,0,0:0:0:0:
64,192,36108,1,0,0:0:0:0:
64,192,36422,1,0,0:0:0:0:
448,192,36736,1,0,0:0:0:0:
448,192,37051,1,0,0:0:0:0:
64,192,37365,1,0,0:0:0:0:
64,192,37679,1,0,0:0:0:0:
448,192,37993,1,0,0:0:0:0:
192,192,37993,128,0,40506:0:0:0:0:
320,192,38307,1,0,0:0:0:0:
64,192,38621,128,0,41134:0:0:0:0:
448,192,38621,1,0,0:0:0:0:
320,192,38935,1,0,0:0:0:0:
448,192,39249,1,0,0:0:0:0:
320,192,39564,1,0,0:0:0:0:
320,192,39878,1,0,0:0:0:0:
448,192,40192,1,0,0:0:0:0:
448,192,41448,1,0,0:0:0:0:
320,192,41527,1,0,0:0:0:0:
64,192,41605,1,0,0:0:0:0:
320,192,41684,1,0,0:0:0:0:
192,192,41763,1,4,0:0:0:0:
64,192,41763,1,0,0:0:0:0:
448,192,41763,1,2,0:0:0:0:
192,192,41920,1,0,0:0:0:0:
64,192,41920,1,0,0:0:0:0:
448,192,41920,1,2,0:0:0:0:
320,192,42234,128,0,42391:0:0:0:0:
448,192,42391,128,0,42548:0:0:0:0:
192,192,42548,1,4,0:0:0:0:
64,192,42548,1,2,0:0:0:0:
64,192,42626,1,2,0:0:0:0:
192,192,42626,1,0,0:0:0:0:
448,192,42705,1,0,0:0:0:0:
320,192,42705,1,0,0:0:0:0:
64,192,42705,1,2,0:0:0:0:
448,192,42862,1,0,0:0:0:0:
320,192,42862,1,0,0:0:0:0:
192,192,42862,1,2,0:0:0:0:
192,192,43019,1,2,0:0:0:0:
64,192,43019,1,0,0:0:0:0:
448,192,43019,1,0,0:0:0:0:
448,192,43176,1,0,0:0:0:0:
64,192,43176,1,0,0:0:0:0:
192,192,43176,1,2,0:0:0:0:
64,192,43490,1,0,0:0:0:0:
448,192,43490,1,4,0:0:0:0:
320,192,43490,1,2,0:0:0:0:
192,192,43647,1,0,0:0:0:0:
320,192,43687,1,0,0:0:0:0:
448,192,43726,1,0,0:0:0:0:
64,192,43765,1,0,0:0:0:0:
192,192,43804,1,0,0:0:0:0:
320,192,43844,1,0,0:0:0:0:
448,192,43883,1,0,0:0:0:0:
192,192,43922,1,0,0:0:0:0:
320,192,43962,1,2,0:0:0:0:
64,192,43962,1,4,0:0:0:0:
448,192,44119,1,2,0:0:0:0:
64,192,44119,1,0,0:0:0:0:
320,192,44119,1,0,0:0:0:0:
64,192,44276,1,0,0:0:0:0:
192,192,44276,1,2,0:0:0:0:
320,192,44276,1,4,0:0:0:0:
320,192,44433,1,0,0:0:0:0:
192,192,44433,1,2,0:0:0:0:
64,192,44433,1,0,0:0:0:0:
192,192,44590,1,2,0:0:0:0:
64,192,44590,1,0,0:0:0:0:
448,192,44590,1,0,0:0:0:0:
64,192,44747,1,0,0:0:0:0:
192,192,44747,1,2,0:0:0:0:
448,192,44747,1,0,0:0:0:0:
192,192,44904,1,2,0:0:0:0:
320,192,44904,1,4,0:0:0:0:
448,192,44904,1,0,0:0:0:0:
448,192,45061,1,0,0:0:0:0:
320,192,45061,1,2,0:0:0:0:
192,192,45140,1,2,0:0:0:0:
64,192,45140,1,0,0:0:0:0:
64,192,45218,1,0,0:0:0:0:
320,192,45218,1,2,0:0:0:0:
448,192,45218,1,0,0:0:0:0:
192,192,45375,1,0,0:0:0:0:
320,192,45414,1,0,0:0:0:0:
64,192,45454,1,0,0:0:0:0:
192,192,45493,1,0,0:0:0:0:
320,192,45532,1,2,0:0:0:0:
448,192,45532,1,4,0:0:0:0:
64,192,45689,1,0,0:0:0:0:
192,192,45689,1,2,0:0:0:0:
320,192,45768,1,2,0:0:0:0:
448,192,45768,1,0,0:0:0:0:
192,192,45846,1,0,0:0:0:0:
64,192,45846,1,0,0:0:0:0:
320,192,45846,1,2,0:0:0:0:
448,192,46003,1,2,0:0:0:0:
64,192,46003,1,0,0:0:0:0:
192,192,46082,1,0,0:0:0:0:
320,192,46082,1,2,0:0:0:0:
448,192,46160,1,2,0:0:0:0:
64,192,46160,1,4,0:0:0:0:
192,192,46160,1,0,0:0:0:0:
320,192,46318,1,0,0:0:0:0:
192,192,46357,1,0,0:0:0:0:
448,192,46396,1,0,0:0:0:0:
320,192,46435,1,0,0:0:0:0:
192,192,46475,1,2,0:0:0:0:
64,192,46475,1,0,0:0:0:0:
448,192,46632,1,0,0:0:0:0:
192,192,46632,1,2,0:0:0:0:
64,192,46632,1,0,0:0:0:0:
320,192,46789,1,2,0:0:0:0:
192,192,46789,1,0,0:0:0:0:
448,192,46789,1,4,0:0:0:0:
448,192,46946,1,0,0:0:0:0:
192,192,46946,1,0,0:0:0:0:
320,192,46946,1,2,0:0:0:0:
448,192,47103,1,0,0:0:0:0:
64,192,47103,1,0,0:0:0:0:
320,192,47155,1,0,0:0:0:0:
192,192,47208,1,0,0:0:0:0:
64,192,47260,1,0,0:0:0:0:
448,192,47312,1,0,0:0:0:0:
320,192,47365,1,0,0:0:0:0:
192,192,47417,1,4,0:0:0:0:
64,192,47417,1,2,0:0:0:0:
448,192,47574,1,0,0:0:0:0:
64,192,47574,1,0,0:0:0:0:
192,192,47574,1,2,0:0:0:0:
320,192,47731,1,0,0:0:0:0:
448,192,47731,1,0,0:0:0:0:
192,192,47783,1,0,0:0:0:0:
64,192,47836,1,0,0:0:0:0:
448,192,47888,1,0,0:0:0:0:
320,192,47941,1,0,0:0:0:0:
192,192,47993,1,0,0:0:0:0:
448,192,48045,1,4,0:0:0:0:
64,192,48045,1,2,0:0:0:0:
64,192,48202,1,0,0:0:0:0:
448,192,48202,1,0,0:0:0:0:
320,192,48202,1,2,0:0:0:0:
192,192,48359,1,0,0:0:0:0:
320,192,48359,1,0,0:0:0:0:
64,192,48412,1,0,0:0:0:0:
448,192,48464,1,0,0:0:0:0:
320,192,48516,1,0,0:0:0:0:
192,192,48569,1,0,0:0:0:0:
64,192,48621,1,0,0:0:0:0:
448,192,48674,1,2,0:0:0:0:
320,192,48674,1,4,0:0:0:0:
320,192,48831,1,0,0:0:0:0:
192,192,48831,1,0,0:0:0:0:
448,192,48831,1,2,0:0:0:0:
64,192,48988,1,0,0:0:0:0:
448,192,48988,1,0,0:0:0:0:
192,192,49040,1,0,0:0:0:0:
320,192,49092,1,0,0:0:0:0:
448,192,49145,1,0,0:0:0:0:
64,192,49197,1,0,0:0:0:0:
192,192,49249,1,0,0:0:0:0:
320,192,49302,1,4,0:0:0:0:
448,192,49302,1,2,0:0:0:0:
192,192,49459,1,2,0:0:0:0:
64,192,49459,1,0,0:0:0:0:
320,192,49537,1,2,0:0:0:0:
448,192,49537,1,0,0:0:0:0:
192,192,49616,1,2,0:0:0:0:
64,192,49616,1,0,0:0:0:0:
320,192,49694,1,2,0:0:0:0:
448,192,49694,1,0,0:0:0:0:
192,192,49773,1,2,0:0:0:0:
64,192,49773,1,0,0:0:0:0:
320,192,49852,1,2,0:0:0:0:
448,192,49852,1,0,0:0:0:0:
192,192,49930,1,2,0:0:0:0:
64,192,49930,1,0,0:0:0:0:
448,192,50009,1,0,0:0:0:0:
320,192,50009,1,2,0:0:0:0:
192,192,50087,1,2,0:0:0:0:
64,192,50087,1,0,0:0:0:0:
448,192,50166,1,0,0:0:0:0:
320,192,50166,1,2,0:0:0:0:
64,192,50244,1,0,0:0:0:0:
192,192,50244,1,2,0:0:0:0:
320,192,50283,1,0,0:0:0:0:
448,192,50323,1,0,0:0:0:0:
64,192,50362,1,0,0:0:0:0:
192,192,50401,1,0,0:0:0:0:
320,192,50441,1,0,0:0:0:0:
448,192,50480,1,0,0:0:0:0:
64,192,50519,1,0,0:0:0:0:
192,192,50558,1,4,0:0:0:0:
320,192,50558,128,2,51815:0:0:0:0:
64,192,51815,128,0,52443:0:0:0:0:
448,192,51815,1,0,0:0:0:0:
192,192,51815,1,2,0:0:0:0:
320,192,51972,1,0,0:0:0:0:
448,192,52129,1,2,0:0:0:0:
320,192,52286,1,0,0:0:0:0:
192,192,52286,1,8,0:0:0:0:
448,192,52443,128,0,53071:0:0:0:0:
64,192,52600,1,2,0:0:0:0:
64,192,52757,1,0,0:0:0:0:
320,192,52757,1,8,0:0:0:0:
192,192,52914,1,2,0:0:0:0:
320,192,52993,1,2,0:0:0:0:
192,192,53071,128,0,53700:0:0:0:0:
64,192,53071,1,2,0:0:0:0:
448,192,53229,1,0,0:0:0:0:
320,192,53386,1,2,0:0:0:0:
64,192,53386,1,0,0:0:0:0:
64,192,53543,1,2,0:0:0:0:
448,192,53700,1,2,0:0:0:0:
320,192,53700,128,0,54328:0:0:0:0:
64,192,53857,1,2,0:0:0:0:
64,192,54014,1,0,0:0:0:0:
192,192,54014,1,8,0:0:0:0:
448,192,54171,1,2,0:0:0:0:
64,192,54249,1,2,0:0:0:0:
192,192,54328,128,0,54956:0:0:0:0:
448,192,54328,1,2,0:0:0:0:
320,192,54485,1,0,0:0:0:0:
320,192,54642,1,2,0:0:0:0:
448,192,54799,1,8,0:0:0:0:
64,192,54799,1,0,0:0:0:0:
64,192,54956,1,0,0:0:0:0:
320,192,55113,1,2,0:0:0:0:
448,192,55270,1,0,0:0:0:0:
64,192,55270,1,8,0:0:0:0:
320,192,55427,1,2,0:0:0:0:
64,192,55427,1,0,0:0:0:0:
448,192,55506,1,2,0:0:0:0:
64,192,55585,1,2,0:0:0:0:
192,192,55585,128,0,55663:0:0:0:0:
192,192,55742,1,0,0:0:0:0:
448,192,55899,128,0,55977:0:0:0:0:
320,192,55899,1,2,0:0:0:0:
448,192,56056,1,2,0:0:0:0:
192,192,56213,128,0,56291:0:0:0:0:
64,192,56213,1,2,0:0:0:0:
192,192,56370,1,2,0:0:0:0:
64,192,56527,128,0,56605:0:0:0:0:
320,192,56527,1,8,0:0:0:0:
192,192,56605,1,0,0:0:0:0:
448,192,56684,1,2,0:0:0:0:
320,192,56763,1,2,0:0:0:0:
192,192,56841,1,2,0:0:0:0:
448,192,56841,128,0,57469:0:0:0:0:
64,192,56998,1,0,0:0:0:0:
320,192,57155,1,2,0:0:0:0:
320,192,57312,1,0,0:0:0:0:
192,192,57312,1,8,0:0:0:0:
64,192,57469,128,0,58098:0:0:0:0:
320,192,57626,1,2,0:0:0:0:
192,192,57783,1,8,0:0:0:0:
448,192,57783,1,0,0:0:0:0:
448,192,57941,1,2,0:0:0:0:
192,192,58019,1,2,0:0:0:0:
320,192,58098,1,2,0:0:0:0:
448,192,58098,128,0,58726:0:0:0:0:
64,192,58255,1,0,0:0:0:0:
192,192,58412,1,2,0:0:0:0:
320,192,58412,1,0,0:0:0:0:
64,192,58569,1,2,0:0:0:0:
64,192,58726,1,2,0:0:0:0:
192,192,58726,128,0,59354:0:0:0:0:
320,192,58883,1,2,0:0:0:0:
448,192,58883,1,0,0:0:0:0:
64,192,59040,1,8,0:0:0:0:
448,192,59040,1,0,0:0:0:0:
64,192,59197,1,2,0:0:0:0:
448,192,59276,1,2,0:0:0:0:
320,192,59354,128,0,59982:0:0:0:0:
64,192,59354,1,2,0:0:0:0:
448,192,59511,1,0,0:0:0:0:
192,192,59668,1,2,0:0:0:0:
64,192,59825,1,8,0:0:0:0:
448,192,59825,1,0,0:0:0:0:
448,192,59982,1,0,0:0:0:0:
192,192,60140,1,2,0:0:0:0:
448,192,60297,1,8,0:0:0:0:
64,192,60297,1,0,0:0:0:0:
448,192,60454,1,2,0:0:0:0:
64,192,60532,1,2,0:0:0:0:
192,192,60611,128,0,60689:0:0:0:0:
320,192,60611,1,2,0:0:0:0:
192,192,60768,1,0,0:0:0:0:
448,192,60925,128,0,61003:0:0:0:0:
64,192,60925,1,2,0:0:0:0:
448,192,61082,1,0,0:0:0:0:
192,192,61082,1,2,0:0:0:0:
64,192,61239,128,0,61318:0:0:0:0:
192,192,61239,1,8,0:0:0:0:
64,192,61396,1,2,0:0:0:0:
192,192,61475,1,8,0:0:0:0:
448,192,61553,128,2,61632:0:0:0:0:
320,192,61553,1,0,0:0:0:0:
64,192,61632,1,2,0:0:0:0:
192,192,61710,1,8,0:0:0:0:
64,192,61789,1,2,0:0:0:0:
192,192,61867,1,2,0:0:0:0:
320,192,61867,128,0,62496:0:0:0:0:
448,192,62024,1,0,0:0:0:0:
64,192,62181,1,2,0:0:0:0:
448,192,62338,1,0,0:0:0:0:
192,192,62338,1,8,0:0:0:0:
64,192,62496,1,0,0:0:0:0:
192,192,62653,1,2,0:0:0:0:
448,192,62810,128,0,62967:0:0:0:0:
64,192,62810,1,8,0:0:0:0:
320,192,62888,1,0,0:0:0:0:
64,192,62967,128,2,63124:0:0:0:0:
320,192,63045,1,2,0:0:0:0:
192,192,63124,128,0,63202:0:0:0:0:
448,192,63124,1,2,0:0:0:0:
192,192,63281,1,0,0:0:0:0:
320,192,63438,128,2,63516:0:0:0:0:
64,192,63438,1,0,0:0:0:0:
320,192,63595,1,2,0:0:0:0:
64,192,63752,128,0,63831:0:0:0:0:
448,192,63752,1,2,0:0:0:0:
64,192,63909,1,2,0:0:0:0:
448,192,64066,128,0,64145:0:0:0:0:
192,192,64066,1,8,0:0:0:0:
320,192,64223,1,2,0:0:0:0:
64,192,64302,1,2,0:0:0:0:
192,192,64380,128,0,65009:0:0:0:0:
320,192,64380,1,2,0:0:0:0:
448,192,64537,1,0,0:0:0:0:
320,192,64694,1,2,0:0:0:0:
64,192,64852,1,0,0:0:0:0:
448,192,64852,1,8,0:0:0:0:
320,192,65009,1,0,0:0:0:0:
448,192,65166,1,2,0:0:0:0:
320,192,65323,128,0,65480:0:0:0:0:
64,192,65323,1,8,0:0:0:0:
64,192,65480,128,2,65637:0:0:0:0:
448,192,65558,1,2,0:0:0:0:
192,192,65637,128,0,65715:0:0:0:0:
320,192,65637,1,2,0:0:0:0:
192,192,65794,1,0,0:0:0:0:
320,192,65951,128,2,66030:0:0:0:0:
448,192,65951,1,0,0:0:0:0:
320,192,66108,1,2,0:0:0:0:
448,192,66265,128,0,66344:0:0:0:0:
64,192,66265,1,2,0:0:0:0:
448,192,66422,1,2,0:0:0:0:
192,192,66579,128,0,66658:0:0:0:0:
64,192,66579,1,8,0:0:0:0:
320,192,66736,1,2,0:0:0:0:
448,192,66815,1,2,0:0:0:0:
64,192,66893,128,0,67522:0:0:0:0:
320,192,66893,1,2,0:0:0:0:
192,192,67051,1,0,0:0:0:0:
448,192,67208,1,2,0:0:0:0:
320,192,67365,1,8,0:0:0:0:
192,192,67365,1,0,0:0:0:0:
192,192,67522,128,0,67836:0:0:0:0:
448,192,67522,1,0,0:0:0:0:
64,192,67679,1,2,0:0:0:0:
448,192,67836,128,0,68150:0:0:0:0:
320,192,67836,1,8,0:0:0:0:
64,192,67993,1,2,0:0:0:0:
192,192,68071,1,2,0:0:0:0:
64,192,68150,128,0,68464:0:0:0:0:
320,192,68150,1,2,0:0:0:0:
448,192,68307,1,0,0:0:0:0:
320,192,68464,128,0,68778:0:0:0:0:
192,192,68464,128,2,68543:0:0:0:0:
192,192,68621,1,2,0:0:0:0:
64,192,68778,128,0,69092:0:0:0:0:
448,192,68778,128,2,68857:0:0:0:0:
448,192,68935,1,2,0:0:0:0:
448,192,69092,128,0,69407:0:0:0:0:
320,192,69092,128,8,69171:0:0:0:0:
64,192,69249,1,2,0:0:0:0:
320,192,69328,1,2,0:0:0:0:
192,192,69407,128,0,70035:0:0:0:0:
64,192,69407,1,2,0:0:0:0:
320,192,69564,1,0,0:0:0:0:
64,192,69721,1,2,0:0:0:0:
320,192,69878,1,8,0:0:0:0:
448,192,69878,1,0,0:0:0:0:
64,192,70035,128,0,70663:0:0:0:0:
448,192,70192,1,2,0:0:0:0:
192,192,70349,1,8,0:0:0:0:
448,192,70349,1,0,0:0:0:0:
320,192,70506,1,2,0:0:0:0:
448,192,70585,1,2,0:0:0:0:
192,192,70663,128,0,70977:0:0:0:0:
320,192,70663,1,2,0:0:0:0:
64,192,70820,1,0,0:0:0:0:
320,192,70977,1,0,0:0:0:0:
64,192,70977,1,2,0:0:0:0:
448,192,71134,1,0,0:0:0:0:
320,192,71134,1,2,0:0:0:0:
320,192,71291,128,0,71448:0:0:0:0:
64,192,71291,1,8,0:0:0:0:
448,192,71448,128,0,71605:0:0:0:0:
192,192,71448,1,2,0:0:0:0:
64,192,71527,1,2,0:0:0:0:
320,192,71605,1,8,0:0:0:0:
192,192,71605,128,0,71763:0:0:0:0:
64,192,71763,128,0,71920:0:0:0:0:
448,192,71763,1,8,0:0:0:0:
320,192,71841,1,2,0:0:0:0:
192,192,71920,128,0,72548:0:0:0:0:
448,192,71920,1,2,0:0:0:0:
320,192,72077,1,0,0:0:0:0:
320,192,72234,1,2,0:0:0:0:
64,192,72391,1,0,0:0:0:0:
448,192,72391,1,8,0:0:0:0:
320,192,72548,128,0,73176:0:0:0:0:
448,192,72705,1,2,0:0:0:0:
64,192,72862,1,8,0:0:0:0:
448,192,72862,1,0,0:0:0:0:
192,192,73019,1,2,0:0:0:0:
448,192,73098,1,2,0:0:0:0:
64,192,73176,128,0,73804:0:0:0:0:
192,192,73176,1,2,0:0:0:0:
192,192,73333,1,0,0:0:0:0:
320,192,73490,1,2,0:0:0:0:
448,192,73490,1,0,0:0:0:0:
320,192,73647,1,2,0:0:0:0:
192,192,73647,1,0,0:0:0:0:
448,192,73804,128,0,74433:0:0:0:0:
320,192,73804,1,2,0:0:0:0:
192,192,73962,1,2,0:0:0:0:
64,192,73962,1,0,0:0:0:0:
64,192,74119,1,0,0:0:0:0:
320,192,74119,1,8,0:0:0:0:
192,192,74276,1,2,0:0:0:0:
64,192,74354,1,2,0:0:0:0:
192,192,74433,128,0,75061:0:0:0:0:
320,192,74433,1,2,0:0:0:0:
448,192,74590,1,0,0:0:0:0:
448,192,74747,1,2,0:0:0:0:
320,192,74904,1,8,0:0:0:0:
64,192,74904,1,0,0:0:0:0:
448,192,75061,1,0,0:0:0:0:
448,192,75218,1,2,0:0:0:0:
320,192,75375,1,8,0:0:0:0:
192,192,75375,1,0,0:0:0:0:
64,192,75532,1,2,0:0:0:0:
320,192,75611,1,2,0:0:0:0:
192,192,75689,1,2,0:0:0:0:
448,192,75689,128,0,75768:0:0:0:0:
448,192,75846,1,0,0:0:0:0:
320,192,76003,1,2,0:0:0:0:
192,192,76003,128,0,76082:0:0:0:0:
192,192,76160,1,0,0:0:0:0:
320,192,76318,128,0,76396:0:0:0:0:
64,192,76318,1,2,0:0:0:0:
320,192,76475,1,0,0:0:0:0:
64,192,76632,128,8,76710:0:0:0:0:
448,192,76632,1,2,0:0:0:0:
320,192,76789,1,2,0:0:0:0:
448,192,76867,1,2,0:0:0:0:
192,192,76946,128,2,77181:0:0:0:0:
64,192,76946,1,0,0:0:0:0:
448,192,77181,128,0,77417:0:0:0:0:
320,192,77260,1,2,0:0:0:0:
64,192,77260,1,0,0:0:0:0:
192,192,77417,128,8,77653:0:0:0:0:
64,192,77574,1,0,0:0:0:0:
320,192,77574,1,2,0:0:0:0:
448,192,77653,128,0,77888:0:0:0:0:
320,192,77888,128,8,78045:0:0:0:0:
64,192,77888,1,2,0:0:0:0:
64,192,78045,128,0,78202:0:0:0:0:
448,192,78045,1,0,0:0:0:0:
448,192,78202,128,0,78438:0:0:0:0:
192,192,78202,1,2,0:0:0:0:
64,192,78438,128,0,78674:0:0:0:0:
320,192,78516,1,0,0:0:0:0:
192,192,78516,1,2,0:0:0:0:
448,192,78674,128,0,78909:0:0:0:0:
192,192,78831,1,2,0:0:0:0:
320,192,78831,1,0,0:0:0:0:
64,192,78909,128,0,79145:0:0:0:0:
320,192,79145,128,0,79302:0:0:0:0:
192,192,79145,1,2,0:0:0:0:
448,192,79302,128,0,79459:0:0:0:0:
64,192,79302,1,0,0:0:0:0:
64,192,79459,128,0,79694:0:0:0:0:
192,192,79459,1,2,0:0:0:0:
192,192,79694,128,0,79930:0:0:0:0:
448,192,79773,1,0,0:0:0:0:
320,192,79773,1,2,0:0:0:0:
64,192,79930,128,0,80166:0:0:0:0:
320,192,80087,1,2,0:0:0:0:
192,192,80087,1,0,0:0:0:0:
448,192,80166,128,0,80401:0:0:0:0:
320,192,80401,1,2,0:0:0:0:
64,192,80401,128,0,80558:0:0:0:0:
192,192,80558,1,0,0:0:0:0:
320,192,80558,128,0,80715:0:0:0:0:
192,192,80715,128,2,80872:0:0:0:0:
448,192,80715,128,0,80872:0:0:0:0:
448,192,80951,1,0,0:0:0:0:
192,192,80951,1,0,0:0:0:0:
64,192,81030,128,0,81187:0:0:0:0:
320,192,81030,128,0,81187:0:0:0:0:
192,192,81187,1,0,0:0:0:0:
448,192,81187,1,0,0:0:0:0:
448,192,81344,128,0,81501:0:0:0:0:
64,192,81344,128,2,81501:0:0:0:0:
320,192,81579,1,0,0:0:0:0:
64,192,81579,1,0,0:0:0:0:
448,192,81658,128,0,81815:0:0:0:0:
192,192,81658,128,2,81815:0:0:0:0:
64,192,81815,1,0,0:0:0:0:
320,192,81815,1,0,0:0:0:0:
192,192,81972,1,2,0:0:0:0:
448,192,81972,1,0,0:0:0:0:
320,192,82051,1,0,0:0:0:0:
192,192,82129,1,0,0:0:0:0:
64,192,82129,1,0,0:0:0:0:
320,192,82208,1,0,0:0:0:0:
448,192,82286,1,2,0:0:0:0:
64,192,82286,1,0,0:0:0:0:
320,192,82443,1,0,0:0:0:0:
192,192,82443,1,0,0:0:0:0:
448,192,82522,1,0,0:0:0:0:
320,192,82600,1,0,0:0:0:0:
64,192,82600,1,2,0:0:0:0:
448,192,82679,1,0,0:0:0:0:
192,192,82757,1,0,0:0:0:0:
64,192,82757,1,0,0:0:0:0:
448,192,82914,1,0,0:0:0:0:
320,192,82914,1,2,0:0:0:0:
192,192,82993,1,0,0:0:0:0:
64,192,83071,1,0,0:0:0:0:
448,192,83071,1,0,0:0:0:0:
320,192,83150,1,0,0:0:0:0:
192,192,83150,1,0,0:0:0:0:
64,192,83229,1,0,0:0:0:0:
448,192,83229,1,2,0:0:0:0:
320,192,83307,1,0,0:0:0:0:
192,192,83307,1,0,0:0:0:0:
64,192,83386,1,0,0:0:0:0:
448,192,83386,1,0,0:0:0:0:
192,192,83464,1,0,0:0:0:0:
320,192,83543,1,0,0:0:0:0:
448,192,83543,1,2,0:0:0:0:
192,192,83621,1,0,0:0:0:0:
64,192,83621,1,0,0:0:0:0:
320,192,83700,1,0,0:0:0:0:
448,192,83700,1,0,0:0:0:0:
64,192,83778,1,0,0:0:0:0:
192,192,83857,1,2,0:0:0:0:
448,192,83857,1,0,0:0:0:0:
320,192,83935,1,0,0:0:0:0:
64,192,83935,1,0,0:0:0:0:
192,192,84014,1,0,0:0:0:0:
448,192,84014,1,0,0:0:0:0:
320,192,84092,1,0,0:0:0:0:
64,192,84171,1,0,0:0:0:0:
192,192,84171,1,2,0:0:0:0:
320,192,84249,1,0,0:0:0:0:
448,192,84249,1,0,0:0:0:0:
192,192,84328,1,0,0:0:0:0:
64,192,84328,1,0,0:0:0:0:
320,192,84407,1,0,0:0:0:0:
448,192,84407,1,0,0:0:0:0:
192,192,84485,128,2,84642:0:0:0:0:
64,192,84485,128,0,84642:0:0:0:0:
448,192,84721,128,0,84878:0:0:0:0:
64,192,84721,128,0,84878:0:0:0:0:
320,192,84799,1,2,0:0:0:0:
192,192,84799,1,0,0:0:0:0:
192,192,84956,128,0,85113:0:0:0:0:
448,192,84956,128,0,85113:0:0:0:0:
320,192,85113,1,2,0:0:0:0:
192,192,85192,128,0,85349:0:0:0:0:
64,192,85192,128,0,85349:0:0:0:0:
320,192,85427,128,0,85506:0:0:0:0:
448,192,85427,128,2,85506:0:0:0:0:
448,192,85585,128,0,85663:0:0:0:0:
192,192,85585,128,0,85663:0:0:0:0:
320,192,85742,128,0,85899:0:0:0:0:
64,192,85742,128,2,85899:0:0:0:0:
192,192,85977,128,0,86134:0:0:0:0:
448,192,85977,128,0,86134:0:0:0:0:
64,192,86056,1,0,0:0:0:0:
320,192,86056,1,2,0:0:0:0:
448,192,86213,128,0,86370:0:0:0:0:
320,192,86213,128,0,86370:0:0:0:0:
192,192,86370,128,2,86527:0:0:0:0:
64,192,86370,128,0,86527:0:0:0:0:
320,192,86605,128,0,86763:0:0:0:0:
192,192,86605,128,0,86763:0:0:0:0:
64,192,86684,1,0,0:0:0:0:
448,192,86684,1,2,0:0:0:0:
448,192,86841,128,0,86920:0:0:0:0:
64,192,86841,128,0,86920:0:0:0:0:
320,192,86998,1,2,0:0:0:0:
192,192,86998,1,0,0:0:0:0:
64,192,87077,1,0,0:0:0:0:
320,192,87155,1,0,0:0:0:0:
448,192,87155,1,0,0:0:0:0:
64,192,87234,1,0,0:0:0:0:
192,192,87312,1,2,0:0:0:0:
448,192,87312,1,0,0:0:0:0:
320,192,87469,1,0,0:0:0:0:
192,192,87469,1,0,0:0:0:0:
448,192,87548,1,0,0:0:0:0:
320,192,87626,1,2,0:0:0:0:
64,192,87626,1,0,0:0:0:0:
448,192,87705,1,0,0:0:0:0:
192,192,87783,1,0,0:0:0:0:
64,192,87783,1,0,0:0:0:0:
448,192,87941,1,0,0:0:0:0:
320,192,87941,1,2,0:0:0:0:
192,192,88019,1,0,0:0:0:0:
64,192,88098,1,0,0:0:0:0:
448,192,88098,1,0,0:0:0:0:
192,192,88176,1,0,0:0:0:0:
320,192,88255,1,2,0:0:0:0:
64,192,88255,1,0,0:0:0:0:
448,192,88333,1,0,0:0:0:0:
192,192,88333,1,0,0:0:0:0:
320,192,88412,1,0,0:0:0:0:
64,192,88412,1,0,0:0:0:0:
448,192,88490,1,0,0:0:0:0:
320,192,88569,1,2,0:0:0:0:
192,192,88569,1,0,0:0:0:0:
64,192,88647,1,0,0:0:0:0:
448,192,88647,1,0,0:0:0:0:
320,192,88726,1,0,0:0:0:0:
192,192,88726,1,0,0:0:0:0:
448,192,88804,1,0,0:0:0:0:
192,192,88883,1,2,0:0:0:0:
64,192,88883,1,0,0:0:0:0:
320,192,88962,1,0,0:0:0:0:
448,192,88962,1,0,0:0:0:0:
192,192,89040,1,0,0:0:0:0:
64,192,89040,1,0,0:0:0:0:
320,192,89119,1,0,0:0:0:0:
448,192,89197,1,2,0:0:0:0:
64,192,89197,1,0,0:0:0:0:
192,192,89276,1,0,0:0:0:0:
320,192,89276,1,0,0:0:0:0:
64,192,89354,1,0,0:0:0:0:
448,192,89354,1,0,0:0:0:0:
320,192,89433,1,0,0:0:0:0:
192,192,89433,1,0,0:0:0:0:
448,192,89511,1,0,0:0:0:0:
64,192,89511,1,2,0:0:0:0:
192,192,89590,1,0,0:0:0:0:
320,192,89668,1,2,0:0:0:0:
448,192,89668,1,0,0:0:0:0:
192,192,89747,1,0,0:0:0:0:
64,192,89825,1,0,0:0:0:0:
320,192,89825,1,2,0:0:0:0:
448,192,89904,1,0,0:0:0:0:
320,192,89982,1,2,0:0:0:0:
192,192,89982,1,0,0:0:0:0:
64,192,90061,1,0,0:0:0:0:
448,192,90140,1,0,0:0:0:0:
192,192,90140,1,2,0:0:0:0:
320,192,90218,1,0,0:0:0:0:
448,192,90297,1,0,0:0:0:0:
64,192,90297,1,2,0:0:0:0:
192,192,90375,1,0,0:0:0:0:
320,192,90454,1,2,0:0:0:0:
448,192,90454,1,0,0:0:0:0:
64,192,90532,1,0,0:0:0:0:
192,192,90611,1,0,0:0:0:0:
320,192,90611,1,2,0:0:0:0:
448,192,90689,1,0,0:0:0:0:
192,192,90768,1,0,0:0:0:0:
64,192,90768,1,0,0:0:0:0:
320,192,90768,1,2,0:0:0:0:
192,192,90925,1,2,0:0:0:0:
64,192,90925,1,0,0:0:0:0:
320,192,91003,1,2,0:0:0:0:
448,192,91003,1,0,0:0:0:0:
64,192,91082,1,0,0:0:0:0:
448,192,91082,1,0,0:0:0:0:
192,192,91082,1,2,0:0:0:0:
448,192,91239,1,0,0:0:0:0:
320,192,91239,1,2,0:0:0:0:
64,192,91396,1,2,0:0:0:0:
320,192,91396,1,0,0:0:0:0:
192,192,91475,1,2,0:0:0:0:
448,192,91475,1,0,0:0:0:0:
320,192,91553,1,0,0:0:0:0:
64,192,91553,1,2,0:0:0:0:
192,192,91632,1,2,0:0:0:0:
320,192,91710,1,2,0:0:0:0:
448,192,91710,1,0,0:0:0:0:
192,192,91789,1,2,0:0:0:0:
64,192,91789,1,0,0:0:0:0:
320,192,91867,1,2,0:0:0:0:
448,192,91867,1,0,0:0:0:0:
192,192,91946,1,2,0:0:0:0:
64,192,91946,1,0,0:0:0:0:
320,192,92024,1,2,0:0:0:0:
448,192,92024,1,4,0:0:0:0:
64,192,92024,1,0,0:0:0:0:
192,192,92338,1,8,0:0:0:0:
64,192,92338,1,0,0:0:0:0:
448,192,92338,1,0,0:0:0:0:
320,192,92496,1,0,0:0:0:0:
192,192,92496,1,2,0:0:0:0:
448,192,92810,1,0,0:0:0:0:
320,192,92810,1,2,0:0:0:0:
320,192,92967,1,0,0:0:0:0:
192,192,92967,1,8,0:0:0:0:
64,192,92967,1,0,0:0:0:0:
64,192,93281,1,0,0:0:0:0:
320,192,93281,1,2,0:0:0:0:
192,192,93438,1,0,0:0:0:0:
448,192,93438,1,2,0:0:0:0:
448,192,93595,1,0,0:0:0:0:
320,192,93595,1,8,0:0:0:0:
64,192,93595,1,0,0:0:0:0:
192,192,93752,1,2,0:0:0:0:
64,192,93752,1,0,0:0:0:0:
448,192,93909,1,0,0:0:0:0:
320,192,94066,1,2,0:0:0:0:
192,192,94066,1,0,0:0:0:0:
192,192,94223,1,8,0:0:0:0:
64,192,94223,1,0,0:0:0:0:
448,192,94223,1,0,0:0:0:0:
320,192,94380,1,2,0:0:0:0:
448,192,94380,1,0,0:0:0:0:
192,192,94537,1,2,0:0:0:0:
64,192,94537,1,0,0:0:0:0:
448,192,94616,1,0,0:0:0:0:
320,192,94616,1,2,0:0:0:0:
192,192,94694,1,2,0:0:0:0:
64,192,94694,1,0,0:0:0:0:
320,192,94773,1,2,0:0:0:0:
448,192,94773,1,0,0:0:0:0:
448,192,94852,1,0,0:0:0:0:
64,192,94852,128,0,94930:0:0:0:0:
192,192,94852,128,8,94930:0:0:0:0:
320,192,95009,1,2,0:0:0:0:
192,192,95009,1,4,0:0:0:0:
320,192,95323,1,2,0:0:0:0:
192,192,95323,1,0,0:0:0:0:
64,192,95480,1,0,0:0:0:0:
320,192,95480,1,8,0:0:0:0:
448,192,95480,1,0,0:0:0:0:
448,192,95794,1,0,0:0:0:0:
320,192,95794,1,2,0:0:0:0:
192,192,95951,1,2,0:0:0:0:
64,192,95951,1,0,0:0:0:0:
192,192,96108,1,8,0:0:0:0:
320,192,96108,1,0,0:0:0:0:
448,192,96108,1,0,0:0:0:0:
64,192,96265,1,2,0:0:0:0:
448,192,96265,1,0,0:0:0:0:
320,192,96422,1,0,0:0:0:0:
192,192,96579,1,2,0:0:0:0:
64,192,96579,1,0,0:0:0:0:
64,192,96736,1,0,0:0:0:0:
320,192,96736,1,8,0:0:0:0:
448,192,96736,1,0,0:0:0:0:
320,192,96893,1,8,0:0:0:0:
192,192,96893,1,0,0:0:0:0:
448,192,96893,1,0,0:0:0:0:
64,192,97051,1,0,0:0:0:0:
448,192,97051,1,2,0:0:0:0:
320,192,97129,1,2,0:0:0:0:
192,192,97129,1,0,0:0:0:0:
64,192,97208,1,0,0:0:0:0:
448,192,97208,1,2,0:0:0:0:
320,192,97286,1,2,0:0:0:0:
192,192,97286,1,0,0:0:0:0:
64,192,97365,1,0,0:0:0:0:
448,192,97365,128,8,97443:0:0:0:0:
192,192,97365,128,0,97443:0:0:0:0:
320,192,97522,1,4,0:0:0:0:
64,192,97522,1,2,0:0:0:0:
192,192,97836,1,2,0:0:0:0:
448,192,97836,1,0,0:0:0:0:
320,192,97993,1,8,0:0:0:0:
448,192,97993,1,0,0:0:0:0:
64,192,97993,1,0,0:0:0:0:
192,192,98307,1,2,0:0:0:0:
64,192,98307,1,0,0:0:0:0:
192,192,98464,1,0,0:0:0:0:
320,192,98464,1,2,0:0:0:0:
448,192,98621,1,0,0:0:0:0:
64,192,98621,1,0,0:0:0:0:
320,192,98621,1,8,0:0:0:0:
192,192,98778,1,2,0:0:0:0:
64,192,98778,1,0,0:0:0:0:
320,192,98935,1,0,0:0:0:0:
448,192,99092,1,0,0:0:0:0:
64,192,99092,1,2,0:0:0:0:
320,192,99249,1,0,0:0:0:0:
192,192,99249,1,8,0:0:0:0:
64,192,99249,1,0,0:0:0:0:
448,192,99407,1,0,0:0:0:0:
192,192,99407,1,2,0:0:0:0:
64,192,99564,1,0,0:0:0:0:
320,192,99564,1,2,0:0:0:0:
448,192,99642,1,2,0:0:0:0:
192,192,99642,1,0,0:0:0:0:
64,192,99721,1,0,0:0:0:0:
320,192,99721,1,2,0:0:0:0:
192,192,99799,1,0,0:0:0:0:
448,192,99799,1,2,0:0:0:0:
320,192,99878,1,8,0:0:0:0:
192,192,99878,128,0,99956:0:0:0:0:
64,192,99878,128,0,99956:0:0:0:0:
448,192,100035,1,4,0:0:0:0:
320,192,100035,1,2,0:0:0:0:
192,192,100349,1,2,0:0:0:0:
64,192,100349,1,0,0:0:0:0:
192,192,100506,1,0,0:0:0:0:
320,192,100506,1,8,0:0:0:0:
448,192,100506,1,0,0:0:0:0:
320,192,100820,1,0,0:0:0:0:
192,192,100977,1,2,0:0:0:0:
448,192,100977,1,0,0:0:0:0:
192,192,101134,1,8,0:0:0:0:
64,192,101134,1,0,0:0:0:0:
320,192,101134,1,0,0:0:0:0:
64,192,101291,1,2,0:0:0:0:
448,192,101291,1,0,0:0:0:0:
192,192,101448,1,2,0:0:0:0:
320,192,101448,1,0,0:0:0:0:
448,192,101605,1,0,0:0:0:0:
192,192,101605,1,2,0:0:0:0:
64,192,101763,128,0,101841:0:0:0:0:
320,192,101763,1,2,0:0:0:0:
192,192,101841,128,0,101920:0:0:0:0:
448,192,101841,1,2,0:0:0:0:
64,192,101920,1,0,0:0:0:0:
320,192,101920,128,2,101998:0:0:0:0:
192,192,101998,1,0,0:0:0:0:
448,192,101998,128,2,102077:0:0:0:0:
64,192,102077,1,4,0:0:0:0:
320,192,102077,1,2,0:0:0:0:
448,192,102234,1,0,0:0:0:0:
192,192,102234,1,0,0:0:0:0:
64,192,102312,1,0,0:0:0:0:
320,192,102391,1,8,0:0:0:0:
448,192,102391,1,0,0:0:0:0:
192,192,102391,1,0,0:0:0:0:
64,192,102469,1,0,0:0:0:0:
448,192,102548,128,0,102626:0:0:0:0:
320,192,102548,128,0,102626:0:0:0:0:
192,192,102705,1,2,0:0:0:0:
320,192,102705,1,0,0:0:0:0:
64,192,102783,1,0,0:0:0:0:
448,192,102862,1,0,0:0:0:0:
320,192,102862,1,0,0:0:0:0:
192,192,102941,1,0,0:0:0:0:
64,192,103019,1,0,0:0:0:0:
320,192,103019,1,8,0:0:0:0:
448,192,103019,1,0,0:0:0:0:
192,192,103176,1,2,0:0:0:0:
64,192,103176,1,0,0:0:0:0:
320,192,103255,1,0,0:0:0:0:
192,192,103333,1,2,0:0:0:0:
64,192,103333,1,0,0:0:0:0:
448,192,103412,1,0,0:0:0:0:
192,192,103490,1,0,0:0:0:0:
320,192,103490,1,0,0:0:0:0:
448,192,103647,1,8,0:0:0:0:
64,192,103647,1,0,0:0:0:0:
320,192,103647,1,0,0:0:0:0:
192,192,103726,1,0,0:0:0:0:
64,192,103804,1,0,0:0:0:0:
448,192,103804,1,0,0:0:0:0:
320,192,103883,1,0,0:0:0:0:
192,192,103962,1,2,0:0:0:0:
64,192,103962,1,0,0:0:0:0:
320,192,104119,1,2,0:0:0:0:
448,192,104119,1,0,0:0:0:0:
192,192,104197,1,0,0:0:0:0:
320,192,104276,1,0,0:0:0:0:
448,192,104276,1,0,0:0:0:0:
64,192,104276,1,8,0:0:0:0:
192,192,104354,1,0,0:0:0:0:
64,192,104433,1,0,0:0:0:0:
320,192,104433,1,2,0:0:0:0:
448,192,104511,1,0,0:0:0:0:
320,192,104590,1,2,0:0:0:0:
64,192,104590,1,4,0:0:0:0:
192,192,104747,1,0,0:0:0:0:
448,192,104747,1,0,0:0:0:0:
320,192,104825,1,0,0:0:0:0:
64,192,104904,1,0,0:0:0:0:
192,192,104904,1,8,0:0:0:0:
448,192,104904,1,0,0:0:0:0:
320,192,104982,1,0,0:0:0:0:
64,192,105061,128,0,105140:0:0:0:0:
192,192,105061,128,0,105140:0:0:0:0:
448,192,105218,1,2,0:0:0:0:
320,192,105218,1,0,0:0:0:0:
192,192,105297,1,0,0:0:0:0:
64,192,105375,1,0,0:0:0:0:
448,192,105375,1,0,0:0:0:0:
320,192,105454,1,0,0:0:0:0:
192,192,105532,1,8,0:0:0:0:
64,192,105532,1,0,0:0:0:0:
448,192,105532,1,0,0:0:0:0:
320,192,105689,1,2,0:0:0:0:
192,192,105689,1,0,0:0:0:0:
64,192,105768,1,0,0:0:0:0:
448,192,105846,1,2,0:0:0:0:
192,192,105846,1,0,0:0:0:0:
320,192,105925,1,0,0:0:0:0:
64,192,106003,1,0,0:0:0:0:
448,192,106003,1,0,0:0:0:0:
192,192,106160,1,8,0:0:0:0:
448,192,106160,1,0,0:0:0:0:
320,192,106160,1,0,0:0:0:0:
64,192,106239,1,0,0:0:0:0:
192,192,106318,1,0,0:0:0:0:
320,192,106318,1,2,0:0:0:0:
448,192,106396,1,0,0:0:0:0:
320,192,106475,1,2,0:0:0:0:
64,192,106475,1,0,0:0:0:0:
448,192,106632,1,0,0:0:0:0:
192,192,106632,1,0,0:0:0:0:
320,192,106710,1,0,0:0:0:0:
448,192,106789,1,0,0:0:0:0:
64,192,106789,1,0,0:0:0:0:
192,192,106789,128,8,106867:0:0:0:0:
320,192,106867,128,0,106946:0:0:0:0:
64,192,106946,1,0,0:0:0:0:
448,192,106946,128,2,107024:0:0:0:0:
192,192,107024,128,0,107103:0:0:0:0:
448,192,107103,1,4,0:0:0:0:
320,192,107103,1,2,0:0:0:0:
64,192,107103,1,0,0:0:0:0:
320,192,107260,1,2,0:0:0:0:
192,192,107260,1,0,0:0:0:0:
448,192,107260,1,0,0:0:0:0:
192,192,107417,1,0,0:0:0:0:
320,192,107417,1,8,0:0:0:0:
64,192,107417,1,0,0:0:0:0:
320,192,107574,1,2,0:0:0:0:
192,192,107574,128,0,107653:0:0:0:0:
64,192,107574,128,0,107653:0:0:0:0:
192,192,107731,1,0,0:0:0:0:
448,192,107731,1,2,0:0:0:0:
64,192,107731,1,0,0:0:0:0:
64,192,107888,1,0,0:0:0:0:
320,192,107888,1,0,0:0:0:0:
448,192,107888,1,2,0:0:0:0:
448,192,108045,1,0,0:0:0:0:
320,192,108045,1,8,0:0:0:0:
192,192,108045,1,0,0:0:0:0:
64,192,108202,1,0,0:0:0:0:
192,192,108202,1,2,0:0:0:0:
320,192,108202,1,0,0:0:0:0:
320,192,108359,1,4,0:0:0:0:
192,192,108359,1,2,0:0:0:0:
64,192,108359,1,0,0:0:0:0:
64,192,108516,1,0,0:0:0:0:
320,192,108516,1,2,0:0:0:0:
448,192,108516,1,0,0:0:0:0:
192,192,108674,1,0,0:0:0:0:
320,192,108674,1,0,0:0:0:0:
448,192,108674,1,8,0:0:0:0:
448,192,108831,1,0,0:0:0:0:
192,192,108831,1,2,0:0:0:0:
64,192,108831,1,0,0:0:0:0:
64,192,108988,1,2,0:0:0:0:
192,192,108988,1,0,0:0:0:0:
448,192,108988,1,0,0:0:0:0:
320,192,109145,1,0,0:0:0:0:
192,192,109145,1,2,0:0:0:0:
64,192,109145,1,0,0:0:0:0:
192,192,109302,1,0,0:0:0:0:
64,192,109302,1,0,0:0:0:0:
448,192,109302,1,8,0:0:0:0:
448,192,109459,1,0,0:0:0:0:
320,192,109459,1,2,0:0:0:0:
64,192,109459,1,0,0:0:0:0:
320,192,109616,1,2,0:0:0:0:
448,192,109616,1,4,0:0:0:0:
192,192,109694,1,2,0:0:0:0:
64,192,109694,1,0,0:0:0:0:
320,192,109773,1,2,0:0:0:0:
448,192,109773,1,0,0:0:0:0:
192,192,109852,1,2,0:0:0:0:
64,192,109852,1,0,0:0:0:0:
320,192,109930,1,2,0:0:0:0:
448,192,109930,1,0,0:0:0:0:
192,192,110009,1,2,0:0:0:0:
64,192,110009,1,0,0:0:0:0:
320,192,110087,1,2,0:0:0:0:
448,192,110087,1,0,0:0:0:0:
192,192,110166,1,2,0:0:0:0:
448,192,110244,1,0,0:0:0:0:
64,192,110244,1,2,0:0:0:0:
320,192,110323,1,0,0:0:0:0:
192,192,110323,1,2,0:0:0:0:
64,192,110401,1,2,0:0:0:0:
448,192,110401,1,0,0:0:0:0:
320,192,110480,1,0,0:0:0:0:
192,192,110480,1,2,0:0:0:0:
64,192,110558,1,2,0:0:0:0:
448,192,110558,128,0,110637:0:0:0:0:
192,192,110637,1,2,0:0:0:0:
320,192,110637,128,0,110715:0:0:0:0:
448,192,110715,1,0,0:0:0:0:
64,192,110715,128,2,110794:0:0:0:0:
320,192,110794,1,0,0:0:0:0:
192,192,110794,128,2,110872:0:0:0:0:
448,192,110872,128,4,111187:0:0:0:0:
64,192,110872,1,2,0:0:0:0:
320,192,111815,128,0,111893:0:0:0:0:
192,192,111893,128,0,111972:0:0:0:0:
64,192,111972,128,0,112051:0:0:0:0:
448,192,112051,128,0,112129:0:0:0:0:
320,192,112129,1,2,0:0:0:0:
192,192,112129,128,4,112600:0:0:0:0:
64,192,112129,1,0,0:0:0:0:
448,192,112286,1,0,0:0:0:0:
320,192,112443,1,0,0:0:0:0:
448,192,112443,1,8,0:0:0:0:
64,192,112443,1,0,0:0:0:0:
64,192,112600,128,0,112757:0:0:0:0:
320,192,112600,1,2,0:0:0:0:
448,192,112757,128,0,112914:0:0:0:0:
192,192,112914,1,2,0:0:0:0:
64,192,112914,128,0,113071:0:0:0:0:
320,192,113071,1,8,0:0:0:0:
192,192,113071,128,0,113229:0:0:0:0:
448,192,113071,1,0,0:0:0:0:
448,192,113229,128,0,113386:0:0:0:0:
64,192,113386,1,2,0:0:0:0:
320,192,113386,128,0,113700:0:0:0:0:
192,192,113543,1,0,0:0:0:0:
192,192,113700,1,8,0:0:0:0:
448,192,113700,1,0,0:0:0:0:
64,192,113700,1,0,0:0:0:0:
448,192,113857,1,2,0:0:0:0:
64,192,113857,128,0,114014:0:0:0:0:
320,192,114014,128,0,114171:0:0:0:0:
192,192,114171,1,2,0:0:0:0:
448,192,114171,128,0,114328:0:0:0:0:
64,192,114328,1,0,0:0:0:0:
320,192,114328,1,8,0:0:0:0:
192,192,114328,128,0,114485:0:0:0:0:
448,192,114485,128,0,114642:0:0:0:0:
320,192,114485,1,2,0:0:0:0:
192,192,114564,1,2,0:0:0:0:
64,192,114564,1,0,0:0:0:0:
192,192,114642,1,2,0:0:0:0:
64,192,114642,128,0,114956:0:0:0:0:
448,192,114799,1,0,0:0:0:0:
448,192,114956,1,0,0:0:0:0:
320,192,114956,1,8,0:0:0:0:
192,192,114956,128,0,115270:0:0:0:0:
64,192,115113,1,0,0:0:0:0:
320,192,115113,1,2,0:0:0:0:
448,192,115270,128,0,115585:0:0:0:0:
320,192,115427,1,2,0:0:0:0:
64,192,115427,1,0,0:0:0:0:
64,192,115585,1,0,0:0:0:0:
192,192,115585,128,0,115899:0:0:0:0:
320,192,115585,1,8,0:0:0:0:
448,192,115742,1,0,0:0:0:0:
320,192,115742,1,2,0:0:0:0:
320,192,115899,128,0,116370:0:0:0:0:
448,192,115899,1,2,0:0:0:0:
64,192,116056,1,0,0:0:0:0:
448,192,116213,1,0,0:0:0:0:
64,192,116213,1,0,0:0:0:0:
192,192,116213,1,8,0:0:0:0:
64,192,116370,128,2,116527:0:0:0:0:
448,192,116370,1,0,0:0:0:0:
192,192,116527,128,0,116841:0:0:0:0:
320,192,116527,1,2,0:0:0:0:
448,192,116684,1,0,0:0:0:0:
320,192,116684,1,2,0:0:0:0:
64,192,116841,1,0,0:0:0:0:
448,192,116841,1,2,0:0:0:0:
320,192,116920,1,0,0:0:0:0:
192,192,116998,1,2,0:0:0:0:
64,192,116998,1,0,0:0:0:0:
320,192,117077,1,2,0:0:0:0:
448,192,117077,1,0,0:0:0:0:
192,192,117155,1,2,0:0:0:0:
64,192,117155,128,0,117234:0:0:0:0:
320,192,117312,128,0,117391:0:0:0:0:
192,192,117469,1,8,0:0:0:0:
64,192,117469,1,0,0:0:0:0:
448,192,117469,128,0,117548:0:0:0:0:
320,192,117626,128,0,117783:0:0:0:0:
448,192,117626,128,2,117705:0:0:0:0:
64,192,117783,128,0,117941:0:0:0:0:
448,192,117941,1,2,0:0:0:0:
192,192,117941,128,0,118098:0:0:0:0:
320,192,118098,1,8,0:0:0:0:
448,192,118098,128,0,118255:0:0:0:0:
64,192,118098,1,0,0:0:0:0:
320,192,118255,128,0,118412:0:0:0:0:
64,192,118412,1,0,0:0:0:0:
192,192,118412,1,2,0:0:0:0:
192,192,118569,1,0,0:0:0:0:
320,192,118726,1,8,0:0:0:0:
448,192,118726,1,0,0:0:0:0:
64,192,118726,1,0,0:0:0:0:
192,192,118883,128,0,119040:0:0:0:0:
320,192,118883,1,2,0:0:0:0:
64,192,119040,128,0,119354:0:0:0:0:
320,192,119197,1,0,0:0:0:0:
192,192,119197,1,2,0:0:0:0:
192,192,119354,1,0,0:0:0:0:
320,192,119354,1,8,0:0:0:0:
448,192,119354,128,0,119433:0:0:0:0:
64,192,119433,128,0,119511:0:0:0:0:
448,192,119511,128,0,119590:0:0:0:0:
192,192,119511,1,2,0:0:0:0:
320,192,119590,128,0,119668:0:0:0:0:
64,192,119668,128,0,120297:0:0:0:0:
192,192,119668,1,2,0:0:0:0:
448,192,119825,1,0,0:0:0:0:
192,192,119982,1,0,0:0:0:0:
320,192,119982,1,8,0:0:0:0:
448,192,119982,128,0,120297:0:0:0:0:
320,192,120140,1,2,0:0:0:0:
192,192,120140,1,0,0:0:0:0:
192,192,120297,128,0,120925:0:0:0:0:
320,192,120454,1,2,0:0:0:0:
64,192,120454,1,0,0:0:0:0:
64,192,120611,128,0,120925:0:0:0:0:
448,192,120611,1,8,0:0:0:0:
320,192,120611,1,0,0:0:0:0:
448,192,120768,1,2,0:0:0:0:
320,192,120768,1,0,0:0:0:0:
448,192,120925,1,0,0:0:0:0:
320,192,120925,128,0,121396:0:0:0:0:
448,192,121082,1,0,0:0:0:0:
192,192,121160,1,2,0:0:0:0:
64,192,121160,1,0,0:0:0:0:
192,192,121239,1,8,0:0:0:0:
448,192,121239,1,0,0:0:0:0:
64,192,121239,1,0,0:0:0:0:
192,192,121396,1,2,0:0:0:0:
64,192,121396,1,0,0:0:0:0:
320,192,121475,1,0,0:0:0:0:
448,192,121475,1,2,0:0:0:0:
192,192,121553,1,2,0:0:0:0:
64,192,121553,1,0,0:0:0:0:
320,192,121710,1,0,0:0:0:0:
192,192,121710,1,2,0:0:0:0:
448,192,121867,1,0,0:0:0:0:
320,192,121867,128,2,121946:0:0:0:0:
192,192,121946,1,2,0:0:0:0:
64,192,121946,128,0,122024:0:0:0:0:
448,192,122024,1,0,0:0:0:0:
320,192,122024,128,2,122103:0:0:0:0:
64,192,122103,1,0,0:0:0:0:
192,192,122103,128,2,122181:0:0:0:0:
320,192,122181,1,2,0:0:0:0:
64,192,122181,1,4,0:0:0:0:
448,192,122181,128,0,122653:0:0:0:0:
192,192,122338,1,0,0:0:0:0:
320,192,122496,1,8,0:0:0:0:
64,192,122496,1,0,0:0:0:0:
192,192,122496,1,0,0:0:0:0:
320,192,122653,1,2,0:0:0:0:
192,192,122653,128,0,122810:0:0:0:0:
64,192,122810,128,0,122967:0:0:0:0:
192,192,122967,128,0,123124:0:0:0:0:
448,192,122967,1,2,0:0:0:0:
320,192,123124,128,0,123281:0:0:0:0:
64,192,123124,1,0,0:0:0:0:
448,192,123124,1,8,0:0:0:0:
64,192,123281,128,0,123438:0:0:0:0:
320,192,123438,128,0,123909:0:0:0:0:
448,192,123438,1,2,0:0:0:0:
192,192,123595,1,0,0:0:0:0:
192,192,123752,1,8,0:0:0:0:
64,192,123752,1,0,0:0:0:0:
448,192,123752,1,0,0:0:0:0:
192,192,123909,1,2,0:0:0:0:
64,192,123909,128,0,124066:0:0:0:0:
448,192,124066,128,0,124223:0:0:0:0:
64,192,124223,128,0,124380:0:0:0:0:
192,192,124223,1,2,0:0:0:0:
320,192,124380,1,0,0:0:0:0:
192,192,124380,128,0,124537:0:0:0:0:
448,192,124380,1,8,0:0:0:0:
320,192,124537,128,0,124694:0:0:0:0:
448,192,124537,1,2,0:0:0:0:
192,192,124694,1,4,0:0:0:0:
64,192,124694,1,2,0:0:0:0:
448,192,124694,1,0,0:0:0:0:
64,192,124930,1,2,0:0:0:0:
192,192,124930,1,0,0:0:0:0:
448,192,124930,1,0,0:0:0:0:
448,192,125166,1,0,0:0:0:0:
64,192,125166,1,2,0:0:0:0:
192,192,125166,1,0,0:0:0:0:
64,192,125323,1,2,0:0:0:0:
192,192,125323,1,4,0:0:0:0:
320,192,125323,1,0,0:0:0:0:
64,192,125558,1,2,0:0:0:0:
320,192,125558,1,0,0:0:0:0:
192,192,125558,1,0,0:0:0:0:
64,192,125794,1,2,0:0:0:0:
320,192,125794,1,0,0:0:0:0:
192,192,125794,1,0,0:0:0:0:
320,192,125951,1,4,0:0:0:0:
192,192,125951,1,2,0:0:0:0:
448,192,125951,1,0,0:0:0:0:
64,192,126108,1,0,0:0:0:0:
320,192,126108,1,2,0:0:0:0:
192,192,126265,1,0,0:0:0:0:
448,192,126265,1,8,0:0:0:0:
64,192,126265,1,0,0:0:0:0:
448,192,126422,1,2,0:0:0:0:
192,192,126422,1,0,0:0:0:0:
64,192,126501,1,0,0:0:0:0:
320,192,126501,1,2,0:0:0:0:
192,192,126579,1,0,0:0:0:0:
448,192,126579,1,2,0:0:0:0:
64,192,126736,1,2,0:0:0:0:
320,192,126736,1,0,0:0:0:0:
448,192,126893,1,0,0:0:0:0:
320,192,126893,1,2,0:0:0:0:
192,192,126972,1,2,0:0:0:0:
64,192,126972,1,0,0:0:0:0:
448,192,127051,1,0,0:0:0:0:
320,192,127051,1,2,0:0:0:0:
192,192,127129,1,2,0:0:0:0:
64,192,127129,1,0,0:0:0:0:
320,192,127208,1,2,0:0:0:0:
448,192,127208,1,4,0:0:0:0:
448,192,127365,1,0,0:0:0:0:
64,192,127365,1,0,0:0:0:0:
192,192,127365,1,2,0:0:0:0:
64,192,127522,1,0,0:0:0:0:
320,192,127522,1,2,0:0:0:0:
192,192,127600,1,0,0:0:0:0:
448,192,127600,1,2,0:0:0:0:
64,192,127679,1,0,0:0:0:0:
320,192,127679,1,2,0:0:0:0:
192,192,127757,1,0,0:0:0:0:
448,192,127757,1,2,0:0:0:0:
320,192,127836,1,2,0:0:0:0:
64,192,127836,1,4,0:0:0:0:
64,192,127993,1,0,0:0:0:0:
448,192,127993,1,0,0:0:0:0:
192,192,127993,1,2,0:0:0:0:
64,192,128150,1,2,0:0:0:0:
448,192,128150,1,0,0:0:0:0:
192,192,128229,1,2,0:0:0:0:
320,192,128229,1,0,0:0:0:0:
64,192,128307,1,2,0:0:0:0:
448,192,128307,1,0,0:0:0:0:
320,192,128386,1,0,0:0:0:0:
192,192,128386,1,2,0:0:0:0:
64,192,128464,1,2,0:0:0:0:
448,192,128464,1,4,0:0:0:0:
192,192,128621,1,0,0:0:0:0:
64,192,128621,1,0,0:0:0:0:
320,192,128621,1,2,0:0:0:0:
320,192,128778,1,2,0:0:0:0:
192,192,128778,1,0,0:0:0:0:
448,192,128857,1,2,0:0:0:0:
64,192,128857,1,0,0:0:0:0:
320,192,128935,1,2,0:0:0:0:
192,192,128975,1,2,0:0:0:0:
64,192,129014,1,2,0:0:0:0:
320,192,129053,1,2,0:0:0:0:
192,192,129092,1,2,0:0:0:0:
448,192,129092,1,4,0:0:0:0:
64,192,129249,1,0,0:0:0:0:
448,192,129249,1,2,0:0:0:0:
192,192,129249,1,0,0:0:0:0:
64,192,129407,1,2,0:0:0:0:
320,192,129407,1,0,0:0:0:0:
192,192,129485,1,2,0:0:0:0:
448,192,129485,1,0,0:0:0:0:
64,192,129564,1,2,0:0:0:0:
320,192,129603,1,2,0:0:0:0:
192,192,129642,1,2,0:0:0:0:
64,192,129681,1,2,0:0:0:0:
320,192,129721,1,2,0:0:0:0:
448,192,129721,1,4,0:0:0:0:
64,192,129878,1,0,0:0:0:0:
448,192,129878,1,0,0:0:0:0:
192,192,129878,1,2,0:0:0:0:
192,192,130035,1,0,0:0:0:0:
64,192,130035,1,0,0:0:0:0:
320,192,130035,1,8,0:0:0:0:
448,192,130192,1,0,0:0:0:0:
192,192,130192,1,0,0:0:0:0:
320,192,130192,1,2,0:0:0:0:
192,192,130349,1,2,0:0:0:0:
64,192,130349,1,0,0:0:0:0:
320,192,130427,1,2,0:0:0:0:
448,192,130427,1,0,0:0:0:0:
192,192,130506,1,2,0:0:0:0:
64,192,130506,1,0,0:0:0:0:
320,192,130585,1,2,0:0:0:0:
448,192,130585,1,0,0:0:0:0:
192,192,130663,1,2,0:0:0:0:
64,192,130663,1,0,0:0:0:0:
320,192,130742,1,2,0:0:0:0:
448,192,130742,1,0,0:0:0:0:
192,192,130820,1,2,0:0:0:0:
64,192,130820,1,0,0:0:0:0:
320,192,130899,1,2,0:0:0:0:
448,192,130899,1,0,0:0:0:0:
64,192,130977,1,4,0:0:0:0:
192,192,130977,1,2,0:0:0:0:
448,192,130977,1,0,0:0:0:0:
192,192,131213,1,2,0:0:0:0:
64,192,131213,1,0,0:0:0:0:
448,192,131213,1,0,0:0:0:0:
448,192,131448,1,0,0:0:0:0:
192,192,131448,1,2,0:0:0:0:
64,192,131448,1,0,0:0:0:0:
192,192,131605,1,2,0:0:0:0:
320,192,131605,1,0,0:0:0:0:
448,192,131605,1,0,0:0:0:0:
320,192,131763,1,2,0:0:0:0:
64,192,131763,1,0,0:0:0:0:
64,192,131920,1,0,0:0:0:0:
192,192,131920,1,2,0:0:0:0:
448,192,131920,1,0,0:0:0:0:
448,192,132077,1,0,0:0:0:0:
320,192,132077,1,2,0:0:0:0:
64,192,132234,128,0,132312:0:0:0:0:
192,192,132312,128,0,132391:0:0:0:0:
448,192,132391,128,0,132548:0:0:0:0:
320,192,132548,1,2,0:0:0:0:
192,192,132548,1,4,0:0:0:0:
64,192,132548,1,0,0:0:0:0:
448,192,132783,1,0,0:0:0:0:
320,192,132783,1,2,0:0:0:0:
320,192,132862,1,2,0:0:0:0:
448,192,132862,1,0,0:0:0:0:
192,192,133019,1,2,0:0:0:0:
64,192,133019,1,0,0:0:0:0:
64,192,133176,1,0,0:0:0:0:
448,192,133176,1,0,0:0:0:0:
320,192,133176,1,2,0:0:0:0:
192,192,133333,1,2,0:0:0:0:
64,192,133333,1,0,0:0:0:0:
192,192,133412,1,2,0:0:0:0:
64,192,133412,1,0,0:0:0:0:
448,192,133804,1,4,0:0:0:0:
64,192,133804,1,0,0:0:0:0:
320,192,133804,1,2,0:0:0:0:
192,192,134040,1,2,0:0:0:0:
448,192,134040,1,0,0:0:0:0:
448,192,134119,1,0,0:0:0:0:
192,192,134119,1,2,0:0:0:0:
320,192,134276,1,2,0:0:0:0:
64,192,134276,1,0,0:0:0:0:
192,192,134433,1,2,0:0:0:0:
448,192,134433,1,0,0:0:0:0:
320,192,134433,1,0,0:0:0:0:
320,192,134590,1,2,0:0:0:0:
64,192,134590,1,0,0:0:0:0:
64,192,134668,1,0,0:0:0:0:
320,192,134668,1,2,0:0:0:0:
192,192,135061,1,4,0:0:0:0:
64,192,135061,1,0,0:0:0:0:
320,192,135061,1,2,0:0:0:0:
448,192,135297,1,2,0:0:0:0:
64,192,135297,1,0,0:0:0:0:
64,192,135375,1,0,0:0:0:0:
448,192,135375,1,2,0:0:0:0:
320,192,135532,1,2,0:0:0:0:
192,192,135532,1,0,0:0:0:0:
448,192,135689,1,0,0:0:0:0:
64,192,135689,1,0,0:0:0:0:
320,192,135689,1,2,0:0:0:0:
192,192,135846,1,0,0:0:0:0:
320,192,135846,1,2,0:0:0:0:
192,192,135925,1,0,0:0:0:0:
320,192,135925,1,2,0:0:0:0:
64,192,136318,1,0,0:0:0:0:
448,192,136318,1,4,0:0:0:0:
320,192,136318,1,2,0:0:0:0:
192,192,136553,1,2,0:0:0:0:
64,192,136553,1,0,0:0:0:0:
64,192,136632,1,0,0:0:0:0:
192,192,136632,1,2,0:0:0:0:
320,192,136789,1,2,0:0:0:0:
448,192,136789,1,0,0:0:0:0:
192,192,136946,1,0,0:0:0:0:
64,192,136946,1,0,0:0:0:0:
320,192,136946,1,2,0:0:0:0:
320,192,137103,1,2,0:0:0:0:
448,192,137103,1,0,0:0:0:0:
320,192,137181,1,2,0:0:0:0:
448,192,137181,1,0,0:0:0:0:
64,192,137574,1,2,0:0:0:0:
192,192,137574,1,4,0:0:0:0:
448,192,137574,1,0,0:0:0:0:
320,192,137810,1,0,0:0:0:0:
192,192,137810,1,2,0:0:0:0:
192,192,137888,1,2,0:0:0:0:
320,192,137888,1,0,0:0:0:0:
448,192,138045,1,0,0:0:0:0:
64,192,138045,1,2,0:0:0:0:
64,192,138202,1,2,0:0:0:0:
320,192,138202,1,0,0:0:0:0:
192,192,138202,1,0,0:0:0:0:
192,192,138359,1,2,0:0:0:0:
320,192,138359,1,0,0:0:0:0:
448,192,138359,1,0,0:0:0:0:
448,192,138831,1,2,0:0:0:0:
192,192,138831,1,4,0:0:0:0:
64,192,138831,1,0,0:0:0:0:
448,192,139066,1,0,0:0:0:0:
320,192,139066,1,2,0:0:0:0:
320,192,139145,1,2,0:0:0:0:
448,192,139145,1,0,0:0:0:0:
192,192,139302,1,2,0:0:0:0:
64,192,139302,1,0,0:0:0:0:
320,192,139459,1,2,0:0:0:0:
192,192,139459,1,0,0:0:0:0:
448,192,139459,1,0,0:0:0:0:
64,192,139616,1,0,0:0:0:0:
320,192,139616,1,2,0:0:0:0:
448,192,139616,1,0,0:0:0:0:
192,192,140087,1,2,0:0:0:0:
448,192,140087,1,4,0:0:0:0:
64,192,140087,1,0,0:0:0:0:
320,192,140323,1,2,0:0:0:0:
64,192,140323,1,0,0:0:0:0:
64,192,140401,1,0,0:0:0:0:
320,192,140401,1,2,0:0:0:0:
192,192,140558,1,2,0:0:0:0:
448,192,140558,1,0,0:0:0:0:
448,192,140715,1,0,0:0:0:0:
320,192,140715,1,2,0:0:0:0:
64,192,140715,1,0,0:0:0:0:
192,192,140872,1,2,0:0:0:0:
64,192,140872,1,0,0:0:0:0:
448,192,140872,1,0,0:0:0:0:
448,192,141344,1,2,0:0:0:0:
320,192,141344,1,4,0:0:0:0:
64,192,141344,1,0,0:0:0:0:
64,192,141579,1,0,0:0:0:0:
448,192,141579,1,2,0:0:0:0:
448,192,141658,1,2,0:0:0:0:
64,192,141658,1,0,0:0:0:0:
64,192,141893,1,0,0:0:0:0:
448,192,141893,1,0,0:0:0:0:
320,192,141893,1,2,0:0:0:0:
192,192,142129,1,2,0:0:0:0:
64,192,142129,1,0,0:0:0:0:
448,192,142129,1,0,0:0:0:0:
448,192,142286,1,4,0:0:0:0:
320,192,142286,128,0,142365:0:0:0:0:
192,192,142286,1,2,0:0:0:0:
64,192,142286,128,0,142365:0:0:0:0:
192,192,142443,128,0,142522:0:0:0:0:
320,192,142443,128,0,142522:0:0:0:0:
192,192,142600,1,8,0:0:0:0:
448,192,142600,128,0,142679:0:0:0:0:
64,192,142600,128,0,142679:0:0:0:0:
320,192,142757,128,0,142836:0:0:0:0:
448,192,142757,128,2,142836:0:0:0:0:
192,192,142836,1,2,0:0:0:0:
64,192,142836,1,0,0:0:0:0:
192,192,142914,128,2,142993:0:0:0:0:
64,192,142914,128,0,142993:0:0:0:0:
320,192,143071,128,0,143150:0:0:0:0:
448,192,143071,128,2,143150:0:0:0:0:
64,192,143229,128,0,143307:0:0:0:0:
192,192,143229,128,8,143307:0:0:0:0:
448,192,143229,1,0,0:0:0:0:
192,192,143386,128,2,143464:0:0:0:0:
448,192,143386,128,0,143464:0:0:0:0:
320,192,143464,1,0,0:0:0:0:
64,192,143464,1,2,0:0:0:0:
320,192,143543,128,0,143621:0:0:0:0:
192,192,143543,1,2,0:0:0:0:
448,192,143543,128,0,143621:0:0:0:0:
64,192,143700,128,0,143778:0:0:0:0:
192,192,143700,128,2,143778:0:0:0:0:
448,192,143857,128,0,143935:0:0:0:0:
192,192,143857,1,0,0:0:0:0:
320,192,143857,128,8,143935:0:0:0:0:
320,192,144014,128,0,144092:0:0:0:0:
64,192,144014,128,2,144092:0:0:0:0:
448,192,144092,1,0,0:0:0:0:
192,192,144092,1,2,0:0:0:0:
192,192,144171,128,2,144249:0:0:0:0:
448,192,144171,128,0,144249:0:0:0:0:
320,192,144328,128,0,144407:0:0:0:0:
64,192,144328,128,0,144407:0:0:0:0:
192,192,144485,1,8,0:0:0:0:
64,192,144485,128,0,144564:0:0:0:0:
448,192,144485,128,0,144564:0:0:0:0:
192,192,144642,128,0,144721:0:0:0:0:
320,192,144642,128,2,144721:0:0:0:0:
448,192,144721,1,2,0:0:0:0:
64,192,144721,1,0,0:0:0:0:
448,192,144799,128,0,144878:0:0:0:0:
320,192,144799,1,2,0:0:0:0:
192,192,144799,128,0,144878:0:0:0:0:
64,192,144956,128,0,145035:0:0:0:0:
320,192,144956,128,0,145035:0:0:0:0:
192,192,145113,1,0,0:0:0:0:
448,192,145113,128,0,145192:0:0:0:0:
320,192,145113,128,8,145192:0:0:0:0:
64,192,145270,128,0,145349:0:0:0:0:
192,192,145270,128,2,145349:0:0:0:0:
320,192,145349,1,2,0:0:0:0:
448,192,145349,1,0,0:0:0:0:
320,192,145427,128,2,145506:0:0:0:0:
448,192,145427,128,0,145506:0:0:0:0:
192,192,145585,128,0,145663:0:0:0:0:
320,192,145585,128,2,145663:0:0:0:0:
320,192,145742,1,8,0:0:0:0:
64,192,145742,128,0,145820:0:0:0:0:
448,192,145742,128,0,145820:0:0:0:0:
448,192,145899,128,0,145977:0:0:0:0:
192,192,145899,128,2,145977:0:0:0:0:
320,192,145977,1,0,0:0:0:0:
64,192,145977,1,2,0:0:0:0:
320,192,146056,128,0,146134:0:0:0:0:
448,192,146056,1,0,0:0:0:0:
192,192,146056,128,2,146134:0:0:0:0:
448,192,146213,128,0,146291:0:0:0:0:
64,192,146213,128,0,146291:0:0:0:0:
320,192,146370,128,0,146448:0:0:0:0:
192,192,146370,128,8,146448:0:0:0:0:
64,192,146370,1,0,0:0:0:0:
448,192,146527,128,0,146605:0:0:0:0:
192,192,146527,128,0,146605:0:0:0:0:
320,192,146605,1,0,0:0:0:0:
64,192,146605,1,2,0:0:0:0:
320,192,146684,128,0,146763:0:0:0:0:
64,192,146684,128,2,146763:0:0:0:0:
192,192,146841,128,2,146920:0:0:0:0:
448,192,146841,128,0,146920:0:0:0:0:
448,192,146998,1,0,0:0:0:0:
320,192,146998,1,2,0:0:0:0:
192,192,147077,1,2,0:0:0:0:
64,192,147077,1,0,0:0:0:0:
448,192,147155,1,0,0:0:0:0:
320,192,147155,1,2,0:0:0:0:
192,192,147234,1,2,0:0:0:0:
64,192,147234,1,0,0:0:0:0:
192,192,147312,1,0,0:0:0:0:
320,192,147312,128,2,147391:0:0:0:0:
448,192,147312,1,4,0:0:0:0:
64,192,147312,128,0,147391:0:0:0:0:
192,192,147469,1,2,0:0:0:0:
448,192,147469,128,0,147548:0:0:0:0:
320,192,147469,128,0,147548:0:0:0:0:
192,192,147626,1,8,0:0:0:0:
64,192,147626,128,0,147705:0:0:0:0:
320,192,147626,128,0,147705:0:0:0:0:
448,192,147783,1,2,0:0:0:0:
320,192,147783,128,0,147862:0:0:0:0:
64,192,147783,128,0,147862:0:0:0:0:
64,192,147941,1,0,0:0:0:0:
192,192,147941,128,0,148019:0:0:0:0:
448,192,147941,128,2,148019:0:0:0:0:
320,192,148098,1,2,0:0:0:0:
448,192,148098,128,0,148176:0:0:0:0:
64,192,148098,128,0,148176:0:0:0:0:
320,192,148255,1,8,0:0:0:0:
192,192,148255,128,0,148333:0:0:0:0:
64,192,148255,128,0,148333:0:0:0:0:
192,192,148412,1,2,0:0:0:0:
320,192,148412,128,0,148490:0:0:0:0:
448,192,148412,128,0,148490:0:0:0:0:
192,192,148569,1,2,0:0:0:0:
320,192,148569,1,4,0:0:0:0:
64,192,148569,128,0,148647:0:0:0:0:
448,192,148569,128,0,148647:0:0:0:0:
320,192,148726,1,2,0:0:0:0:
448,192,148726,128,0,148804:0:0:0:0:
64,192,148726,128,0,148804:0:0:0:0:
448,192,148883,1,0,0:0:0:0:
192,192,148883,128,0,148962:0:0:0:0:
64,192,148883,128,0,148962:0:0:0:0:
320,192,149040,1,2,0:0:0:0:
64,192,149040,128,0,149119:0:0:0:0:
448,192,149040,128,0,149119:0:0:0:0:
192,192,149197,1,2,0:0:0:0:
320,192,149197,128,0,149276:0:0:0:0:
448,192,149197,128,0,149276:0:0:0:0:
448,192,149354,1,0,0:0:0:0:
64,192,149354,128,0,149433:0:0:0:0:
192,192,149354,128,2,149433:0:0:0:0:
64,192,149511,1,0,0:0:0:0:
320,192,149511,128,8,149590:0:0:0:0:
192,192,149511,128,0,149590:0:0:0:0:
448,192,149668,128,0,149747:0:0:0:0:
320,192,149668,1,2,0:0:0:0:
64,192,149668,128,0,149747:0:0:0:0:
192,192,149825,1,2,0:0:0:0:
64,192,149825,1,4,0:0:0:0:
448,192,149904,1,0,0:0:0:0:
320,192,149904,1,2,0:0:0:0:
192,192,149982,1,2,0:0:0:0:
64,192,149982,1,0,0:0:0:0:
448,192,150061,1,0,0:0:0:0:
320,192,150061,1,2,0:0:0:0:
192,192,150140,1,2,0:0:0:0:
64,192,150140,1,0,0:0:0:0:
320,192,150218,1,2,0:0:0:0:
448,192,150218,1,0,0:0:0:0:
192,192,150297,1,2,0:0:0:0:
64,192,150297,1,0,0:0:0:0:
320,192,150375,1,2,0:0:0:0:
448,192,150375,1,0,0:0:0:0:
192,192,150454,1,2,0:0:0:0:
64,192,150454,1,0,0:0:0:0:
320,192,150532,1,2,0:0:0:0:
448,192,150532,1,0,0:0:0:0:
192,192,150611,1,2,0:0:0:0:
64,192,150611,1,0,0:0:0:0:
320,192,150689,1,2,0:0:0:0:
448,192,150689,1,0,0:0:0:0:
192,192,150768,1,2,0:0:0:0:
64,192,150768,1,0,0:0:0:0:
320,192,150846,1,2,0:0:0:0:
448,192,150846,1,0,0:0:0:0:
192,192,150925,1,2,0:0:0:0:
64,192,150925,1,0,0:0:0:0:
320,192,151003,1,2,0:0:0:0:
64,192,151082,1,2,0:0:0:0:
448,192,151082,1,4,0:0:0:0:
192,192,151160,1,2,0:0:0:0:
320,192,151160,1,0,0:0:0:0:
64,192,151239,1,2,0:0:0:0:
448,192,151239,1,0,0:0:0:0:
320,192,151318,1,0,0:0:0:0:
192,192,151318,1,2,0:0:0:0:
64,192,151396,1,2,0:0:0:0:
448,192,151396,1,0,0:0:0:0:
320,192,151475,1,0,0:0:0:0:
192,192,151475,1,2,0:0:0:0:
64,192,151553,1,2,0:0:0:0:
448,192,151553,1,0,0:0:0:0:
320,192,151632,1,0,0:0:0:0:
192,192,151632,1,2,0:0:0:0:
64,192,151710,1,2,0:0:0:0:
448,192,151749,1,0,0:0:0:0:
320,192,151789,1,0,0:0:0:0:
192,192,151828,1,0,0:0:0:0:
448,192,151867,1,0,0:0:0:0:
64,192,151907,1,0,0:0:0:0:
192,192,151946,1,0,0:0:0:0:
320,192,151985,1,0,0:0:0:0:
64,192,152024,1,0,0:0:0:0:
448,192,152064,1,0,0:0:0:0:
320,192,152103,1,0,0:0:0:0:
192,192,152142,1,0,0:0:0:0:
448,192,152181,1,0,0:0:0:0:
64,192,152221,1,0,0:0:0:0:
192,192,152260,1,0,0:0:0:0:
320,192,152299,1,0,0:0:0:0:
64,192,152338,1,4,0:0:0:0:
448,192,152338,1,2,0:0:0:0:
192,192,152417,1,0,0:0:0:0:
320,192,152496,1,0,0:0:0:0:
64,192,152574,1,0,0:0:0:0:
192,192,152574,1,2,0:0:0:0:
448,192,152574,1,4,0:0:0:0:
320,192,152653,1,0,0:0:0:0:
448,192,152731,1,0,0:0:0:0:
192,192,152810,1,2,0:0:0:0:
64,192,152810,1,0,0:0:0:0:
320,192,152810,1,4,0:0:0:0:
448,192,152888,1,0,0:0:0:0:
64,192,152967,1,0,0:0:0:0:
192,192,153045,1,2,0:0:0:0:
320,192,153045,1,4,0:0:0:0:
448,192,153045,1,0,0:0:0:0:
64,192,153124,1,0,0:0:0:0:
192,192,153202,1,0,0:0:0:0:
320,192,153281,1,2,0:0:0:0:
448,192,153281,1,4,0:0:0:0:
64,192,153281,1,0,0:0:0:0:
192,192,153359,1,0,0:0:0:0:
320,192,153438,1,0,0:0:0:0:
448,192,153516,1,0,0:0:0:0:
192,192,153516,1,2,0:0:0:0:
64,192,153516,1,4,0:0:0:0:
320,192,153595,1,0,0:0:0:0:
448,192,153674,1,0,0:0:0:0:
192,192,153752,1,4,0:0:0:0:
64,192,153752,1,0,0:0:0:0:
320,192,153752,1,2,0:0:0:0:
448,192,153831,1,0,0:0:0:0:
64,192,153909,1,0,0:0:0:0:
192,192,153988,1,2,0:0:0:0:
448,192,153988,128,0,155480:0:0:0:0:
320,192,153988,128,4,156265:0:0:0:0:
64,192,156265,1,0,0:0:0:0:
192,192,156304,1,0,0:0:0:0:
320,192,156344,1,0,0:0:0:0:
448,192,156383,1,0,0:0:0:0:
64,192,156422,1,0,0:0:0:0:
192,192,156462,1,0,0:0:0:0:
320,192,156501,1,0,0:0:0:0:
448,192,156540,1,0,0:0:0:0:
64,192,156579,1,0,0:0:0:0:
192,192,156619,1,0,0:0:0:0:
320,192,156658,1,0,0:0:0:0:
448,192,156697,1,0,0:0:0:0:
64,192,156736,1,0,0:0:0:0:
192,192,156776,1,0,0:0:0:0:
320,192,156815,1,0,0:0:0:0:
448,192,156854,1,0,0:0:0:0:
64,192,156893,1,0,0:0:0:0:
192,192,156933,1,0,0:0:0:0:
320,192,156972,1,0,0:0:0:0:
448,192,157011,1,0,0:0:0:0:
64,192,157051,1,0,0:0:0:0:
192,192,157090,1,0,0:0:0:0:
320,192,157129,1,0,0:0:0:0:
448,192,157168,1,0,0:0:0:0:
64,192,157208,1,0,0:0:0:0:
192,192,157247,1,0,0:0:0:0:
320,192,157286,1,0,0:0:0:0:
448,192,157325,1,0,0:0:0:0:
192,192,157365,1,4,0:0:0:0:
64,192,157365,1,2,0:0:0:0:
64,192,157522,1,0,0:0:0:0:
192,192,157679,1,0,0:0:0:0:
448,192,157679,1,0,0:0:0:0:
320,192,157679,1,8,0:0:0:0:
320,192,157836,1,2,0:0:0:0:
64,192,157836,1,0,0:0:0:0:
448,192,157993,1,0,0:0:0:0:
320,192,158150,1,2,0:0:0:0:
192,192,158150,1,0,0:0:0:0:
64,192,158307,1,0,0:0:0:0:
320,192,158307,1,8,0:0:0:0:
448,192,158307,1,0,0:0:0:0:
64,192,158464,1,0,0:0:0:0:
320,192,158621,1,0,0:0:0:0:
192,192,158621,1,2,0:0:0:0:
448,192,158778,1,0,0:0:0:0:
64,192,158935,1,0,0:0:0:0:
192,192,158935,1,0,0:0:0:0:
320,192,158935,1,8,0:0:0:0:
320,192,159092,1,2,0:0:0:0:
448,192,159092,1,0,0:0:0:0:
64,192,159249,1,0,0:0:0:0:
192,192,159407,1,0,0:0:0:0:
320,192,159407,1,2,0:0:0:0:
64,192,159564,1,0,0:0:0:0:
320,192,159564,1,8,0:0:0:0:
448,192,159564,1,0,0:0:0:0:
192,192,159721,1,2,0:0:0:0:
448,192,159721,1,0,0:0:0:0:
320,192,159799,1,0,0:0:0:0:
64,192,159878,1,0,0:0:0:0:
192,192,159878,1,2,0:0:0:0:
448,192,159878,1,0,0:0:0:0:
64,192,160035,1,0,0:0:0:0:
448,192,160192,1,0,0:0:0:0:
192,192,160192,1,0,0:0:0:0:
320,192,160192,1,8,0:0:0:0:
64,192,160349,1,2,0:0:0:0:
448,192,160349,1,0,0:0:0:0:
192,192,160506,1,0,0:0:0:0:
320,192,160663,1,2,0:0:0:0:
448,192,160663,1,0,0:0:0:0:
192,192,160820,1,8,0:0:0:0:
64,192,160820,1,0,0:0:0:0:
448,192,160820,128,0,160977:0:0:0:0:
320,192,160977,128,0,161134:0:0:0:0:
192,192,161134,1,0,0:0:0:0:
64,192,161448,1,0,0:0:0:0:
192,192,161448,1,0,0:0:0:0:
320,192,161448,1,4,0:0:0:0:
448,192,161448,1,2,0:0:0:0:
64,192,161763,1,0,0:0:0:0:
192,192,161763,1,0,0:0:0:0:
320,192,161763,1,4,0:0:0:0:
448,192,161763,1,2,0:0:0:0:
448,192,162077,1,2,0:0:0:0:
320,192,162077,1,4,0:0:0:0:
64,192,162077,1,0,0:0:0:0:
192,192,162077,1,0,0:0:0:0:
64,192,162391,1,0,0:0:0:0:
192,192,162391,1,0,0:0:0:0:
320,192,162391,1,4,0:0:0:0:
448,192,162391,1,2,0:0:0:0:
448,192,162705,1,0,0:0:0:0:
320,192,162705,1,8,0:0:0:0:
192,192,162705,1,0,0:0:0:0:
192,192,162862,1,2,0:0:0:0:
64,192,162862,1,0,0:0:0:0:
448,192,163019,1,0,0:0:0:0:
192,192,163176,1,0,0:0:0:0:
320,192,163176,1,2,0:0:0:0:
448,192,163333,1,0,0:0:0:0:
192,192,163333,1,8,0:0:0:0:
64,192,163333,1,0,0:0:0:0:
320,192,163490,1,0,0:0:0:0:
64,192,163647,1,2,0:0:0:0:
448,192,163647,1,0,0:0:0:0:
192,192,163804,1,0,0:0:0:0:
320,192,163962,1,8,0:0:0:0:
192,192,163962,1,0,0:0:0:0:
64,192,163962,1,0,0:0:0:0:
448,192,164119,1,0,0:0:0:0:
320,192,164119,1,2,0:0:0:0:
64,192,164276,1,0,0:0:0:0:
320,192,164433,1,2,0:0:0:0:
192,192,164433,1,0,0:0:0:0:
64,192,164590,1,0,0:0:0:0:
448,192,164590,1,0,0:0:0:0:
320,192,164590,1,8,0:0:0:0:
192,192,164747,1,2,0:0:0:0:
64,192,164747,1,0,0:0:0:0:
192,192,164904,1,0,0:0:0:0:
448,192,164904,1,0,0:0:0:0:
320,192,164904,1,2,0:0:0:0:
64,192,164982,1,0,0:0:0:0:
320,192,165061,1,0,0:0:0:0:
448,192,165061,1,0,0:0:0:0:
192,192,165140,1,0,0:0:0:0:
64,192,165218,1,0,0:0:0:0:
320,192,165218,1,8,0:0:0:0:
448,192,165218,1,0,0:0:0:0:
192,192,165297,1,0,0:0:0:0:
64,192,165375,1,2,0:0:0:0:
448,192,165375,1,0,0:0:0:0:
320,192,165454,1,0,0:0:0:0:
192,192,165532,1,0,0:0:0:0:
64,192,165532,1,0,0:0:0:0:
448,192,165611,1,0,0:0:0:0:
320,192,165689,1,2,0:0:0:0:
192,192,165689,1,0,0:0:0:0:
64,192,165768,1,0,0:0:0:0:
192,192,165846,1,0,0:0:0:0:
320,192,165846,1,8,0:0:0:0:
448,192,165846,1,0,0:0:0:0:
64,192,165925,1,0,0:0:0:0:
448,192,166003,1,0,0:0:0:0:
320,192,166003,1,0,0:0:0:0:
192,192,166082,1,0,0:0:0:0:
64,192,166160,1,0,0:0:0:0:
448,192,166160,1,0,0:0:0:0:
64,192,166475,1,0,0:0:0:0:
192,192,166475,1,0,0:0:0:0:
320,192,166475,1,4,0:0:0:0:
448,192,166475,1,2,0:0:0:0:
448,192,166789,1,2,0:0:0:0:
320,192,166789,1,4,0:0:0:0:
192,192,166789,1,0,0:0:0:0:
64,192,166789,1,0,0:0:0:0:
64,192,167103,1,0,0:0:0:0:
192,192,167103,1,0,0:0:0:0:
320,192,167103,1,4,0:0:0:0:
448,192,167103,1,2,0:0:0:0:
448,192,167417,1,2,0:0:0:0:
320,192,167417,1,4,0:0:0:0:
192,192,167417,1,0,0:0:0:0:
64,192,167417,1,0,0:0:0:0:
192,192,167731,1,8,0:0:0:0:
320,192,167731,1,0,0:0:0:0:
448,192,167731,1,0,0:0:0:0:
64,192,167888,1,0,0:0:0:0:
320,192,167888,1,2,0:0:0:0:
448,192,168045,1,0,0:0:0:0:
192,192,168202,1,2,0:0:0:0:
64,192,168202,1,0,0:0:0:0:
64,192,168359,1,0,0:0:0:0:
448,192,168359,1,0,0:0:0:0:
320,192,168359,1,8,0:0:0:0:
192,192,168516,1,0,0:0:0:0:
64,192,168674,1,2,0:0:0:0:
448,192,168674,1,0,0:0:0:0:
320,192,168831,1,0,0:0:0:0:
192,192,168988,1,8,0:0:0:0:
64,192,168988,1,0,0:0:0:0:
448,192,168988,1,0,0:0:0:0:
320,192,169145,1,0,0:0:0:0:
192,192,169145,1,2,0:0:0:0:
448,192,169302,1,0,0:0:0:0:
192,192,169459,1,2,0:0:0:0:
64,192,169459,1,0,0:0:0:0:
192,192,169616,1,0,0:0:0:0:
320,192,169616,1,8,0:0:0:0:
448,192,169616,1,0,0:0:0:0:
320,192,169773,1,2,0:0:0:0:
64,192,169773,1,0,0:0:0:0:
192,192,169930,1,2,0:0:0:0:
64,192,169930,1,0,0:0:0:0:
448,192,169930,1,0,0:0:0:0:
320,192,170087,1,0,0:0:0:0:
192,192,170244,1,8,0:0:0:0:
64,192,170244,1,0,0:0:0:0:
448,192,170244,1,0,0:0:0:0:
64,192,170401,1,0,0:0:0:0:
320,192,170401,1,2,0:0:0:0:
448,192,170558,1,0,0:0:0:0:
320,192,170715,1,0,0:0:0:0:
192,192,170715,1,2,0:0:0:0:
448,192,170872,1,0,0:0:0:0:
320,192,170872,1,8,0:0:0:0:
64,192,170872,128,0,171187:0:0:0:0:
192,192,171501,1,0,0:0:0:0:
64,192,171501,1,0,0:0:0:0:
320,192,171501,1,2,0:0:0:0:
448,192,171501,1,4,0:0:0:0:
448,192,171815,1,4,0:0:0:0:
320,192,171815,1,2,0:0:0:0:
192,192,171815,1,0,0:0:0:0:
64,192,171815,1,0,0:0:0:0:
64,192,172129,1,0,0:0:0:0:
192,192,172129,1,0,0:0:0:0:
320,192,172129,1,2,0:0:0:0:
448,192,172129,1,4,0:0:0:0:
448,192,172443,1,4,0:0:0:0:
320,192,172443,1,2,0:0:0:0:
192,192,172443,1,0,0:0:0:0:
64,192,172443,1,0,0:0:0:0:
448,192,172757,1,0,0:0:0:0:
320,192,172757,1,8,0:0:0:0:
64,192,172757,1,0,0:0:0:0:
320,192,172914,1,2,0:0:0:0:
192,192,172914,1,0,0:0:0:0:
448,192,173071,1,0,0:0:0:0:
320,192,173229,1,2,0:0:0:0:
192,192,173229,1,0,0:0:0:0:
192,192,173386,1,8,0:0:0:0:
448,192,173386,1,0,0:0:0:0:
64,192,173386,1,0,0:0:0:0:
320,192,173543,1,0,0:0:0:0:
64,192,173700,1,2,0:0:0:0:
448,192,173700,1,0,0:0:0:0:
192,192,173857,1,0,0:0:0:0:
320,192,174014,1,8,0:0:0:0:
64,192,174014,1,0,0:0:0:0:
448,192,174014,1,0,0:0:0:0:
192,192,174171,1,2,0:0:0:0:
448,192,174171,1,0,0:0:0:0:
64,192,174328,1,0,0:0:0:0:
448,192,174485,1,0,0:0:0:0:
192,192,174485,1,2,0:0:0:0:
192,192,174642,1,0,0:0:0:0:
320,192,174642,1,8,0:0:0:0:
64,192,174642,1,0,0:0:0:0:
448,192,174799,1,2,0:0:0:0:
320,192,174799,1,0,0:0:0:0:
448,192,174956,1,0,0:0:0:0:
192,192,174956,1,2,0:0:0:0:
64,192,174956,1,0,0:0:0:0:
320,192,175035,1,0,0:0:0:0:
448,192,175113,1,0,0:0:0:0:
64,192,175113,1,0,0:0:0:0:
192,192,175192,1,0,0:0:0:0:
448,192,175270,1,0,0:0:0:0:
64,192,175270,1,0,0:0:0:0:
320,192,175270,1,8,0:0:0:0:
192,192,175349,1,0,0:0:0:0:
320,192,175427,1,2,0:0:0:0:
448,192,175427,1,0,0:0:0:0:
64,192,175506,1,0,0:0:0:0:
192,192,175585,1,0,0:0:0:0:
320,192,175585,1,0,0:0:0:0:
64,192,175663,1,0,0:0:0:0:
320,192,175742,1,2,0:0:0:0:
448,192,175742,1,0,0:0:0:0:
192,192,175820,1,0,0:0:0:0:
320,192,175899,1,8,0:0:0:0:
64,192,175899,1,0,0:0:0:0:
448,192,175899,1,0,0:0:0:0:
192,192,175977,1,0,0:0:0:0:
320,192,176056,1,0,0:0:0:0:
448,192,176056,1,0,0:0:0:0:
64,192,176134,1,0,0:0:0:0:
192,192,176213,1,2,0:0:0:0:
320,192,176213,128,0,176291:0:0:0:0:
64,192,176291,1,0,0:0:0:0:
448,192,176370,1,0,0:0:0:0:
192,192,176448,1,0,0:0:0:0:
64,192,176527,1,0,0:0:0:0:
448,192,176527,1,0,0:0:0:0:
320,192,176527,1,8,0:0:0:0:
192,192,176605,1,0,0:0:0:0:
448,192,176684,1,0,0:0:0:0:
320,192,176684,1,2,0:0:0:0:
64,192,176763,1,0,0:0:0:0:
192,192,176841,1,0,0:0:0:0:
320,192,176841,1,0,0:0:0:0:
448,192,176920,1,0,0:0:0:0:
320,192,176998,1,2,0:0:0:0:
64,192,176998,1,0,0:0:0:0:
192,192,177077,1,0,0:0:0:0:
320,192,177155,1,8,0:0:0:0:
448,192,177155,1,0,0:0:0:0:
64,192,177155,1,0,0:0:0:0:
192,192,177234,1,0,0:0:0:0:
320,192,177312,1,2,0:0:0:0:
448,192,177312,1,0,0:0:0:0:
192,192,177391,1,2,0:0:0:0:
64,192,177391,1,0,0:0:0:0:
320,192,177469,1,2,0:0:0:0:
64,192,177469,1,0,0:0:0:0:
448,192,177469,1,4,0:0:0:0:
448,192,177626,1,0,0:0:0:0:
64,192,177783,1,0,0:0:0:0:
320,192,177783,1,8,0:0:0:0:
192,192,177783,1,0,0:0:0:0:
448,192,177941,1,0,0:0:0:0:
320,192,177941,1,2,0:0:0:0:
64,192,178098,1,0,0:0:0:0:
192,192,178255,1,2,0:0:0:0:
448,192,178255,1,0,0:0:0:0:
320,192,178412,1,8,0:0:0:0:
448,192,178412,1,0,0:0:0:0:
64,192,178412,1,0,0:0:0:0:
192,192,178569,1,0,0:0:0:0:
448,192,178726,1,0,0:0:0:0:
320,192,178726,1,2,0:0:0:0:
192,192,178883,1,0,0:0:0:0:
64,192,179040,1,0,0:0:0:0:
448,192,179040,1,0,0:0:0:0:
320,192,179040,1,8,0:0:0:0:
192,192,179197,1,0,0:0:0:0:
320,192,179197,1,2,0:0:0:0:
448,192,179354,1,0,0:0:0:0:
192,192,179511,1,2,0:0:0:0:
64,192,179511,1,0,0:0:0:0:
320,192,179668,1,8,0:0:0:0:
448,192,179668,1,0,0:0:0:0:
64,192,179668,1,0,0:0:0:0:
320,192,179825,1,2,0:0:0:0:
192,192,179825,1,0,0:0:0:0:
320,192,179982,1,2,0:0:0:0:
192,192,179982,1,0,0:0:0:0:
448,192,179982,1,0,0:0:0:0:
64,192,180140,1,0,0:0:0:0:
448,192,180297,1,0,0:0:0:0:
320,192,180297,1,0,0:0:0:0:
64,192,180297,1,8,0:0:0:0:
192,192,180454,1,2,0:0:0:0:
320,192,180454,1,0,0:0:0:0:
64,192,180611,1,0,0:0:0:0:
448,192,180768,1,0,0:0:0:0:
192,192,180768,1,2,0:0:0:0:
320,192,180925,1,8,0:0:0:0:
64,192,180925,1,0,0:0:0:0:
448,192,180925,1,0,0:0:0:0:
192,192,181082,1,0,0:0:0:0:
64,192,181239,1,0,0:0:0:0:
320,192,181239,1,2,0:0:0:0:
448,192,181396,1,0,0:0:0:0:
320,192,181553,1,8,0:0:0:0:
448,192,181553,1,0,0:0:0:0:
64,192,181553,1,0,0:0:0:0:
192,192,181710,1,2,0:0:0:0:
320,192,181710,1,0,0:0:0:0:
64,192,181867,1,2,0:0:0:0:
448,192,181867,1,0,0:0:0:0:
64,192,182181,1,0,0:0:0:0:
192,192,182181,1,0,0:0:0:0:
320,192,182181,1,4,0:0:0:0:
448,192,182181,1,2,0:0:0:0:
448,192,182496,1,2,0:0:0:0:
320,192,182496,1,4,0:0:0:0:
192,192,182496,1,0,0:0:0:0:
64,192,182496,1,0,0:0:0:0:
320,192,182810,1,8,0:0:0:0:
192,192,182810,1,0,0:0:0:0:
64,192,182810,1,0,0:0:0:0:
448,192,182967,1,0,0:0:0:0:
192,192,182967,1,2,0:0:0:0:
320,192,183124,1,0,0:0:0:0:
448,192,183281,1,0,0:0:0:0:
64,192,183281,1,2,0:0:0:0:
448,192,183438,1,0,0:0:0:0:
192,192,183438,1,8,0:0:0:0:
64,192,183438,1,0,0:0:0:0:
320,192,183595,1,0,0:0:0:0:
192,192,183752,1,2,0:0:0:0:
64,192,183752,1,0,0:0:0:0:
320,192,183909,1,0,0:0:0:0:
448,192,184066,1,0,0:0:0:0:
192,192,184066,1,0,0:0:0:0:
320,192,184066,1,8,0:0:0:0:
64,192,184223,1,0,0:0:0:0:
192,192,184223,1,2,0:0:0:0:
448,192,184380,1,0,0:0:0:0:
192,192,184537,1,2,0:0:0:0:
64,192,184537,1,0,0:0:0:0:
448,192,184694,1,0,0:0:0:0:
320,192,184694,1,8,0:0:0:0:
64,192,184694,1,0,0:0:0:0:
192,192,184852,1,2,0:0:0:0:
448,192,184852,1,0,0:0:0:0:
64,192,185009,1,2,0:0:0:0:
320,192,185009,1,0,0:0:0:0:
192,192,185166,1,0,0:0:0:0:
64,192,185323,1,0,0:0:0:0:
320,192,185323,1,8,0:0:0:0:
448,192,185323,1,0,0:0:0:0:
64,192,185480,1,0,0:0:0:0:
192,192,185480,1,2,0:0:0:0:
320,192,185637,1,0,0:0:0:0:
192,192,185794,1,2,0:0:0:0:
448,192,185794,1,0,0:0:0:0:
64,192,185951,1,0,0:0:0:0:
192,192,185951,1,8,0:0:0:0:
448,192,185951,1,0,0:0:0:0:
320,192,186108,1,0,0:0:0:0:
64,192,186108,1,2,0:0:0:0:
448,192,186265,1,0,0:0:0:0:
192,192,186265,1,2,0:0:0:0:
320,192,186422,1,0,0:0:0:0:
448,192,186579,1,0,0:0:0:0:
64,192,186579,1,0,0:0:0:0:
192,192,186579,1,8,0:0:0:0:
64,192,186736,1,0,0:0:0:0:
320,192,186736,1,2,0:0:0:0:
192,192,186893,1,2,0:0:0:0:
448,192,186893,1,0,0:0:0:0:
64,192,187208,1,0,0:0:0:0:
192,192,187208,1,0,0:0:0:0:
320,192,187208,1,4,0:0:0:0:
448,192,187208,1,2,0:0:0:0:
448,192,187522,1,2,0:0:0:0:
320,192,187522,1,4,0:0:0:0:
192,192,187522,1,0,0:0:0:0:
64,192,187522,1,0,0:0:0:0:
320,192,187836,1,8,0:0:0:0:
192,192,187836,1,0,0:0:0:0:
64,192,187836,1,0,0:0:0:0:
192,192,187993,1,2,0:0:0:0:
448,192,187993,1,0,0:0:0:0:
320,192,188150,1,0,0:0:0:0:
64,192,188150,1,0,0:0:0:0:
192,192,188229,1,0,0:0:0:0:
64,192,188307,1,2,0:0:0:0:
448,192,188307,1,0,0:0:0:0:
320,192,188386,1,0,0:0:0:0:
448,192,188464,1,0,0:0:0:0:
64,192,188464,1,0,0:0:0:0:
192,192,188464,1,8,0:0:0:0:
320,192,188543,1,0,0:0:0:0:
64,192,188621,1,0,0:0:0:0:
192,192,188621,1,0,0:0:0:0:
448,192,188700,1,0,0:0:0:0:
192,192,188778,1,0,0:0:0:0:
320,192,188778,1,2,0:0:0:0:
448,192,188857,1,0,0:0:0:0:
64,192,188935,1,0,0:0:0:0:
320,192,188935,1,0,0:0:0:0:
192,192,189014,1,0,0:0:0:0:
64,192,189092,1,0,0:0:0:0:
448,192,189092,1,0,0:0:0:0:
320,192,189092,1,8,0:0:0:0:
192,192,189171,1,0,0:0:0:0:
448,192,189249,1,0,0:0:0:0:
320,192,189249,1,2,0:0:0:0:
192,192,189328,1,0,0:0:0:0:
448,192,189407,1,0,0:0:0:0:
64,192,189407,1,0,0:0:0:0:
320,192,189485,1,0,0:0:0:0:
192,192,189564,1,2,0:0:0:0:
448,192,189564,1,0,0:0:0:0:
320,192,189642,1,0,0:0:0:0:
64,192,189721,1,0,0:0:0:0:
192,192,189721,1,8,0:0:0:0:
448,192,189721,1,0,0:0:0:0:
320,192,189799,1,0,0:0:0:0:
448,192,189878,1,0,0:0:0:0:
64,192,189878,1,2,0:0:0:0:
192,192,189956,1,0,0:0:0:0:
64,192,190035,1,2,0:0:0:0:
320,192,190035,1,0,0:0:0:0:
192,192,190113,1,0,0:0:0:0:
64,192,190192,1,0,0:0:0:0:
320,192,190192,1,0,0:0:0:0:
448,192,190270,1,0,0:0:0:0:
64,192,190349,1,0,0:0:0:0:
320,192,190349,1,8,0:0:0:0:
192,192,190349,1,0,0:0:0:0:
448,192,190427,1,0,0:0:0:0:
192,192,190506,1,2,0:0:0:0:
320,192,190506,1,0,0:0:0:0:
448,192,190585,1,0,0:0:0:0:
192,192,190663,1,0,0:0:0:0:
64,192,190663,1,0,0:0:0:0:
320,192,190742,1,0,0:0:0:0:
448,192,190820,1,2,0:0:0:0:
64,192,190820,1,0,0:0:0:0:
192,192,190899,1,0,0:0:0:0:
64,192,190977,1,0,0:0:0:0:
320,192,190977,1,8,0:0:0:0:
448,192,190977,1,0,0:0:0:0:
192,192,191056,1,0,0:0:0:0:
320,192,191134,1,0,0:0:0:0:
448,192,191134,1,0,0:0:0:0:
192,192,191213,1,0,0:0:0:0:
320,192,191291,1,2,0:0:0:0:
64,192,191291,1,0,0:0:0:0:
448,192,191370,1,0,0:0:0:0:
192,192,191448,1,0,0:0:0:0:
64,192,191448,1,0,0:0:0:0:
320,192,191527,1,0,0:0:0:0:
192,192,191605,1,8,0:0:0:0:
448,192,191605,1,0,0:0:0:0:
64,192,191605,1,0,0:0:0:0:
320,192,191684,1,0,0:0:0:0:
192,192,191763,1,2,0:0:0:0:
448,192,191763,1,0,0:0:0:0:
64,192,191841,1,0,0:0:0:0:
448,192,191920,1,0,0:0:0:0:
320,192,191920,1,0,0:0:0:0:
192,192,191998,1,0,0:0:0:0:
320,192,192077,1,2,0:0:0:0:
64,192,192077,1,0,0:0:0:0:
448,192,192155,1,0,0:0:0:0:
192,192,192234,1,0,0:0:0:0:
64,192,192234,1,0,0:0:0:0:
320,192,192234,1,8,0:0:0:0:
448,192,192312,1,0,0:0:0:0:
192,192,192391,1,2,0:0:0:0:
64,192,192391,1,0,0:0:0:0:
320,192,192469,1,2,0:0:0:0:
448,192,192469,1,0,0:0:0:0:
64,192,192548,128,4,192626:0:0:0:0:
448,192,192548,1,0,0:0:0:0:
192,192,192548,1,2,0:0:0:0:
320,192,192626,1,0,0:0:0:0:
64,192,192705,1,0,0:0:0:0:
192,192,192705,1,0,0:0:0:0:
448,192,192783,1,0,0:0:0:0:
320,192,192862,1,8,0:0:0:0:
192,192,192862,1,0,0:0:0:0:
64,192,192862,1,0,0:0:0:0:
448,192,192941,1,0,0:0:0:0:
192,192,193019,1,2,0:0:0:0:
64,192,193019,1,0,0:0:0:0:
320,192,193098,1,0,0:0:0:0:
448,192,193176,1,0,0:0:0:0:
192,192,193176,1,0,0:0:0:0:
320,192,193255,1,0,0:0:0:0:
64,192,193333,1,0,0:0:0:0:
448,192,193333,1,2,0:0:0:0:
192,192,193412,1,0,0:0:0:0:
320,192,193490,1,8,0:0:0:0:
64,192,193490,1,0,0:0:0:0:
448,192,193490,1,0,0:0:0:0:
192,192,193569,1,0,0:0:0:0:
320,192,193647,1,2,0:0:0:0:
64,192,193647,1,0,0:0:0:0:
192,192,193726,1,0,0:0:0:0:
448,192,193726,1,2,0:0:0:0:
320,192,193804,1,2,0:0:0:0:
64,192,193804,1,0,0:0:0:0:
448,192,193883,1,0,0:0:0:0:
320,192,193962,1,0,0:0:0:0:
192,192,193962,1,0,0:0:0:0:
64,192,194040,1,0,0:0:0:0:
320,192,194119,1,8,0:0:0:0:
448,192,194119,1,0,0:0:0:0:
192,192,194119,1,0,0:0:0:0:
64,192,194197,1,0,0:0:0:0:
192,192,194276,1,2,0:0:0:0:
448,192,194276,1,0,0:0:0:0:
320,192,194354,1,0,0:0:0:0:
448,192,194433,1,2,0:0:0:0:
64,192,194472,1,0,0:0:0:0:
320,192,194511,1,0,0:0:0:0:
192,192,194551,1,0,0:0:0:0:
64,192,194590,1,2,0:0:0:0:
448,192,194629,1,0,0:0:0:0:
192,192,194668,1,0,0:0:0:0:
320,192,194708,1,0,0:0:0:0:
448,192,194747,1,2,0:0:0:0:
64,192,194786,1,0,0:0:0:0:
320,192,194825,1,2,0:0:0:0:
192,192,194865,1,0,0:0:0:0:
64,192,194904,1,2,0:0:0:0:
448,192,194943,1,0,0:0:0:0:
192,192,194982,1,2,0:0:0:0:
320,192,195022,1,0,0:0:0:0:
448,192,195061,128,2,197260:0:0:0:0:
64,192,195061,128,4,196318:0:0:0:0:
320,192,197260,1,0,0:0:0:0:
192,192,197338,1,0,0:0:0:0:
320,192,197417,1,0,0:0:0:0:
192,192,197496,1,0,0:0:0:0:
64,192,197574,128,0,198831:0:0:0:0:
320,192,198045,1,0,0:0:0:0:
192,192,198202,1,0,0:0:0:0:
448,192,198359,1,0,0:0:0:0:
320,192,198516,1,0,0:0:0:0:
448,192,198674,1,0,0:0:0:0:
320,192,198831,128,0,200087:0:0:0:0:
192,192,198831,1,0,0:0:0:0:
64,192,199302,1,0,0:0:0:0:
192,192,199459,1,0,0:0:0:0:
448,192,199616,1,0,0:0:0:0:
64,192,199773,1,0,0:0:0:0:
448,192,199930,1,0,0:0:0:0:
64,192,200087,128,0,201344:0:0:0:0:
192,192,200087,1,0,0:0:0:0:
448,192,200401,1,0,0:0:0:0:
320,192,200715,1,0,0:0:0:0:
192,192,201030,1,0,0:0:0:0:
320,192,201344,1,0,0:0:0:0:
448,192,201344,128,0,202600:0:0:0:0:
320,192,201815,1,0,0:0:0:0:
64,192,201972,1,0,0:0:0:0:
64,192,202286,1,0,0:0:0:0:
320,192,202365,1,0,0:0:0:0:
192,192,202443,1,0,0:0:0:0:
320,192,202522,1,0,0:0:0:0:
64,192,202600,128,0,203857:0:0:0:0:
192,192,202600,1,0,0:0:0:0:
192,192,203071,1,0,0:0:0:0:
320,192,203229,1,0,0:0:0:0:
448,192,203386,1,0,0:0:0:0:
192,192,203543,1,0,0:0:0:0:
448,192,203700,1,0,0:0:0:0:
192,192,203857,1,0,0:0:0:0:
320,192,203857,128,0,205113:0:0:0:0:
192,192,204328,1,0,0:0:0:0:
64,192,204485,1,0,0:0:0:0:
192,192,204799,1,0,0:0:0:0:
64,192,204878,1,0,0:0:0:0:
448,192,204956,1,0,0:0:0:0:
192,192,205035,1,0,0:0:0:0:
448,192,205113,1,0,0:0:0:0:
64,192,205113,128,0,206370:0:0:0:0:
192,192,205427,1,0,0:0:0:0:
320,192,205742,1,0,0:0:0:0:
448,192,206056,1,0,0:0:0:0:
320,192,206370,1,0,0:0:0:0:
192,192,206370,128,0,207626:0:0:0:0:
448,192,207312,1,0,0:0:0:0:
320,192,207391,1,0,0:0:0:0:
448,192,207469,1,0,0:0:0:0:
320,192,207548,1,0,0:0:0:0:
64,192,207626,1,0,0:0:0:0:
448,192,207626,128,0,208883:0:0:0:0:
320,192,208098,1,0,0:0:0:0:
192,192,208255,1,0,0:0:0:0:
64,192,208412,1,0,0:0:0:0:
192,192,208569,1,0,0:0:0:0:
320,192,208726,1,0,0:0:0:0:
64,192,208883,128,0,210140:0:0:0:0:
192,192,208883,1,0,0:0:0:0:
192,192,209354,1,0,0:0:0:0:
320,192,209511,1,0,0:0:0:0:
448,192,209668,1,0,0:0:0:0:
320,192,209825,1,0,0:0:0:0:
448,192,209982,1,0,0:0:0:0:
192,192,210140,1,0,0:0:0:0:
320,192,210140,128,0,211396:0:0:0:0:
192,192,210375,1,0,0:0:0:0:
64,192,210611,1,0,0:0:0:0:
192,192,210768,1,0,0:0:0:0:
448,192,210768,1,0,0:0:0:0:
64,192,211003,1,0,0:0:0:0:
448,192,211239,1,0,0:0:0:0:
64,192,211396,128,0,212024:0:0:0:0:
192,192,211396,1,0,0:0:0:0:
320,192,211867,1,0,0:0:0:0:
192,192,212024,1,0,0:0:0:0:
448,192,212024,128,0,212653:0:0:0:0:
64,192,212338,1,0,0:0:0:0:
192,192,212653,1,0,0:0:0:0:
320,192,212653,128,0,213909:0:0:0:0:
64,192,212731,1,0,0:0:0:0:
192,192,212810,1,0,0:0:0:0:
192,192,213124,1,0,0:0:0:0:
64,192,213281,1,0,0:0:0:0:
192,192,213359,1,0,0:0:0:0:
64,192,213438,1,0,0:0:0:0:
192,192,213752,1,0,0:0:0:0:
448,192,213909,1,0,0:0:0:0:
64,192,213909,128,0,215166:0:0:0:0:
320,192,213988,1,0,0:0:0:0:
448,192,214066,1,0,0:0:0:0:
448,192,214380,1,0,0:0:0:0:
192,192,214537,1,0,0:0:0:0:
320,192,214616,1,0,0:0:0:0:
192,192,214694,1,0,0:0:0:0:
320,192,215009,1,0,0:0:0:0:
192,192,215166,1,0,0:0:0:0:
448,192,215166,128,0,216422:0:0:0:0:
64,192,215480,1,0,0:0:0:0:
192,192,215558,1,0,0:0:0:0:
64,192,215637,1,0,0:0:0:0:
192,192,215715,1,0,0:0:0:0:
64,192,215794,1,0,0:0:0:0:
192,192,215872,1,0,0:0:0:0:
64,192,215951,1,0,0:0:0:0:
192,192,216030,1,0,0:0:0:0:
64,192,216108,1,0,0:0:0:0:
192,192,216187,1,0,0:0:0:0:
64,192,216265,1,0,0:0:0:0:
192,192,216344,1,0,0:0:0:0:
64,192,216422,1,4,0:0:0:0:
320,192,216422,1,2,0:0:0:0:
64,192,216658,1,0,0:0:0:0:
448,192,216658,1,0,0:0:0:0:
192,192,216658,1,2,0:0:0:0:
192,192,216893,1,2,0:0:0:0:
448,192,216893,1,0,0:0:0:0:
320,192,216893,1,0,0:0:0:0:
64,192,217051,1,0,0:0:0:0:
320,192,217051,1,4,0:0:0:0:
192,192,217051,1,2,0:0:0:0:
64,192,217365,128,0,217443:0:0:0:0:
192,192,217443,128,0,217522:0:0:0:0:
320,192,217522,128,0,217600:0:0:0:0:
448,192,217600,128,0,217679:0:0:0:0:
320,192,217679,1,2,0:0:0:0:
64,192,217679,1,0,0:0:0:0:
192,192,217679,1,4,0:0:0:0:
64,192,217836,1,0,0:0:0:0:
448,192,217993,1,0,0:0:0:0:
192,192,217993,1,0,0:0:0:0:
320,192,217993,1,8,0:0:0:0:
64,192,218150,128,0,218307:0:0:0:0:
192,192,218150,1,2,0:0:0:0:
448,192,218307,128,0,218464:0:0:0:0:
192,192,218464,128,0,218621:0:0:0:0:
320,192,218464,1,2,0:0:0:0:
64,192,218621,1,0,0:0:0:0:
320,192,218621,128,0,218778:0:0:0:0:
448,192,218621,1,8,0:0:0:0:
192,192,218778,128,0,218935:0:0:0:0:
448,192,218935,1,2,0:0:0:0:
64,192,218935,1,0,0:0:0:0:
192,192,219092,1,0,0:0:0:0:
64,192,219249,1,0,0:0:0:0:
448,192,219249,1,0,0:0:0:0:
320,192,219249,1,8,0:0:0:0:
320,192,219407,128,0,219564:0:0:0:0:
64,192,219407,1,2,0:0:0:0:
192,192,219564,128,0,219721:0:0:0:0:
64,192,219721,128,0,219878:0:0:0:0:
448,192,219721,1,2,0:0:0:0:
320,192,219878,1,8,0:0:0:0:
448,192,219878,128,0,220035:0:0:0:0:
192,192,219878,1,0,0:0:0:0:
192,192,220035,128,2,220192:0:0:0:0:
64,192,220035,1,0,0:0:0:0:
448,192,220113,1,2,0:0:0:0:
320,192,220113,1,0,0:0:0:0:
320,192,220192,128,2,220506:0:0:0:0:
448,192,220192,1,0,0:0:0:0:
64,192,220349,1,0,0:0:0:0:
448,192,220506,128,0,220820:0:0:0:0:
192,192,220506,1,8,0:0:0:0:
64,192,220506,1,0,0:0:0:0:
64,192,220663,1,0,0:0:0:0:
192,192,220663,1,2,0:0:0:0:
192,192,220820,128,0,221134:0:0:0:0:
320,192,220977,1,2,0:0:0:0:
448,192,220977,1,0,0:0:0:0:
448,192,221134,128,0,221448:0:0:0:0:
64,192,221134,1,0,0:0:0:0:
320,192,221134,1,8,0:0:0:0:
320,192,221291,1,2,0:0:0:0:
64,192,221291,1,0,0:0:0:0:
192,192,221448,1,2,0:0:0:0:
64,192,221448,128,0,221920:0:0:0:0:
320,192,221605,1,0,0:0:0:0:
448,192,221763,1,0,0:0:0:0:
192,192,221763,1,0,0:0:0:0:
320,192,221763,1,8,0:0:0:0:
192,192,221920,1,2,0:0:0:0:
448,192,221920,1,0,0:0:0:0:
320,192,222077,1,2,0:0:0:0:
64,192,222077,1,0,0:0:0:0:
64,192,222234,1,2,0:0:0:0:
448,192,222234,1,0,0:0:0:0:
448,192,222391,1,0,0:0:0:0:
192,192,222391,1,0,0:0:0:0:
320,192,222391,1,8,0:0:0:0:
64,192,222469,1,0,0:0:0:0:
448,192,222548,1,0,0:0:0:0:
320,192,222548,1,0,0:0:0:0:
192,192,222626,1,2,0:0:0:0:
64,192,222626,1,0,0:0:0:0:
320,192,222705,1,2,0:0:0:0:
448,192,222705,128,0,222862:0:0:0:0:
64,192,222862,128,0,223019:0:0:0:0:
192,192,223019,1,8,0:0:0:0:
448,192,223019,1,0,0:0:0:0:
320,192,223019,1,0,0:0:0:0:
192,192,223176,128,0,223333:0:0:0:0:
64,192,223176,1,2,0:0:0:0:
320,192,223333,128,0,223490:0:0:0:0:
448,192,223490,128,0,223647:0:0:0:0:
64,192,223490,1,2,0:0:0:0:
192,192,223647,1,0,0:0:0:0:
64,192,223647,128,0,223804:0:0:0:0:
320,192,223647,1,8,0:0:0:0:
192,192,223804,128,0,223962:0:0:0:0:
64,192,223962,1,0,0:0:0:0:
448,192,223962,1,2,0:0:0:0:
64,192,224119,1,0,0:0:0:0:
448,192,224276,1,0,0:0:0:0:
192,192,224276,1,0,0:0:0:0:
320,192,224276,1,8,0:0:0:0:
64,192,224433,128,0,224590:0:0:0:0:
192,192,224433,1,2,0:0:0:0:
448,192,224590,128,0,224904:0:0:0:0:
320,192,224747,1,2,0:0:0:0:
192,192,224747,1,0,0:0:0:0:
192,192,224904,1,0,0:0:0:0:
320,192,224904,1,8,0:0:0:0:
64,192,224904,1,0,0:0:0:0:
448,192,224982,1,0,0:0:0:0:
192,192,225061,1,2,0:0:0:0:
64,192,225061,1,0,0:0:0:0:
448,192,225140,1,0,0:0:0:0:
192,192,225218,1,2,0:0:0:0:
64,192,225218,128,0,225532:0:0:0:0:
448,192,225375,1,0,0:0:0:0:
192,192,225532,1,0,0:0:0:0:
320,192,225532,128,0,225846:0:0:0:0:
448,192,225532,1,8,0:0:0:0:
192,192,225689,1,2,0:0:0:0:
448,192,225689,1,0,0:0:0:0:
64,192,225846,128,0,226160:0:0:0:0:
320,192,226003,1,0,0:0:0:0:
192,192,226003,1,2,0:0:0:0:
448,192,226160,128,0,226475:0:0:0:0:
320,192,226160,1,0,0:0:0:0:
192,192,226160,1,8,0:0:0:0:
64,192,226318,1,0,0:0:0:0:
320,192,226318,1,2,0:0:0:0:
64,192,226475,128,0,226946:0:0:0:0:
192,192,226475,1,2,0:0:0:0:
192,192,226632,1,0,0:0:0:0:
448,192,226710,1,0,0:0:0:0:
320,192,226710,1,2,0:0:0:0:
448,192,226789,1,0,0:0:0:0:
192,192,226789,1,0,0:0:0:0:
320,192,226789,1,8,0:0:0:0:
448,192,226946,1,0,0:0:0:0:
320,192,226946,1,2,0:0:0:0:
192,192,227024,1,2,0:0:0:0:
64,192,227024,1,0,0:0:0:0:
320,192,227103,1,2,0:0:0:0:
448,192,227103,1,0,0:0:0:0:
320,192,227260,1,0,0:0:0:0:
192,192,227260,1,2,0:0:0:0:
64,192,227417,1,0,0:0:0:0:
448,192,227417,1,2,0:0:0:0:
192,192,227496,1,0,0:0:0:0:
320,192,227496,1,2,0:0:0:0:
64,192,227574,1,0,0:0:0:0:
448,192,227574,1,2,0:0:0:0:
320,192,227653,1,2,0:0:0:0:
192,192,227653,1,0,0:0:0:0:
448,192,227731,128,2,228202:0:0:0:0:
64,192,227731,1,0,0:0:0:0:
192,192,227731,1,4,0:0:0:0:
320,192,227888,1,0,0:0:0:0:
192,192,228045,1,8,0:0:0:0:
320,192,228045,1,0,0:0:0:0:
64,192,228045,1,0,0:0:0:0:
192,192,228202,128,0,228359:0:0:0:0:
320,192,228202,1,2,0:0:0:0:
448,192,228359,128,0,228516:0:0:0:0:
64,192,228516,128,0,228674:0:0:0:0:
320,192,228516,1,2,0:0:0:0:
320,192,228674,128,0,228831:0:0:0:0:
192,192,228674,1,8,0:0:0:0:
448,192,228674,1,0,0:0:0:0:
192,192,228831,128,0,228988:0:0:0:0:
64,192,228988,128,0,229459:0:0:0:0:
448,192,228988,1,2,0:0:0:0:
320,192,229145,1,0,0:0:0:0:
320,192,229302,1,8,0:0:0:0:
192,192,229302,1,0,0:0:0:0:
448,192,229302,1,0,0:0:0:0:
192,192,229459,1,2,0:0:0:0:
448,192,229459,128,0,229616:0:0:0:0:
320,192,229616,128,0,229773:0:0:0:0:
448,192,229773,128,0,229930:0:0:0:0:
192,192,229773,1,2,0:0:0:0:
320,192,229930,1,8,0:0:0:0:
192,192,229930,128,0,230087:0:0:0:0:
64,192,229930,1,0,0:0:0:0:
64,192,230087,128,0,230244:0:0:0:0:
448,192,230087,1,2,0:0:0:0:
448,192,230244,1,4,0:0:0:0:
192,192,230244,1,0,0:0:0:0:
320,192,230244,1,2,0:0:0:0:
320,192,230480,1,2,0:0:0:0:
192,192,230480,1,0,0:0:0:0:
448,192,230480,1,0,0:0:0:0:
320,192,230715,1,2,0:0:0:0:
448,192,230715,1,0,0:0:0:0:
192,192,230715,1,0,0:0:0:0:
64,192,230872,1,0,0:0:0:0:
192,192,230872,1,2,0:0:0:0:
448,192,230872,1,4,0:0:0:0:
64,192,231108,1,0,0:0:0:0:
192,192,231108,1,2,0:0:0:0:
448,192,231108,1,0,0:0:0:0:
64,192,231344,1,0,0:0:0:0:
192,192,231344,1,2,0:0:0:0:
448,192,231344,1,0,0:0:0:0:
64,192,231501,1,0,0:0:0:0:
192,192,231501,1,2,0:0:0:0:
320,192,231501,1,4,0:0:0:0:
320,192,231658,1,2,0:0:0:0:
64,192,231658,1,0,0:0:0:0:
64,192,231815,1,0,0:0:0:0:
448,192,231815,1,0,0:0:0:0:
192,192,231815,1,8,0:0:0:0:
320,192,231972,1,2,0:0:0:0:
192,192,231972,1,0,0:0:0:0:
64,192,232051,1,0,0:0:0:0:
448,192,232051,1,2,0:0:0:0:
320,192,232129,1,2,0:0:0:0:
192,192,232129,1,0,0:0:0:0:
64,192,232286,1,0,0:0:0:0:
320,192,232286,1,2,0:0:0:0:
192,192,232443,1,0,0:0:0:0:
448,192,232443,1,2,0:0:0:0:
320,192,232522,1,2,0:0:0:0:
64,192,232522,1,0,0:0:0:0:
192,192,232600,1,0,0:0:0:0:
448,192,232600,1,2,0:0:0:0:
320,192,232679,1,2,0:0:0:0:
64,192,232679,1,0,0:0:0:0:
192,192,232757,1,4,0:0:0:0:
448,192,232757,1,2,0:0:0:0:
448,192,232914,1,0,0:0:0:0:
64,192,232914,1,0,0:0:0:0:
320,192,232914,1,2,0:0:0:0:
64,192,233071,1,0,0:0:0:0:
192,192,233071,1,2,0:0:0:0:
320,192,233150,1,2,0:0:0:0:
448,192,233150,1,0,0:0:0:0:
192,192,233229,1,2,0:0:0:0:
64,192,233229,1,0,0:0:0:0:
320,192,233307,1,2,0:0:0:0:
448,192,233307,1,0,0:0:0:0:
192,192,233386,1,2,0:0:0:0:
64,192,233386,1,4,0:0:0:0:
64,192,233543,1,0,0:0:0:0:
192,192,233543,1,2,0:0:0:0:
448,192,233543,1,0,0:0:0:0:
448,192,233700,1,0,0:0:0:0:
320,192,233700,1,2,0:0:0:0:
192,192,233778,1,2,0:0:0:0:
64,192,233778,1,0,0:0:0:0:
320,192,233857,1,2,0:0:0:0:
448,192,233857,1,0,0:0:0:0:
192,192,233935,1,2,0:0:0:0:
64,192,233935,1,0,0:0:0:0:
448,192,234014,1,4,0:0:0:0:
320,192,234014,1,2,0:0:0:0:
192,192,234171,1,2,0:0:0:0:
320,192,234171,1,0,0:0:0:0:
448,192,234171,1,0,0:0:0:0:
64,192,234328,1,2,0:0:0:0:
320,192,234328,1,0,0:0:0:0:
448,192,234407,1,0,0:0:0:0:
192,192,234407,1,2,0:0:0:0:
64,192,234485,1,2,0:0:0:0:
320,192,234524,1,2,0:0:0:0:
192,192,234564,1,2,0:0:0:0:
64,192,234603,1,2,0:0:0:0:
320,192,234642,1,2,0:0:0:0:
448,192,234642,1,4,0:0:0:0:
64,192,234799,1,0,0:0:0:0:
192,192,234799,1,0,0:0:0:0:
320,192,234799,1,2,0:0:0:0:
448,192,234956,1,2,0:0:0:0:
192,192,234956,1,0,0:0:0:0:
320,192,235035,1,2,0:0:0:0:
64,192,235035,1,0,0:0:0:0:
448,192,235113,1,2,0:0:0:0:
192,192,235153,1,2,0:0:0:0:
320,192,235192,1,2,0:0:0:0:
448,192,235231,1,2,0:0:0:0:
64,192,235270,1,4,0:0:0:0:
192,192,235270,1,2,0:0:0:0:
192,192,235427,1,2,0:0:0:0:
448,192,235427,1,0,0:0:0:0:
320,192,235427,1,0,0:0:0:0:
64,192,235585,1,0,0:0:0:0:
192,192,235585,1,8,0:0:0:0:
448,192,235585,1,0,0:0:0:0:
192,192,235742,1,0,0:0:0:0:
64,192,235742,1,0,0:0:0:0:
320,192,235742,1,2,0:0:0:0:
64,192,235899,1,0,0:0:0:0:
448,192,235899,1,2,0:0:0:0:
192,192,235977,1,0,0:0:0:0:
320,192,235977,1,2,0:0:0:0:
64,192,236056,1,0,0:0:0:0:
448,192,236056,1,2,0:0:0:0:
192,192,236134,1,0,0:0:0:0:
320,192,236134,1,2,0:0:0:0:
448,192,236213,1,2,0:0:0:0:
64,192,236213,1,0,0:0:0:0:
192,192,236291,1,0,0:0:0:0:
320,192,236291,1,2,0:0:0:0:
64,192,236370,1,0,0:0:0:0:
448,192,236370,1,2,0:0:0:0:
192,192,236448,1,0,0:0:0:0:
320,192,236448,1,2,0:0:0:0:
64,192,236527,1,0,0:0:0:0:
448,192,236527,1,4,0:0:0:0:
320,192,236527,1,2,0:0:0:0:
192,192,236763,1,0,0:0:0:0:
320,192,236763,1,2,0:0:0:0:
448,192,236763,1,0,0:0:0:0:
64,192,236998,1,0,0:0:0:0:
192,192,236998,1,2,0:0:0:0:
448,192,236998,1,0,0:0:0:0:
320,192,237155,1,4,0:0:0:0:
192,192,237155,1,2,0:0:0:0:
64,192,237155,1,0,0:0:0:0:
448,192,237312,1,0,0:0:0:0:
320,192,237312,1,2,0:0:0:0:
64,192,237469,1,0,0:0:0:0:
192,192,237469,1,2,0:0:0:0:
320,192,237548,1,0,0:0:0:0:
448,192,237626,1,4,0:0:0:0:
64,192,237626,1,0,0:0:0:0:
320,192,237705,1,0,0:0:0:0:
192,192,237783,1,2,0:0:0:0:
448,192,237783,1,4,0:0:0:0:
64,192,237783,128,0,237941:0:0:0:0:
448,192,238019,128,0,238255:0:0:0:0:
320,192,238098,1,8,0:0:0:0:
64,192,238098,1,0,0:0:0:0:
192,192,238098,1,0,0:0:0:0:
192,192,238255,1,2,0:0:0:0:
320,192,238255,128,0,238412:0:0:0:0:
64,192,238412,128,0,238569:0:0:0:0:
192,192,238569,1,2,0:0:0:0:
320,192,238569,128,0,238726:0:0:0:0:
192,192,238726,128,0,238883:0:0:0:0:
448,192,238726,1,8,0:0:0:0:
64,192,238726,1,0,0:0:0:0:
64,192,238883,128,0,239040:0:0:0:0:
320,192,239040,1,2,0:0:0:0:
448,192,239040,128,0,239197:0:0:0:0:
448,192,239276,128,0,239511:0:0:0:0:
192,192,239354,1,8,0:0:0:0:
64,192,239354,1,0,0:0:0:0:
320,192,239354,1,0,0:0:0:0:
192,192,239511,1,2,0:0:0:0:
320,192,239511,128,0,239668:0:0:0:0:
64,192,239668,128,0,239825:0:0:0:0:
192,192,239825,128,0,239982:0:0:0:0:
448,192,239825,1,2,0:0:0:0:
320,192,239982,128,0,240140:0:0:0:0:
448,192,239982,1,8,0:0:0:0:
64,192,239982,1,0,0:0:0:0:
192,192,240140,128,0,240297:0:0:0:0:
64,192,240140,1,2,0:0:0:0:
320,192,240218,1,2,0:0:0:0:
448,192,240218,1,0,0:0:0:0:
448,192,240297,128,0,240454:0:0:0:0:
320,192,240297,1,2,0:0:0:0:
320,192,240454,128,0,240611:0:0:0:0:
64,192,240611,1,0,0:0:0:0:
192,192,240611,1,8,0:0:0:0:
448,192,240611,128,0,240768:0:0:0:0:
64,192,240768,128,0,240925:0:0:0:0:
320,192,240768,1,2,0:0:0:0:
192,192,240925,128,0,241082:0:0:0:0:
64,192,241082,1,2,0:0:0:0:
320,192,241082,128,0,241239:0:0:0:0:
448,192,241239,1,0,0:0:0:0:
192,192,241239,1,8,0:0:0:0:
64,192,241239,128,0,241396:0:0:0:0:
448,192,241396,128,0,241553:0:0:0:0:
320,192,241396,1,2,0:0:0:0:
192,192,241553,1,2,0:0:0:0:
320,192,241553,128,0,241710:0:0:0:0:
320,192,241789,128,0,242024:0:0:0:0:
448,192,241867,1,0,0:0:0:0:
64,192,241867,1,0,0:0:0:0:
192,192,241867,1,8,0:0:0:0:
192,192,242024,128,0,242181:0:0:0:0:
448,192,242024,1,2,0:0:0:0:
64,192,242181,128,0,242338:0:0:0:0:
448,192,242181,1,2,0:0:0:0:
320,192,242338,1,2,0:0:0:0:
192,192,242338,1,0,0:0:0:0:
320,192,242496,1,8,0:0:0:0:
64,192,242496,1,0,0:0:0:0:
448,192,242496,1,0,0:0:0:0:
192,192,242574,1,0,0:0:0:0:
448,192,242653,1,0,0:0:0:0:
320,192,242653,1,2,0:0:0:0:
64,192,242731,1,0,0:0:0:0:
192,192,242731,1,2,0:0:0:0:
448,192,242810,128,0,242967:0:0:0:0:
320,192,242810,1,2,0:0:0:0:
448,192,243045,128,0,243281:0:0:0:0:
64,192,243124,1,0,0:0:0:0:
192,192,243124,1,0,0:0:0:0:
320,192,243124,1,8,0:0:0:0:
192,192,243281,1,2,0:0:0:0:
320,192,243281,128,0,243438:0:0:0:0:
64,192,243438,128,0,243595:0:0:0:0:
192,192,243595,128,0,243752:0:0:0:0:
320,192,243595,1,2,0:0:0:0:
64,192,243752,128,0,243909:0:0:0:0:
448,192,243752,1,8,0:0:0:0:
320,192,243752,1,0,0:0:0:0:
448,192,243909,128,0,244066:0:0:0:0:
192,192,244066,1,2,0:0:0:0:
320,192,244066,128,0,244223:0:0:0:0:
320,192,244302,128,0,244537:0:0:0:0:
448,192,244380,1,0,0:0:0:0:
64,192,244380,1,0,0:0:0:0:
192,192,244380,1,8,0:0:0:0:
192,192,244537,1,2,0:0:0:0:
64,192,244537,128,0,244694:0:0:0:0:
448,192,244694,128,0,244852:0:0:0:0:
320,192,244852,1,0,0:0:0:0:
192,192,244852,1,2,0:0:0:0:
64,192,245009,1,0,0:0:0:0:
448,192,245009,1,0,0:0:0:0:
320,192,245009,1,8,0:0:0:0:
192,192,245087,1,0,0:0:0:0:
448,192,245166,1,2,0:0:0:0:
64,192,245166,1,0,0:0:0:0:
320,192,245244,1,0,0:0:0:0:
448,192,245323,1,0,0:0:0:0:
64,192,245323,128,2,245480:0:0:0:0:
192,192,245480,128,0,245637:0:0:0:0:
320,192,245637,128,0,245794:0:0:0:0:
448,192,245637,1,8,0:0:0:0:
64,192,245637,1,0,0:0:0:0:
192,192,245794,128,0,245951:0:0:0:0:
448,192,245794,1,2,0:0:0:0:
320,192,245951,128,0,246108:0:0:0:0:
64,192,246108,1,2,0:0:0:0:
448,192,246108,128,0,246265:0:0:0:0:
192,192,246265,128,0,246422:0:0:0:0:
320,192,246265,1,0,0:0:0:0:
64,192,246265,1,8,0:0:0:0:
448,192,246422,128,0,246579:0:0:0:0:
320,192,246422,1,2,0:0:0:0:
64,192,246579,128,0,246736:0:0:0:0:
192,192,246579,1,2,0:0:0:0:
448,192,246736,128,0,246815:0:0:0:0:
320,192,246815,1,2,0:0:0:0:
192,192,246815,1,0,0:0:0:0:
192,192,246893,1,0,0:0:0:0:
320,192,246893,1,8,0:0:0:0:
64,192,246893,1,0,0:0:0:0:
448,192,247051,1,0,0:0:0:0:
320,192,247051,1,2,0:0:0:0:
192,192,247129,1,2,0:0:0:0:
64,192,247129,1,0,0:0:0:0:
448,192,247208,128,0,247365:0:0:0:0:
320,192,247208,1,2,0:0:0:0:
192,192,247365,128,0,247522:0:0:0:0:
320,192,247365,1,2,0:0:0:0:
64,192,247522,1,0,0:0:0:0:
448,192,247522,1,2,0:0:0:0:
320,192,247600,1,2,0:0:0:0:
192,192,247600,1,0,0:0:0:0:
64,192,247679,1,0,0:0:0:0:
448,192,247679,1,2,0:0:0:0:
192,192,247757,1,0,0:0:0:0:
320,192,247757,1,2,0:0:0:0:
64,192,247836,128,0,247993:0:0:0:0:
448,192,247836,128,4,247993:0:0:0:0:
320,192,247836,1,2,0:0:0:0:
64,192,248071,128,0,248307:0:0:0:0:
448,192,248071,128,0,248307:0:0:0:0:
320,192,248150,1,8,0:0:0:0:
192,192,248150,1,0,0:0:0:0:
320,192,248307,128,0,248464:0:0:0:0:
192,192,248307,1,2,0:0:0:0:
448,192,248464,128,0,249014:0:0:0:0:
320,192,248621,128,0,249014:0:0:0:0:
192,192,248621,1,2,0:0:0:0:
192,192,248778,128,0,249014:0:0:0:0:
64,192,248778,1,8,0:0:0:0:
64,192,248935,128,0,249014:0:0:0:0:
64,192,249092,128,0,249249:0:0:0:0:
448,192,249092,128,2,249249:0:0:0:0:
64,192,249328,128,0,249485:0:0:0:0:
448,192,249328,128,0,249485:0:0:0:0:
192,192,249407,1,0,0:0:0:0:
320,192,249407,1,8,0:0:0:0:
192,192,249564,128,0,249721:0:0:0:0:
320,192,249564,1,2,0:0:0:0:
64,192,249721,128,0,250270:0:0:0:0:
192,192,249878,128,0,250270:0:0:0:0:
320,192,249878,1,2,0:0:0:0:
320,192,250035,128,0,250270:0:0:0:0:
448,192,250035,1,2,0:0:0:0:
448,192,250192,128,2,250270:0:0:0:0:
192,192,250349,1,4,0:0:0:0:
64,192,250349,1,0,0:0:0:0:
320,192,250349,1,2,0:0:0:0:
192,192,250585,1,0,0:0:0:0:
320,192,250585,1,2,0:0:0:0:
64,192,250585,1,0,0:0:0:0:
64,192,250820,1,0,0:0:0:0:
192,192,250820,1,0,0:0:0:0:
320,192,250820,1,2,0:0:0:0:
192,192,250977,1,4,0:0:0:0:
320,192,250977,1,2,0:0:0:0:
448,192,250977,1,0,0:0:0:0:
192,192,251213,1,0,0:0:0:0:
448,192,251213,1,0,0:0:0:0:
320,192,251213,1,2,0:0:0:0:
192,192,251448,1,0,0:0:0:0:
320,192,251448,1,2,0:0:0:0:
448,192,251448,1,0,0:0:0:0:
64,192,251605,1,0,0:0:0:0:
320,192,251605,1,2,0:0:0:0:
448,192,251605,1,4,0:0:0:0:
64,192,251763,1,0,0:0:0:0:
448,192,251763,1,2,0:0:0:0:
192,192,251841,1,0,0:0:0:0:
64,192,251920,1,0,0:0:0:0:
448,192,251920,1,0,0:0:0:0:
320,192,251920,1,8,0:0:0:0:
320,192,252077,1,2,0:0:0:0:
64,192,252077,1,0,0:0:0:0:
448,192,252155,1,0,0:0:0:0:
320,192,252234,1,0,0:0:0:0:
192,192,252234,1,2,0:0:0:0:
64,192,252391,1,0,0:0:0:0:
192,192,252391,1,2,0:0:0:0:
64,192,252548,1,0,0:0:0:0:
448,192,252548,1,2,0:0:0:0:
192,192,252626,1,0,0:0:0:0:
320,192,252626,1,2,0:0:0:0:
64,192,252705,1,0,0:0:0:0:
448,192,252705,1,2,0:0:0:0:
320,192,252783,1,2,0:0:0:0:
192,192,252783,1,0,0:0:0:0:
64,192,252862,1,4,0:0:0:0:
448,192,252862,1,2,0:0:0:0:
448,192,253019,1,0,0:0:0:0:
64,192,253019,1,0,0:0:0:0:
192,192,253019,1,2,0:0:0:0:
192,192,253176,1,2,0:0:0:0:
320,192,253176,1,0,0:0:0:0:
64,192,253255,1,2,0:0:0:0:
448,192,253255,1,0,0:0:0:0:
192,192,253333,1,2,0:0:0:0:
320,192,253333,1,0,0:0:0:0:
448,192,253412,1,0,0:0:0:0:
64,192,253412,1,2,0:0:0:0:
192,192,253490,1,2,0:0:0:0:
320,192,253490,1,4,0:0:0:0:
448,192,253647,1,0,0:0:0:0:
64,192,253647,1,0,0:0:0:0:
320,192,253647,1,2,0:0:0:0:
64,192,253804,1,0,0:0:0:0:
192,192,253804,1,2,0:0:0:0:
320,192,253883,1,2,0:0:0:0:
448,192,253883,1,0,0:0:0:0:
192,192,253962,1,2,0:0:0:0:
64,192,253962,1,0,0:0:0:0:
320,192,254040,1,2,0:0:0:0:
448,192,254040,1,0,0:0:0:0:
64,192,254119,1,4,0:0:0:0:
192,192,254119,1,2,0:0:0:0:
192,192,254276,1,0,0:0:0:0:
448,192,254276,1,0,0:0:0:0:
320,192,254276,1,2,0:0:0:0:
448,192,254433,1,2,0:0:0:0:
64,192,254433,1,0,0:0:0:0:
320,192,254511,1,2,0:0:0:0:
192,192,254511,1,0,0:0:0:0:
448,192,254590,1,2,0:0:0:0:
64,192,254629,1,2,0:0:0:0:
320,192,254668,1,2,0:0:0:0:
448,192,254708,1,2,0:0:0:0:
64,192,254747,1,2,0:0:0:0:
192,192,254747,1,4,0:0:0:0:
64,192,254904,1,0,0:0:0:0:
320,192,254904,1,2,0:0:0:0:
448,192,254904,1,0,0:0:0:0:
64,192,255061,1,0,0:0:0:0:
448,192,255061,1,2,0:0:0:0:
320,192,255140,1,2,0:0:0:0:
192,192,255140,1,0,0:0:0:0:
64,192,255218,1,0,0:0:0:0:
448,192,255257,1,2,0:0:0:0:
192,192,255297,1,2,0:0:0:0:
64,192,255336,1,2,0:0:0:0:
320,192,255375,1,2,0:0:0:0:
448,192,255375,1,4,0:0:0:0:
64,192,255532,1,2,0:0:0:0:
448,192,255532,1,0,0:0:0:0:
320,192,255611,1,0,0:0:0:0:
448,192,255689,1,0,0:0:0:0:
64,192,255689,1,0,0:0:0:0:
192,192,255689,1,8,0:0:0:0:
192,192,255846,1,0,0:0:0:0:
320,192,255846,1,0,0:0:0:0:
448,192,255846,1,2,0:0:0:0:
64,192,256003,1,0,0:0:0:0:
320,192,256003,1,2,0:0:0:0:
192,192,256082,1,0,0:0:0:0:
448,192,256082,1,2,0:0:0:0:
64,192,256160,1,0,0:0:0:0:
320,192,256160,1,2,0:0:0:0:
192,192,256239,1,0,0:0:0:0:
448,192,256239,1,2,0:0:0:0:
64,192,256318,1,0,0:0:0:0:
320,192,256318,1,2,0:0:0:0:
192,192,256396,1,0,0:0:0:0:
448,192,256396,1,2,0:0:0:0:
320,192,256475,1,2,0:0:0:0:
64,192,256475,1,0,0:0:0:0:
192,192,256553,1,0,0:0:0:0:
448,192,256553,1,2,0:0:0:0:
320,192,256632,1,2,0:0:0:0:
64,192,256632,1,4,0:0:0:0:
448,192,256632,1,4,0:0:0:0:
320,192,256867,1,2,0:0:0:0:
64,192,256867,1,0,0:0:0:0:
448,192,256867,1,0,0:0:0:0:
448,192,257103,1,0,0:0:0:0:
320,192,257103,1,2,0:0:0:0:
64,192,257103,1,0,0:0:0:0:
64,192,257260,1,0,0:0:0:0:
192,192,257260,1,2,0:0:0:0:
320,192,257260,1,4,0:0:0:0:
192,192,257417,1,0,0:0:0:0:
320,192,257417,1,2,0:0:0:0:
64,192,257574,1,0,0:0:0:0:
448,192,257574,1,2,0:0:0:0:
320,192,257653,1,2,0:0:0:0:
192,192,257653,1,0,0:0:0:0:
64,192,257731,1,0,0:0:0:0:
448,192,257731,1,2,0:0:0:0:
320,192,257888,128,0,258674:0:0:0:0:
64,192,257888,1,2,0:0:0:0:
192,192,257967,1,0,0:0:0:0:
448,192,258045,128,0,258674:0:0:0:0:
64,192,258045,1,2,0:0:0:0:
192,192,258674,1,2,0:0:0:0:
64,192,258674,1,4,0:0:0:0:
64,192,258752,1,0,0:0:0:0:
192,192,258752,1,2,0:0:0:0:
192,192,258831,1,2,0:0:0:0:
320,192,258831,1,0,0:0:0:0:
448,192,258831,1,0,0:0:0:0:
448,192,258988,1,0,0:0:0:0:
320,192,258988,1,2,0:0:0:0:
64,192,258988,1,0,0:0:0:0:
64,192,259145,1,0,0:0:0:0:
192,192,259145,1,4,0:0:0:0:
320,192,259145,1,2,0:0:0:0:
192,192,259302,1,0,0:0:0:0:
64,192,259302,1,0,0:0:0:0:
320,192,259302,1,2,0:0:0:0:
448,192,259616,1,0,0:0:0:0:
320,192,259616,1,4,0:0:0:0:
192,192,259616,1,2,0:0:0:0:
64,192,259773,1,0,0:0:0:0:
448,192,259812,1,0,0:0:0:0:
320,192,259852,1,0,0:0:0:0:
192,192,259891,1,0,0:0:0:0:
64,192,259930,1,0,0:0:0:0:
448,192,259969,1,0,0:0:0:0:
320,192,260009,1,0,0:0:0:0:
192,192,260048,1,0,0:0:0:0:
64,192,260087,1,4,0:0:0:0:
448,192,260087,1,2,0:0:0:0:
192,192,260244,1,0,0:0:0:0:
320,192,260244,1,2,0:0:0:0:
448,192,260244,1,0,0:0:0:0:
320,192,260401,1,2,0:0:0:0:
192,192,260401,1,4,0:0:0:0:
64,192,260401,1,0,0:0:0:0:
64,192,260558,1,0,0:0:0:0:
320,192,260558,1,2,0:0:0:0:
448,192,260558,1,0,0:0:0:0:
192,192,260715,1,2,0:0:0:0:
64,192,260715,1,0,0:0:0:0:
448,192,260715,1,0,0:0:0:0:
192,192,260872,1,2,0:0:0:0:
64,192,260872,1,0,0:0:0:0:
448,192,260872,1,0,0:0:0:0:
320,192,261030,1,2,0:0:0:0:
192,192,261030,1,0,0:0:0:0:
448,192,261030,1,4,0:0:0:0:
448,192,261187,1,0,0:0:0:0:
320,192,261187,1,2,0:0:0:0:
192,192,261187,1,0,0:0:0:0:
320,192,261344,1,2,0:0:0:0:
192,192,261344,1,0,0:0:0:0:
64,192,261344,1,0,0:0:0:0:
320,192,261501,1,0,0:0:0:0:
448,192,261540,1,0,0:0:0:0:
192,192,261579,1,0,0:0:0:0:
320,192,261619,1,0,0:0:0:0:
448,192,261658,1,4,0:0:0:0:
64,192,261658,1,2,0:0:0:0:
64,192,261815,1,2,0:0:0:0:
448,192,261815,1,0,0:0:0:0:
320,192,261893,1,0,0:0:0:0:
192,192,261893,1,2,0:0:0:0:
64,192,261972,1,2,0:0:0:0:
448,192,261972,1,0,0:0:0:0:
192,192,262129,1,2,0:0:0:0:
64,192,262129,1,0,0:0:0:0:
320,192,262208,1,2,0:0:0:0:
448,192,262208,1,0,0:0:0:0:
192,192,262286,1,2,0:0:0:0:
64,192,262286,1,0,0:0:0:0:
448,192,262286,1,4,0:0:0:0:
320,192,262443,1,0,0:0:0:0:
192,192,262482,1,0,0:0:0:0:
448,192,262522,1,0,0:0:0:0:
320,192,262561,1,0,0:0:0:0:
64,192,262600,1,0,0:0:0:0:
192,192,262600,1,2,0:0:0:0:
448,192,262757,1,0,0:0:0:0:
320,192,262757,1,2,0:0:0:0:
64,192,262757,1,0,0:0:0:0:
192,192,262914,1,4,0:0:0:0:
320,192,262914,1,2,0:0:0:0:
448,192,262914,1,0,0:0:0:0:
448,192,263071,1,0,0:0:0:0:
320,192,263071,1,2,0:0:0:0:
192,192,263071,1,0,0:0:0:0:
64,192,263229,1,0,0:0:0:0:
448,192,263229,1,0,0:0:0:0:
192,192,263281,1,0,0:0:0:0:
320,192,263333,1,0,0:0:0:0:
192,192,263386,1,0,0:0:0:0:
64,192,263438,1,0,0:0:0:0:
448,192,263490,1,0,0:0:0:0:
320,192,263543,1,2,0:0:0:0:
192,192,263543,1,4,0:0:0:0:
320,192,263700,1,2,0:0:0:0:
192,192,263700,1,0,0:0:0:0:
64,192,263700,1,0,0:0:0:0:
448,192,263857,1,0,0:0:0:0:
320,192,263857,1,0,0:0:0:0:
192,192,263909,1,0,0:0:0:0:
64,192,263962,1,0,0:0:0:0:
192,192,264014,1,0,0:0:0:0:
320,192,264066,1,0,0:0:0:0:
448,192,264119,1,0,0:0:0:0:
192,192,264171,1,2,0:0:0:0:
64,192,264171,1,4,0:0:0:0:
64,192,264328,1,0,0:0:0:0:
192,192,264328,1,2,0:0:0:0:
448,192,264328,1,0,0:0:0:0:
320,192,264485,1,0,0:0:0:0:
192,192,264485,1,0,0:0:0:0:
448,192,264537,1,0,0:0:0:0:
320,192,264590,1,0,0:0:0:0:
192,192,264642,1,0,0:0:0:0:
64,192,264694,1,0,0:0:0:0:
192,192,264747,1,0,0:0:0:0:
320,192,264799,1,2,0:0:0:0:
448,192,264799,1,4,0:0:0:0:
64,192,264956,1,0,0:0:0:0:
320,192,264956,1,2,0:0:0:0:
448,192,264956,1,0,0:0:0:0:
192,192,265113,1,0,0:0:0:0:
320,192,265113,1,0,0:0:0:0:
64,192,265166,1,0,0:0:0:0:
192,192,265218,1,0,0:0:0:0:
320,192,265270,1,0,0:0:0:0:
448,192,265323,1,0,0:0:0:0:
320,192,265375,1,0,0:0:0:0:
192,192,265427,1,2,0:0:0:0:
64,192,265427,1,4,0:0:0:0:
192,192,265585,1,2,0:0:0:0:
64,192,265585,1,0,0:0:0:0:
448,192,265663,1,0,0:0:0:0:
320,192,265663,1,2,0:0:0:0:
192,192,265742,1,2,0:0:0:0:
64,192,265742,1,0,0:0:0:0:
320,192,265820,1,2,0:0:0:0:
448,192,265820,1,0,0:0:0:0:
192,192,265899,1,2,0:0:0:0:
64,192,265899,1,0,0:0:0:0:
320,192,265977,1,2,0:0:0:0:
448,192,265977,1,0,0:0:0:0:
192,192,266056,1,2,0:0:0:0:
64,192,266056,1,0,0:0:0:0:
448,192,266134,1,0,0:0:0:0:
320,192,266134,1,2,0:0:0:0:
192,192,266213,1,2,0:0:0:0:
64,192,266213,1,0,0:0:0:0:
320,192,266291,1,2,0:0:0:0:
448,192,266291,1,0,0:0:0:0:
64,192,266370,1,0,0:0:0:0:
192,192,266409,1,0,0:0:0:0:
320,192,266448,1,0,0:0:0:0:
448,192,266488,1,0,0:0:0:0:
64,192,266527,1,0,0:0:0:0:
192,192,266566,1,0,0:0:0:0:
320,192,266605,1,0,0:0:0:0:
448,192,266645,1,0,0:0:0:0:
192,192,266684,1,4,0:0:0:0:
64,192,266684,1,2,0:0:0:0:
448,192,266920,1,0,0:0:0:0:
320,192,266920,1,0,0:0:0:0:
192,192,266920,1,2,0:0:0:0:
64,192,267155,1,2,0:0:0:0:
320,192,267155,1,0,0:0:0:0:
448,192,267155,1,0,0:0:0:0:
320,192,267312,1,4,0:0:0:0:
192,192,267312,1,2,0:0:0:0:
64,192,267312,1,0,0:0:0:0:
448,192,267469,1,2,0:0:0:0:
192,192,267469,1,0,0:0:0:0:
64,192,267469,1,0,0:0:0:0:
448,192,267626,1,0,0:0:0:0:
320,192,267626,1,2,0:0:0:0:
64,192,267705,1,0,0:0:0:0:
192,192,267705,1,2,0:0:0:0:
448,192,267783,1,0,0:0:0:0:
320,192,267783,1,2,0:0:0:0:
192,192,267862,1,2,0:0:0:0:
64,192,267862,1,0,0:0:0:0:
64,192,267941,1,0,0:0:0:0:
448,192,267941,1,4,0:0:0:0:
320,192,267941,1,2,0:0:0:0:
448,192,268098,1,0,0:0:0:0:
64,192,268098,1,0,0:0:0:0:
320,192,268098,1,2,0:0:0:0:
64,192,268412,128,0,268569:0:0:0:0:
192,192,268569,128,0,268726:0:0:0:0:
448,192,268726,1,2,0:0:0:0:
320,192,268726,1,4,0:0:0:0:
448,192,268804,1,2,0:0:0:0:
320,192,268804,1,0,0:0:0:0:
192,192,268883,1,0,0:0:0:0:
64,192,268883,1,0,0:0:0:0:
448,192,268883,1,2,0:0:0:0:
192,192,269040,1,0,0:0:0:0:
320,192,269040,1,2,0:0:0:0:
64,192,269040,1,0,0:0:0:0:
64,192,269197,1,0,0:0:0:0:
448,192,269197,1,2,0:0:0:0:
320,192,269197,1,4,0:0:0:0:
448,192,269354,1,0,0:0:0:0:
64,192,269354,1,0,0:0:0:0:
320,192,269354,1,2,0:0:0:0:
320,192,269668,1,2,0:0:0:0:
64,192,269668,1,0,0:0:0:0:
192,192,269668,1,4,0:0:0:0:
448,192,269825,1,0,0:0:0:0:
64,192,269865,1,0,0:0:0:0:
192,192,269904,1,0,0:0:0:0:
320,192,269943,1,0,0:0:0:0:
448,192,269982,1,0,0:0:0:0:
64,192,270022,1,0,0:0:0:0:
192,192,270061,1,0,0:0:0:0:
320,192,270100,1,0,0:0:0:0:
448,192,270140,1,2,0:0:0:0:
64,192,270140,1,4,0:0:0:0:
192,192,270297,1,0,0:0:0:0:
320,192,270297,1,0,0:0:0:0:
448,192,270297,1,0,0:0:0:0:
448,192,270454,1,0,0:0:0:0:
192,192,270454,1,4,0:0:0:0:
64,192,270454,1,2,0:0:0:0:
64,192,270611,1,0,0:0:0:0:
320,192,270611,1,2,0:0:0:0:
192,192,270611,1,0,0:0:0:0:
192,192,270768,1,0,0:0:0:0:
320,192,270768,1,2,0:0:0:0:
448,192,270768,1,0,0:0:0:0:
192,192,270925,1,0,0:0:0:0:
320,192,270925,1,2,0:0:0:0:
448,192,270925,1,0,0:0:0:0:
320,192,271082,1,2,0:0:0:0:
64,192,271082,1,0,0:0:0:0:
448,192,271082,1,4,0:0:0:0:
192,192,271239,1,0,0:0:0:0:
64,192,271239,1,2,0:0:0:0:
320,192,271318,1,2,0:0:0:0:
448,192,271318,1,0,0:0:0:0:
192,192,271396,1,0,0:0:0:0:
64,192,271396,1,2,0:0:0:0:
320,192,271553,1,0,0:0:0:0:
448,192,271592,1,0,0:0:0:0:
192,192,271632,1,0,0:0:0:0:
320,192,271671,1,0,0:0:0:0:
64,192,271710,1,2,0:0:0:0:
448,192,271710,1,4,0:0:0:0:
320,192,271867,1,2,0:0:0:0:
448,192,271867,1,0,0:0:0:0:
64,192,271946,1,0,0:0:0:0:
192,192,271946,1,2,0:0:0:0:
320,192,272024,1,2,0:0:0:0:
448,192,272024,1,0,0:0:0:0:
320,192,272181,1,2,0:0:0:0:
64,192,272181,1,0,0:0:0:0:
192,192,272260,1,2,0:0:0:0:
448,192,272260,1,0,0:0:0:0:
320,192,272338,1,2,0:0:0:0:
64,192,272338,1,0,0:0:0:0:
448,192,272338,1,4,0:0:0:0:
192,192,272496,1,0,0:0:0:0:
64,192,272535,1,0,0:0:0:0:
320,192,272574,1,0,0:0:0:0:
192,192,272613,1,0,0:0:0:0:
64,192,272653,1,0,0:0:0:0:
448,192,272653,1,2,0:0:0:0:
448,192,272810,1,2,0:0:0:0:
192,192,272810,1,0,0:0:0:0:
64,192,272810,1,0,0:0:0:0:
192,192,272967,1,4,0:0:0:0:
320,192,272967,1,2,0:0:0:0:
448,192,272967,1,0,0:0:0:0:
448,192,273124,1,0,0:0:0:0:
320,192,273124,1,2,0:0:0:0:
192,192,273124,1,0,0:0:0:0:
64,192,273281,1,0,0:0:0:0:
448,192,273281,1,0,0:0:0:0:
192,192,273333,1,0,0:0:0:0:
320,192,273386,1,0,0:0:0:0:
64,192,273438,1,0,0:0:0:0:
192,192,273490,1,0,0:0:0:0:
448,192,273543,1,0,0:0:0:0:
320,192,273595,1,2,0:0:0:0:
64,192,273595,1,4,0:0:0:0:
320,192,273752,1,0,0:0:0:0:
64,192,273752,1,2,0:0:0:0:
448,192,273752,1,0,0:0:0:0:
448,192,273909,1,0,0:0:0:0:
64,192,273909,1,0,0:0:0:0:
320,192,273962,1,0,0:0:0:0:
192,192,274014,1,0,0:0:0:0:
448,192,274066,1,0,0:0:0:0:
320,192,274119,1,0,0:0:0:0:
64,192,274171,1,0,0:0:0:0:
192,192,274223,1,2,0:0:0:0:
448,192,274223,1,4,0:0:0:0:
320,192,274380,1,0,0:0:0:0:
192,192,274380,1,2,0:0:0:0:
448,192,274380,1,0,0:0:0:0:
320,192,274537,1,0,0:0:0:0:
64,192,274537,1,0,0:0:0:0:
192,192,274590,1,0,0:0:0:0:
448,192,274642,1,0,0:0:0:0:
64,192,274694,1,0,0:0:0:0:
320,192,274747,1,0,0:0:0:0:
448,192,274799,1,0,0:0:0:0:
192,192,274852,1,2,0:0:0:0:
64,192,274852,1,4,0:0:0:0:
64,192,275009,1,0,0:0:0:0:
192,192,275009,1,2,0:0:0:0:
448,192,275009,1,0,0:0:0:0:
448,192,275166,1,0,0:0:0:0:
320,192,275166,1,0,0:0:0:0:
192,192,275218,1,0,0:0:0:0:
64,192,275270,1,0,0:0:0:0:
448,192,275323,1,0,0:0:0:0:
320,192,275375,1,0,0:0:0:0:
192,192,275427,1,0,0:0:0:0:
448,192,275480,1,2,0:0:0:0:
64,192,275480,1,4,0:0:0:0:
320,192,275637,1,2,0:0:0:0:
448,192,275637,1,0,0:0:0:0:
64,192,275715,1,0,0:0:0:0:
192,192,275715,1,2,0:0:0:0:
320,192,275794,1,2,0:0:0:0:
448,192,275794,1,0,0:0:0:0:
192,192,275872,1,2,0:0:0:0:
64,192,275872,1,0,0:0:0:0:
320,192,275951,1,2,0:0:0:0:
448,192,275951,1,0,0:0:0:0:
192,192,276030,1,2,0:0:0:0:
64,192,276030,1,0,0:0:0:0:
320,192,276108,1,2,0:0:0:0:
448,192,276108,1,0,0:0:0:0:
64,192,276187,1,0,0:0:0:0:
192,192,276187,1,2,0:0:0:0:
320,192,276265,1,2,0:0:0:0:
448,192,276265,1,0,0:0:0:0:
192,192,276344,1,2,0:0:0:0:
64,192,276344,1,0,0:0:0:0:
448,192,276422,1,0,0:0:0:0:
320,192,276462,1,0,0:0:0:0:
192,192,276501,1,0,0:0:0:0:
64,192,276540,1,0,0:0:0:0:
448,192,276579,1,0,0:0:0:0:
320,192,276619,1,0,0:0:0:0:
192,192,276658,1,0,0:0:0:0:
64,192,276697,1,0,0:0:0:0:
320,192,276736,1,2,0:0:0:0:
448,192,276736,1,4,0:0:0:0:
64,192,277993,128,0,278621:0:0:0:0:
192,192,277993,128,4,278621:0:0:0:0:
320,192,277993,128,2,278621:0:0:0:0:
448,192,277993,128,0,278621:0:0:0:0:
448,192,279249,128,4,282391:0:0:0:0:
320,192,279249,128,2,283019:0:0:0:0:
192,192,279249,128,0,283647:0:0:0:0:
64,192,279249,128,0,284276:0:0:0:0:
