osu file format v14

[General]
AudioFilename: audio.mp3
AudioLeadIn: 0
PreviewTime: 93211
Countdown: 0
SampleSet: Soft
StackLeniency: 0.7
Mode: 3
LetterboxInBreaks: 0
SpecialStyle: 0
WidescreenStoryboard: 1

[Editor]
Bookmarks: 12741,22623,35329,45388,93211,98858,104505,110152,115799,121446,127094,132741
DistanceSpacing: 2.4
BeatDivisor: 4
GridSize: 4
TimelineZoom: 1.6

[Metadata]
Title:Parodia Sonatina Var.II
TitleUnicode:Parodia Sonatina Var.II
Artist:Ice
ArtistUnicode:Ice
Creator:Remuring
Version:Sonatina
Source:Deemo
Tags:Ne nuit NIZI-RINGO syadow- Critical_Star Wonki
BeatmapID:1651241
BeatmapSetID:592262

[Difficulty]
HPDrainRate:8
CircleSize:7
OverallDifficulty:8
ApproachRate:5
SliderMultiplier:1.4
SliderTickRate:1

[Events]
//Background and Video events
0,0,"parodia_sonatina_var.jpg",0,0
//Break Periods
//Storyboard Layer 0 (Background)
//Storyboard Layer 1 (Fail)
//Storyboard Layer 2 (Pass)
//Storyboard Layer 3 (Foreground)
//Storyboard Sound Samples

[TimingPoints]
1447,352.941176470588,4,2,0,40,1,0

[HitObjects]
36,192,1447,5,0,0:0:0:0:
109,192,1447,1,0,0:0:0:0:
329,192,1447,1,0,0:0:0:0:
475,192,1447,1,0,0:0:0:0:
182,192,1623,1,0,0:0:0:0:
402,192,1623,1,0,0:0:0:0:
256,192,1799,1,0,0:0:0:0:
475,192,1799,1,0,0:0:0:0:
36,192,1799,1,0,0:0:0:0:
109,192,1976,1,0,0:0:0:0:
329,192,1976,1,0,0:0:0:0:
182,192,2064,1,0,0:0:0:0:
402,192,2064,1,0,0:0:0:0:
256,192,2152,1,0,0:0:0:0:
475,192,2152,1,0,0:0:0:0:
109,192,2241,1,0,0:0:0:0:
182,192,2329,1,0,0:0:0:0:
402,192,2329,1,0,0:0:0:0:
256,192,2505,1,0,0:0:0:0:
475,192,2505,1,0,0:0:0:0:
36,192,2505,1,0,0:0:0:0:
182,192,2682,1,0,0:0:0:0:
402,192,2682,1,0,0:0:0:0:
329,192,2770,1,0,0:0:0:0:
109,192,2770,1,0,0:0:0:0:
36,192,2858,1,0,0:0:0:0:
256,192,2858,1,0,0:0:0:0:
402,192,2946,1,0,0:0:0:0:
109,192,3035,1,0,0:0:0:0:
329,192,3035,1,0,0:0:0:0:
256,192,3211,1,0,0:0:0:0:
475,192,3211,1,0,0:0:0:0:
36,192,3211,1,0,0:0:0:0:
109,192,3299,1,0,0:0:0:0:
402,192,3299,1,0,0:0:0:0:
329,192,3388,1,0,0:0:0:0:
182,192,3388,1,0,0:0:0:0:
256,192,3476,1,0,0:0:0:0:
36,192,3476,1,0,0:0:0:0:
109,192,3564,1,0,0:0:0:0:
475,192,3564,1,0,0:0:0:0:
402,192,3608,1,0,0:0:0:0:
329,192,3652,1,0,0:0:0:0:
256,192,3696,1,0,0:0:0:0:
182,192,3741,1,0,0:0:0:0:
36,192,3741,1,0,0:0:0:0:
109,192,3917,1,0,0:0:0:0:
329,192,3917,1,0,0:0:0:0:
475,192,3917,1,0,0:0:0:0:
256,192,4005,1,0,0:0:0:0:
182,192,4094,1,0,0:0:0:0:
36,192,4094,1,0,0:0:0:0:
329,192,4182,1,0,0:0:0:0:
475,192,4270,1,0,0:0:0:0:
109,192,4270,1,0,0:0:0:0:
402,192,4358,1,0,0:0:0:0:
329,192,4446,1,0,0:0:0:0:
36,192,4446,1,0,0:0:0:0:
256,192,4535,1,0,0:0:0:0:
182,192,4623,1,0,0:0:0:0:
402,192,4623,1,0,0:0:0:0:
475,192,4623,1,0,0:0:0:0:
109,192,4799,1,0,0:0:0:0:
329,192,4799,1,0,0:0:0:0:
36,192,4976,1,0,0:0:0:0:
402,192,4976,1,0,0:0:0:0:
109,192,5064,1,0,0:0:0:0:
182,192,5152,1,0,0:0:0:0:
475,192,5152,1,0,0:0:0:0:
256,192,5241,1,0,0:0:0:0:
329,192,5329,1,0,0:0:0:0:
109,192,5329,1,0,0:0:0:0:
36,192,5329,1,0,0:0:0:0:
182,192,5505,1,0,0:0:0:0:
402,192,5505,1,0,0:0:0:0:
256,192,5594,1,0,0:0:0:0:
329,192,5682,1,0,0:0:0:0:
36,192,5682,1,0,0:0:0:0:
109,192,5770,1,0,0:0:0:0:
182,192,5858,1,0,0:0:0:0:
256,192,5858,1,0,0:0:0:0:
329,192,5946,1,0,0:0:0:0:
402,192,6035,1,0,0:0:0:0:
475,192,6035,1,0,0:0:0:0:
109,192,6035,1,0,0:0:0:0:
182,192,6123,1,0,0:0:0:0:
256,192,6211,1,0,0:0:0:0:
329,192,6211,1,0,0:0:0:0:
402,192,6299,1,0,0:0:0:0:
36,192,6388,1,0,0:0:0:0:
475,192,6388,1,0,0:0:0:0:
109,192,6432,1,0,0:0:0:0:
402,192,6476,1,0,0:0:0:0:
182,192,6476,1,0,0:0:0:0:
256,192,6520,1,0,0:0:0:0:
329,192,6564,1,0,0:0:0:0:
475,192,6564,1,0,0:0:0:0:
402,192,6652,1,0,0:0:0:0:
36,192,6741,1,0,0:0:0:0:
475,192,6741,1,0,0:0:0:0:
182,192,6741,1,0,0:0:0:0:
256,192,6829,1,0,0:0:0:0:
402,192,6829,1,0,0:0:0:0:
329,192,6917,1,0,0:0:0:0:
109,192,6917,1,0,0:0:0:0:
182,192,7005,1,0,0:0:0:0:
402,192,7005,1,0,0:0:0:0:
256,192,7094,1,0,0:0:0:0:
475,192,7094,1,0,0:0:0:0:
36,192,7094,1,0,0:0:0:0:
329,192,7270,1,0,0:0:0:0:
109,192,7270,1,0,0:0:0:0:
256,192,7446,1,0,0:0:0:0:
36,192,7446,1,0,0:0:0:0:
475,192,7446,1,0,0:0:0:0:
402,192,7623,1,0,0:0:0:0:
182,192,7623,1,0,0:0:0:0:
329,192,7711,1,0,0:0:0:0:
109,192,7711,1,0,0:0:0:0:
256,192,7799,1,0,0:0:0:0:
36,192,7799,1,0,0:0:0:0:
402,192,7888,1,0,0:0:0:0:
329,192,7976,1,0,0:0:0:0:
109,192,7976,1,0,0:0:0:0:
256,192,8152,1,0,0:0:0:0:
36,192,8152,1,0,0:0:0:0:
475,192,8152,1,0,0:0:0:0:
329,192,8329,1,0,0:0:0:0:
109,192,8329,1,0,0:0:0:0:
182,192,8417,1,0,0:0:0:0:
402,192,8417,1,0,0:0:0:0:
475,192,8505,1,0,0:0:0:0:
256,192,8505,1,0,0:0:0:0:
109,192,8594,1,0,0:0:0:0:
402,192,8682,1,0,0:0:0:0:
182,192,8682,1,0,0:0:0:0:
256,192,8858,1,0,0:0:0:0:
36,192,8858,1,0,0:0:0:0:
475,192,8858,1,0,0:0:0:0:
402,192,8946,1,0,0:0:0:0:
109,192,8946,1,0,0:0:0:0:
182,192,9035,1,0,0:0:0:0:
329,192,9035,1,0,0:0:0:0:
256,192,9123,1,0,0:0:0:0:
475,192,9123,1,0,0:0:0:0:
402,192,9211,1,0,0:0:0:0:
36,192,9211,1,0,0:0:0:0:
109,192,9255,1,0,0:0:0:0:
182,192,9299,1,0,0:0:0:0:
256,192,9344,1,0,0:0:0:0:
329,192,9388,1,0,0:0:0:0:
475,192,9388,1,0,0:0:0:0:
109,192,9476,1,0,0:0:0:0:
36,192,9564,1,0,0:0:0:0:
182,192,9564,1,0,0:0:0:0:
402,192,9564,1,0,0:0:0:0:
256,192,9652,1,0,0:0:0:0:
329,192,9741,1,0,0:0:0:0:
475,192,9741,1,0,0:0:0:0:
402,192,9829,1,0,0:0:0:0:
256,192,9917,1,0,0:0:0:0:
109,192,9917,1,0,0:0:0:0:
36,192,10005,1,0,0:0:0:0:
182,192,10094,1,0,0:0:0:0:
329,192,10094,1,0,0:0:0:0:
109,192,10182,1,0,0:0:0:0:
36,192,10270,1,0,0:0:0:0:
256,192,10270,1,0,0:0:0:0:
402,192,10270,1,0,0:0:0:0:
182,192,10358,1,0,0:0:0:0:
109,192,10446,1,0,0:0:0:0:
329,192,10446,1,0,0:0:0:0:
36,192,10535,1,0,0:0:0:0:
402,192,10623,1,0,0:0:0:0:
256,192,10623,1,0,0:0:0:0:
475,192,10711,1,0,0:0:0:0:
182,192,10799,1,0,0:0:0:0:
329,192,10799,1,0,0:0:0:0:
402,192,10888,1,0,0:0:0:0:
475,192,10976,1,0,0:0:0:0:
256,192,10976,1,0,0:0:0:0:
109,192,10976,1,0,0:0:0:0:
329,192,11064,1,0,0:0:0:0:
402,192,11152,1,0,0:0:0:0:
182,192,11152,1,0,0:0:0:0:
256,192,11241,1,0,0:0:0:0:
329,192,11329,1,0,0:0:0:0:
36,192,11329,1,0,0:0:0:0:
109,192,11417,1,0,0:0:0:0:
182,192,11505,1,0,0:0:0:0:
402,192,11505,1,0,0:0:0:0:
329,192,11594,1,0,0:0:0:0:
256,192,11682,1,0,0:0:0:0:
475,192,11682,1,0,0:0:0:0:
36,192,11682,1,0,0:0:0:0:
402,192,11770,1,0,0:0:0:0:
329,192,11858,1,0,0:0:0:0:
182,192,11858,1,0,0:0:0:0:
109,192,11946,1,0,0:0:0:0:
36,192,12035,1,0,0:0:0:0:
475,192,12035,1,0,0:0:0:0:
402,192,12079,1,0,0:0:0:0:
329,192,12123,1,0,0:0:0:0:
256,192,12167,1,0,0:0:0:0:
182,192,12211,1,0,0:0:0:0:
36,192,12211,1,0,0:0:0:0:
329,192,12299,1,0,0:0:0:0:
256,192,12388,1,0,0:0:0:0:
109,192,12388,1,0,0:0:0:0:
402,192,12476,1,0,0:0:0:0:
329,192,12564,1,0,0:0:0:0:
182,192,12564,1,0,0:0:0:0:
475,192,12652,1,0,0:0:0:0:
402,192,12741,1,0,0:0:0:0:
256,192,12741,1,0,0:0:0:0:
109,192,12741,1,0,0:0:0:0:
36,192,12741,128,0,12917:0:0:0:0:
182,192,12917,1,0,0:0:0:0:
36,192,13094,128,0,13270:0:0:0:0:
329,192,13094,1,0,0:0:0:0:
475,192,13094,1,0,0:0:0:0:
256,192,13270,1,0,0:0:0:0:
36,192,13446,128,0,13623:0:0:0:0:
182,192,13446,1,0,0:0:0:0:
329,192,13535,1,0,0:0:0:0:
182,192,13623,1,0,0:0:0:0:
402,192,13711,1,0,0:0:0:0:
36,192,13799,128,0,13976:0:0:0:0:
329,192,13799,1,0,0:0:0:0:
475,192,13799,1,0,0:0:0:0:
182,192,13888,1,0,0:0:0:0:
402,192,13976,1,0,0:0:0:0:
182,192,14064,1,0,0:0:0:0:
36,192,14152,128,0,14329:0:0:0:0:
329,192,14152,1,0,0:0:0:0:
182,192,14241,1,0,0:0:0:0:
256,192,14329,1,0,0:0:0:0:
182,192,14417,1,0,0:0:0:0:
36,192,14505,128,0,14682:0:0:0:0:
329,192,14505,1,0,0:0:0:0:
475,192,14505,1,0,0:0:0:0:
182,192,14594,1,0,0:0:0:0:
256,192,14682,1,0,0:0:0:0:
182,192,14770,1,0,0:0:0:0:
36,192,14858,128,0,15035:0:0:0:0:
475,192,14858,1,0,0:0:0:0:
402,192,14902,1,0,0:0:0:0:
329,192,14946,1,0,0:0:0:0:
256,192,14991,1,0,0:0:0:0:
182,192,15035,1,0,0:0:0:0:
109,192,15035,1,0,0:0:0:0:
36,192,15211,128,0,15564:0:0:0:0:
329,192,15211,1,0,0:0:0:0:
475,192,15211,1,0,0:0:0:0:
182,192,15388,128,0,15564:0:0:0:0:
475,192,15564,128,0,15741:0:0:0:0:
256,192,15564,1,0,0:0:0:0:
329,192,15741,1,0,0:0:0:0:
475,192,15917,128,0,16094:0:0:0:0:
182,192,15917,1,0,0:0:0:0:
36,192,15917,1,0,0:0:0:0:
256,192,16094,1,0,0:0:0:0:
475,192,16270,128,0,16446:0:0:0:0:
329,192,16270,1,0,0:0:0:0:
182,192,16358,1,0,0:0:0:0:
329,192,16446,1,0,0:0:0:0:
109,192,16535,1,0,0:0:0:0:
475,192,16623,128,0,16799:0:0:0:0:
182,192,16623,1,0,0:0:0:0:
36,192,16623,1,0,0:0:0:0:
329,192,16711,1,0,0:0:0:0:
109,192,16799,1,0,0:0:0:0:
329,192,16888,1,0,0:0:0:0:
475,192,16976,128,0,17152:0:0:0:0:
182,192,16976,1,0,0:0:0:0:
329,192,17064,1,0,0:0:0:0:
256,192,17152,1,0,0:0:0:0:
329,192,17241,1,0,0:0:0:0:
475,192,17329,128,0,17505:0:0:0:0:
182,192,17329,1,0,0:0:0:0:
36,192,17329,1,0,0:0:0:0:
329,192,17417,1,0,0:0:0:0:
256,192,17505,1,0,0:0:0:0:
329,192,17594,1,0,0:0:0:0:
475,192,17682,128,0,17858:0:0:0:0:
36,192,17682,1,0,0:0:0:0:
109,192,17726,1,0,0:0:0:0:
182,192,17770,1,0,0:0:0:0:
256,192,17814,1,0,0:0:0:0:
329,192,17858,1,0,0:0:0:0:
402,192,17858,1,0,0:0:0:0:
109,192,17946,1,0,0:0:0:0:
475,192,18035,128,0,18388:0:0:0:0:
182,192,18035,1,0,0:0:0:0:
36,192,18035,1,0,0:0:0:0:
256,192,18123,1,0,0:0:0:0:
329,192,18211,128,0,18388:0:0:0:0:
109,192,18299,1,0,0:0:0:0:
36,192,18388,128,0,18564:0:0:0:0:
256,192,18388,1,0,0:0:0:0:
182,192,18564,1,0,0:0:0:0:
36,192,18741,128,0,18917:0:0:0:0:
329,192,18741,1,0,0:0:0:0:
475,192,18741,1,0,0:0:0:0:
256,192,18917,1,0,0:0:0:0:
36,192,19094,128,0,19270:0:0:0:0:
182,192,19094,1,0,0:0:0:0:
329,192,19182,1,0,0:0:0:0:
182,192,19270,1,0,0:0:0:0:
402,192,19358,1,0,0:0:0:0:
36,192,19446,128,0,19623:0:0:0:0:
475,192,19446,1,0,0:0:0:0:
329,192,19446,1,0,0:0:0:0:
182,192,19535,1,0,0:0:0:0:
402,192,19623,1,0,0:0:0:0:
182,192,19711,1,0,0:0:0:0:
36,192,19799,128,0,19976:0:0:0:0:
329,192,19799,1,0,0:0:0:0:
182,192,19888,1,0,0:0:0:0:
256,192,19976,1,0,0:0:0:0:
182,192,20064,1,0,0:0:0:0:
36,192,20152,128,0,20329:0:0:0:0:
475,192,20152,1,0,0:0:0:0:
329,192,20152,1,0,0:0:0:0:
182,192,20241,1,0,0:0:0:0:
256,192,20329,1,0,0:0:0:0:
182,192,20417,1,0,0:0:0:0:
36,192,20505,128,0,20682:0:0:0:0:
475,192,20505,1,0,0:0:0:0:
402,192,20549,1,0,0:0:0:0:
329,192,20594,1,0,0:0:0:0:
256,192,20638,1,0,0:0:0:0:
109,192,20682,1,0,0:0:0:0:
182,192,20682,1,0,0:0:0:0:
402,192,20770,1,0,0:0:0:0:
36,192,20858,128,0,21211:0:0:0:0:
475,192,20858,1,0,0:0:0:0:
329,192,20858,1,0,0:0:0:0:
256,192,20946,1,0,0:0:0:0:
182,192,21035,128,0,21211:0:0:0:0:
402,192,21123,1,0,0:0:0:0:
256,192,21211,1,0,0:0:0:0:
475,192,21211,1,0,0:0:0:0:
475,192,21388,1,0,0:0:0:0:
182,192,21388,1,0,0:0:0:0:
256,192,21446,1,0,0:0:0:0:
329,192,21505,1,0,0:0:0:0:
402,192,21564,1,0,0:0:0:0:
109,192,21564,1,0,0:0:0:0:
182,192,21623,1,0,0:0:0:0:
256,192,21682,1,0,0:0:0:0:
36,192,21741,1,0,0:0:0:0:
329,192,21741,1,0,0:0:0:0:
109,192,21799,1,0,0:0:0:0:
182,192,21858,1,0,0:0:0:0:
475,192,21917,1,0,0:0:0:0:
256,192,21917,1,0,0:0:0:0:
402,192,21976,1,0,0:0:0:0:
329,192,22035,1,0,0:0:0:0:
36,192,22094,1,0,0:0:0:0:
256,192,22094,1,0,0:0:0:0:
109,192,22152,1,0,0:0:0:0:
182,192,22211,1,0,0:0:0:0:
475,192,22270,1,0,0:0:0:0:
256,192,22270,1,0,0:0:0:0:
402,192,22329,1,0,0:0:0:0:
329,192,22388,1,0,0:0:0:0:
256,192,22446,1,0,0:0:0:0:
36,192,22446,1,0,0:0:0:0:
182,192,22505,1,0,0:0:0:0:
109,192,22564,1,0,0:0:0:0:
256,192,22623,1,0,0:0:0:0:
402,192,22623,1,0,0:0:0:0:
475,192,22623,1,0,0:0:0:0:
36,192,22623,1,0,0:0:0:0:
329,192,22711,1,0,0:0:0:0:
109,192,22799,1,0,0:0:0:0:
402,192,22888,1,0,0:0:0:0:
182,192,22976,1,0,0:0:0:0:
475,192,23064,1,0,0:0:0:0:
256,192,23152,1,0,0:0:0:0:
36,192,23241,1,0,0:0:0:0:
329,192,23329,1,0,0:0:0:0:
109,192,23417,1,0,0:0:0:0:
402,192,23505,1,0,0:0:0:0:
182,192,23594,1,0,0:0:0:0:
475,192,23682,1,0,0:0:0:0:
256,192,23770,1,0,0:0:0:0:
36,192,23858,1,0,0:0:0:0:
329,192,23946,1,0,0:0:0:0:
402,192,24035,1,0,0:0:0:0:
182,192,24035,1,0,0:0:0:0:
36,192,24035,1,0,0:0:0:0:
256,192,24035,1,0,0:0:0:0:
475,192,24035,1,0,0:0:0:0:
329,192,24299,128,0,24388:0:0:0:0:
475,192,24299,128,0,24388:0:0:0:0:
329,192,24476,128,0,24564:0:0:0:0:
475,192,24476,128,0,24564:0:0:0:0:
36,192,24564,1,0,0:0:0:0:
109,192,24564,1,0,0:0:0:0:
182,192,24652,1,0,0:0:0:0:
256,192,24652,1,0,0:0:0:0:
329,192,24741,1,0,0:0:0:0:
402,192,24741,1,0,0:0:0:0:
475,192,24741,1,0,0:0:0:0:
109,192,24741,1,0,0:0:0:0:
36,192,24741,1,0,0:0:0:0:
182,192,25005,128,0,25094:0:0:0:0:
36,192,25005,128,0,25094:0:0:0:0:
182,192,25182,128,0,25270:0:0:0:0:
36,192,25182,128,0,25270:0:0:0:0:
402,192,25270,1,0,0:0:0:0:
475,192,25270,1,0,0:0:0:0:
329,192,25358,1,0,0:0:0:0:
256,192,25358,1,0,0:0:0:0:
182,192,25446,1,0,0:0:0:0:
109,192,25446,1,0,0:0:0:0:
36,192,25446,1,0,0:0:0:0:
402,192,25446,1,0,0:0:0:0:
475,192,25446,1,0,0:0:0:0:
329,192,25623,1,0,0:0:0:0:
256,192,25623,1,0,0:0:0:0:
182,192,25711,1,0,0:0:0:0:
109,192,25711,1,0,0:0:0:0:
36,192,25799,1,0,0:0:0:0:
475,192,25799,1,0,0:0:0:0:
402,192,25799,1,0,0:0:0:0:
329,192,25888,1,0,0:0:0:0:
256,192,25888,1,0,0:0:0:0:
182,192,25976,1,0,0:0:0:0:
109,192,25976,1,0,0:0:0:0:
329,192,26064,1,0,0:0:0:0:
402,192,26064,1,0,0:0:0:0:
256,192,26152,1,0,0:0:0:0:
182,192,26152,1,0,0:0:0:0:
36,192,26152,1,0,0:0:0:0:
475,192,26152,1,0,0:0:0:0:
109,192,26152,1,0,0:0:0:0:
329,192,26241,1,0,0:0:0:0:
402,192,26329,1,0,0:0:0:0:
475,192,26417,128,0,26505:0:0:0:0:
329,192,26417,128,0,26505:0:0:0:0:
109,192,26505,1,0,0:0:0:0:
36,192,26505,1,0,0:0:0:0:
475,192,26594,128,0,26682:0:0:0:0:
329,192,26594,128,0,26682:0:0:0:0:
109,192,26682,1,0,0:0:0:0:
182,192,26682,1,0,0:0:0:0:
256,192,26770,1,0,0:0:0:0:
329,192,26770,1,0,0:0:0:0:
402,192,26858,1,0,0:0:0:0:
475,192,26858,1,0,0:0:0:0:
182,192,26858,1,0,0:0:0:0:
109,192,26858,1,0,0:0:0:0:
36,192,26858,1,0,0:0:0:0:
256,192,26946,1,0,0:0:0:0:
329,192,27035,1,0,0:0:0:0:
402,192,27123,1,0,0:0:0:0:
36,192,27211,1,0,0:0:0:0:
182,192,27211,1,0,0:0:0:0:
475,192,27211,1,0,0:0:0:0:
329,192,27299,1,0,0:0:0:0:
256,192,27299,1,0,0:0:0:0:
109,192,27388,1,0,0:0:0:0:
402,192,27388,1,0,0:0:0:0:
182,192,27476,1,0,0:0:0:0:
256,192,27476,1,0,0:0:0:0:
109,192,27564,1,0,0:0:0:0:
36,192,27564,1,0,0:0:0:0:
402,192,27564,1,0,0:0:0:0:
475,192,27564,1,0,0:0:0:0:
329,192,27564,1,0,0:0:0:0:
256,192,27652,1,0,0:0:0:0:
182,192,27741,1,0,0:0:0:0:
109,192,27829,1,0,0:0:0:0:
36,192,27917,1,0,0:0:0:0:
329,192,27917,1,0,0:0:0:0:
475,192,27917,1,0,0:0:0:0:
182,192,28005,1,0,0:0:0:0:
256,192,28005,1,0,0:0:0:0:
109,192,28094,1,0,0:0:0:0:
402,192,28094,1,0,0:0:0:0:
256,192,28182,1,0,0:0:0:0:
329,192,28182,1,0,0:0:0:0:
182,192,28270,1,0,0:0:0:0:
109,192,28270,1,0,0:0:0:0:
36,192,28270,1,0,0:0:0:0:
402,192,28270,1,0,0:0:0:0:
475,192,28270,1,0,0:0:0:0:
329,192,28358,1,0,0:0:0:0:
256,192,28446,1,0,0:0:0:0:
182,192,28535,1,0,0:0:0:0:
475,192,28623,1,0,0:0:0:0:
402,192,28623,1,0,0:0:0:0:
109,192,28623,1,0,0:0:0:0:
36,192,28623,1,0,0:0:0:0:
329,192,28623,1,0,0:0:0:0:
256,192,28711,1,0,0:0:0:0:
182,192,28799,1,0,0:0:0:0:
109,192,28888,1,0,0:0:0:0:
36,192,28976,1,0,0:0:0:0:
256,192,28976,1,0,0:0:0:0:
329,192,28976,1,0,0:0:0:0:
402,192,28976,1,0,0:0:0:0:
475,192,28976,1,0,0:0:0:0:
182,192,29064,1,0,0:0:0:0:
109,192,29064,1,0,0:0:0:0:
329,192,29152,1,0,0:0:0:0:
402,192,29152,1,0,0:0:0:0:
256,192,29241,1,0,0:0:0:0:
182,192,29241,1,0,0:0:0:0:
109,192,29329,1,0,0:0:0:0:
36,192,29329,1,0,0:0:0:0:
402,192,29329,1,0,0:0:0:0:
256,192,29417,1,0,0:0:0:0:
329,192,29417,1,0,0:0:0:0:
109,192,29505,1,0,0:0:0:0:
402,192,29505,1,0,0:0:0:0:
475,192,29505,1,0,0:0:0:0:
182,192,29594,1,0,0:0:0:0:
256,192,29594,1,0,0:0:0:0:
329,192,29682,1,0,0:0:0:0:
402,192,29682,1,0,0:0:0:0:
475,192,29682,1,0,0:0:0:0:
109,192,29682,1,0,0:0:0:0:
36,192,29682,1,0,0:0:0:0:
182,192,29770,1,0,0:0:0:0:
256,192,29858,1,0,0:0:0:0:
329,192,29946,1,0,0:0:0:0:
182,192,30035,1,0,0:0:0:0:
329,192,30123,1,0,0:0:0:0:
475,192,30211,1,0,0:0:0:0:
402,192,30211,1,0,0:0:0:0:
329,192,30299,1,0,0:0:0:0:
256,192,30299,1,0,0:0:0:0:
182,192,30388,1,0,0:0:0:0:
109,192,30388,1,0,0:0:0:0:
36,192,30388,1,0,0:0:0:0:
402,192,30388,1,0,0:0:0:0:
475,192,30388,1,0,0:0:0:0:
329,192,30476,1,0,0:0:0:0:
256,192,30564,1,0,0:0:0:0:
182,192,30652,1,0,0:0:0:0:
329,192,30741,1,0,0:0:0:0:
182,192,30829,1,0,0:0:0:0:
109,192,30917,1,0,0:0:0:0:
36,192,30917,1,0,0:0:0:0:
182,192,31005,1,0,0:0:0:0:
256,192,31005,1,0,0:0:0:0:
329,192,31094,1,0,0:0:0:0:
402,192,31094,1,0,0:0:0:0:
475,192,31094,1,0,0:0:0:0:
109,192,31094,1,0,0:0:0:0:
36,192,31094,1,0,0:0:0:0:
182,192,31182,1,0,0:0:0:0:
256,192,31270,1,0,0:0:0:0:
329,192,31358,1,0,0:0:0:0:
402,192,31446,1,0,0:0:0:0:
109,192,31446,1,0,0:0:0:0:
182,192,31535,1,0,0:0:0:0:
256,192,31535,1,0,0:0:0:0:
329,192,31623,1,0,0:0:0:0:
36,192,31623,1,0,0:0:0:0:
109,192,31711,1,0,0:0:0:0:
182,192,31711,1,0,0:0:0:0:
256,192,31799,1,0,0:0:0:0:
329,192,31799,1,0,0:0:0:0:
402,192,31799,1,0,0:0:0:0:
475,192,31799,1,0,0:0:0:0:
36,192,31799,1,0,0:0:0:0:
182,192,31976,1,0,0:0:0:0:
329,192,32064,1,0,0:0:0:0:
402,192,32152,1,0,0:0:0:0:
109,192,32152,1,0,0:0:0:0:
256,192,32241,1,0,0:0:0:0:
329,192,32241,1,0,0:0:0:0:
182,192,32329,1,0,0:0:0:0:
475,192,32329,1,0,0:0:0:0:
402,192,32417,1,0,0:0:0:0:
329,192,32417,1,0,0:0:0:0:
256,192,32505,1,0,0:0:0:0:
182,192,32505,1,0,0:0:0:0:
109,192,32505,1,0,0:0:0:0:
36,192,32505,1,0,0:0:0:0:
475,192,32505,1,0,0:0:0:0:
402,192,32594,1,0,0:0:0:0:
329,192,32682,1,0,0:0:0:0:
256,192,32682,1,0,0:0:0:0:
182,192,32770,1,0,0:0:0:0:
109,192,32770,1,0,0:0:0:0:
36,192,32858,1,0,0:0:0:0:
329,192,32858,1,0,0:0:0:0:
256,192,32946,1,0,0:0:0:0:
182,192,32946,1,0,0:0:0:0:
109,192,33035,1,0,0:0:0:0:
402,192,33035,1,0,0:0:0:0:
329,192,33123,1,0,0:0:0:0:
256,192,33123,1,0,0:0:0:0:
182,192,33211,1,0,0:0:0:0:
109,192,33211,1,0,0:0:0:0:
36,192,33211,1,0,0:0:0:0:
402,192,33211,1,0,0:0:0:0:
475,192,33211,1,0,0:0:0:0:
329,192,33299,1,0,0:0:0:0:
182,192,33388,1,0,0:0:0:0:
109,192,33388,1,0,0:0:0:0:
329,192,33476,1,0,0:0:0:0:
402,192,33476,1,0,0:0:0:0:
475,192,33564,1,0,0:0:0:0:
182,192,33564,1,0,0:0:0:0:
256,192,33652,1,0,0:0:0:0:
329,192,33652,1,0,0:0:0:0:
109,192,33741,1,0,0:0:0:0:
402,192,33741,1,0,0:0:0:0:
256,192,33829,1,0,0:0:0:0:
182,192,33829,1,0,0:0:0:0:
329,192,33917,1,0,0:0:0:0:
475,192,33917,1,0,0:0:0:0:
109,192,33917,1,0,0:0:0:0:
36,192,33917,1,0,0:0:0:0:
402,192,33917,1,0,0:0:0:0:
256,192,34005,1,0,0:0:0:0:
182,192,34094,1,0,0:0:0:0:
109,192,34094,1,0,0:0:0:0:
256,192,34182,1,0,0:0:0:0:
329,192,34182,1,0,0:0:0:0:
402,192,34270,1,0,0:0:0:0:
182,192,34270,1,0,0:0:0:0:
109,192,34270,1,0,0:0:0:0:
36,192,34270,1,0,0:0:0:0:
475,192,34270,1,0,0:0:0:0:
256,192,34358,1,0,0:0:0:0:
329,192,34446,1,0,0:0:0:0:
402,192,34446,1,0,0:0:0:0:
256,192,34535,1,0,0:0:0:0:
182,192,34535,1,0,0:0:0:0:
109,192,34623,1,0,0:0:0:0:
36,192,34623,1,0,0:0:0:0:
329,192,34623,1,0,0:0:0:0:
402,192,34623,1,0,0:0:0:0:
475,192,34623,1,0,0:0:0:0:
109,192,34799,1,0,0:0:0:0:
182,192,34799,1,0,0:0:0:0:
256,192,34799,1,0,0:0:0:0:
329,192,34799,1,0,0:0:0:0:
402,192,34799,1,0,0:0:0:0:
182,192,34976,1,0,0:0:0:0:
109,192,34976,1,0,0:0:0:0:
36,192,34976,1,0,0:0:0:0:
402,192,34976,1,0,0:0:0:0:
475,192,34976,1,0,0:0:0:0:
329,192,35329,1,0,0:0:0:0:
182,192,35329,1,0,0:0:0:0:
256,192,35329,1,0,0:0:0:0:
402,192,35329,1,0,0:0:0:0:
109,192,35329,1,0,0:0:0:0:
256,192,35682,1,0,0:0:0:0:
182,192,35682,1,0,0:0:0:0:
36,192,35682,1,0,0:0:0:0:
109,192,35682,1,0,0:0:0:0:
329,192,35682,1,0,0:0:0:0:
182,192,36035,1,0,0:0:0:0:
109,192,36035,1,0,0:0:0:0:
256,192,36035,1,0,0:0:0:0:
329,192,36035,1,0,0:0:0:0:
402,192,36035,1,0,0:0:0:0:
329,192,36388,1,0,0:0:0:0:
402,192,36388,1,0,0:0:0:0:
182,192,36388,1,0,0:0:0:0:
475,192,36388,1,0,0:0:0:0:
256,192,36388,1,0,0:0:0:0:
182,192,36564,1,0,0:0:0:0:
329,192,36564,1,0,0:0:0:0:
109,192,36564,1,0,0:0:0:0:
402,192,36564,1,0,0:0:0:0:
256,192,36564,1,0,0:0:0:0:
256,192,36917,1,0,0:0:0:0:
36,192,36917,1,0,0:0:0:0:
329,192,36917,1,0,0:0:0:0:
109,192,36917,1,0,0:0:0:0:
182,192,36917,1,0,0:0:0:0:
109,192,37270,1,0,0:0:0:0:
36,192,37270,1,0,0:0:0:0:
329,192,37270,1,0,0:0:0:0:
256,192,37270,1,0,0:0:0:0:
182,192,37270,1,0,0:0:0:0:
182,192,37446,1,0,0:0:0:0:
36,192,37446,1,0,0:0:0:0:
109,192,37446,1,0,0:0:0:0:
475,192,37446,1,0,0:0:0:0:
402,192,37535,1,0,0:0:0:0:
329,192,37623,1,0,0:0:0:0:
256,192,37711,1,0,0:0:0:0:
36,192,37799,1,0,0:0:0:0:
402,192,37799,1,0,0:0:0:0:
182,192,37799,1,0,0:0:0:0:
329,192,37888,1,0,0:0:0:0:
256,192,37976,1,0,0:0:0:0:
182,192,38064,1,0,0:0:0:0:
109,192,38152,1,0,0:0:0:0:
475,192,38152,1,0,0:0:0:0:
329,192,38152,1,0,0:0:0:0:
36,192,38152,1,0,0:0:0:0:
402,192,38152,1,0,0:0:0:0:
256,192,38505,1,0,0:0:0:0:
475,192,38505,1,0,0:0:0:0:
402,192,38505,1,0,0:0:0:0:
329,192,38505,1,0,0:0:0:0:
182,192,38505,1,0,0:0:0:0:
329,192,38858,1,0,0:0:0:0:
182,192,38858,1,0,0:0:0:0:
256,192,38858,1,0,0:0:0:0:
402,192,38858,1,0,0:0:0:0:
109,192,38858,1,0,0:0:0:0:
256,192,39211,1,0,0:0:0:0:
329,192,39211,1,0,0:0:0:0:
36,192,39211,1,0,0:0:0:0:
182,192,39211,1,0,0:0:0:0:
109,192,39211,1,0,0:0:0:0:
109,192,39388,1,0,0:0:0:0:
402,192,39388,1,0,0:0:0:0:
329,192,39388,1,0,0:0:0:0:
256,192,39388,1,0,0:0:0:0:
182,192,39388,1,0,0:0:0:0:
182,192,39741,1,0,0:0:0:0:
256,192,39741,1,0,0:0:0:0:
329,192,39741,1,0,0:0:0:0:
475,192,39741,1,0,0:0:0:0:
402,192,39741,1,0,0:0:0:0:
475,192,40094,1,0,0:0:0:0:
402,192,40094,1,0,0:0:0:0:
329,192,40094,1,0,0:0:0:0:
256,192,40094,1,0,0:0:0:0:
182,192,40094,1,0,0:0:0:0:
329,192,40270,1,0,0:0:0:0:
36,192,40270,1,0,0:0:0:0:
475,192,40270,1,0,0:0:0:0:
402,192,40270,1,0,0:0:0:0:
109,192,40358,1,0,0:0:0:0:
182,192,40446,1,0,0:0:0:0:
256,192,40535,1,0,0:0:0:0:
109,192,40623,1,0,0:0:0:0:
475,192,40623,1,0,0:0:0:0:
329,192,40623,1,0,0:0:0:0:
182,192,40711,1,0,0:0:0:0:
256,192,40799,1,0,0:0:0:0:
329,192,40888,1,0,0:0:0:0:
182,192,40976,1,0,0:0:0:0:
402,192,40976,1,0,0:0:0:0:
36,192,40976,1,0,0:0:0:0:
109,192,40976,1,0,0:0:0:0:
475,192,40976,1,0,0:0:0:0:
329,192,41329,1,0,0:0:0:0:
182,192,41329,1,0,0:0:0:0:
36,192,41329,1,0,0:0:0:0:
109,192,41329,1,0,0:0:0:0:
256,192,41329,1,0,0:0:0:0:
256,192,41682,1,0,0:0:0:0:
402,192,41682,1,0,0:0:0:0:
109,192,41682,1,0,0:0:0:0:
182,192,41682,1,0,0:0:0:0:
329,192,41682,1,0,0:0:0:0:
475,192,42035,1,0,0:0:0:0:
402,192,42035,1,0,0:0:0:0:
329,192,42035,1,0,0:0:0:0:
256,192,42035,1,0,0:0:0:0:
182,192,42035,1,0,0:0:0:0:
182,192,42211,1,0,0:0:0:0:
109,192,42211,1,0,0:0:0:0:
329,192,42211,1,0,0:0:0:0:
402,192,42211,1,0,0:0:0:0:
256,192,42211,1,0,0:0:0:0:
256,192,42564,1,0,0:0:0:0:
109,192,42564,1,0,0:0:0:0:
182,192,42564,1,0,0:0:0:0:
36,192,42564,1,0,0:0:0:0:
329,192,42564,1,0,0:0:0:0:
256,192,42917,1,0,0:0:0:0:
182,192,42917,1,0,0:0:0:0:
329,192,42917,1,0,0:0:0:0:
109,192,42917,1,0,0:0:0:0:
36,192,42917,1,0,0:0:0:0:
36,192,43094,1,0,0:0:0:0:
182,192,43094,1,0,0:0:0:0:
475,192,43094,1,0,0:0:0:0:
109,192,43094,1,0,0:0:0:0:
402,192,43182,1,0,0:0:0:0:
329,192,43270,1,0,0:0:0:0:
256,192,43358,1,0,0:0:0:0:
182,192,43446,1,0,0:0:0:0:
36,192,43446,1,0,0:0:0:0:
402,192,43446,1,0,0:0:0:0:
329,192,43535,1,0,0:0:0:0:
256,192,43623,1,0,0:0:0:0:
182,192,43711,1,0,0:0:0:0:
402,192,43799,1,0,0:0:0:0:
109,192,43799,1,0,0:0:0:0:
329,192,43799,1,0,0:0:0:0:
36,192,43799,1,0,0:0:0:0:
475,192,43799,1,0,0:0:0:0:
256,192,44152,1,0,0:0:0:0:
36,192,44152,1,0,0:0:0:0:
109,192,44152,1,0,0:0:0:0:
182,192,44152,1,0,0:0:0:0:
329,192,44152,1,0,0:0:0:0:
256,192,44505,1,0,0:0:0:0:
402,192,44505,1,0,0:0:0:0:
109,192,44505,1,0,0:0:0:0:
329,192,44505,1,0,0:0:0:0:
182,192,44505,1,0,0:0:0:0:
329,192,44858,1,0,0:0:0:0:
475,192,44858,1,0,0:0:0:0:
182,192,44858,1,0,0:0:0:0:
402,192,44858,1,0,0:0:0:0:
256,192,44858,1,0,0:0:0:0:
256,192,45035,1,0,0:0:0:0:
109,192,45035,1,0,0:0:0:0:
402,192,45035,1,0,0:0:0:0:
329,192,45035,1,0,0:0:0:0:
182,192,45035,1,0,0:0:0:0:
182,192,45388,1,0,0:0:0:0:
256,192,45388,1,0,0:0:0:0:
36,192,45388,1,0,0:0:0:0:
329,192,45388,1,0,0:0:0:0:
109,192,45388,1,0,0:0:0:0:
109,192,45741,1,0,0:0:0:0:
256,192,45741,1,0,0:0:0:0:
329,192,45741,1,0,0:0:0:0:
36,192,45741,1,0,0:0:0:0:
182,192,45741,1,0,0:0:0:0:
475,192,45917,1,0,0:0:0:0:
109,192,45917,1,0,0:0:0:0:
36,192,45917,1,0,0:0:0:0:
256,192,45917,128,0,46270:0:0:0:0:
402,192,45976,1,0,0:0:0:0:
475,192,46035,1,0,0:0:0:0:
402,192,46094,1,0,0:0:0:0:
475,192,46152,1,0,0:0:0:0:
402,192,46211,1,0,0:0:0:0:
475,192,46270,1,0,0:0:0:0:
36,192,46270,1,0,0:0:0:0:
402,192,46329,1,0,0:0:0:0:
109,192,46358,1,0,0:0:0:0:
475,192,46388,1,0,0:0:0:0:
402,192,46446,1,0,0:0:0:0:
182,192,46446,1,0,0:0:0:0:
475,192,46505,1,0,0:0:0:0:
256,192,46535,1,0,0:0:0:0:
402,192,46564,1,0,0:0:0:0:
329,192,46623,1,0,0:0:0:0:
475,192,46623,1,0,0:0:0:0:
109,192,46623,1,0,0:0:0:0:
36,192,46623,128,0,46976:0:0:0:0:
182,192,46976,1,0,0:0:0:0:
329,192,46976,1,0,0:0:0:0:
475,192,46976,1,0,0:0:0:0:
256,192,47152,1,0,0:0:0:0:
36,192,47152,1,0,0:0:0:0:
109,192,47241,1,0,0:0:0:0:
329,192,47241,1,0,0:0:0:0:
182,192,47329,1,0,0:0:0:0:
402,192,47329,1,0,0:0:0:0:
109,192,47505,1,0,0:0:0:0:
329,192,47505,1,0,0:0:0:0:
256,192,47682,1,0,0:0:0:0:
36,192,47682,1,0,0:0:0:0:
475,192,47682,1,0,0:0:0:0:
182,192,47858,1,0,0:0:0:0:
402,192,47858,1,0,0:0:0:0:
109,192,48035,1,0,0:0:0:0:
329,192,48035,1,0,0:0:0:0:
256,192,48211,1,0,0:0:0:0:
475,192,48211,1,0,0:0:0:0:
402,192,48299,1,0,0:0:0:0:
182,192,48299,1,0,0:0:0:0:
329,192,48388,1,0,0:0:0:0:
109,192,48388,1,0,0:0:0:0:
36,192,48388,1,0,0:0:0:0:
182,192,48476,1,0,0:0:0:0:
475,192,48476,1,0,0:0:0:0:
329,192,48564,1,0,0:0:0:0:
36,192,48564,1,0,0:0:0:0:
109,192,48652,1,0,0:0:0:0:
402,192,48652,1,0,0:0:0:0:
182,192,48741,1,0,0:0:0:0:
475,192,48741,1,0,0:0:0:0:
109,192,48917,1,0,0:0:0:0:
402,192,48917,1,0,0:0:0:0:
256,192,49094,1,0,0:0:0:0:
36,192,49094,1,0,0:0:0:0:
475,192,49094,1,0,0:0:0:0:
109,192,49270,1,0,0:0:0:0:
402,192,49270,1,0,0:0:0:0:
329,192,49446,128,0,49799:0:0:0:0:
182,192,49446,1,0,0:0:0:0:
475,192,49446,1,0,0:0:0:0:
182,192,49799,1,0,0:0:0:0:
36,192,49799,1,0,0:0:0:0:
475,192,49799,1,0,0:0:0:0:
109,192,49976,1,0,0:0:0:0:
329,192,49976,1,0,0:0:0:0:
182,192,50064,1,0,0:0:0:0:
402,192,50064,1,0,0:0:0:0:
475,192,50152,128,0,50505:0:0:0:0:
256,192,50152,1,0,0:0:0:0:
36,192,50152,1,0,0:0:0:0:
182,192,50505,1,0,0:0:0:0:
36,192,50505,1,0,0:0:0:0:
329,192,50505,1,0,0:0:0:0:
182,192,50682,1,0,0:0:0:0:
402,192,50682,1,0,0:0:0:0:
329,192,50770,1,0,0:0:0:0:
109,192,50770,1,0,0:0:0:0:
256,192,50858,1,0,0:0:0:0:
36,192,50858,1,0,0:0:0:0:
182,192,51035,1,0,0:0:0:0:
402,192,51035,1,0,0:0:0:0:
329,192,51211,1,0,0:0:0:0:
475,192,51211,1,0,0:0:0:0:
109,192,51211,1,0,0:0:0:0:
256,192,51388,1,0,0:0:0:0:
36,192,51388,1,0,0:0:0:0:
109,192,51564,1,0,0:0:0:0:
329,192,51564,1,0,0:0:0:0:
182,192,51652,1,0,0:0:0:0:
402,192,51652,1,0,0:0:0:0:
256,192,51741,1,0,0:0:0:0:
475,192,51741,1,0,0:0:0:0:
329,192,51829,1,0,0:0:0:0:
109,192,51829,1,0,0:0:0:0:
36,192,51917,1,0,0:0:0:0:
402,192,51917,1,0,0:0:0:0:
475,192,51917,1,0,0:0:0:0:
329,192,52005,1,0,0:0:0:0:
109,192,52005,1,0,0:0:0:0:
182,192,52094,1,0,0:0:0:0:
256,192,52094,1,0,0:0:0:0:
109,192,52182,1,0,0:0:0:0:
329,192,52182,1,0,0:0:0:0:
402,192,52270,1,0,0:0:0:0:
36,192,52270,1,0,0:0:0:0:
329,192,52358,1,0,0:0:0:0:
109,192,52358,1,0,0:0:0:0:
182,192,52446,1,0,0:0:0:0:
402,192,52446,1,0,0:0:0:0:
475,192,52535,1,0,0:0:0:0:
256,192,52535,1,0,0:0:0:0:
329,192,52623,1,0,0:0:0:0:
109,192,52623,1,0,0:0:0:0:
36,192,52623,1,0,0:0:0:0:
182,192,52711,1,0,0:0:0:0:
402,192,52711,1,0,0:0:0:0:
256,192,52799,1,0,0:0:0:0:
475,192,52799,1,0,0:0:0:0:
329,192,52888,1,0,0:0:0:0:
109,192,52888,1,0,0:0:0:0:
36,192,52976,1,0,0:0:0:0:
256,192,52976,1,0,0:0:0:0:
182,192,53064,1,0,0:0:0:0:
402,192,53064,1,0,0:0:0:0:
329,192,53152,1,0,0:0:0:0:
109,192,53152,1,0,0:0:0:0:
36,192,53241,1,0,0:0:0:0:
256,192,53241,1,0,0:0:0:0:
182,192,53329,1,0,0:0:0:0:
402,192,53329,1,0,0:0:0:0:
475,192,53329,1,0,0:0:0:0:
329,192,53417,1,0,0:0:0:0:
109,192,53417,1,0,0:0:0:0:
36,192,53505,1,0,0:0:0:0:
256,192,53505,1,0,0:0:0:0:
182,192,53594,1,0,0:0:0:0:
402,192,53594,1,0,0:0:0:0:
109,192,53682,1,0,0:0:0:0:
329,192,53682,1,0,0:0:0:0:
182,192,53858,1,0,0:0:0:0:
402,192,53858,1,0,0:0:0:0:
329,192,53946,1,0,0:0:0:0:
109,192,53946,1,0,0:0:0:0:
256,192,54035,1,0,0:0:0:0:
36,192,54035,1,0,0:0:0:0:
475,192,54035,1,0,0:0:0:0:
109,192,54123,1,0,0:0:0:0:
329,192,54123,1,0,0:0:0:0:
182,192,54211,1,0,0:0:0:0:
402,192,54211,1,0,0:0:0:0:
256,192,54299,1,0,0:0:0:0:
475,192,54299,1,0,0:0:0:0:
402,192,54388,128,0,54476:0:0:0:0:
329,192,54388,128,0,54476:0:0:0:0:
109,192,54388,1,0,0:0:0:0:
329,192,54564,128,0,54652:0:0:0:0:
256,192,54564,128,0,54652:0:0:0:0:
36,192,54564,1,0,0:0:0:0:
256,192,54741,128,0,54829:0:0:0:0:
182,192,54741,128,0,54829:0:0:0:0:
475,192,54741,1,0,0:0:0:0:
182,192,54917,128,0,55005:0:0:0:0:
109,192,54917,128,0,55005:0:0:0:0:
402,192,54917,1,0,0:0:0:0:
36,192,55094,128,0,55446:0:0:0:0:
182,192,55094,1,0,0:0:0:0:
329,192,55094,1,0,0:0:0:0:
475,192,55094,1,0,0:0:0:0:
182,192,55446,1,0,0:0:0:0:
329,192,55446,1,0,0:0:0:0:
475,192,55446,1,0,0:0:0:0:
256,192,55623,1,0,0:0:0:0:
36,192,55623,1,0,0:0:0:0:
109,192,55711,1,0,0:0:0:0:
329,192,55711,1,0,0:0:0:0:
402,192,55799,1,0,0:0:0:0:
182,192,55799,1,0,0:0:0:0:
475,192,55799,128,0,56152:0:0:0:0:
329,192,56152,1,0,0:0:0:0:
182,192,56152,1,0,0:0:0:0:
36,192,56152,1,0,0:0:0:0:
256,192,56329,1,0,0:0:0:0:
475,192,56329,1,0,0:0:0:0:
402,192,56417,1,0,0:0:0:0:
182,192,56417,1,0,0:0:0:0:
329,192,56505,1,0,0:0:0:0:
109,192,56505,1,0,0:0:0:0:
256,192,56594,1,0,0:0:0:0:
475,192,56594,1,0,0:0:0:0:
402,192,56682,1,0,0:0:0:0:
182,192,56682,1,0,0:0:0:0:
329,192,56770,1,0,0:0:0:0:
109,192,56770,1,0,0:0:0:0:
36,192,56858,1,0,0:0:0:0:
256,192,56858,1,0,0:0:0:0:
475,192,56858,1,0,0:0:0:0:
109,192,56946,1,0,0:0:0:0:
329,192,56946,1,0,0:0:0:0:
182,192,57035,1,0,0:0:0:0:
402,192,57035,1,0,0:0:0:0:
256,192,57123,1,0,0:0:0:0:
475,192,57123,1,0,0:0:0:0:
182,192,57211,128,0,57299:0:0:0:0:
36,192,57211,1,0,0:0:0:0:
402,192,57211,1,0,0:0:0:0:
329,192,57299,128,0,57388:0:0:0:0:
256,192,57388,128,0,57476:0:0:0:0:
109,192,57388,1,0,0:0:0:0:
475,192,57388,1,0,0:0:0:0:
402,192,57476,128,0,57564:0:0:0:0:
329,192,57564,128,0,57652:0:0:0:0:
182,192,57564,1,0,0:0:0:0:
36,192,57564,1,0,0:0:0:0:
475,192,57652,128,0,57741:0:0:0:0:
402,192,57741,128,0,57829:0:0:0:0:
109,192,57741,1,0,0:0:0:0:
256,192,57741,1,0,0:0:0:0:
329,192,57829,128,0,57917:0:0:0:0:
36,192,57917,128,0,58270:0:0:0:0:
182,192,57917,1,0,0:0:0:0:
475,192,57917,1,0,0:0:0:0:
256,192,57917,1,0,0:0:0:0:
329,192,58182,1,0,0:0:0:0:
475,192,58182,1,0,0:0:0:0:
475,192,58270,1,0,0:0:0:0:
329,192,58270,1,0,0:0:0:0:
182,192,58270,1,0,0:0:0:0:
36,192,58446,1,0,0:0:0:0:
256,192,58446,1,0,0:0:0:0:
109,192,58535,1,0,0:0:0:0:
329,192,58535,1,0,0:0:0:0:
475,192,58623,128,0,58976:0:0:0:0:
182,192,58623,1,0,0:0:0:0:
402,192,58623,1,0,0:0:0:0:
182,192,58888,1,0,0:0:0:0:
36,192,58888,1,0,0:0:0:0:
36,192,58976,1,0,0:0:0:0:
182,192,58976,1,0,0:0:0:0:
329,192,58976,1,0,0:0:0:0:
256,192,59152,1,0,0:0:0:0:
475,192,59152,1,0,0:0:0:0:
402,192,59241,1,0,0:0:0:0:
182,192,59241,1,0,0:0:0:0:
36,192,59329,128,0,59682:0:0:0:0:
109,192,59329,1,0,0:0:0:0:
329,192,59329,1,0,0:0:0:0:
402,192,59594,1,0,0:0:0:0:
475,192,59594,1,0,0:0:0:0:
475,192,59682,1,0,0:0:0:0:
402,192,59682,1,0,0:0:0:0:
182,192,59682,1,0,0:0:0:0:
329,192,59858,128,0,59946:0:0:0:0:
36,192,59858,1,0,0:0:0:0:
256,192,59946,128,0,60035:0:0:0:0:
109,192,59946,1,0,0:0:0:0:
182,192,60035,128,0,60123:0:0:0:0:
475,192,60035,1,0,0:0:0:0:
402,192,60123,128,0,60211:0:0:0:0:
109,192,60123,1,0,0:0:0:0:
329,192,60211,128,0,60299:0:0:0:0:
36,192,60211,1,0,0:0:0:0:
256,192,60299,128,0,60388:0:0:0:0:
182,192,60299,1,0,0:0:0:0:
475,192,60388,128,0,60476:0:0:0:0:
109,192,60388,1,0,0:0:0:0:
36,192,60388,1,0,0:0:0:0:
402,192,60476,128,0,60564:0:0:0:0:
182,192,60476,1,0,0:0:0:0:
329,192,60564,128,0,60652:0:0:0:0:
109,192,60564,1,0,0:0:0:0:
256,192,60652,128,0,60741:0:0:0:0:
36,192,60652,1,0,0:0:0:0:
475,192,60741,128,0,61094:0:0:0:0:
182,192,60741,1,0,0:0:0:0:
402,192,60741,1,0,0:0:0:0:
182,192,61005,1,0,0:0:0:0:
36,192,61005,1,0,0:0:0:0:
36,192,61094,1,0,0:0:0:0:
182,192,61094,1,0,0:0:0:0:
329,192,61094,1,0,0:0:0:0:
256,192,61270,1,0,0:0:0:0:
475,192,61270,1,0,0:0:0:0:
402,192,61358,1,0,0:0:0:0:
182,192,61358,1,0,0:0:0:0:
329,192,61446,1,0,0:0:0:0:
109,192,61446,1,0,0:0:0:0:
36,192,61446,128,0,61799:0:0:0:0:
182,192,61711,1,0,0:0:0:0:
329,192,61711,1,0,0:0:0:0:
475,192,61799,1,0,0:0:0:0:
329,192,61799,1,0,0:0:0:0:
182,192,61799,1,0,0:0:0:0:
256,192,61976,1,0,0:0:0:0:
36,192,61976,1,0,0:0:0:0:
109,192,62064,1,0,0:0:0:0:
329,192,62064,1,0,0:0:0:0:
182,192,62152,1,0,0:0:0:0:
402,192,62152,1,0,0:0:0:0:
475,192,62152,128,0,62505:0:0:0:0:
329,192,62417,1,0,0:0:0:0:
182,192,62417,1,0,0:0:0:0:
329,192,62505,1,0,0:0:0:0:
182,192,62505,1,0,0:0:0:0:
36,192,62505,1,0,0:0:0:0:
475,192,62682,1,0,0:0:0:0:
182,192,62682,128,0,62770:0:0:0:0:
256,192,62770,128,0,62858:0:0:0:0:
402,192,62770,1,0,0:0:0:0:
36,192,62858,1,0,0:0:0:0:
329,192,62858,128,0,62946:0:0:0:0:
402,192,62946,1,0,0:0:0:0:
109,192,62946,128,0,63035:0:0:0:0:
475,192,63035,1,0,0:0:0:0:
182,192,63035,128,0,63123:0:0:0:0:
256,192,63123,128,0,63211:0:0:0:0:
329,192,63123,1,0,0:0:0:0:
475,192,63211,1,0,0:0:0:0:
36,192,63211,128,0,63299:0:0:0:0:
402,192,63211,1,0,0:0:0:0:
109,192,63299,128,0,63388:0:0:0:0:
329,192,63299,1,0,0:0:0:0:
402,192,63388,1,0,0:0:0:0:
182,192,63388,128,0,63476:0:0:0:0:
475,192,63476,1,0,0:0:0:0:
256,192,63476,128,0,63564:0:0:0:0:
36,192,63564,128,0,66211:0:0:0:0:
109,192,63564,1,0,0:0:0:0:
329,192,63564,1,0,0:0:0:0:
402,192,63564,1,0,0:0:0:0:
182,192,63741,1,0,0:0:0:0:
256,192,63829,1,0,0:0:0:0:
329,192,63917,1,0,0:0:0:0:
475,192,63917,1,0,0:0:0:0:
109,192,63917,1,0,0:0:0:0:
256,192,64005,1,0,0:0:0:0:
182,192,64094,1,0,0:0:0:0:
109,192,64182,1,0,0:0:0:0:
475,192,64270,1,0,0:0:0:0:
402,192,64270,1,0,0:0:0:0:
329,192,64358,1,0,0:0:0:0:
256,192,64446,1,0,0:0:0:0:
182,192,64535,1,0,0:0:0:0:
109,192,64623,1,0,0:0:0:0:
329,192,64623,1,0,0:0:0:0:
402,192,64623,1,0,0:0:0:0:
256,192,64711,1,0,0:0:0:0:
329,192,64799,1,0,0:0:0:0:
402,192,64888,1,0,0:0:0:0:
475,192,64976,1,0,0:0:0:0:
182,192,64976,1,0,0:0:0:0:
256,192,65064,1,0,0:0:0:0:
329,192,65152,1,0,0:0:0:0:
402,192,65241,1,0,0:0:0:0:
475,192,65329,1,0,0:0:0:0:
182,192,65329,1,0,0:0:0:0:
109,192,65329,1,0,0:0:0:0:
256,192,65417,1,0,0:0:0:0:
329,192,65505,1,0,0:0:0:0:
402,192,65594,1,0,0:0:0:0:
475,192,65682,1,0,0:0:0:0:
256,192,65682,1,0,0:0:0:0:
182,192,65770,1,0,0:0:0:0:
109,192,65858,1,0,0:0:0:0:
329,192,65946,1,0,0:0:0:0:
256,192,66035,1,0,0:0:0:0:
475,192,66035,1,0,0:0:0:0:
402,192,66035,1,0,0:0:0:0:
182,192,66123,1,0,0:0:0:0:
329,192,66211,128,0,66299:0:0:0:0:
109,192,66211,1,0,0:0:0:0:
402,192,66299,128,0,66388:0:0:0:0:
182,192,66299,1,0,0:0:0:0:
475,192,66388,128,0,69211:0:0:0:0:
256,192,66388,1,0,0:0:0:0:
36,192,66388,1,0,0:0:0:0:
182,192,66564,1,0,0:0:0:0:
109,192,66741,1,0,0:0:0:0:
329,192,66741,1,0,0:0:0:0:
402,192,66741,1,0,0:0:0:0:
256,192,66829,1,0,0:0:0:0:
182,192,66917,1,0,0:0:0:0:
109,192,67005,1,0,0:0:0:0:
36,192,67094,1,0,0:0:0:0:
256,192,67094,1,0,0:0:0:0:
182,192,67182,1,0,0:0:0:0:
256,192,67270,1,0,0:0:0:0:
329,192,67358,1,0,0:0:0:0:
402,192,67446,1,0,0:0:0:0:
109,192,67446,1,0,0:0:0:0:
36,192,67446,1,0,0:0:0:0:
182,192,67535,1,0,0:0:0:0:
256,192,67623,1,0,0:0:0:0:
329,192,67711,1,0,0:0:0:0:
402,192,67799,1,0,0:0:0:0:
109,192,67799,1,0,0:0:0:0:
182,192,67888,1,0,0:0:0:0:
256,192,67976,1,0,0:0:0:0:
36,192,67976,1,0,0:0:0:0:
329,192,68064,1,0,0:0:0:0:
109,192,68064,1,0,0:0:0:0:
182,192,68152,1,0,0:0:0:0:
402,192,68152,1,0,0:0:0:0:
36,192,68152,1,0,0:0:0:0:
256,192,68241,1,0,0:0:0:0:
329,192,68329,1,0,0:0:0:0:
109,192,68329,1,0,0:0:0:0:
36,192,68417,1,0,0:0:0:0:
256,192,68417,1,0,0:0:0:0:
182,192,68505,1,0,0:0:0:0:
402,192,68505,1,0,0:0:0:0:
329,192,68594,1,0,0:0:0:0:
256,192,68682,1,0,0:0:0:0:
36,192,68682,1,0,0:0:0:0:
109,192,68770,1,0,0:0:0:0:
329,192,68770,1,0,0:0:0:0:
182,192,68858,1,0,0:0:0:0:
402,192,68858,1,0,0:0:0:0:
36,192,68858,1,0,0:0:0:0:
109,192,68946,1,0,0:0:0:0:
256,192,68946,1,0,0:0:0:0:
182,192,69035,1,0,0:0:0:0:
329,192,69035,1,0,0:0:0:0:
256,192,69123,1,0,0:0:0:0:
402,192,69123,1,0,0:0:0:0:
329,192,69211,1,0,0:0:0:0:
109,192,69211,1,0,0:0:0:0:
36,192,69211,1,0,0:0:0:0:
182,192,69211,1,0,0:0:0:0:
182,192,69917,1,0,0:0:0:0:
36,192,70270,1,0,0:0:0:0:
256,192,70623,1,0,0:0:0:0:
109,192,70976,1,0,0:0:0:0:
329,192,71329,1,0,0:0:0:0:
182,192,71682,1,0,0:0:0:0:
36,192,72035,1,0,0:0:0:0:
109,192,72152,1,0,0:0:0:0:
182,192,72270,1,0,0:0:0:0:
475,192,72388,1,0,0:0:0:0:
402,192,72476,1,0,0:0:0:0:
329,192,72564,1,0,0:0:0:0:
182,192,72623,1,0,0:0:0:0:
109,192,72682,1,0,0:0:0:0:
475,192,72741,1,0,0:0:0:0:
402,192,72785,1,0,0:0:0:0:
329,192,72829,1,0,0:0:0:0:
256,192,72873,1,0,0:0:0:0:
36,192,72917,1,0,0:0:0:0:
109,192,72976,1,0,0:0:0:0:
182,192,73035,1,0,0:0:0:0:
256,192,73094,1,0,0:0:0:0:
329,192,73182,1,0,0:0:0:0:
256,192,73270,1,0,0:0:0:0:
329,192,73329,1,0,0:0:0:0:
402,192,73388,1,0,0:0:0:0:
36,192,73446,1,0,0:0:0:0:
109,192,73505,1,0,0:0:0:0:
182,192,73564,1,0,0:0:0:0:
256,192,73623,1,0,0:0:0:0:
329,192,73741,1,0,0:0:0:0:
109,192,73799,1,0,0:0:0:0:
182,192,73858,1,0,0:0:0:0:
256,192,73917,1,0,0:0:0:0:
329,192,73976,1,0,0:0:0:0:
402,192,74064,1,0,0:0:0:0:
182,192,74152,1,0,0:0:0:0:
109,192,74241,1,0,0:0:0:0:
402,192,74329,1,0,0:0:0:0:
329,192,74373,1,0,0:0:0:0:
256,192,74417,1,0,0:0:0:0:
36,192,74505,1,0,0:0:0:0:
109,192,74564,1,0,0:0:0:0:
182,192,74623,1,0,0:0:0:0:
256,192,74682,1,0,0:0:0:0:
329,192,74741,1,0,0:0:0:0:
402,192,74799,1,0,0:0:0:0:
475,192,74858,1,0,0:0:0:0:
36,192,74858,1,0,0:0:0:0:
182,192,75035,1,0,0:0:0:0:
256,192,75123,1,0,0:0:0:0:
329,192,75211,1,0,0:0:0:0:
109,192,75211,1,0,0:0:0:0:
182,192,75299,1,0,0:0:0:0:
256,192,75388,1,0,0:0:0:0:
329,192,75446,1,0,0:0:0:0:
402,192,75505,1,0,0:0:0:0:
475,192,75564,1,0,0:0:0:0:
36,192,75564,1,0,0:0:0:0:
109,192,75623,1,0,0:0:0:0:
182,192,75682,1,0,0:0:0:0:
256,192,75741,1,0,0:0:0:0:
475,192,75829,1,0,0:0:0:0:
402,192,75917,1,0,0:0:0:0:
36,192,75917,1,0,0:0:0:0:
329,192,75976,1,0,0:0:0:0:
256,192,76035,1,0,0:0:0:0:
182,192,76094,1,0,0:0:0:0:
109,192,76182,1,0,0:0:0:0:
36,192,76270,1,0,0:0:0:0:
475,192,76270,1,0,0:0:0:0:
402,192,76329,1,0,0:0:0:0:
329,192,76388,1,0,0:0:0:0:
182,192,76446,1,0,0:0:0:0:
256,192,76505,1,0,0:0:0:0:
402,192,76564,1,0,0:0:0:0:
475,192,76623,1,0,0:0:0:0:
36,192,76623,1,0,0:0:0:0:
256,192,76682,1,0,0:0:0:0:
329,192,76741,1,0,0:0:0:0:
182,192,76799,1,0,0:0:0:0:
256,192,76858,1,0,0:0:0:0:
329,192,76917,1,0,0:0:0:0:
402,192,76976,1,0,0:0:0:0:
109,192,76976,1,0,0:0:0:0:
182,192,77064,1,0,0:0:0:0:
329,192,77152,1,0,0:0:0:0:
402,192,77241,1,0,0:0:0:0:
475,192,77329,1,0,0:0:0:0:
36,192,77329,1,0,0:0:0:0:
402,192,77388,1,0,0:0:0:0:
329,192,77446,1,0,0:0:0:0:
182,192,77505,1,0,0:0:0:0:
109,192,77564,1,0,0:0:0:0:
36,192,77623,1,0,0:0:0:0:
256,192,77682,1,0,0:0:0:0:
475,192,77682,1,0,0:0:0:0:
182,192,77858,1,0,0:0:0:0:
256,192,77946,1,0,0:0:0:0:
329,192,78035,1,0,0:0:0:0:
36,192,78035,1,0,0:0:0:0:
109,192,78094,1,0,0:0:0:0:
182,192,78152,1,0,0:0:0:0:
256,192,78211,1,0,0:0:0:0:
402,192,78299,1,0,0:0:0:0:
475,192,78388,1,0,0:0:0:0:
109,192,78388,1,0,0:0:0:0:
182,192,78476,1,0,0:0:0:0:
256,192,78564,1,0,0:0:0:0:
329,192,78623,1,0,0:0:0:0:
402,192,78682,1,0,0:0:0:0:
475,192,78741,1,0,0:0:0:0:
36,192,78741,1,0,0:0:0:0:
109,192,78799,1,0,0:0:0:0:
182,192,78858,1,0,0:0:0:0:
256,192,78917,1,0,0:0:0:0:
329,192,79005,1,0,0:0:0:0:
402,192,79094,1,0,0:0:0:0:
109,192,79094,1,0,0:0:0:0:
256,192,79152,1,0,0:0:0:0:
182,192,79211,1,0,0:0:0:0:
475,192,79270,1,0,0:0:0:0:
402,192,79358,1,0,0:0:0:0:
329,192,79446,1,0,0:0:0:0:
36,192,79446,1,0,0:0:0:0:
109,192,79505,1,0,0:0:0:0:
182,192,79564,1,0,0:0:0:0:
329,192,79623,1,0,0:0:0:0:
402,192,79682,1,0,0:0:0:0:
475,192,79741,1,0,0:0:0:0:
109,192,79799,1,0,0:0:0:0:
36,192,79799,128,0,80152:0:0:0:0:
182,192,79858,1,0,0:0:0:0:
256,192,79917,1,0,0:0:0:0:
329,192,79976,1,0,0:0:0:0:
402,192,80064,1,0,0:0:0:0:
475,192,80152,1,0,0:0:0:0:
329,192,80241,1,0,0:0:0:0:
475,192,80329,1,0,0:0:0:0:
329,192,80417,1,0,0:0:0:0:
402,192,80505,128,0,80858:0:0:0:0:
475,192,80505,128,0,80858:0:0:0:0:
256,192,80505,1,0,0:0:0:0:
109,192,80505,1,0,0:0:0:0:
36,192,80505,1,0,0:0:0:0:
182,192,81035,1,0,0:0:0:0:
329,192,81035,1,0,0:0:0:0:
329,192,81123,1,0,0:0:0:0:
182,192,81123,1,0,0:0:0:0:
36,192,81211,128,0,81564:0:0:0:0:
109,192,81211,128,0,81564:0:0:0:0:
256,192,81211,1,0,0:0:0:0:
402,192,81211,1,0,0:0:0:0:
475,192,81211,1,0,0:0:0:0:
329,192,81741,1,0,0:0:0:0:
182,192,81741,1,0,0:0:0:0:
182,192,81829,1,0,0:0:0:0:
329,192,81829,1,0,0:0:0:0:
256,192,81917,1,0,0:0:0:0:
402,192,81917,1,0,0:0:0:0:
475,192,81917,1,0,0:0:0:0:
109,192,81917,1,0,0:0:0:0:
36,192,81917,1,0,0:0:0:0:
329,192,82094,1,0,0:0:0:0:
402,192,82094,1,0,0:0:0:0:
182,192,82182,1,0,0:0:0:0:
256,192,82182,1,0,0:0:0:0:
109,192,82270,1,0,0:0:0:0:
36,192,82270,1,0,0:0:0:0:
329,192,82270,1,0,0:0:0:0:
402,192,82270,1,0,0:0:0:0:
475,192,82270,1,0,0:0:0:0:
109,192,82446,1,0,0:0:0:0:
182,192,82446,1,0,0:0:0:0:
402,192,82446,1,0,0:0:0:0:
475,192,82446,1,0,0:0:0:0:
182,192,82623,1,0,0:0:0:0:
256,192,82623,1,0,0:0:0:0:
475,192,82623,1,0,0:0:0:0:
402,192,82623,1,0,0:0:0:0:
36,192,82623,1,0,0:0:0:0:
475,192,82799,128,0,82888:0:0:0:0:
256,192,82799,1,0,0:0:0:0:
402,192,82888,128,0,82976:0:0:0:0:
182,192,82888,1,0,0:0:0:0:
329,192,82976,128,0,83064:0:0:0:0:
109,192,82976,1,0,0:0:0:0:
36,192,83064,1,0,0:0:0:0:
256,192,83064,128,0,83152:0:0:0:0:
182,192,83152,128,0,83241:0:0:0:0:
402,192,83152,1,0,0:0:0:0:
329,192,83241,1,0,0:0:0:0:
109,192,83241,128,0,83329:0:0:0:0:
36,192,83329,128,0,83682:0:0:0:0:
402,192,83329,128,0,83682:0:0:0:0:
182,192,83329,1,0,0:0:0:0:
256,192,83329,1,0,0:0:0:0:
475,192,83329,1,0,0:0:0:0:
182,192,83858,1,0,0:0:0:0:
329,192,83858,1,0,0:0:0:0:
329,192,83946,1,0,0:0:0:0:
182,192,83946,1,0,0:0:0:0:
109,192,84035,128,0,84388:0:0:0:0:
475,192,84035,128,0,84388:0:0:0:0:
256,192,84035,1,0,0:0:0:0:
402,192,84035,1,0,0:0:0:0:
36,192,84035,1,0,0:0:0:0:
182,192,84564,1,0,0:0:0:0:
329,192,84564,1,0,0:0:0:0:
329,192,84652,1,0,0:0:0:0:
182,192,84652,1,0,0:0:0:0:
256,192,84741,1,0,0:0:0:0:
402,192,84741,1,0,0:0:0:0:
475,192,84741,1,0,0:0:0:0:
109,192,84741,1,0,0:0:0:0:
36,192,84741,1,0,0:0:0:0:
109,192,84917,1,0,0:0:0:0:
182,192,84917,1,0,0:0:0:0:
256,192,85005,1,0,0:0:0:0:
329,192,85005,1,0,0:0:0:0:
402,192,85094,1,0,0:0:0:0:
475,192,85094,1,0,0:0:0:0:
182,192,85094,1,0,0:0:0:0:
109,192,85094,1,0,0:0:0:0:
36,192,85094,1,0,0:0:0:0:
402,192,85270,1,0,0:0:0:0:
329,192,85270,1,0,0:0:0:0:
109,192,85270,1,0,0:0:0:0:
36,192,85270,1,0,0:0:0:0:
256,192,85446,1,0,0:0:0:0:
329,192,85446,1,0,0:0:0:0:
475,192,85446,1,0,0:0:0:0:
109,192,85446,1,0,0:0:0:0:
36,192,85446,1,0,0:0:0:0:
256,192,85623,1,0,0:0:0:0:
36,192,85623,128,0,85711:0:0:0:0:
109,192,85711,128,0,85799:0:0:0:0:
329,192,85711,1,0,0:0:0:0:
182,192,85799,128,0,85888:0:0:0:0:
402,192,85799,1,0,0:0:0:0:
475,192,85888,1,0,0:0:0:0:
256,192,85888,128,0,85976:0:0:0:0:
109,192,85976,1,0,0:0:0:0:
329,192,85976,128,0,86064:0:0:0:0:
182,192,86064,1,0,0:0:0:0:
402,192,86064,128,0,86152:0:0:0:0:
329,192,86152,1,0,0:0:0:0:
475,192,86152,1,0,0:0:0:0:
109,192,86152,1,0,0:0:0:0:
256,192,86152,128,0,86505:0:0:0:0:
36,192,86152,128,0,86505:0:0:0:0:
182,192,86682,1,0,0:0:0:0:
329,192,86682,1,0,0:0:0:0:
329,192,86770,1,0,0:0:0:0:
182,192,86770,1,0,0:0:0:0:
256,192,86858,128,0,87211:0:0:0:0:
475,192,86858,128,0,87211:0:0:0:0:
402,192,86858,1,0,0:0:0:0:
109,192,86858,1,0,0:0:0:0:
36,192,86858,1,0,0:0:0:0:
329,192,87388,1,0,0:0:0:0:
182,192,87388,1,0,0:0:0:0:
182,192,87476,1,0,0:0:0:0:
329,192,87476,1,0,0:0:0:0:
256,192,87564,1,0,0:0:0:0:
109,192,87564,1,0,0:0:0:0:
36,192,87564,1,0,0:0:0:0:
402,192,87564,1,0,0:0:0:0:
475,192,87564,1,0,0:0:0:0:
329,192,87741,1,0,0:0:0:0:
402,192,87741,1,0,0:0:0:0:
256,192,87829,1,0,0:0:0:0:
182,192,87829,1,0,0:0:0:0:
109,192,87917,1,0,0:0:0:0:
36,192,87917,1,0,0:0:0:0:
402,192,87917,1,0,0:0:0:0:
475,192,87917,1,0,0:0:0:0:
329,192,87917,1,0,0:0:0:0:
182,192,88094,1,0,0:0:0:0:
109,192,88094,1,0,0:0:0:0:
402,192,88094,1,0,0:0:0:0:
475,192,88094,1,0,0:0:0:0:
182,192,88270,1,0,0:0:0:0:
256,192,88270,1,0,0:0:0:0:
475,192,88270,1,0,0:0:0:0:
402,192,88270,1,0,0:0:0:0:
36,192,88270,1,0,0:0:0:0:
182,192,88446,128,0,88535:0:0:0:0:
475,192,88446,1,0,0:0:0:0:
109,192,88535,128,0,88623:0:0:0:0:
402,192,88535,1,0,0:0:0:0:
36,192,88623,128,0,88711:0:0:0:0:
329,192,88623,1,0,0:0:0:0:
475,192,88711,128,0,88799:0:0:0:0:
256,192,88711,1,0,0:0:0:0:
402,192,88799,128,0,88888:0:0:0:0:
182,192,88799,1,0,0:0:0:0:
329,192,88888,128,0,88976:0:0:0:0:
109,192,88888,1,0,0:0:0:0:
36,192,88976,1,0,0:0:0:0:
256,192,88976,1,0,0:0:0:0:
475,192,88976,1,0,0:0:0:0:
109,192,89064,1,0,0:0:0:0:
182,192,89152,1,0,0:0:0:0:
402,192,89152,1,0,0:0:0:0:
475,192,89152,1,0,0:0:0:0:
109,192,89241,1,0,0:0:0:0:
329,192,89241,1,0,0:0:0:0:
256,192,89241,1,0,0:0:0:0:
36,192,89329,1,0,0:0:0:0:
475,192,89329,1,0,0:0:0:0:
182,192,89329,1,0,0:0:0:0:
402,192,89417,1,0,0:0:0:0:
329,192,89505,1,0,0:0:0:0:
109,192,89505,1,0,0:0:0:0:
36,192,89505,1,0,0:0:0:0:
402,192,89594,1,0,0:0:0:0:
182,192,89594,1,0,0:0:0:0:
256,192,89594,1,0,0:0:0:0:
475,192,89682,1,0,0:0:0:0:
329,192,89682,1,0,0:0:0:0:
36,192,89682,1,0,0:0:0:0:
109,192,89770,1,0,0:0:0:0:
182,192,89858,1,0,0:0:0:0:
402,192,89858,1,0,0:0:0:0:
475,192,89858,1,0,0:0:0:0:
329,192,89946,1,0,0:0:0:0:
109,192,89946,1,0,0:0:0:0:
36,192,89946,1,0,0:0:0:0:
402,192,90035,1,0,0:0:0:0:
475,192,90035,1,0,0:0:0:0:
256,192,90035,1,0,0:0:0:0:
182,192,90094,1,0,0:0:0:0:
256,192,90152,1,0,0:0:0:0:
109,192,90211,1,0,0:0:0:0:
36,192,90211,1,0,0:0:0:0:
329,192,90211,1,0,0:0:0:0:
182,192,90299,1,0,0:0:0:0:
402,192,90299,1,0,0:0:0:0:
475,192,90299,1,0,0:0:0:0:
256,192,90388,1,0,0:0:0:0:
329,192,90388,1,0,0:0:0:0:
109,192,90388,1,0,0:0:0:0:
36,192,90388,1,0,0:0:0:0:
475,192,90446,1,0,0:0:0:0:
402,192,90505,1,0,0:0:0:0:
329,192,90564,1,0,0:0:0:0:
256,192,90623,1,0,0:0:0:0:
182,192,90682,1,0,0:0:0:0:
109,192,90741,1,0,0:0:0:0:
402,192,90741,1,0,0:0:0:0:
329,192,90829,1,0,0:0:0:0:
256,192,90917,1,0,0:0:0:0:
182,192,91005,1,0,0:0:0:0:
109,192,91094,1,0,0:0:0:0:
475,192,91094,128,0,93211:0:0:0:0:
36,192,91211,1,0,0:0:0:0:
182,192,91329,1,0,0:0:0:0:
109,192,91388,1,0,0:0:0:0:
36,192,91446,1,0,0:0:0:0:
256,192,91505,1,0,0:0:0:0:
182,192,91564,1,0,0:0:0:0:
402,192,91623,1,0,0:0:0:0:
329,192,91682,1,0,0:0:0:0:
256,192,91741,1,0,0:0:0:0:
36,192,91799,1,0,0:0:0:0:
109,192,91858,1,0,0:0:0:0:
182,192,91917,1,0,0:0:0:0:
256,192,91976,1,0,0:0:0:0:
329,192,92035,1,0,0:0:0:0:
402,192,92094,1,0,0:0:0:0:
109,192,92152,1,0,0:0:0:0:
182,192,92211,1,0,0:0:0:0:
256,192,92270,1,0,0:0:0:0:
329,192,92329,1,0,0:0:0:0:
402,192,92388,1,0,0:0:0:0:
182,192,92446,1,0,0:0:0:0:
256,192,92505,1,0,0:0:0:0:
329,192,92564,1,0,0:0:0:0:
402,192,92623,1,0,0:0:0:0:
109,192,92682,1,0,0:0:0:0:
36,192,92741,1,0,0:0:0:0:
182,192,92799,1,0,0:0:0:0:
109,192,92858,1,0,0:0:0:0:
256,192,92917,1,0,0:0:0:0:
182,192,92976,1,0,0:0:0:0:
329,192,93035,1,0,0:0:0:0:
256,192,93094,1,0,0:0:0:0:
182,192,93152,1,0,0:0:0:0:
109,192,93211,1,0,0:0:0:0:
329,192,93211,1,0,0:0:0:0:
402,192,93211,1,0,0:0:0:0:
36,192,93211,128,0,93564:0:0:0:0:
182,192,93564,1,0,0:0:0:0:
329,192,93564,1,0,0:0:0:0:
475,192,93564,1,0,0:0:0:0:
36,192,93741,1,0,0:0:0:0:
256,192,93741,1,0,0:0:0:0:
329,192,93829,1,0,0:0:0:0:
109,192,93829,1,0,0:0:0:0:
36,192,93917,1,0,0:0:0:0:
402,192,93917,1,0,0:0:0:0:
475,192,93917,128,0,94270:0:0:0:0:
182,192,93917,1,0,0:0:0:0:
329,192,94270,1,0,0:0:0:0:
182,192,94270,1,0,0:0:0:0:
36,192,94270,1,0,0:0:0:0:
256,192,94446,1,0,0:0:0:0:
475,192,94446,1,0,0:0:0:0:
402,192,94535,1,0,0:0:0:0:
182,192,94535,1,0,0:0:0:0:
109,192,94623,1,0,0:0:0:0:
329,192,94623,1,0,0:0:0:0:
36,192,94623,128,0,94976:0:0:0:0:
256,192,94711,1,0,0:0:0:0:
475,192,94711,1,0,0:0:0:0:
329,192,94799,1,0,0:0:0:0:
109,192,94799,1,0,0:0:0:0:
182,192,94888,1,0,0:0:0:0:
402,192,94888,1,0,0:0:0:0:
329,192,94976,1,0,0:0:0:0:
109,192,94976,1,0,0:0:0:0:
475,192,94976,1,0,0:0:0:0:
256,192,95064,1,0,0:0:0:0:
36,192,95064,1,0,0:0:0:0:
182,192,95152,1,0,0:0:0:0:
402,192,95152,1,0,0:0:0:0:
329,192,95241,1,0,0:0:0:0:
109,192,95241,1,0,0:0:0:0:
36,192,95329,1,0,0:0:0:0:
256,192,95329,1,0,0:0:0:0:
475,192,95329,128,0,95682:0:0:0:0:
182,192,95329,1,0,0:0:0:0:
329,192,95682,1,0,0:0:0:0:
182,192,95682,1,0,0:0:0:0:
36,192,95682,1,0,0:0:0:0:
36,192,95858,1,0,0:0:0:0:
256,192,95858,1,0,0:0:0:0:
329,192,95946,1,0,0:0:0:0:
109,192,95946,1,0,0:0:0:0:
182,192,96035,128,0,96388:0:0:0:0:
402,192,96035,1,0,0:0:0:0:
475,192,96035,1,0,0:0:0:0:
36,192,96035,1,0,0:0:0:0:
329,192,96388,1,0,0:0:0:0:
475,192,96388,1,0,0:0:0:0:
36,192,96388,1,0,0:0:0:0:
109,192,96476,1,0,0:0:0:0:
256,192,96476,1,0,0:0:0:0:
182,192,96564,1,0,0:0:0:0:
402,192,96564,1,0,0:0:0:0:
256,192,96652,1,0,0:0:0:0:
36,192,96652,1,0,0:0:0:0:
329,192,96741,128,0,97094:0:0:0:0:
109,192,96741,1,0,0:0:0:0:
475,192,96741,1,0,0:0:0:0:
182,192,96741,1,0,0:0:0:0:
182,192,97094,1,0,0:0:0:0:
36,192,97094,1,0,0:0:0:0:
475,192,97094,1,0,0:0:0:0:
256,192,97182,1,0,0:0:0:0:
402,192,97182,1,0,0:0:0:0:
329,192,97270,1,0,0:0:0:0:
109,192,97270,1,0,0:0:0:0:
182,192,97358,1,0,0:0:0:0:
402,192,97358,1,0,0:0:0:0:
36,192,97446,128,0,97711:0:0:0:0:
109,192,97446,128,0,97711:0:0:0:0:
256,192,97446,1,0,0:0:0:0:
475,192,97446,1,0,0:0:0:0:
402,192,97535,1,0,0:0:0:0:
329,192,97623,1,0,0:0:0:0:
256,192,97711,1,0,0:0:0:0:
36,192,97799,128,0,98064:0:0:0:0:
109,192,97799,128,0,98064:0:0:0:0:
182,192,97799,1,0,0:0:0:0:
475,192,97799,1,0,0:0:0:0:
256,192,97888,1,0,0:0:0:0:
329,192,97976,1,0,0:0:0:0:
402,192,98064,1,0,0:0:0:0:
36,192,98152,128,0,98417:0:0:0:0:
109,192,98152,128,0,98417:0:0:0:0:
182,192,98152,128,0,98417:0:0:0:0:
475,192,98152,1,0,0:0:0:0:
402,192,98329,1,0,0:0:0:0:
329,192,98417,1,0,0:0:0:0:
182,192,98505,1,0,0:0:0:0:
109,192,98505,1,0,0:0:0:0:
36,192,98505,1,0,0:0:0:0:
256,192,98505,1,0,0:0:0:0:
256,192,98682,1,0,0:0:0:0:
402,192,98682,1,0,0:0:0:0:
475,192,98682,1,0,0:0:0:0:
329,192,98682,1,0,0:0:0:0:
36,192,98858,1,0,0:0:0:0:
256,192,98858,1,0,0:0:0:0:
402,192,98858,1,0,0:0:0:0:
475,192,98858,1,0,0:0:0:0:
109,192,98946,1,0,0:0:0:0:
329,192,98946,1,0,0:0:0:0:
182,192,99035,1,0,0:0:0:0:
402,192,99035,1,0,0:0:0:0:
256,192,99123,1,0,0:0:0:0:
475,192,99123,1,0,0:0:0:0:
329,192,99211,1,0,0:0:0:0:
109,192,99211,1,0,0:0:0:0:
36,192,99211,1,0,0:0:0:0:
256,192,99299,1,0,0:0:0:0:
475,192,99299,1,0,0:0:0:0:
109,192,99388,1,0,0:0:0:0:
329,192,99388,1,0,0:0:0:0:
182,192,99476,1,0,0:0:0:0:
402,192,99476,1,0,0:0:0:0:
256,192,99564,1,0,0:0:0:0:
109,192,99564,1,0,0:0:0:0:
36,192,99564,1,0,0:0:0:0:
475,192,99564,1,0,0:0:0:0:
182,192,99652,1,0,0:0:0:0:
402,192,99652,1,0,0:0:0:0:
109,192,99741,1,0,0:0:0:0:
329,192,99741,1,0,0:0:0:0:
36,192,99829,1,0,0:0:0:0:
256,192,99829,1,0,0:0:0:0:
182,192,99917,1,0,0:0:0:0:
402,192,99917,1,0,0:0:0:0:
475,192,99917,1,0,0:0:0:0:
256,192,100005,1,0,0:0:0:0:
36,192,100005,1,0,0:0:0:0:
182,192,100094,1,0,0:0:0:0:
402,192,100094,1,0,0:0:0:0:
329,192,100182,1,0,0:0:0:0:
109,192,100182,1,0,0:0:0:0:
36,192,100270,1,0,0:0:0:0:
256,192,100270,1,0,0:0:0:0:
475,192,100270,1,0,0:0:0:0:
182,192,100270,1,0,0:0:0:0:
402,192,100446,1,0,0:0:0:0:
329,192,100535,1,0,0:0:0:0:
475,192,100623,1,0,0:0:0:0:
36,192,100623,1,0,0:0:0:0:
256,192,100623,1,0,0:0:0:0:
182,192,100711,1,0,0:0:0:0:
402,192,100711,1,0,0:0:0:0:
36,192,100799,1,0,0:0:0:0:
256,192,100799,1,0,0:0:0:0:
182,192,100888,1,0,0:0:0:0:
402,192,100888,1,0,0:0:0:0:
109,192,100976,1,0,0:0:0:0:
36,192,100976,1,0,0:0:0:0:
329,192,100976,1,0,0:0:0:0:
475,192,100976,1,0,0:0:0:0:
256,192,101152,1,0,0:0:0:0:
182,192,101241,1,0,0:0:0:0:
109,192,101329,1,0,0:0:0:0:
329,192,101329,1,0,0:0:0:0:
475,192,101329,1,0,0:0:0:0:
256,192,101417,1,0,0:0:0:0:
36,192,101417,1,0,0:0:0:0:
109,192,101505,1,0,0:0:0:0:
329,192,101505,1,0,0:0:0:0:
182,192,101594,1,0,0:0:0:0:
402,192,101594,1,0,0:0:0:0:
475,192,101682,1,0,0:0:0:0:
256,192,101682,1,0,0:0:0:0:
109,192,101682,1,0,0:0:0:0:
36,192,101682,1,0,0:0:0:0:
402,192,101858,128,0,101946:0:0:0:0:
109,192,101858,1,0,0:0:0:0:
475,192,101946,128,0,102035:0:0:0:0:
329,192,102035,128,0,102123:0:0:0:0:
182,192,102035,1,0,0:0:0:0:
36,192,102035,1,0,0:0:0:0:
402,192,102123,128,0,102211:0:0:0:0:
256,192,102211,128,0,102299:0:0:0:0:
109,192,102211,1,0,0:0:0:0:
329,192,102299,128,0,102388:0:0:0:0:
256,192,102388,1,0,0:0:0:0:
402,192,102388,1,0,0:0:0:0:
475,192,102388,1,0,0:0:0:0:
36,192,102388,1,0,0:0:0:0:
109,192,102564,128,0,102652:0:0:0:0:
402,192,102564,1,0,0:0:0:0:
36,192,102652,128,0,102741:0:0:0:0:
182,192,102741,128,0,102829:0:0:0:0:
329,192,102741,1,0,0:0:0:0:
475,192,102741,1,0,0:0:0:0:
109,192,102829,128,0,102917:0:0:0:0:
256,192,102917,128,0,103005:0:0:0:0:
402,192,102917,1,0,0:0:0:0:
182,192,103005,128,0,103094:0:0:0:0:
109,192,103094,1,0,0:0:0:0:
36,192,103094,1,0,0:0:0:0:
329,192,103094,1,0,0:0:0:0:
475,192,103094,1,0,0:0:0:0:
256,192,103182,1,0,0:0:0:0:
182,192,103270,1,0,0:0:0:0:
109,192,103358,1,0,0:0:0:0:
402,192,103446,1,0,0:0:0:0:
475,192,103446,1,0,0:0:0:0:
36,192,103446,1,0,0:0:0:0:
182,192,103446,1,0,0:0:0:0:
329,192,103535,1,0,0:0:0:0:
256,192,103623,1,0,0:0:0:0:
182,192,103711,1,0,0:0:0:0:
109,192,103799,1,0,0:0:0:0:
36,192,103799,1,0,0:0:0:0:
256,192,103799,1,0,0:0:0:0:
402,192,103799,1,0,0:0:0:0:
475,192,103799,1,0,0:0:0:0:
109,192,103976,1,0,0:0:0:0:
182,192,103976,1,0,0:0:0:0:
329,192,103976,1,0,0:0:0:0:
402,192,103976,1,0,0:0:0:0:
256,192,103976,1,0,0:0:0:0:
109,192,104152,1,0,0:0:0:0:
36,192,104152,1,0,0:0:0:0:
256,192,104152,1,0,0:0:0:0:
402,192,104152,1,0,0:0:0:0:
475,192,104152,1,0,0:0:0:0:
402,192,104329,1,0,0:0:0:0:
475,192,104329,1,0,0:0:0:0:
329,192,104417,1,0,0:0:0:0:
256,192,104417,1,0,0:0:0:0:
182,192,104505,1,0,0:0:0:0:
402,192,104505,1,0,0:0:0:0:
475,192,104505,1,0,0:0:0:0:
109,192,104505,1,0,0:0:0:0:
36,192,104505,1,0,0:0:0:0:
36,192,104682,1,0,0:0:0:0:
109,192,104770,1,0,0:0:0:0:
182,192,104858,1,0,0:0:0:0:
329,192,104858,1,0,0:0:0:0:
475,192,104858,1,0,0:0:0:0:
36,192,104946,1,0,0:0:0:0:
182,192,105035,1,0,0:0:0:0:
402,192,105035,1,0,0:0:0:0:
329,192,105123,1,0,0:0:0:0:
109,192,105123,1,0,0:0:0:0:
36,192,105211,1,0,0:0:0:0:
182,192,105211,128,0,105299:0:0:0:0:
256,192,105211,128,0,105299:0:0:0:0:
475,192,105211,1,0,0:0:0:0:
402,192,105211,1,0,0:0:0:0:
256,192,105388,128,0,105476:0:0:0:0:
329,192,105388,128,0,105476:0:0:0:0:
109,192,105388,1,0,0:0:0:0:
36,192,105476,1,0,0:0:0:0:
329,192,105564,128,0,105652:0:0:0:0:
402,192,105564,128,0,105652:0:0:0:0:
182,192,105564,1,0,0:0:0:0:
109,192,105652,1,0,0:0:0:0:
402,192,105741,128,0,105829:0:0:0:0:
475,192,105741,128,0,105829:0:0:0:0:
256,192,105741,1,0,0:0:0:0:
182,192,105829,1,0,0:0:0:0:
109,192,105917,1,0,0:0:0:0:
36,192,105917,1,0,0:0:0:0:
256,192,105917,1,0,0:0:0:0:
402,192,105917,1,0,0:0:0:0:
475,192,105917,1,0,0:0:0:0:
182,192,106005,1,0,0:0:0:0:
329,192,106005,1,0,0:0:0:0:
109,192,106094,1,0,0:0:0:0:
402,192,106094,1,0,0:0:0:0:
182,192,106182,1,0,0:0:0:0:
329,192,106182,1,0,0:0:0:0:
256,192,106270,1,0,0:0:0:0:
475,192,106270,1,0,0:0:0:0:
36,192,106270,1,0,0:0:0:0:
402,192,106358,1,0,0:0:0:0:
182,192,106358,1,0,0:0:0:0:
109,192,106446,1,0,0:0:0:0:
329,192,106446,1,0,0:0:0:0:
182,192,106535,1,0,0:0:0:0:
402,192,106535,1,0,0:0:0:0:
256,192,106623,1,0,0:0:0:0:
475,192,106623,1,0,0:0:0:0:
36,192,106623,1,0,0:0:0:0:
109,192,106623,1,0,0:0:0:0:
329,192,106623,1,0,0:0:0:0:
182,192,106711,1,0,0:0:0:0:
402,192,106711,1,0,0:0:0:0:
109,192,106799,1,0,0:0:0:0:
329,192,106799,1,0,0:0:0:0:
256,192,106888,1,0,0:0:0:0:
36,192,106888,1,0,0:0:0:0:
182,192,106976,1,0,0:0:0:0:
402,192,106976,1,0,0:0:0:0:
475,192,106976,1,0,0:0:0:0:
109,192,107064,1,0,0:0:0:0:
256,192,107064,1,0,0:0:0:0:
36,192,107152,1,0,0:0:0:0:
329,192,107152,1,0,0:0:0:0:
182,192,107241,1,0,0:0:0:0:
402,192,107241,1,0,0:0:0:0:
256,192,107329,1,0,0:0:0:0:
329,192,107329,1,0,0:0:0:0:
475,192,107329,1,0,0:0:0:0:
36,192,107329,128,0,107682:0:0:0:0:
109,192,107329,128,0,107682:0:0:0:0:
329,192,107594,1,0,0:0:0:0:
182,192,107594,1,0,0:0:0:0:
475,192,107594,1,0,0:0:0:0:
475,192,107682,1,0,0:0:0:0:
329,192,107682,1,0,0:0:0:0:
182,192,107682,1,0,0:0:0:0:
182,192,107858,1,0,0:0:0:0:
402,192,107858,1,0,0:0:0:0:
329,192,107946,1,0,0:0:0:0:
109,192,107946,1,0,0:0:0:0:
402,192,108035,128,0,108388:0:0:0:0:
475,192,108035,128,0,108388:0:0:0:0:
182,192,108035,1,0,0:0:0:0:
256,192,108035,1,0,0:0:0:0:
36,192,108035,1,0,0:0:0:0:
182,192,108299,1,0,0:0:0:0:
36,192,108299,1,0,0:0:0:0:
329,192,108299,1,0,0:0:0:0:
36,192,108388,1,0,0:0:0:0:
182,192,108388,1,0,0:0:0:0:
329,192,108388,1,0,0:0:0:0:
109,192,108564,1,0,0:0:0:0:
329,192,108564,1,0,0:0:0:0:
182,192,108652,1,0,0:0:0:0:
402,192,108652,1,0,0:0:0:0:
475,192,108741,1,0,0:0:0:0:
256,192,108741,1,0,0:0:0:0:
36,192,108741,1,0,0:0:0:0:
109,192,108741,1,0,0:0:0:0:
402,192,108829,1,0,0:0:0:0:
182,192,108829,1,0,0:0:0:0:
329,192,108917,1,0,0:0:0:0:
109,192,108917,1,0,0:0:0:0:
182,192,109005,1,0,0:0:0:0:
402,192,109005,1,0,0:0:0:0:
256,192,109094,1,0,0:0:0:0:
475,192,109094,1,0,0:0:0:0:
36,192,109094,1,0,0:0:0:0:
109,192,109094,1,0,0:0:0:0:
182,192,109182,1,0,0:0:0:0:
402,192,109182,1,0,0:0:0:0:
109,192,109270,1,0,0:0:0:0:
329,192,109270,1,0,0:0:0:0:
36,192,109358,1,0,0:0:0:0:
256,192,109358,1,0,0:0:0:0:
182,192,109446,1,0,0:0:0:0:
402,192,109446,1,0,0:0:0:0:
475,192,109446,1,0,0:0:0:0:
329,192,109446,1,0,0:0:0:0:
109,192,109446,1,0,0:0:0:0:
36,192,109623,1,0,0:0:0:0:
256,192,109623,1,0,0:0:0:0:
109,192,109711,1,0,0:0:0:0:
329,192,109711,1,0,0:0:0:0:
182,192,109799,1,0,0:0:0:0:
402,192,109799,1,0,0:0:0:0:
475,192,109799,1,0,0:0:0:0:
256,192,109888,1,0,0:0:0:0:
36,192,109888,1,0,0:0:0:0:
109,192,109976,1,0,0:0:0:0:
329,192,109976,1,0,0:0:0:0:
475,192,109976,1,0,0:0:0:0:
182,192,110064,1,0,0:0:0:0:
402,192,110064,1,0,0:0:0:0:
256,192,110152,1,0,0:0:0:0:
329,192,110152,1,0,0:0:0:0:
475,192,110152,1,0,0:0:0:0:
109,192,110152,1,0,0:0:0:0:
36,192,110152,1,0,0:0:0:0:
182,192,110329,1,0,0:0:0:0:
402,192,110329,1,0,0:0:0:0:
329,192,110417,1,0,0:0:0:0:
109,192,110417,1,0,0:0:0:0:
36,192,110505,1,0,0:0:0:0:
256,192,110505,1,0,0:0:0:0:
475,192,110505,1,0,0:0:0:0:
182,192,110594,1,0,0:0:0:0:
402,192,110594,1,0,0:0:0:0:
329,192,110682,1,0,0:0:0:0:
109,192,110682,1,0,0:0:0:0:
182,192,110770,1,0,0:0:0:0:
402,192,110770,1,0,0:0:0:0:
256,192,110858,1,0,0:0:0:0:
475,192,110858,1,0,0:0:0:0:
329,192,110858,1,0,0:0:0:0:
109,192,110858,1,0,0:0:0:0:
36,192,110858,1,0,0:0:0:0:
182,192,110946,1,0,0:0:0:0:
402,192,110946,1,0,0:0:0:0:
109,192,111035,1,0,0:0:0:0:
329,192,111035,1,0,0:0:0:0:
36,192,111123,1,0,0:0:0:0:
256,192,111123,1,0,0:0:0:0:
182,192,111211,1,0,0:0:0:0:
402,192,111211,1,0,0:0:0:0:
475,192,111211,1,0,0:0:0:0:
329,192,111299,1,0,0:0:0:0:
109,192,111299,1,0,0:0:0:0:
182,192,111388,1,0,0:0:0:0:
402,192,111388,1,0,0:0:0:0:
329,192,111476,1,0,0:0:0:0:
109,192,111476,1,0,0:0:0:0:
36,192,111564,1,0,0:0:0:0:
182,192,111564,1,0,0:0:0:0:
256,192,111564,1,0,0:0:0:0:
402,192,111564,1,0,0:0:0:0:
475,192,111564,1,0,0:0:0:0:
329,192,111652,1,0,0:0:0:0:
109,192,111652,1,0,0:0:0:0:
36,192,111741,1,0,0:0:0:0:
256,192,111741,1,0,0:0:0:0:
109,192,111829,1,0,0:0:0:0:
329,192,111829,1,0,0:0:0:0:
182,192,111917,1,0,0:0:0:0:
402,192,111917,1,0,0:0:0:0:
475,192,111917,1,0,0:0:0:0:
256,192,112005,1,0,0:0:0:0:
36,192,112005,1,0,0:0:0:0:
109,192,112094,1,0,0:0:0:0:
329,192,112094,1,0,0:0:0:0:
182,192,112182,1,0,0:0:0:0:
402,192,112182,1,0,0:0:0:0:
256,192,112270,1,0,0:0:0:0:
475,192,112270,1,0,0:0:0:0:
329,192,112270,1,0,0:0:0:0:
109,192,112270,1,0,0:0:0:0:
36,192,112270,1,0,0:0:0:0:
256,192,112446,1,0,0:0:0:0:
475,192,112446,1,0,0:0:0:0:
402,192,112535,1,0,0:0:0:0:
182,192,112535,1,0,0:0:0:0:
329,192,112623,1,0,0:0:0:0:
109,192,112623,1,0,0:0:0:0:
36,192,112623,1,0,0:0:0:0:
182,192,112711,1,0,0:0:0:0:
475,192,112711,1,0,0:0:0:0:
402,192,112799,1,0,0:0:0:0:
256,192,112799,1,0,0:0:0:0:
329,192,112888,1,0,0:0:0:0:
109,192,112888,1,0,0:0:0:0:
36,192,112976,1,0,0:0:0:0:
182,192,112976,1,0,0:0:0:0:
256,192,112976,1,0,0:0:0:0:
402,192,112976,1,0,0:0:0:0:
475,192,112976,1,0,0:0:0:0:
36,192,113152,1,0,0:0:0:0:
256,192,113152,1,0,0:0:0:0:
109,192,113241,1,0,0:0:0:0:
329,192,113241,1,0,0:0:0:0:
182,192,113329,1,0,0:0:0:0:
402,192,113329,1,0,0:0:0:0:
475,192,113329,1,0,0:0:0:0:
329,192,113417,1,0,0:0:0:0:
36,192,113417,1,0,0:0:0:0:
109,192,113505,1,0,0:0:0:0:
256,192,113505,1,0,0:0:0:0:
182,192,113594,1,0,0:0:0:0:
402,192,113594,1,0,0:0:0:0:
256,192,113682,1,0,0:0:0:0:
329,192,113682,1,0,0:0:0:0:
475,192,113682,1,0,0:0:0:0:
109,192,113682,1,0,0:0:0:0:
36,192,113682,1,0,0:0:0:0:
256,192,113858,1,0,0:0:0:0:
475,192,113858,1,0,0:0:0:0:
402,192,113946,1,0,0:0:0:0:
182,192,113946,1,0,0:0:0:0:
329,192,114035,1,0,0:0:0:0:
109,192,114035,1,0,0:0:0:0:
36,192,114035,1,0,0:0:0:0:
182,192,114123,1,0,0:0:0:0:
402,192,114123,1,0,0:0:0:0:
256,192,114211,1,0,0:0:0:0:
475,192,114211,1,0,0:0:0:0:
329,192,114299,1,0,0:0:0:0:
109,192,114299,1,0,0:0:0:0:
182,192,114388,1,0,0:0:0:0:
402,192,114388,1,0,0:0:0:0:
475,192,114388,1,0,0:0:0:0:
36,192,114388,1,0,0:0:0:0:
329,192,114476,1,0,0:0:0:0:
256,192,114476,1,0,0:0:0:0:
109,192,114564,1,0,0:0:0:0:
402,192,114564,1,0,0:0:0:0:
182,192,114652,1,0,0:0:0:0:
256,192,114652,1,0,0:0:0:0:
329,192,114741,1,0,0:0:0:0:
475,192,114741,1,0,0:0:0:0:
109,192,114741,1,0,0:0:0:0:
36,192,114741,1,0,0:0:0:0:
182,192,114829,1,0,0:0:0:0:
256,192,114829,1,0,0:0:0:0:
109,192,114917,1,0,0:0:0:0:
402,192,114917,1,0,0:0:0:0:
329,192,115005,1,0,0:0:0:0:
256,192,115005,1,0,0:0:0:0:
182,192,115094,1,0,0:0:0:0:
109,192,115094,1,0,0:0:0:0:
36,192,115094,1,0,0:0:0:0:
402,192,115094,1,0,0:0:0:0:
475,192,115094,1,0,0:0:0:0:
182,192,115270,1,0,0:0:0:0:
256,192,115270,1,0,0:0:0:0:
329,192,115270,1,0,0:0:0:0:
109,192,115270,1,0,0:0:0:0:
402,192,115270,1,0,0:0:0:0:
329,192,115446,1,0,0:0:0:0:
402,192,115446,1,0,0:0:0:0:
475,192,115446,1,0,0:0:0:0:
109,192,115446,1,0,0:0:0:0:
36,192,115446,1,0,0:0:0:0:
402,192,115623,1,0,0:0:0:0:
329,192,115623,1,0,0:0:0:0:
256,192,115711,1,0,0:0:0:0:
182,192,115711,1,0,0:0:0:0:
36,192,115799,128,0,116152:0:0:0:0:
475,192,115799,128,0,116152:0:0:0:0:
109,192,115799,1,0,0:0:0:0:
329,192,115799,1,0,0:0:0:0:
402,192,115799,1,0,0:0:0:0:
182,192,115976,1,0,0:0:0:0:
256,192,116064,1,0,0:0:0:0:
329,192,116152,1,0,0:0:0:0:
402,192,116152,1,0,0:0:0:0:
109,192,116152,1,0,0:0:0:0:
182,192,116241,1,0,0:0:0:0:
256,192,116329,1,0,0:0:0:0:
36,192,116329,1,0,0:0:0:0:
109,192,116417,1,0,0:0:0:0:
329,192,116417,1,0,0:0:0:0:
402,192,116505,1,0,0:0:0:0:
36,192,116505,1,0,0:0:0:0:
475,192,116505,128,0,116858:0:0:0:0:
256,192,116505,128,0,116858:0:0:0:0:
182,192,116505,1,0,0:0:0:0:
36,192,116682,1,0,0:0:0:0:
109,192,116770,1,0,0:0:0:0:
182,192,116858,1,0,0:0:0:0:
402,192,116858,1,0,0:0:0:0:
329,192,116858,1,0,0:0:0:0:
109,192,116946,1,0,0:0:0:0:
36,192,117035,1,0,0:0:0:0:
256,192,117035,1,0,0:0:0:0:
182,192,117123,1,0,0:0:0:0:
402,192,117123,1,0,0:0:0:0:
109,192,117211,1,0,0:0:0:0:
36,192,117211,1,0,0:0:0:0:
329,192,117211,1,0,0:0:0:0:
475,192,117211,1,0,0:0:0:0:
256,192,117211,1,0,0:0:0:0:
182,192,117299,1,0,0:0:0:0:
402,192,117299,1,0,0:0:0:0:
329,192,117388,1,0,0:0:0:0:
109,192,117388,1,0,0:0:0:0:
256,192,117476,1,0,0:0:0:0:
475,192,117476,1,0,0:0:0:0:
182,192,117564,1,0,0:0:0:0:
36,192,117564,1,0,0:0:0:0:
402,192,117564,1,0,0:0:0:0:
329,192,117652,1,0,0:0:0:0:
109,192,117652,1,0,0:0:0:0:
182,192,117741,1,0,0:0:0:0:
402,192,117741,1,0,0:0:0:0:
256,192,117829,1,0,0:0:0:0:
475,192,117829,1,0,0:0:0:0:
329,192,117917,1,0,0:0:0:0:
182,192,117917,1,0,0:0:0:0:
109,192,117917,1,0,0:0:0:0:
36,192,117917,128,0,118270:0:0:0:0:
402,192,117917,128,0,118270:0:0:0:0:
109,192,118094,1,0,0:0:0:0:
182,192,118152,1,0,0:0:0:0:
256,192,118211,1,0,0:0:0:0:
329,192,118270,1,0,0:0:0:0:
475,192,118270,1,0,0:0:0:0:
109,192,118270,1,0,0:0:0:0:
182,192,118358,1,0,0:0:0:0:
36,192,118446,1,0,0:0:0:0:
256,192,118446,1,0,0:0:0:0:
109,192,118535,1,0,0:0:0:0:
329,192,118535,1,0,0:0:0:0:
402,192,118623,128,0,118976:0:0:0:0:
475,192,118623,128,0,118976:0:0:0:0:
256,192,118623,1,0,0:0:0:0:
36,192,118623,1,0,0:0:0:0:
182,192,118623,1,0,0:0:0:0:
109,192,118799,1,0,0:0:0:0:
182,192,118888,1,0,0:0:0:0:
329,192,118976,1,0,0:0:0:0:
256,192,118976,1,0,0:0:0:0:
36,192,118976,1,0,0:0:0:0:
109,192,119064,1,0,0:0:0:0:
402,192,119064,1,0,0:0:0:0:
182,192,119152,1,0,0:0:0:0:
475,192,119152,1,0,0:0:0:0:
402,192,119241,1,0,0:0:0:0:
256,192,119241,1,0,0:0:0:0:
36,192,119329,128,0,119682:0:0:0:0:
109,192,119329,128,0,119682:0:0:0:0:
182,192,119329,1,0,0:0:0:0:
329,192,119329,1,0,0:0:0:0:
475,192,119329,1,0,0:0:0:0:
402,192,119505,1,0,0:0:0:0:
329,192,119594,1,0,0:0:0:0:
256,192,119682,1,0,0:0:0:0:
182,192,119682,1,0,0:0:0:0:
475,192,119682,1,0,0:0:0:0:
402,192,119770,1,0,0:0:0:0:
109,192,119770,1,0,0:0:0:0:
36,192,119858,1,0,0:0:0:0:
329,192,119858,1,0,0:0:0:0:
109,192,119946,1,0,0:0:0:0:
256,192,119946,1,0,0:0:0:0:
402,192,120035,128,0,120299:0:0:0:0:
475,192,120035,128,0,120299:0:0:0:0:
182,192,120035,128,0,120123:0:0:0:0:
36,192,120035,1,0,0:0:0:0:
329,192,120035,1,0,0:0:0:0:
109,192,120123,128,0,120211:0:0:0:0:
36,192,120211,128,0,120299:0:0:0:0:
256,192,120299,128,0,120388:0:0:0:0:
402,192,120388,128,0,120652:0:0:0:0:
475,192,120388,128,0,120652:0:0:0:0:
109,192,120388,128,0,120476:0:0:0:0:
329,192,120388,1,0,0:0:0:0:
36,192,120388,1,0,0:0:0:0:
182,192,120476,128,0,120564:0:0:0:0:
256,192,120564,128,0,120652:0:0:0:0:
36,192,120652,128,0,120741:0:0:0:0:
475,192,120741,128,0,121005:0:0:0:0:
402,192,120741,128,0,121005:0:0:0:0:
329,192,120741,128,0,121005:0:0:0:0:
256,192,120741,1,0,0:0:0:0:
109,192,120741,1,0,0:0:0:0:
109,192,120917,1,0,0:0:0:0:
182,192,121005,1,0,0:0:0:0:
402,192,121094,1,0,0:0:0:0:
256,192,121094,1,0,0:0:0:0:
36,192,121094,1,0,0:0:0:0:
475,192,121094,1,0,0:0:0:0:
329,192,121182,1,0,0:0:0:0:
109,192,121270,1,0,0:0:0:0:
36,192,121270,1,0,0:0:0:0:
256,192,121270,1,0,0:0:0:0:
475,192,121270,1,0,0:0:0:0:
182,192,121358,1,0,0:0:0:0:
36,192,121446,1,0,0:0:0:0:
329,192,121446,1,0,0:0:0:0:
475,192,121446,1,0,0:0:0:0:
402,192,121446,1,0,0:0:0:0:
109,192,121446,128,0,121535:0:0:0:0:
182,192,121535,128,0,121623:0:0:0:0:
256,192,121535,1,0,0:0:0:0:
36,192,121623,128,0,121711:0:0:0:0:
402,192,121623,1,0,0:0:0:0:
109,192,121711,128,0,121799:0:0:0:0:
329,192,121711,1,0,0:0:0:0:
475,192,121799,1,0,0:0:0:0:
256,192,121799,1,0,0:0:0:0:
402,192,121799,128,0,121888:0:0:0:0:
182,192,121888,1,0,0:0:0:0:
329,192,121888,128,0,121976:0:0:0:0:
109,192,121976,1,0,0:0:0:0:
256,192,121976,128,0,122064:0:0:0:0:
36,192,122064,1,0,0:0:0:0:
182,192,122064,128,0,122152:0:0:0:0:
109,192,122152,1,0,0:0:0:0:
402,192,122152,128,0,122241:0:0:0:0:
475,192,122152,1,0,0:0:0:0:
329,192,122241,128,0,122329:0:0:0:0:
256,192,122241,1,0,0:0:0:0:
475,192,122329,128,0,122417:0:0:0:0:
109,192,122329,1,0,0:0:0:0:
402,192,122417,128,0,122505:0:0:0:0:
182,192,122417,1,0,0:0:0:0:
36,192,122505,1,0,0:0:0:0:
109,192,122505,128,0,122594:0:0:0:0:
256,192,122505,1,0,0:0:0:0:
182,192,122594,128,0,122682:0:0:0:0:
329,192,122594,1,0,0:0:0:0:
256,192,122682,128,0,122770:0:0:0:0:
402,192,122682,1,0,0:0:0:0:
329,192,122770,128,0,122858:0:0:0:0:
475,192,122770,1,0,0:0:0:0:
402,192,122858,1,0,0:0:0:0:
36,192,122858,128,0,123211:0:0:0:0:
256,192,122858,1,0,0:0:0:0:
109,192,122858,1,0,0:0:0:0:
182,192,122858,128,0,123211:0:0:0:0:
402,192,123211,128,0,123299:0:0:0:0:
475,192,123211,1,0,0:0:0:0:
256,192,123211,1,0,0:0:0:0:
329,192,123299,128,0,123388:0:0:0:0:
182,192,123299,1,0,0:0:0:0:
256,192,123388,128,0,123476:0:0:0:0:
109,192,123388,1,0,0:0:0:0:
182,192,123476,128,0,123564:0:0:0:0:
36,192,123476,1,0,0:0:0:0:
475,192,123564,128,0,123917:0:0:0:0:
109,192,123564,1,0,0:0:0:0:
256,192,123564,1,0,0:0:0:0:
402,192,123564,1,0,0:0:0:0:
329,192,123564,128,0,123917:0:0:0:0:
36,192,123652,1,0,0:0:0:0:
109,192,123741,1,0,0:0:0:0:
182,192,123829,1,0,0:0:0:0:
256,192,123917,1,0,0:0:0:0:
402,192,123917,1,0,0:0:0:0:
36,192,123917,1,0,0:0:0:0:
109,192,124005,1,0,0:0:0:0:
329,192,124005,1,0,0:0:0:0:
182,192,124094,1,0,0:0:0:0:
402,192,124094,1,0,0:0:0:0:
256,192,124182,1,0,0:0:0:0:
475,192,124182,1,0,0:0:0:0:
402,192,124270,1,0,0:0:0:0:
329,192,124270,1,0,0:0:0:0:
182,192,124270,1,0,0:0:0:0:
109,192,124270,1,0,0:0:0:0:
36,192,124270,1,0,0:0:0:0:
475,192,124446,128,0,124535:0:0:0:0:
256,192,124446,1,0,0:0:0:0:
402,192,124535,128,0,124623:0:0:0:0:
182,192,124535,1,0,0:0:0:0:
256,192,124623,128,0,124711:0:0:0:0:
109,192,124623,1,0,0:0:0:0:
36,192,124623,1,0,0:0:0:0:
329,192,124711,128,0,124799:0:0:0:0:
182,192,124711,1,0,0:0:0:0:
402,192,124799,128,0,124888:0:0:0:0:
109,192,124799,1,0,0:0:0:0:
475,192,124888,128,0,124976:0:0:0:0:
182,192,124888,1,0,0:0:0:0:
256,192,124976,1,0,0:0:0:0:
36,192,124976,1,0,0:0:0:0:
109,192,124976,1,0,0:0:0:0:
329,192,124976,1,0,0:0:0:0:
402,192,124976,1,0,0:0:0:0:
36,192,125152,128,0,125241:0:0:0:0:
256,192,125152,1,0,0:0:0:0:
109,192,125241,128,0,125329:0:0:0:0:
329,192,125241,1,0,0:0:0:0:
256,192,125329,128,0,125417:0:0:0:0:
402,192,125329,1,0,0:0:0:0:
475,192,125329,1,0,0:0:0:0:
182,192,125417,128,0,125505:0:0:0:0:
329,192,125417,1,0,0:0:0:0:
109,192,125505,128,0,125594:0:0:0:0:
402,192,125505,1,0,0:0:0:0:
36,192,125594,128,0,125682:0:0:0:0:
329,192,125594,1,0,0:0:0:0:
256,192,125682,1,0,0:0:0:0:
182,192,125682,1,0,0:0:0:0:
109,192,125682,1,0,0:0:0:0:
475,192,125682,1,0,0:0:0:0:
329,192,125770,1,0,0:0:0:0:
36,192,125770,1,0,0:0:0:0:
109,192,125858,1,0,0:0:0:0:
402,192,125858,1,0,0:0:0:0:
182,192,125946,1,0,0:0:0:0:
475,192,125946,1,0,0:0:0:0:
256,192,126035,1,0,0:0:0:0:
329,192,126035,1,0,0:0:0:0:
402,192,126035,1,0,0:0:0:0:
36,192,126035,1,0,0:0:0:0:
182,192,126123,1,0,0:0:0:0:
475,192,126123,1,0,0:0:0:0:
402,192,126211,1,0,0:0:0:0:
109,192,126211,1,0,0:0:0:0:
36,192,126299,1,0,0:0:0:0:
329,192,126299,1,0,0:0:0:0:
109,192,126388,1,0,0:0:0:0:
182,192,126388,1,0,0:0:0:0:
256,192,126388,1,0,0:0:0:0:
402,192,126388,1,0,0:0:0:0:
475,192,126388,1,0,0:0:0:0:
329,192,126564,1,0,0:0:0:0:
402,192,126564,1,0,0:0:0:0:
109,192,126564,1,0,0:0:0:0:
36,192,126564,1,0,0:0:0:0:
182,192,126564,1,0,0:0:0:0:
182,192,126741,1,0,0:0:0:0:
256,192,126741,1,0,0:0:0:0:
109,192,126741,1,0,0:0:0:0:
402,192,126741,1,0,0:0:0:0:
475,192,126741,1,0,0:0:0:0:
109,192,126917,1,0,0:0:0:0:
182,192,126917,1,0,0:0:0:0:
256,192,127005,1,0,0:0:0:0:
329,192,127005,1,0,0:0:0:0:
36,192,127094,1,0,0:0:0:0:
475,192,127094,1,0,0:0:0:0:
182,192,127094,1,0,0:0:0:0:
402,192,127094,128,0,127446:0:0:0:0:
109,192,127094,128,0,127446:0:0:0:0:
182,192,127446,1,0,0:0:0:0:
36,192,127446,1,0,0:0:0:0:
475,192,127446,1,0,0:0:0:0:
256,192,127535,1,0,0:0:0:0:
329,192,127623,1,0,0:0:0:0:
109,192,127623,1,0,0:0:0:0:
182,192,127711,1,0,0:0:0:0:
402,192,127711,1,0,0:0:0:0:
256,192,127799,1,0,0:0:0:0:
329,192,127799,1,0,0:0:0:0:
109,192,127799,1,0,0:0:0:0:
36,192,127799,128,0,128152:0:0:0:0:
475,192,127799,128,0,128152:0:0:0:0:
402,192,128152,1,0,0:0:0:0:
256,192,128152,1,0,0:0:0:0:
109,192,128152,1,0,0:0:0:0:
329,192,128241,1,0,0:0:0:0:
182,192,128329,1,0,0:0:0:0:
402,192,128329,1,0,0:0:0:0:
109,192,128417,1,0,0:0:0:0:
329,192,128417,1,0,0:0:0:0:
36,192,128505,1,0,0:0:0:0:
182,192,128505,1,0,0:0:0:0:
256,192,128505,1,0,0:0:0:0:
402,192,128505,1,0,0:0:0:0:
475,192,128505,1,0,0:0:0:0:
329,192,128594,1,0,0:0:0:0:
109,192,128594,1,0,0:0:0:0:
182,192,128682,1,0,0:0:0:0:
402,192,128682,1,0,0:0:0:0:
256,192,128770,1,0,0:0:0:0:
475,192,128770,1,0,0:0:0:0:
329,192,128858,1,0,0:0:0:0:
36,192,128858,1,0,0:0:0:0:
109,192,128858,1,0,0:0:0:0:
256,192,128946,1,0,0:0:0:0:
475,192,128946,1,0,0:0:0:0:
402,192,129035,1,0,0:0:0:0:
182,192,129035,1,0,0:0:0:0:
109,192,129123,1,0,0:0:0:0:
329,192,129123,1,0,0:0:0:0:
36,192,129211,1,0,0:0:0:0:
256,192,129211,1,0,0:0:0:0:
182,192,129211,1,0,0:0:0:0:
402,192,129211,1,0,0:0:0:0:
475,192,129211,1,0,0:0:0:0:
36,192,129388,1,0,0:0:0:0:
329,192,129388,1,0,0:0:0:0:
256,192,129476,1,0,0:0:0:0:
109,192,129476,1,0,0:0:0:0:
182,192,129564,1,0,0:0:0:0:
475,192,129564,1,0,0:0:0:0:
402,192,129564,128,0,129652:0:0:0:0:
109,192,129652,1,0,0:0:0:0:
329,192,129652,128,0,129741:0:0:0:0:
36,192,129741,1,0,0:0:0:0:
256,192,129741,128,0,129829:0:0:0:0:
402,192,129829,1,0,0:0:0:0:
182,192,129829,128,0,129917:0:0:0:0:
109,192,129917,1,0,0:0:0:0:
36,192,129917,1,0,0:0:0:0:
329,192,129917,1,0,0:0:0:0:
475,192,129917,1,0,0:0:0:0:
256,192,129917,1,0,0:0:0:0:
182,192,130094,1,0,0:0:0:0:
402,192,130094,128,0,130182:0:0:0:0:
256,192,130182,1,0,0:0:0:0:
475,192,130182,128,0,130270:0:0:0:0:
109,192,130270,1,0,0:0:0:0:
36,192,130270,1,0,0:0:0:0:
329,192,130270,128,0,130358:0:0:0:0:
182,192,130358,1,0,0:0:0:0:
402,192,130358,128,0,130446:0:0:0:0:
256,192,130446,1,0,0:0:0:0:
475,192,130446,128,0,130535:0:0:0:0:
329,192,130535,1,0,0:0:0:0:
109,192,130535,1,0,0:0:0:0:
182,192,130623,1,0,0:0:0:0:
256,192,130623,1,0,0:0:0:0:
36,192,130623,1,0,0:0:0:0:
402,192,130623,1,0,0:0:0:0:
475,192,130623,1,0,0:0:0:0:
109,192,130799,128,0,130888:0:0:0:0:
329,192,130799,1,0,0:0:0:0:
256,192,130888,1,0,0:0:0:0:
36,192,130888,128,0,130976:0:0:0:0:
182,192,130976,128,0,131064:0:0:0:0:
475,192,130976,1,0,0:0:0:0:
402,192,130976,1,0,0:0:0:0:
109,192,131064,128,0,131152:0:0:0:0:
329,192,131064,1,0,0:0:0:0:
256,192,131152,1,0,0:0:0:0:
36,192,131152,128,0,131241:0:0:0:0:
182,192,131241,1,0,0:0:0:0:
402,192,131241,1,0,0:0:0:0:
36,192,131329,1,0,0:0:0:0:
109,192,131329,1,0,0:0:0:0:
475,192,131329,1,0,0:0:0:0:
329,192,131329,1,0,0:0:0:0:
256,192,131417,1,0,0:0:0:0:
402,192,131417,1,0,0:0:0:0:
182,192,131505,1,0,0:0:0:0:
329,192,131505,1,0,0:0:0:0:
109,192,131594,1,0,0:0:0:0:
256,192,131594,1,0,0:0:0:0:
182,192,131682,1,0,0:0:0:0:
475,192,131682,1,0,0:0:0:0:
36,192,131682,1,0,0:0:0:0:
402,192,131682,1,0,0:0:0:0:
109,192,131770,1,0,0:0:0:0:
256,192,131770,1,0,0:0:0:0:
182,192,131858,1,0,0:0:0:0:
329,192,131858,1,0,0:0:0:0:
256,192,131946,1,0,0:0:0:0:
402,192,131946,1,0,0:0:0:0:
329,192,132035,1,0,0:0:0:0:
475,192,132035,1,0,0:0:0:0:
182,192,132035,1,0,0:0:0:0:
109,192,132035,1,0,0:0:0:0:
36,192,132035,128,0,132388:0:0:0:0:
402,192,132123,1,0,0:0:0:0:
256,192,132211,1,0,0:0:0:0:
109,192,132299,1,0,0:0:0:0:
329,192,132388,1,0,0:0:0:0:
475,192,132388,1,0,0:0:0:0:
402,192,132388,1,0,0:0:0:0:
182,192,132388,1,0,0:0:0:0:
36,192,132476,1,0,0:0:0:0:
182,192,132564,1,0,0:0:0:0:
329,192,132564,1,0,0:0:0:0:
402,192,132564,1,0,0:0:0:0:
475,192,132564,1,0,0:0:0:0:
109,192,132652,1,0,0:0:0:0:
36,192,132741,128,0,132917:0:0:0:0:
256,192,132741,128,0,132829:0:0:0:0:
475,192,132741,128,0,132917:0:0:0:0:
182,192,132829,128,0,132917:0:0:0:0:
109,192,132917,128,0,133005:0:0:0:0:
329,192,132917,128,0,133005:0:0:0:0:
36,192,133005,128,0,133094:0:0:0:0:
256,192,133005,128,0,133094:0:0:0:0:
182,192,133094,128,0,133182:0:0:0:0:
402,192,133094,128,0,133182:0:0:0:0:
256,192,133182,128,0,133270:0:0:0:0:
475,192,133182,128,0,133270:0:0:0:0:
329,192,133270,128,0,133358:0:0:0:0:
109,192,133270,128,0,133358:0:0:0:0:
182,192,133358,128,0,133446:0:0:0:0:
402,192,133358,128,0,133446:0:0:0:0:
36,192,133446,128,0,133623:0:0:0:0:
475,192,133446,128,0,133623:0:0:0:0:
256,192,133446,128,0,133535:0:0:0:0:
329,192,133535,128,0,133623:0:0:0:0:
402,192,133623,128,0,133711:0:0:0:0:
182,192,133623,128,0,133711:0:0:0:0:
256,192,133711,128,0,133799:0:0:0:0:
475,192,133711,128,0,133799:0:0:0:0:
329,192,133799,128,0,133888:0:0:0:0:
109,192,133799,128,0,133888:0:0:0:0:
36,192,133888,128,0,133976:0:0:0:0:
256,192,133888,128,0,133976:0:0:0:0:
182,192,133976,128,0,134064:0:0:0:0:
402,192,133976,128,0,134064:0:0:0:0:
109,192,134064,128,0,134152:0:0:0:0:
329,192,134064,128,0,134152:0:0:0:0:
182,192,134152,1,0,0:0:0:0:
475,192,134152,1,0,0:0:0:0:
256,192,134152,128,0,134329:0:0:0:0:
36,192,134152,1,0,0:0:0:0:
109,192,134329,1,0,0:0:0:0:
182,192,134417,1,0,0:0:0:0:
256,192,134505,1,0,0:0:0:0:
475,192,134505,1,0,0:0:0:0:
36,192,134505,1,0,0:0:0:0:
402,192,134594,1,0,0:0:0:0:
182,192,134594,1,0,0:0:0:0:
109,192,134682,1,0,0:0:0:0:
329,192,134682,1,0,0:0:0:0:
256,192,134770,1,0,0:0:0:0:
36,192,134770,1,0,0:0:0:0:
329,192,134858,1,0,0:0:0:0:
109,192,134858,1,0,0:0:0:0:
182,192,134858,128,0,135035:0:0:0:0:
475,192,134858,1,0,0:0:0:0:
36,192,135035,1,0,0:0:0:0:
402,192,135035,1,0,0:0:0:0:
109,192,135094,1,0,0:0:0:0:
329,192,135123,1,0,0:0:0:0:
182,192,135152,1,0,0:0:0:0:
475,192,135211,1,0,0:0:0:0:
256,192,135211,1,0,0:0:0:0:
36,192,135211,1,0,0:0:0:0:
329,192,135270,1,0,0:0:0:0:
109,192,135299,1,0,0:0:0:0:
402,192,135329,1,0,0:0:0:0:
182,192,135388,1,0,0:0:0:0:
475,192,135388,1,0,0:0:0:0:
402,192,135446,1,0,0:0:0:0:
109,192,135476,1,0,0:0:0:0:
329,192,135505,1,0,0:0:0:0:
256,192,135564,1,0,0:0:0:0:
475,192,135564,1,0,0:0:0:0:
182,192,135564,1,0,0:0:0:0:
402,192,135564,1,0,0:0:0:0:
36,192,135564,128,0,135741:0:0:0:0:
475,192,135741,1,0,0:0:0:0:
109,192,135741,1,0,0:0:0:0:
402,192,135799,1,0,0:0:0:0:
182,192,135829,1,0,0:0:0:0:
329,192,135858,1,0,0:0:0:0:
256,192,135917,1,0,0:0:0:0:
475,192,135917,1,0,0:0:0:0:
36,192,135917,1,0,0:0:0:0:
182,192,135976,1,0,0:0:0:0:
402,192,136005,1,0,0:0:0:0:
109,192,136035,1,0,0:0:0:0:
36,192,136094,1,0,0:0:0:0:
329,192,136094,1,0,0:0:0:0:
109,192,136152,1,0,0:0:0:0:
402,192,136182,1,0,0:0:0:0:
182,192,136211,1,0,0:0:0:0:
475,192,136270,128,0,136446:0:0:0:0:
36,192,136270,1,0,0:0:0:0:
329,192,136270,1,0,0:0:0:0:
256,192,136270,1,0,0:0:0:0:
109,192,136270,1,0,0:0:0:0:
402,192,136446,1,0,0:0:0:0:
36,192,136446,1,0,0:0:0:0:
109,192,136505,1,0,0:0:0:0:
329,192,136535,1,0,0:0:0:0:
182,192,136564,1,0,0:0:0:0:
475,192,136623,1,0,0:0:0:0:
36,192,136623,1,0,0:0:0:0:
256,192,136623,1,0,0:0:0:0:
329,192,136682,1,0,0:0:0:0:
109,192,136711,1,0,0:0:0:0:
402,192,136741,1,0,0:0:0:0:
475,192,136799,1,0,0:0:0:0:
182,192,136799,1,0,0:0:0:0:
402,192,136858,1,0,0:0:0:0:
109,192,136888,1,0,0:0:0:0:
329,192,136917,1,0,0:0:0:0:
36,192,136976,1,0,0:0:0:0:
256,192,136976,1,0,0:0:0:0:
475,192,136976,1,0,0:0:0:0:
109,192,137064,1,0,0:0:0:0:
329,192,137064,1,0,0:0:0:0:
182,192,137152,1,0,0:0:0:0:
402,192,137152,1,0,0:0:0:0:
256,192,137241,1,0,0:0:0:0:
36,192,137241,1,0,0:0:0:0:
109,192,137329,1,0,0:0:0:0:
329,192,137329,1,0,0:0:0:0:
182,192,137417,1,0,0:0:0:0:
402,192,137417,1,0,0:0:0:0:
256,192,137505,1,0,0:0:0:0:
475,192,137505,1,0,0:0:0:0:
329,192,137594,1,0,0:0:0:0:
109,192,137594,1,0,0:0:0:0:
36,192,137682,1,0,0:0:0:0:
182,192,137682,1,0,0:0:0:0:
256,192,137682,1,0,0:0:0:0:
402,192,137682,1,0,0:0:0:0:
475,192,137682,1,0,0:0:0:0:
256,192,137858,1,0,0:0:0:0:
329,192,137858,1,0,0:0:0:0:
475,192,137858,1,0,0:0:0:0:
109,192,137858,1,0,0:0:0:0:
36,192,137858,1,0,0:0:0:0:
182,192,138035,1,0,0:0:0:0:
256,192,138035,1,0,0:0:0:0:
36,192,138035,1,0,0:0:0:0:
402,192,138035,1,0,0:0:0:0:
475,192,138035,1,0,0:0:0:0:
36,192,138388,1,0,0:0:0:0:
475,192,138388,1,0,0:0:0:0:
182,192,138564,1,0,0:0:0:0:
329,192,138564,1,0,0:0:0:0:
36,192,138741,1,0,0:0:0:0:
475,192,138741,1,0,0:0:0:0:
109,192,139094,1,0,0:0:0:0:
402,192,139094,1,0,0:0:0:0:
329,192,139270,1,0,0:0:0:0:
182,192,139270,1,0,0:0:0:0:
109,192,139446,1,0,0:0:0:0:
402,192,139446,1,0,0:0:0:0:
36,192,139799,1,0,0:0:0:0:
109,192,139799,1,0,0:0:0:0:
402,192,139799,1,0,0:0:0:0:
475,192,139799,1,0,0:0:0:0:
256,192,139799,1,0,0:0:0:0:
109,192,140152,1,0,0:0:0:0:
182,192,140152,1,0,0:0:0:0:
256,192,140152,1,0,0:0:0:0:
329,192,140152,1,0,0:0:0:0:
402,192,140152,1,0,0:0:0:0:
36,192,140505,1,0,0:0:0:0:
109,192,140505,1,0,0:0:0:0:
402,192,140505,1,0,0:0:0:0:
475,192,140505,1,0,0:0:0:0:
256,192,140505,1,0,0:0:0:0:
256,192,140858,128,0,145446:0:0:0:0:
