osu file format v14

[General]
AudioFilename: audio.mp3
AudioLeadIn: 0
PreviewTime: 314675
Countdown: 1
SampleSet: Soft
StackLeniency: 0.3
Mode: 0
LetterboxInBreaks: 0
WidescreenStoryboard: 0

[Editor]
Bookmarks: 1520,17520,33734,54910,67616,78910,101498,112792,135381,146675,169263,180557,203145,214439,225733,248322,259616,270910,293498,304792,317498,340086,361969,365145,369733
DistanceSpacing: 0.3
BeatDivisor: 6
GridSize: 32
TimelineZoom: 2.7

[Metadata]
Title:Parodia Sonatina -Grande-
TitleUnicode:Parodia Sonatina -Grande-
Artist:Ice
ArtistUnicode:Ice
Creator:celerih
Version:Finale
Source:Deemo
Tags:M3-Spring 2017 n.m.s.t the forgotten hourglass samsara collection electronic classical electronica piano violin Ne/nuit C89 rayark lazyboy007 Shota Paradise NekoMimi-ShoTa
BeatmapID:1580160
BeatmapSetID:750363

[Difficulty]
HPDrainRate:5
CircleSize:4.5
OverallDifficulty:8.9
ApproachRate:9.4
SliderMultiplier:2
SliderTickRate:1

[Events]
//Background and Video events
0,0,"Parodia Sonatina BG.jpg",0,0
//Break Periods
2,293698,295782
//Storyboard Layer 0 (Background)
//Storyboard Layer 1 (Fail)
//Storyboard Layer 2 (Pass)
//Storyboard Layer 3 (Foreground)
//Storyboard Sound Samples

[TimingPoints]
1520,500,4,2,1,30,1,0
17520,-76.9230769230769,4,2,1,30,0,0
33020,714.285714285714,4,2,1,50,1,0
33734,352.941176470588,4,2,1,45,1,0
56322,-133.333333333333,4,3,1,60,0,0
58439,-100,4,3,1,50,0,0
61969,-83.3333333333333,4,2,1,50,0,0
67616,-83.3333333333333,4,3,1,70,0,0
78910,-83.3333333333333,4,2,2,60,0,0
90204,-83.3333333333333,4,2,2,60,0,0
101498,-142.857142857143,4,2,1,60,0,0
105733,-100,4,2,2,60,0,0
106439,-76.9230769230769,4,2,1,60,0,0
112792,-83.3333333333333,4,2,2,80,0,1
123381,-83.3333333333333,4,2,1,80,0,1
124086,-83.3333333333333,4,2,2,80,0,1
134675,-83.3333333333333,4,2,1,80,0,1
135381,-83.3333333333333,4,3,1,75,0,0
146675,-100,4,2,2,60,0,0
147425,-100,4,2,2,20,0,0
147557,-100,4,2,2,60,0,0
147601,-100,4,2,2,20,0,0
147733,-100,4,2,2,60,0,0
147778,-100,4,2,2,20,0,0
147910,-100,4,2,2,60,0,0
147954,-100,4,2,2,20,0,0
148086,-100,4,2,2,60,0,0
148836,-100,4,2,2,20,0,0
148969,-100,4,2,2,60,0,0
149013,-100,4,2,2,20,0,0
149145,-100,4,2,2,60,0,0
149189,-100,4,2,2,20,0,0
149322,-100,4,2,2,60,0,0
149366,-100,4,2,2,20,0,0
149498,-100,4,2,2,60,0,0
150954,-100,4,2,2,20,0,0
151086,-100,4,2,2,60,0,0
151131,-100,4,2,2,20,0,0
151263,-100,4,2,2,60,0,0
151307,-100,4,2,2,20,0,0
151439,-100,4,2,2,60,0,0
151483,-100,4,2,2,20,0,0
151616,-100,4,2,2,60,0,0
169263,-100,4,3,1,75,0,0
179145,-100,4,2,1,60,0,0
180557,-83.3333333333333,4,2,2,80,0,1
191145,-83.3333333333333,4,2,1,80,0,1
191851,-83.3333333333333,4,2,2,80,0,1
202439,-83.3333333333333,4,2,1,80,0,1
203145,-83.3333333333333,4,3,1,75,0,0
214439,-166.666666666667,4,2,1,75,0,0
214528,-166.666666666667,4,2,1,30,0,0
225733,-100,4,2,1,45,0,0
248322,-133.333333333333,4,3,1,65,0,0
249733,-100,4,3,1,60,0,0
259616,-83.3333333333333,4,3,1,75,0,0
270910,-100,4,2,2,60,0,0
271660,-100,4,2,2,20,0,0
271792,-100,4,2,2,60,0,0
271836,-100,4,2,2,20,0,0
271969,-100,4,2,2,60,0,0
272013,-100,4,2,2,20,0,0
272145,-100,4,2,2,60,0,0
272189,-100,4,2,2,20,0,0
272322,-100,4,2,2,60,0,0
273072,-100,4,2,2,20,0,0
273204,-100,4,2,2,60,0,0
273248,-100,4,2,2,20,0,0
273381,-100,4,2,2,60,0,0
273425,-100,4,2,2,20,0,0
273557,-100,4,2,2,60,0,0
273601,-100,4,2,2,20,0,0
273733,-100,4,2,2,60,0,0
275189,-100,4,2,2,20,0,0
275322,-100,4,2,2,60,0,0
275366,-100,4,2,2,20,0,0
275498,-100,4,2,2,60,0,0
275542,-100,4,2,2,20,0,0
275675,-100,4,2,2,60,0,0
275719,-100,4,2,2,20,0,0
275851,-100,4,2,2,60,0,0
278719,-100,4,2,2,20,0,0
278851,-100,4,2,2,60,0,0
278895,-100,4,2,2,20,0,0
279028,-100,4,2,2,60,0,0
279072,-100,4,2,2,20,0,0
279204,-100,4,2,2,60,0,0
279248,-100,4,2,2,20,0,0
279381,-100,4,2,2,60,0,0
293498,-142.857142857143,4,2,1,70,0,0
296322,-142.857142857143,4,2,1,30,0,0
299145,-111.111111111111,4,2,1,50,0,0
304792,-100,4,3,1,75,0,0
314675,-100,4,2,1,80,0,0
317498,-83.3333333333333,4,2,2,80,0,1
328086,-83.3333333333333,4,2,1,80,0,1
328792,-83.3333333333333,4,2,2,80,0,1
339381,-83.3333333333333,4,2,1,80,0,1
339822,-83.3333333333333,4,2,1,65,0,0
340086,-76.9230769230769,4,2,2,80,0,1
350675,-76.9230769230769,4,2,1,80,0,1
351381,-76.9230769230769,4,2,2,80,0,1
361969,-100,4,2,1,60,0,0
362675,-100,4,2,1,50,0,0
363381,-100,4,2,1,40,0,0
364086,-76.9230769230769,4,2,1,95,0,1
365145,-100,4,2,1,60,0,0
369733,-100,4,2,1,5,0,0

[Colours]
Combo1 : 137,14,14
Combo2 : 169,90,132
Combo3 : 71,92,180
Combo4 : 233,169,169
Combo5 : 69,40,96
Combo6 : 219,21,21

[HitObjects]
193,238,1520,5,2,0:3:0:0:
287,272,1770,2,0,P|335:278|386:265,1,100
214,336,2270,1,0,0:0:0:0:
214,336,2395,1,0,0:0:0:0:
214,336,2520,1,2,0:0:0:0:
262,204,2770,2,0,P|268:156|254:100,1,100
44,215,3270,1,0,0:0:0:0:
44,215,3395,1,0,0:0:0:0:
36,243,3520,5,2,0:0:0:0:
74,219,3645,1,0,0:0:0:0:
118,215,3770,1,0,0:0:0:0:
159,233,3895,1,0,0:0:0:0:
194,260,4020,1,0,0:0:0:0:
236,275,4145,1,0,0:0:0:0:
280,273,4270,1,0,0:0:0:0:
317,247,4395,1,0,0:0:0:0:
332,204,4520,1,2,0:0:0:0:
221,37,4770,6,0,P|211:86|224:142,1,100
330,268,5270,1,0,0:0:0:0:
330,268,5395,1,0,0:0:0:0:
330,268,5520,1,2,0:0:0:0:
128,216,5770,1,0,0:0:0:0:
135,226,6020,5,0,0:0:0:0:
172,240,6145,1,0,0:0:0:0:
212,238,6270,1,0,0:0:0:0:
249,221,6395,1,0,0:0:0:0:
277,186,6520,1,2,0:0:0:0:
281,173,6770,1,0,0:0:0:0:
286,161,7020,37,0,0:0:0:0:
292,187,7145,1,0,0:0:0:0:
275,208,7270,1,0,0:0:0:0:
286,232,7395,1,0,0:0:0:0:
306,271,7520,5,2,0:0:0:0:
358,260,7645,1,0,0:0:0:0:
385,218,7770,1,0,0:0:0:0:
383,173,7895,1,0,0:0:0:0:
358,141,8020,1,0,0:0:0:0:
323,129,8145,1,0,0:0:0:0:
291,133,8270,1,0,0:0:0:0:
269,149,8395,1,0,0:0:0:0:
257,168,8520,6,0,B|275:140|269:103|269:103|251:102|234:106,1,100,2|0,0:0|0:0,0:0:0:0:
172,131,8895,1,0,0:0:0:0:
172,131,9020,1,0,0:0:0:0:
123,346,9520,5,2,0:0:0:0:
101,329,9645,1,0,0:0:0:0:
89,304,9770,1,0,0:0:0:0:
91,277,9895,1,0,0:0:0:0:
105,253,10020,1,0,0:0:0:0:
121,210,10145,1,0,0:0:0:0:
110,166,10270,1,0,0:0:0:0:
68,149,10395,1,0,0:0:0:0:
24,159,10520,37,2,0:0:0:0:
48,169,10645,1,0,0:0:0:0:
75,174,10770,1,0,0:0:0:0:
102,173,10895,1,0,0:0:0:0:
128,166,11020,1,0,0:0:0:0:
166,143,11145,1,0,0:0:0:0:
209,130,11270,1,0,0:0:0:0:
253,139,11395,1,0,0:0:0:0:
290,163,11520,6,0,P|293:104|363:132,1,150,2|0,0:0|0:0,0:0:0:0:
288,82,12020,1,0,0:0:0:0:
243,78,12145,1,0,0:0:0:0:
198,73,12270,1,0,0:0:0:0:
153,68,12395,1,0,0:0:0:0:
108,64,12520,5,2,0:0:0:0:
366,124,12770,1,0,0:0:0:0:
375,131,13020,1,0,0:0:0:0:
399,161,13145,1,0,0:0:0:0:
407,200,13270,1,0,0:0:0:0:
397,239,13395,1,0,0:0:0:0:
369,269,13520,1,2,0:0:0:0:
362,280,13770,1,0,0:0:0:0:
362,280,13895,1,0,0:0:0:0:
371,304,14020,5,0,0:0:0:0:
329,286,14145,1,0,0:0:0:0:
285,283,14270,1,0,0:0:0:0:
242,296,14395,1,0,0:0:0:0:
212,330,14520,38,0,P|201:265|138:292,1,150,2|0,0:0|0:0,0:0:0:0:
234,269,15020,1,0,0:0:0:0:
258,230,15145,1,0,0:0:0:0:
265,186,15270,1,0,0:0:0:0:
255,143,15395,1,0,0:0:0:0:
219,115,15520,5,2,0:0:0:0:
243,126,15645,1,0,0:0:0:0:
270,131,15770,1,0,0:0:0:0:
297,128,15895,1,0,0:0:0:0:
322,118,16020,1,2,0:0:0:0:
362,99,16145,1,0,0:0:0:0:
406,93,16270,1,0,0:0:0:0:
451,100,16395,1,0,0:0:0:0:
489,124,16520,5,2,0:0:0:0:
330,338,16770,1,0,0:0:0:0:
352,79,17020,1,2,0:0:0:0:
496,241,17270,1,0,0:0:0:0:
246,152,17520,6,0,B|194:156|152:149|152:149|192:175,1,129.999994049073,2|0,0:0|0:0,0:0:0:0:
140,139,17895,1,0,0:0:0:0:
128,111,18020,1,0,0:0:0:0:
132,82,18145,1,0,0:0:0:0:
151,60,18270,1,0,0:0:0:0:
151,60,18395,1,0,0:0:0:0:
176,74,18520,37,2,0:0:0:0:
207,58,18645,1,0,0:0:0:0:
241,52,18770,1,0,0:0:0:0:
275,59,18895,1,0,0:0:0:0:
306,76,19020,1,0,0:0:0:0:
329,102,19145,1,0,0:0:0:0:
345,139,19270,1,0,0:0:0:0:
345,139,19395,1,0,0:0:0:0:
366,110,19520,5,2,0:0:0:0:
325,132,19645,1,0,0:0:0:0:
280,144,19770,1,0,0:0:0:0:
234,137,19895,1,0,0:0:0:0:
192,117,20020,1,0,0:0:0:0:
149,100,20145,1,0,0:0:0:0:
102,96,20270,1,0,0:0:0:0:
57,106,20395,1,0,0:0:0:0:
30,144,20520,6,0,B|75:159|117:151|117:151|88:140|66:147,1,129.999994049073,2|0,0:0|0:0,0:0:0:0:
56,181,20895,1,0,0:0:0:0:
45,208,21020,1,0,0:0:0:0:
45,237,21145,1,0,0:0:0:0:
53,265,21270,1,0,0:0:0:0:
53,265,21395,1,0,0:0:0:0:
91,251,21520,6,0,B|131:242|175:252|175:252|146:263|127:256,1,129.999994049073,2|0,0:0|0:0,0:0:0:0:
94,241,22020,1,0,0:0:0:0:
100,201,22145,1,0,0:0:0:0:
131,175,22270,1,0,0:0:0:0:
171,176,22395,1,0,0:0:0:0:
202,202,22520,38,0,B|208:164|223:123|223:123|207:147|189:161,1,129.999994049073,2|0,0:0|0:0,0:0:0:0:
208,214,23020,1,0,0:0:0:0:
238,240,23145,1,0,0:0:0:0:
278,240,23270,1,0,0:0:0:0:
309,215,23395,1,0,0:0:0:0:
316,175,23520,5,2,0:0:0:0:
274,153,23645,1,0,0:0:0:0:
227,155,23770,1,0,0:0:0:0:
191,185,23895,1,0,0:0:0:0:
147,202,24020,1,0,0:0:0:0:
101,192,24145,1,0,0:0:0:0:
60,168,24270,1,0,0:0:0:0:
60,168,24395,6,0,B|60:114|43:43|43:43|61:87|89:117,1,194.999991073609,2|0,0:0|0:0,0:0:0:0:
147,131,24895,1,0,0:0:0:0:
147,131,25020,1,0,0:0:0:0:
234,296,25520,5,2,0:0:0:0:
245,269,25645,1,0,0:0:0:0:
249,240,25770,1,0,0:0:0:0:
247,211,25895,1,0,0:0:0:0:
237,183,26020,1,0,0:0:0:0:
227,155,26145,1,0,0:0:0:0:
224,126,26270,1,0,0:0:0:0:
228,97,26395,1,0,0:0:0:0:
240,70,26520,53,2,0:0:0:0:
264,102,26645,1,0,0:0:0:0:
302,116,26770,1,0,0:0:0:0:
342,119,26895,1,0,0:0:0:0:
379,103,27020,1,0,0:0:0:0:
418,90,27145,1,0,0:0:0:0:
458,96,27270,1,0,0:0:0:0:
487,124,27395,1,0,0:0:0:0:
499,163,27520,6,0,P|445:213|434:125,1,194.999991073609,2|0,0:0|0:0,0:0:0:0:
453,237,28020,1,0,0:0:0:0:
422,252,28145,1,0,0:0:0:0:
388,257,28270,1,0,0:0:0:0:
353,253,28395,1,0,0:0:0:0:
321,239,28520,5,2,0:0:0:0:
314,231,29020,1,0,0:0:0:0:
336,194,29145,1,0,0:0:0:0:
344,155,29270,1,0,0:0:0:0:
339,114,29395,1,0,0:0:0:0:
323,77,29520,37,2,0:0:0:0:
318,68,29770,1,0,0:0:0:0:
277,72,29895,1,0,0:0:0:0:
236,76,30020,1,0,0:0:0:0:
195,80,30145,1,0,0:0:0:0:
155,85,30270,1,0,0:0:0:0:
114,89,30395,1,0,0:0:0:0:
73,93,30520,37,2,0:0:0:0:
60,99,30770,1,0,0:0:0:0:
85,137,30895,1,0,0:0:0:0:
129,148,31020,1,0,0:0:0:0:
170,129,31145,1,0,0:0:0:0:
187,87,31270,1,0,0:0:0:0:
173,45,31395,1,0,0:0:0:0:
130,25,31520,37,2,0:0:0:0:
159,75,31645,1,0,0:0:0:0:
208,105,31770,1,0,0:0:0:0:
266,109,31895,1,0,0:0:0:0:
319,85,32020,5,2,0:0:0:0:
275,123,32145,1,0,0:0:0:0:
255,178,32270,1,0,0:0:0:0:
264,235,32395,1,0,0:0:0:0:
299,282,32520,5,2,0:0:0:0:
431,73,32770,1,0,0:0:0:0:
106,157,33020,1,6,0:3:0:0:
99,151,33734,54,0,P|152:141|199:156,1,100
352,231,34086,1,8,0:0:0:0:
462,203,34263,1,2,0:0:0:0:
294,99,34439,1,0,0:0:0:0:
294,99,34528,1,0,0:0:0:0:
294,99,34616,1,2,0:0:0:0:
269,280,34792,1,8,0:0:0:0:
393,139,34969,2,0,L|387:84,1,50,2|0,0:0|0:0,0:0:0:0:
473,216,35145,5,0,0:0:0:0:
450,219,35234,1,0,0:0:0:0:
427,221,35322,1,8,0:0:0:0:
238,166,35498,2,0,L|185:165,2,50,2|0|0,0:0|0:0|0:0,0:0:0:0:
321,316,35851,2,0,L|317:359,4,25,8|8|8|8|0,0:0|0:0|0:0|0:0|0:0,0:0:0:0:
377,157,36204,2,0,P|379:184|371:218,1,50,8|2,0:0|0:0,0:0:0:0:
315,88,36381,2,0,P|313:61|321:27,1,50,2|2,0:0|0:0,0:0:0:0:
472,142,36557,6,0,P|427:153|371:141,1,100
178,28,36910,1,8,0:0:0:0:
76,64,37086,1,2,0:0:0:0:
221,207,37263,1,0,0:0:0:0:
221,207,37351,1,0,0:0:0:0:
221,207,37439,1,2,0:0:0:0:
194,28,37616,1,8,0:0:0:0:
91,145,37792,2,0,P|60:146|37:140,1,50,2|0,0:0|0:0,0:0:0:0:
211,112,37969,5,0,0:0:0:0:
233,115,38057,1,0,0:0:0:0:
255,117,38145,1,8,0:0:0:0:
368,31,38322,2,0,L|358:99,2,50,2|0|0,0:0|0:0|0:0,0:0:0:0:
279,202,38675,2,0,L|281:247,4,25,8|8|8|8|0,0:0|0:0|0:0|0:0|0:0,0:0:0:0:
383,315,39028,2,0,P|358:318|326:312,1,50,8|2,0:0|0:0,0:0:0:0:
456,264,39204,2,0,P|481:261|513:267,1,50,8|2,0:0|0:0,0:0:0:0:
362,206,39381,38,0,P|351:160|355:104,1,100
469,253,39733,1,8,0:0:0:0:
447,362,39910,1,2,0:0:0:0:
280,231,40086,1,0,0:0:0:0:
280,231,40175,1,0,0:0:0:0:
280,231,40263,1,2,0:0:0:0:
428,155,40439,1,8,0:0:0:0:
360,328,40616,2,0,L|354:274,1,50,2|0,0:0|0:0,0:0:0:0:
343,127,40792,5,0,0:0:0:0:
341,104,40881,1,0,0:0:0:0:
338,81,40969,1,8,0:0:0:0:
438,164,41145,2,0,L|432:223,2,50,2|0|0,0:0|0:0|0:0,0:0:0:0:
328,299,41498,2,0,L|331:340,4,25,8|8|8|8|0,0:0|0:0|0:0|0:0|0:0,0:0:0:0:
228,168,41851,2,0,P|202:163|169:165,1,50,8|2,0:0|0:0,0:0:0:0:
51,227,42028,2,0,P|77:232|110:230,1,50,2|2,0:0|0:0,0:0:0:0:
187,326,42204,6,0,P|197:288|192:224,1,100
114,72,42557,1,8,0:0:0:0:
10,54,42733,1,2,0:0:0:0:
109,221,42910,1,0,0:0:0:0:
109,221,42998,1,0,0:0:0:0:
109,221,43086,1,2,0:0:0:0:
130,67,43263,1,8,0:0:0:0:
241,160,43439,2,0,L|234:216,1,50,2|0,0:0|0:0,0:0:0:0:
177,347,43616,5,0,0:0:0:0:
199,345,43704,1,0,0:0:0:0:
221,342,43792,1,8,0:0:0:0:
394,312,43969,2,0,L|447:318,2,50,2|0|0,0:0|0:0|0:0,0:0:0:0:
242,256,44322,2,0,L|197:257,4,25,8|8|8|8|0,0:0|0:0|0:0|0:0|0:0,0:0:0:0:
443,191,44675,2,0,L|449:132,1,50,8|2,0:0|0:0,0:0:0:0:
379,260,44851,2,0,L|385:318,1,50,8|2,0:0|0:0,0:0:0:0:
332,164,45028,38,0,L|231:174,1,100,4|0,0:3|0:0,0:0:0:0:
98,256,45380,1,8,0:0:0:0:
0,230,45557,1,2,0:0:0:0:
155,130,45733,1,0,0:0:0:0:
155,130,45822,1,0,0:0:0:0:
155,130,45910,1,2,0:0:0:0:
174,289,46086,1,8,0:0:0:0:
54,151,46263,2,0,L|62:82,1,50,2|0,0:0|0:0,0:0:0:0:
187,31,46439,5,0,0:0:0:0:
209,34,46528,1,0,0:0:0:0:
231,37,46616,1,8,0:0:0:0:
381,94,46792,2,0,L|444:88,2,50,2|0|0,0:0|0:0|0:0,0:0:0:0:
213,125,47145,2,0,L|173:120,4,25,8|8|8|8|0,0:0|0:0|0:0|0:0|0:0,0:0:0:0:
384,210,47498,2,0,P|388:182|385:153,1,50,8|2,0:0|0:0,0:0:0:0:
316,282,47675,2,0,P|312:310|315:339,1,50,8|2,0:0|0:0,0:0:0:0:
482,281,47851,6,0,P|439:271|386:283,1,100
223,361,48204,1,8,0:0:0:0:
115,348,48380,1,2,0:0:0:0:
283,177,48557,1,0,0:0:0:0:
283,177,48645,1,0,0:0:0:0:
283,177,48733,1,2,0:0:0:0:
303,303,48910,1,8,0:0:0:0:
159,218,49086,2,0,L|218:223,1,50,2|0,0:0|0:0,0:0:0:0:
363,238,49263,5,0,0:0:0:0:
385,237,49351,1,0,0:0:0:0:
407,235,49439,1,8,0:0:0:0:
289,158,49616,2,0,L|233:162,2,50,2|0|0,0:0|0:0|0:0,0:0:0:0:
431,128,49969,2,0,L|474:131,4,25,8|8|8|8|0,0:0|0:0|0:0|0:0|0:0,0:0:0:0:
456,339,50322,2,0,L|516:345,1,50,8|2,0:0|0:0,0:0:0:0:
338,302,50498,2,0,L|277:308,1,50,8|2,0:0|0:0,0:0:0:0:
458,246,50675,38,0,P|469:195|445:124,1,100
279,73,51028,1,8,0:0:0:0:
174,102,51204,1,2,0:0:0:0:
322,198,51381,1,0,0:0:0:0:
322,198,51469,1,0,0:0:0:0:
322,198,51557,1,2,0:0:0:0:
340,33,51734,1,8,0:0:0:0:
188,99,51910,2,0,L|192:150,1,50,2|0,0:0|0:0,0:0:0:0:
242,295,52087,5,0,0:0:0:0:
239,318,52175,1,0,0:0:0:0:
236,340,52263,1,8,0:0:0:0:
131,257,52439,2,0,L|125:198,2,50,2|0|0,0:0|0:0|0:0,0:0:0:0:
215,146,52792,2,0,L|220:107,4,25,8|8|8|8|0,0:0|0:0|0:0|0:0|0:0,0:0:0:0:
296,289,53145,2,0,P|266:290|237:285,1,50,8|2,0:0|0:0,0:0:0:0:
371,228,53322,2,0,P|401:227|430:232,1,50,8|2,0:0|0:0,0:0:0:0:
229,163,53498,5,0,0:0:0:0:
241,129,53586,1,0,0:0:0:0:
264,101,53675,1,0,0:0:0:0:
298,91,53763,1,0,0:0:0:0:
333,95,53851,1,8,0:0:0:0:
363,113,53939,1,0,0:0:0:0:
383,143,54028,1,2,0:0:0:0:
396,176,54116,1,0,0:0:0:0:
392,211,54204,6,0,P|389:152|404:106,1,100,8|0,0:0|0:0,0:0:0:0:
453,68,54469,1,8,0:0:0:0:
453,68,54557,1,0,0:0:0:0:
412,87,54645,1,0,0:0:0:0:
367,91,54733,1,8,0:0:0:0:
324,76,54822,1,8,0:0:0:0:
287,50,54910,38,0,P|260:44|233:45,1,50,0|0,3:0|0:0,0:0:0:0:
349,107,55086,2,0,P|376:101|403:102,1,50
257,130,55263,2,0,P|231:117|205:113,1,50
341,186,55439,2,0,P|366:173|392:169,1,50
211,197,55616,2,0,P|188:179|163:170,1,50
351,266,55792,2,0,P|373:248|398:239,1,50
162,261,55969,2,0,P|144:239|121:224,1,50
373,347,56145,2,0,P|390:325|413:310,1,50
97,348,56322,6,0,B|82:310|94:273|94:273|155:205|136:136,1,225.000008583069,6|2,0:0|0:0,0:0:0:0:
67,256,56939,1,2,0:0:0:0:
67,256,57028,2,0,B|44:190|74:112|74:112|48:151|11:179,1,225.000008583069,4|2,0:0|0:0,0:0:0:0:
94,101,57645,1,2,0:0:0:0:
94,101,57733,5,4,0:0:0:0:
118,91,57822,1,0,0:0:0:0:
144,85,57910,1,0,0:0:0:0:
170,84,57998,1,0,0:0:0:0:
196,89,58086,1,8,0:0:0:0:
220,101,58175,1,8,0:0:0:0:
242,116,58263,1,8,0:0:0:0:
259,137,58351,1,8,0:0:0:0:
276,166,58439,6,0,B|267:131|272:93|272:93|293:53,1,100,4|0,0:0|0:0,0:0:0:0:
292,180,58704,1,0,0:0:0:0:
266,197,58792,1,8,0:0:0:0:
235,203,58880,1,8,0:0:0:0:
204,200,58968,1,8,0:0:0:0:
175,188,59056,1,8,0:0:0:0:
150,167,59145,38,0,B|114:174|74:166|74:166|105:189,1,100,4|0,0:0|2:0,0:0:0:0:
315,337,59498,1,8,0:0:0:0:
292,303,59586,1,8,0:0:0:0:
284,263,59674,1,8,0:0:0:0:
291,222,59763,1,8,0:0:0:0:
314,184,59851,6,0,P|324:142|313:87,1,100,4|0,0:0|2:0,0:0:0:0:
136,301,60204,1,8,0:0:0:0:
157,317,60292,1,8,0:0:0:0:
183,324,60380,1,8,0:0:0:0:
209,322,60468,1,8,0:0:0:0:
248,299,60557,5,4,0:0:0:0:
233,256,60645,1,0,2:0:0:0:
244,212,60733,1,0,2:0:0:0:
282,188,60821,1,0,2:0:0:0:
326,194,60909,1,4,0:0:0:0:
282,209,60998,1,0,2:0:0:0:
239,193,61086,1,0,2:0:0:0:
223,150,61175,1,0,2:0:0:0:
219,105,61263,6,0,B|282:94|282:94|317:105,1,100,4|0,0:0|0:0,0:0:0:0:
283,116,61528,1,0,0:0:0:0:
227,88,61616,1,2,0:0:0:0:
209,86,61704,1,2,0:0:0:0:
191,84,61792,1,2,0:0:0:0:
172,82,61881,1,2,0:0:0:0:
127,97,61969,37,4,3:0:0:0:
123,138,62057,1,0,0:0:0:0:
141,178,62145,1,0,0:0:0:0:
174,204,62233,1,0,0:0:0:0:
218,208,62321,1,0,0:0:0:0:
259,190,62410,1,0,0:0:0:0:
282,154,62498,1,2,3:0:0:0:
282,154,62586,1,2,3:0:0:0:
327,184,62675,5,4,3:0:0:0:
285,173,62763,1,0,0:0:0:0:
242,178,62851,1,0,0:0:0:0:
203,198,62939,1,0,0:0:0:0:
162,213,63027,1,0,0:0:0:0:
118,207,63116,1,0,0:0:0:0:
90,173,63204,1,2,3:0:0:0:
90,173,63292,1,2,3:0:0:0:
142,187,63381,6,0,B|150:230|135:273|135:273|105:287,1,119.999996337891,4|0,3:0|3:0,0:0:0:0:
164,238,63645,1,0,3:0:0:0:
205,225,63733,1,8,3:0:0:0:
248,229,63822,1,8,3:0:0:0:
284,250,63909,1,8,3:0:0:0:
305,288,63998,1,8,3:0:0:0:
310,341,64086,6,0,B|287:298|287:298|311:164,1,179.999994506836,4|0,3:0|3:0,0:0:0:0:
265,291,64439,1,8,3:0:0:0:
224,305,64527,1,8,3:0:0:0:
181,298,64615,1,8,3:0:0:0:
148,270,64704,1,8,3:0:0:0:
133,230,64792,37,4,3:0:0:0:
307,155,64969,1,0,3:0:0:0:
267,169,65057,1,0,3:0:0:0:
224,173,65145,1,8,3:0:0:0:
182,161,65233,1,8,3:0:0:0:
142,145,65321,1,8,3:0:0:0:
100,140,65410,1,8,3:0:0:0:
57,148,65498,5,4,3:0:0:0:
238,349,65675,1,0,3:0:0:0:
290,349,65763,1,0,3:0:0:0:
333,318,65851,1,8,3:0:0:0:
349,267,65939,1,8,3:0:0:0:
330,217,66027,1,8,3:0:0:0:
285,188,66116,1,8,3:0:0:0:
240,195,66204,5,4,3:0:0:0:
240,195,66292,1,0,0:0:0:0:
240,195,66381,2,0,L|248:264,1,59.9999981689454,0|0,0:0|0:0,0:0:0:0:
332,69,66557,1,4,3:0:0:0:
332,69,66645,1,0,0:0:0:0:
332,69,66734,2,0,L|324:138,1,59.9999981689454,0|0,0:0|0:0,0:0:0:0:
221,8,66910,5,2,3:0:0:0:
280,283,67086,1,2,3:0:0:0:
491,56,67263,1,2,3:0:0:0:
194,192,67616,37,6,0:0:0:0:
185,192,67969,1,2,0:0:0:0:
176,194,68322,1,2,0:0:0:0:
165,196,68675,1,2,0:0:0:0:
426,217,68851,5,2,0:0:0:0:
437,219,69204,1,2,0:0:0:0:
447,222,69557,1,2,0:0:0:0:
170,108,69733,1,2,0:0:0:0:
156,131,69821,1,0,2:0:0:0:
153,157,69909,1,0,2:0:0:0:
160,183,69997,1,0,2:0:0:0:
178,203,70085,1,0,2:0:0:0:
202,215,70174,1,0,2:0:0:0:
228,216,70262,1,0,2:0:0:0:
253,207,70350,1,0,2:0:0:0:
282,174,70438,5,6,0:0:0:0:
285,163,70792,1,2,0:0:0:0:
287,153,71145,1,2,0:0:0:0:
290,144,71498,1,2,0:0:0:0:
122,322,71675,5,2,0:0:0:0:
123,332,72028,1,2,0:0:0:0:
124,342,72381,1,2,0:0:0:0:
230,147,72557,1,2,0:0:0:0:
206,133,72645,1,0,2:0:0:0:
180,126,72733,1,0,2:0:0:0:
153,124,72821,1,0,2:0:0:0:
127,129,72909,1,0,2:0:0:0:
102,139,72998,1,0,2:0:0:0:
80,155,73086,1,0,2:0:0:0:
63,176,73174,1,0,2:0:0:0:
48,216,73263,37,6,0:0:0:0:
46,226,73616,1,2,0:0:0:0:
45,236,73969,1,2,0:0:0:0:
43,247,74322,1,2,0:0:0:0:
252,88,74498,5,2,0:0:0:0:
254,77,74851,1,2,0:0:0:0:
256,67,75204,1,2,0:0:0:0:
195,320,75381,1,2,0:0:0:0:
192,292,75469,1,0,2:0:0:0:
189,265,75557,1,0,2:0:0:0:
187,239,75645,1,0,2:0:0:0:
184,212,75733,1,0,2:0:0:0:
181,184,75822,1,0,2:0:0:0:
178,158,75910,1,0,2:0:0:0:
175,131,75998,1,0,2:0:0:0:
172,87,76086,5,6,0:0:0:0:
175,77,76439,1,2,0:0:0:0:
179,67,76792,1,2,0:0:0:0:
183,57,77145,1,2,0:0:0:0:
411,246,77322,5,2,0:0:0:0:
412,256,77675,1,2,0:0:0:0:
414,266,78028,1,2,0:0:0:0:
196,249,78204,5,2,0:0:0:0:
189,246,78262,1,0,2:0:0:0:
181,244,78321,1,0,2:0:0:0:
173,244,78381,2,0,L|167:296,2,39.9999987792969,0|0|0,2:0|2:0|2:0,2:0:0:0:
108,329,78557,5,0,2:0:0:0:
101,332,78615,1,0,2:0:0:0:
93,334,78674,1,0,2:0:0:0:
85,334,78734,2,0,L|79:284,2,39.9999987792969,0|0|0,2:0|2:0|2:0,2:0:0:0:
54,217,78910,6,0,B|42:191|42:191|56:95,1,119.999996337891,4|0,3:0|3:0,3:0:0:0:
133,300,79263,1,8,3:0:0:0:
284,93,79439,1,0,0:0:0:0:
284,93,79528,1,0,0:0:0:0:
284,93,79616,2,0,P|228:101|167:87,1,119.999996337891,0|0,3:0|0:0,0:0:0:0:
380,24,79969,1,8,3:0:0:0:
357,226,80145,1,0,0:0:0:0:
154,75,80322,6,0,B|101:64|42:78|42:78|78:55|93:22,1,179.999994506836,0|0,3:0|0:0,0:0:0:0:
38,98,80675,1,8,3:0:0:0:
229,32,80851,1,0,0:0:0:0:
131,255,81028,1,0,3:0:0:0:
109,30,81204,1,0,0:0:0:0:
109,30,81292,1,0,0:0:0:0:
109,30,81381,1,8,3:0:0:0:
353,178,81557,1,0,0:0:0:0:
353,178,81645,1,0,0:0:0:0:
353,178,81733,6,0,B|315:200|277:199|239:175|239:175|231:143|245:111,1,179.999994506836,0|0,3:0|0:0,0:0:0:0:
231,193,82086,1,8,3:0:0:0:
309,30,82263,1,0,0:0:0:0:
438,265,82439,2,0,B|457:232|457:232|446:142,1,119.999996337891,0|0,3:0|0:0,0:0:0:0:
205,77,82792,1,8,3:0:0:0:
305,280,82969,1,0,0:0:0:0:
305,280,83057,1,0,0:0:0:0:
305,280,83145,6,0,P|254:257|188:262,1,119.999996337891,0|0,3:0|0:0,0:0:0:0:
54,373,83498,1,8,3:0:0:0:
170,136,83675,1,0,0:0:0:0:
26,256,83851,2,0,P|12:210|16:135,1,119.999996337891,0|0,3:0|0:0,0:0:0:0:
248,239,84204,1,8,3:0:0:0:
194,240,84292,1,0,0:0:0:0:
148,211,84380,1,0,3:0:0:0:
124,162,84468,1,0,0:0:0:0:
140,110,84557,38,0,B|153:58|139:4|139:4|169:34|163:76,1,179.999994506836,4|0,3:0|0:0,0:0:0:0:
113,3,84910,1,8,3:0:0:0:
85,49,84998,1,0,0:0:0:0:
90,102,85086,1,0,0:0:0:0:
123,143,85174,1,0,0:0:0:0:
174,158,85262,1,0,3:0:0:0:
174,158,85351,2,0,B|192:81|192:81|174:37,1,119.999996337891
220,86,85616,2,0,P|274:71|348:95,1,119.999996337891,8|0,3:0|0:0,0:0:0:0:
163,297,85969,6,0,B|74:269|74:327|-16:292,1,179.999994506836,0|0,3:0|0:0,0:0:0:0:
117,261,86322,1,8,3:0:0:0:
139,218,86410,1,0,0:0:0:0:
129,172,86498,1,0,0:0:0:0:
92,142,86586,1,0,0:0:0:0:
44,143,86674,1,0,3:0:0:0:
44,143,86763,2,0,B|-29:155|-29:155|23:123,1,119.999996337891
0,174,87028,2,0,P|62:185|129:157,1,119.999996337891,8|0,3:0|0:0,0:0:0:0:
336,277,87381,6,0,P|256:259|185:316,1,179.999994506836,0|0,3:0|0:0,0:0:0:0:
265,231,87733,1,8,3:0:0:0:
269,178,87821,1,0,0:0:0:0:
234,139,87909,1,0,0:0:0:0:
182,136,87997,1,0,0:0:0:0:
144,173,88085,1,0,3:0:0:0:
144,173,88175,2,0,B|150:250|150:250|128:207,1,119.999996337891
155,267,88439,1,8,3:0:0:0:
195,293,88527,1,0,0:0:0:0:
242,286,88615,1,0,0:0:0:0:
274,250,88703,1,0,0:0:0:0:
290,204,88792,5,0,3:0:0:0:
288,187,88881,1,0,0:0:0:0:
286,169,88969,1,0,0:0:0:0:
284,153,89057,1,0,0:0:0:0:
299,124,89145,1,8,3:0:0:0:
302,97,89233,1,0,0:0:0:0:
304,69,89322,1,0,0:0:0:0:
307,42,89410,1,0,0:0:0:0:
277,17,89498,37,0,3:0:0:0:
241,3,89586,1,0,0:0:0:0:
202,4,89675,1,0,3:0:0:0:
172,27,89763,1,0,0:0:0:0:
143,84,89851,1,8,3:0:0:0:
100,117,89939,1,0,0:0:0:0:
46,114,90027,1,0,3:0:0:0:
9,74,90115,1,0,0:0:0:0:
23,14,90204,6,0,B|40:65|40:65|18:189,1,179.999994506836,4|0,3:0|0:0,0:0:0:0:
0,199,90557,2,0,B|76:215|76:215|125:203,1,119.999996337891,8|0,3:0|0:0,0:0:0:0:
80,233,90822,1,0,0:0:0:0:
80,233,90910,1,0,3:0:0:0:
126,24,91086,1,0,0:0:0:0:
239,248,91263,1,8,3:0:0:0:
229,73,91439,1,0,0:0:0:0:
117,311,91616,6,0,B|117:244|138:205|138:205|107:231|72:234,1,179.999994506836,0|0,3:0|0:0,0:0:0:0:
157,192,91969,1,8,3:0:0:0:
236,351,92145,1,0,0:0:0:0:
390,89,92322,2,0,P|299:101|241:36,1,179.999994506836,0|0,3:0|0:0,0:0:0:0:
303,129,92675,1,8,3:0:0:0:
412,349,92851,1,0,0:0:0:0:
412,349,92939,1,0,0:0:0:0:
412,349,93028,6,0,B|427:293|427:293|411:170,1,179.999994506836,0|0,3:0|0:0,0:0:0:0:
396,163,93381,2,0,B|447:172|447:172|516:153,1,119.999996337891,8|0,3:0|0:0,0:0:0:0:
263,344,93733,1,0,3:0:0:0:
244,126,93910,1,0,0:0:0:0:
403,338,94086,1,8,3:0:0:0:
457,118,94263,1,0,0:0:0:0:
201,248,94439,38,0,B|170:238|137:246|137:246|85:274|20:253,1,179.999994506836,0|0,3:0|0:0,0:0:0:0:
137,218,94792,1,8,3:0:0:0:
273,379,94969,1,0,0:0:0:0:
368,159,95145,2,0,B|382:109|370:51|370:51|350:88|362:121,1,179.999994506836,0|0,3:0|0:0,0:0:0:0:
367,34,95498,1,8,3:0:0:0:
327,61,95586,1,0,0:0:0:0:
278,68,95675,1,0,0:0:0:0:
231,54,95763,1,0,0:0:0:0:
196,19,95851,6,0,B|196:56|184:82|184:82|204:143|184:203,1,179.999994506836,0|0,3:0|0:0,0:0:0:0:
156,80,96204,1,8,3:0:0:0:
172,81,96292,1,0,0:0:0:0:
188,83,96380,1,0,0:0:0:0:
204,85,96468,1,0,0:0:0:0:
225,67,96557,1,0,3:0:0:0:
241,66,96645,1,0,0:0:0:0:
257,64,96733,1,0,0:0:0:0:
273,62,96821,1,0,0:0:0:0:
293,79,96910,1,8,3:0:0:0:
309,80,96998,1,0,0:0:0:0:
325,82,97086,1,0,0:0:0:0:
341,84,97174,1,0,0:0:0:0:
374,65,97263,5,0,3:0:0:0:
362,89,97351,1,0,0:0:0:0:
362,115,97439,1,0,0:0:0:0:
371,140,97527,1,0,0:0:0:0:
357,169,97616,1,8,3:0:0:0:
369,193,97704,1,0,0:0:0:0:
369,219,97792,1,0,0:0:0:0:
360,244,97880,1,0,0:0:0:0:
382,267,97969,1,0,3:0:0:0:
370,291,98057,1,0,0:0:0:0:
370,317,98145,1,0,0:0:0:0:
379,342,98233,1,0,0:0:0:0:
421,351,98322,5,8,3:0:0:0:
393,325,98410,1,0,0:0:0:0:
355,318,98498,1,0,0:0:0:0:
318,327,98586,1,0,0:0:0:0:
274,359,98675,37,0,3:0:0:0:
297,322,98763,1,0,0:0:0:0:
296,277,98851,1,0,0:0:0:0:
279,237,98939,1,0,0:0:0:0:
249,204,99028,1,8,3:0:0:0:
238,162,99116,1,0,0:0:0:0:
250,120,99204,1,0,0:0:0:0:
290,104,99292,1,0,0:0:0:0:
334,133,99380,5,0,3:0:0:0:
290,130,99468,1,0,0:0:0:0:
247,126,99556,1,0,0:0:0:0:
203,120,99645,1,0,0:0:0:0:
168,94,99733,1,8,3:0:0:0:
124,97,99821,1,0,0:0:0:0:
81,101,99909,1,0,0:0:0:0:
37,107,99998,1,0,0:0:0:0:
5,146,100086,5,0,3:0:0:0:
27,188,100174,1,0,0:0:0:0:
68,213,100262,1,0,3:0:0:0:
116,216,100350,1,0,3:0:0:0:
159,194,100438,1,8,3:0:0:0:
185,154,100527,1,0,0:0:0:0:
189,106,100615,1,0,0:0:0:0:
168,63,100703,1,0,0:0:0:0:
129,35,100792,5,0,3:0:0:0:
107,90,100880,1,0,0:0:0:0:
125,146,100968,1,0,0:0:0:0:
177,172,101056,1,0,0:0:0:0:
236,167,101145,1,8,3:0:0:0:
287,136,101233,1,0,3:0:0:0:
345,125,101321,1,0,3:0:0:0:
401,143,101409,1,0,3:0:0:0:
440,186,101498,37,6,3:0:0:0:
33,136,101675,1,2,3:0:0:0:
20,144,102028,2,0,B|65:141|113:149|113:149|69:128,1,139.999995727539,0|0,3:0|0:0,0:0:0:0:
130,153,102469,1,0,0:0:0:0:
141,175,102557,1,0,0:0:0:0:
147,199,102645,1,0,0:0:0:0:
147,225,102733,1,0,0:0:0:0:
142,249,102821,1,0,0:0:0:0:
130,269,102910,5,6,3:0:0:0:
315,14,103086,1,2,3:0:0:0:
306,24,103439,2,0,B|292:78|302:117|302:117|316:91|311:72,1,139.999995727539,0|0,3:0|0:0,0:0:0:0:
293,135,103881,1,0,0:0:0:0:
317,129,103969,1,0,0:0:0:0:
342,128,104057,1,0,0:0:0:0:
367,132,104145,1,0,0:0:0:0:
390,142,104233,1,0,0:0:0:0:
411,156,104322,5,6,3:0:0:0:
62,246,104498,1,2,3:0:0:0:
51,258,104851,2,0,B|48:216|60:185|60:185|40:163|34:125,1,139.999995727539,0|0,3:0|0:0,0:0:0:0:
78,188,105292,1,0,0:0:0:0:
100,199,105380,1,0,0:0:0:0:
124,205,105468,1,0,0:0:0:0:
150,205,105556,1,0,0:0:0:0:
174,199,105644,1,0,0:0:0:0:
196,188,105733,5,6,3:0:0:0:
240,165,105822,1,0,0:0:0:0:
288,165,105909,1,0,0:0:0:0:
330,190,105997,1,0,0:0:0:0:
358,230,106086,1,8,3:0:0:0:
402,253,106175,1,0,0:0:0:0:
450,253,106262,1,0,0:0:0:0:
492,228,106350,1,0,0:0:0:0:
512,184,106439,38,0,B|510:144|519:103|519:103|505:125|483:140,1,129.999994049073,0|0,3:0|0:0,0:0:0:0:
512,82,106704,1,0,0:0:0:0:
475,98,106792,1,0,3:0:0:0:
435,103,106880,1,8,3:0:0:0:
395,94,106968,1,8,3:0:0:0:
360,72,107056,1,8,3:0:0:0:
339,36,107145,5,6,3:0:0:0:
379,341,107322,1,2,3:0:0:0:
393,354,107675,2,0,P|399:322|393:290,1,64.9999970245363,0|0,3:0|0:0,0:0:0:0:
256,170,107851,1,0,0:0:0:0:
229,201,107939,1,0,0:0:0:0:
220,240,108027,1,0,0:0:0:0:
228,280,108115,1,0,0:0:0:0:
252,312,108203,1,0,0:0:0:0:
289,330,108292,1,0,0:0:0:0:
329,331,108380,1,0,0:0:0:0:
366,314,108468,1,0,0:0:0:0:
392,283,108556,5,6,3:0:0:0:
0,202,108733,1,2,3:0:0:0:
14,187,109086,2,0,P|45:181|85:187,1,64.9999970245363
236,255,109263,1,0,0:0:0:0:
273,269,109351,1,0,0:0:0:0:
312,260,109439,1,0,0:0:0:0:
341,231,109527,1,0,0:0:0:0:
346,190,109615,1,0,0:0:0:0:
328,155,109704,1,0,0:0:0:0:
304,121,109792,1,0,0:0:0:0:
300,80,109880,1,0,0:0:0:0:
322,46,109968,5,6,3:0:0:0:
162,359,110145,1,2,3:0:0:0:
182,368,110498,2,0,P|189:337|188:296,1,64.9999970245363,0|0,3:0|0:0,0:0:0:0:
61,112,110675,1,0,0:0:0:0:
33,141,110763,1,0,0:0:0:0:
28,181,110851,1,0,0:0:0:0:
48,217,110939,1,0,0:0:0:0:
84,234,111027,1,0,0:0:0:0:
130,209,111116,1,0,0:0:0:0:
181,203,111204,1,0,0:0:0:0:
227,225,111292,1,0,0:0:0:0:
263,262,111381,37,2,3:0:0:0:
254,228,111469,1,0,0:0:0:0:
232,201,111557,1,0,0:0:0:0:
200,187,111645,1,0,0:0:0:0:
165,188,111733,1,0,0:0:0:0:
134,204,111822,1,0,0:0:0:0:
114,232,111910,1,0,0:0:0:0:
107,266,111998,1,0,0:0:0:0:
116,299,112086,5,2,0:3:0:0:
144,307,112174,1,0,0:0:0:0:
173,311,112262,1,0,0:0:0:0:
202,309,112350,1,0,0:0:0:0:
231,301,112438,1,0,0:0:0:0:
259,293,112527,1,0,0:0:0:0:
288,290,112615,1,0,0:0:0:0:
317,292,112703,1,0,0:0:0:0:
359,303,112792,6,0,B|363:255|341:203|341:203|379:218|419:213,1,179.999994506836,4|0,3:0|0:0,0:0:0:0:
322,190,113145,1,8,3:0:0:0:
193,369,113322,1,0,0:0:0:0:
193,369,113410,1,0,0:0:0:0:
193,369,113498,2,0,B|192:319|211:269|211:269|176:285|133:284,1,179.999994506836,4|0,3:0|0:0,0:0:0:0:
230,256,113851,1,8,3:0:0:0:
21,337,114028,1,0,0:0:0:0:
21,337,114116,1,0,0:0:0:0:
21,337,114204,5,4,3:0:0:0:
0,293,114292,1,0,0:0:0:0:
11,245,114380,1,0,0:0:0:0:
48,214,114468,1,0,0:0:0:0:
96,208,114556,1,8,3:0:0:0:
143,197,114645,1,0,0:0:0:0:
172,158,114733,1,0,0:0:0:0:
166,109,114822,1,0,0:0:0:0:
148,63,114910,38,0,B|121:60|94:70|94:70|129:89|176:88|224:72,1,179.999994506836,4|0,3:0|0:0,0:0:0:0:
75,66,115263,1,8,3:0:0:0:
169,304,115439,1,0,0:0:0:0:
169,304,115528,1,0,0:0:0:0:
169,304,115616,6,0,B|162:248|180:194|180:194|149:218|115:226,1,179.999994506836,4|0,3:0|0:0,0:0:0:0:
194,179,115969,1,8,3:0:0:0:
228,164,116057,1,0,0:0:0:0:
266,160,116145,1,0,0:0:0:0:
303,167,116233,1,0,0:0:0:0:
336,184,116322,2,0,P|403:195|339:161,1,179.999994506836,4|0,3:0|0:0,0:0:0:0:
399,233,116675,1,8,3:0:0:0:
423,208,116763,1,0,0:0:0:0:
429,170,116851,1,0,0:0:0:0:
413,137,116939,1,0,0:0:0:0:
380,117,117028,5,4,3:0:0:0:
341,154,117116,1,0,0:0:0:0:
290,169,117204,1,0,0:0:0:0:
237,158,117292,1,0,0:0:0:0:
196,125,117380,1,8,3:0:0:0:
154,91,117469,1,0,0:0:0:0:
102,80,117557,1,0,0:0:0:0:
50,95,117645,1,0,0:0:0:0:
18,139,117733,6,0,B|7:224|7:224|28:191,1,119.999996337891,4|0,3:0|0:0,0:0:0:0:
6,245,117998,1,0,0:0:0:0:
6,245,118086,1,8,3:0:0:0:
308,67,118263,1,0,3:0:0:0:
188,346,118439,37,4,3:0:0:0:
174,322,118527,1,0,0:0:0:0:
170,296,118615,1,0,0:0:0:0:
175,269,118703,1,0,0:0:0:0:
188,246,118791,1,8,3:0:0:0:
209,228,118880,1,0,0:0:0:0:
234,219,118968,1,0,0:0:0:0:
261,218,119056,1,0,0:0:0:0:
307,234,119145,5,4,3:0:0:0:
353,233,119233,1,0,0:0:0:0:
394,209,119321,1,0,0:0:0:0:
416,169,119409,1,0,0:0:0:0:
417,122,119497,1,8,3:0:0:0:
393,82,119586,1,0,0:0:0:0:
353,57,119674,1,0,0:0:0:0:
307,56,119762,1,0,0:0:0:0:
267,84,119851,6,0,B|244:123|248:169|262:191|262:191|292:204|328:189,1,179.999994506836,4|0,3:0|0:0,0:0:0:0:
246,204,120204,1,8,3:0:0:0:
212,188,120292,1,0,0:0:0:0:
175,188,120380,1,0,0:0:0:0:
140,202,120468,1,0,0:0:0:0:
114,229,120557,2,0,B|98:285|107:343|107:343|89:315|57:298,1,179.999994506836,4|0,3:0|0:0,0:0:0:0:
125,348,120910,1,8,3:0:0:0:
160,331,120998,1,0,0:0:0:0:
197,329,121086,1,0,0:0:0:0:
233,340,121174,1,0,0:0:0:0:
262,362,121262,5,4,3:0:0:0:
403,111,121439,1,0,0:0:0:0:
437,148,121527,1,0,0:0:0:0:
446,198,121615,1,8,3:0:0:0:
430,246,121703,1,0,0:0:0:0:
390,278,121791,1,0,0:0:0:0:
339,285,121880,1,0,0:0:0:0:
291,264,121969,37,4,3:0:0:0:
88,338,122145,1,0,0:0:0:0:
113,298,122233,1,0,0:0:0:0:
128,255,122321,1,8,3:0:0:0:
131,207,122409,1,0,0:0:0:0:
123,162,122497,1,0,0:0:0:0:
101,121,122586,1,0,0:0:0:0:
67,89,122674,5,4,3:0:0:0:
67,89,122763,1,0,0:0:0:0:
67,89,122851,2,0,P|36:91|-1:108,1,59.9999981689454
216,169,123028,1,12,3:0:0:0:
216,169,123117,1,0,0:0:0:0:
216,169,123205,2,0,P|247:171|284:188,1,59.9999981689454
70,321,123381,5,2,3:0:0:0:
146,51,123557,1,2,3:0:0:0:
344,314,123733,1,2,3:0:0:0:
150,205,123910,1,0,0:0:0:0:
150,205,123998,1,0,0:0:0:0:
150,205,124086,6,0,B|110:212|77:217|37:195|37:195|27:158|44:114,1,179.999994506836,4|0,3:0|0:0,0:0:0:0:
25,220,124439,1,8,3:0:0:0:
7,246,124528,1,0,0:0:0:0:
0,278,124616,1,0,0:0:0:0:
3,310,124704,1,0,0:0:0:0:
18,338,124792,1,4,3:0:0:0:
241,136,124969,1,0,0:0:0:0:
152,357,125145,1,8,3:0:0:0:
71,164,125322,1,0,0:0:0:0:
71,164,125410,1,0,0:0:0:0:
71,164,125498,37,4,3:0:0:0:
90,182,125586,1,0,0:0:0:0:
114,193,125674,1,0,0:0:0:0:
140,198,125762,1,0,0:0:0:0:
166,200,125850,1,8,3:0:0:0:
199,189,125938,1,0,0:0:0:0:
229,170,126027,1,0,0:0:0:0:
252,145,126115,1,0,0:0:0:0:
274,94,126204,5,4,3:0:0:0:
249,129,126292,1,0,0:0:0:0:
240,171,126380,1,0,0:0:0:0:
252,212,126468,1,0,0:0:0:0:
283,241,126556,1,8,3:0:0:0:
311,272,126645,1,0,0:0:0:0:
320,314,126733,1,0,0:0:0:0:
308,355,126821,1,0,0:0:0:0:
277,384,126909,5,4,3:0:0:0:
298,84,127175,1,0,0:0:0:0:
298,84,127263,1,8,3:0:0:0:
231,309,127439,1,0,0:0:0:0:
231,309,127528,1,0,0:0:0:0:
231,309,127616,1,4,3:0:0:0:
308,61,127881,5,0,0:0:0:0:
309,61,127969,1,8,3:0:0:0:
218,330,128145,1,0,0:0:0:0:
218,330,128233,1,0,0:0:0:0:
218,330,128322,37,4,3:0:0:0:
252,288,128410,1,0,0:0:0:0:
259,234,128498,1,0,0:0:0:0:
236,185,128586,1,0,0:0:0:0:
194,149,128675,1,8,3:0:0:0:
162,105,128763,1,0,0:0:0:0:
166,51,128851,1,0,0:0:0:0:
198,8,128939,1,0,0:0:0:0:
252,9,129028,5,4,3:0:0:0:
259,51,129116,1,0,0:0:0:0:
242,93,129204,1,0,0:0:0:0:
206,119,129292,1,0,0:0:0:0:
163,119,129380,1,8,3:0:0:0:
125,95,129469,1,0,0:0:0:0:
111,53,129557,2,0,L|105:-27,1,59.9999981689454,0|0,3:0|0:0,0:0:0:0:
350,33,129733,5,4,3:0:0:0:
348,66,129822,1,0,0:0:0:0:
346,97,129910,1,0,0:0:0:0:
343,129,129998,1,0,0:0:0:0:
339,161,130086,1,8,3:0:0:0:
336,194,130174,1,0,0:0:0:0:
333,226,130263,2,0,L|326:303,1,59.9999981689454
499,122,130440,5,4,3:0:0:0:
491,84,130528,1,0,0:0:0:0:
471,51,130616,1,0,0:0:0:0:
439,29,130704,1,0,0:0:0:0:
401,22,130792,1,8,3:0:0:0:
365,28,130881,1,0,0:0:0:0:
333,49,130969,2,0,L|338:113,1,59.9999981689454
146,193,131145,37,4,3:0:0:0:
153,150,131233,1,0,0:0:0:0:
176,114,131321,1,0,0:0:0:0:
211,90,131409,1,0,0:0:0:0:
253,81,131497,1,8,3:0:0:0:
294,89,131586,1,0,0:0:0:0:
329,111,131674,2,0,L|322:182,1,59.9999981689454
305,361,131851,5,4,3:0:0:0:
496,102,132028,1,0,0:0:0:0:
444,85,132116,1,0,0:0:0:0:
391,84,132204,1,8,3:0:0:0:
340,102,132292,1,0,0:0:0:0:
289,121,132380,1,0,0:0:0:0:
236,120,132469,1,0,0:0:0:0:
185,102,132557,5,4,3:0:0:0:
407,185,132733,1,0,0:0:0:0:
416,232,132821,1,0,0:0:0:0:
402,278,132909,1,8,3:0:0:0:
367,311,132997,1,0,0:0:0:0:
319,321,133085,1,0,0:0:0:0:
273,307,133174,1,0,0:0:0:0:
240,272,133262,5,4,3:0:0:0:
340,72,133439,1,0,0:0:0:0:
304,49,133527,1,0,0:0:0:0:
261,58,133615,1,8,3:0:0:0:
235,90,133703,1,0,0:0:0:0:
240,133,133791,1,0,0:0:0:0:
271,163,133880,1,0,0:0:0:0:
330,168,133969,37,4,3:0:0:0:
268,147,134057,1,0,0:0:0:0:
206,168,134145,1,0,0:0:0:0:
174,224,134233,1,0,0:0:0:0:
184,289,134322,5,8,3:0:0:0:
222,229,134410,1,0,0:0:0:0:
218,158,134498,1,0,0:0:0:0:
174,103,134586,1,0,0:0:0:0:
106,83,134674,5,2,3:0:0:0:
204,358,134851,1,2,3:0:0:0:
367,51,135028,1,2,3:0:0:0:
144,206,135381,5,6,0:0:0:0:
131,204,135733,1,2,0:0:0:0:
120,202,136086,1,2,0:0:0:0:
108,200,136439,1,2,0:0:0:0:
364,274,136616,37,2,0:0:0:0:
377,272,136968,1,2,0:0:0:0:
388,270,137321,1,2,0:0:0:0:
125,324,137498,1,2,0:0:0:0:
108,302,137586,1,0,2:0:0:0:
104,275,137674,1,0,2:0:0:0:
111,249,137762,1,0,2:0:0:0:
130,228,137850,1,0,2:0:0:0:
155,217,137939,1,0,2:0:0:0:
182,218,138027,1,0,2:0:0:0:
206,231,138115,1,0,2:0:0:0:
230,266,138204,5,6,0:0:0:0:
228,279,138556,1,2,0:0:0:0:
226,290,138909,1,2,0:0:0:0:
224,302,139262,1,2,0:0:0:0:
143,85,139439,5,2,0:0:0:0:
141,72,139791,1,2,0:0:0:0:
139,61,140144,1,2,0:0:0:0:
35,245,140322,1,2,0:0:0:0:
60,253,140410,1,0,2:0:0:0:
87,257,140498,1,0,2:0:0:0:
114,255,140586,1,0,2:0:0:0:
140,247,140674,1,0,2:0:0:0:
165,239,140763,1,0,2:0:0:0:
192,236,140851,1,0,2:0:0:0:
219,238,140939,1,0,2:0:0:0:
257,260,141028,5,6,0:0:0:0:
255,273,141380,1,2,0:0:0:0:
253,284,141733,1,2,0:0:0:0:
251,296,142086,1,2,0:0:0:0:
396,90,142263,37,2,0:0:0:0:
394,77,142615,1,2,0:0:0:0:
392,66,142968,1,2,0:0:0:0:
348,283,143145,1,2,0:0:0:0:
373,273,143233,1,0,2:0:0:0:
392,254,143321,1,0,2:0:0:0:
401,229,143409,1,0,2:0:0:0:
400,203,143497,1,0,2:0:0:0:
387,179,143586,1,0,2:0:0:0:
366,163,143674,1,0,2:0:0:0:
340,156,143762,1,0,2:0:0:0:
296,161,143851,5,6,0:0:0:0:
283,161,144203,1,2,0:0:0:0:
272,160,144556,1,2,0:0:0:0:
260,159,144909,1,2,0:0:0:0:
25,275,145086,5,2,0:0:0:0:
38,275,145438,1,2,0:0:0:0:
49,274,145791,1,2,0:0:0:0:
248,340,145969,21,2,0:0:0:0:
255,339,146028,1,0,2:0:0:0:
262,338,146086,1,0,2:0:0:0:
269,336,146145,2,0,L|323:341,2,39.9999987792969,0|0|0,2:0|2:0|2:0,2:0:0:0:
183,283,146322,5,0,2:0:0:0:
176,282,146381,1,0,2:0:0:0:
169,281,146439,1,0,2:0:0:0:
160,281,146498,2,0,L|106:286,2,39.9999987792969,0|0|0,2:0|2:0|2:0,2:0:0:0:
279,249,146675,6,0,L|387:261,1,100,4|0,3:0|0:0,0:0:0:0:
181,131,147028,1,8,3:2:0:0:
260,349,147204,1,0,0:0:0:0:
260,349,147292,1,0,0:0:0:0:
260,349,147381,6,0,L|265:307,1,25,0|0,3:0|0:0,0:0:0:0:
218,241,147557,2,0,L|213:199,1,25
260,133,147733,2,0,L|265:91,1,25,8|0,3:2|0:0,0:0:0:0:
218,25,147910,2,0,L|213:-17,1,25
427,205,148086,6,0,P|385:214|328:200,1,100,0|0,3:0|0:0,0:0:0:0:
357,191,148351,1,0,0:0:0:0:
357,191,148439,1,8,3:2:0:0:
262,344,148616,2,0,P|238:347|209:342,1,50
134,273,148792,2,0,L|131:230,1,25,0|0,3:0|0:0,0:0:0:0:
92,176,148969,2,0,L|95:133,1,25
144,78,149145,2,0,L|141:35,1,25,8|0,3:2|0:0,0:0:0:0:
81,192,149322,2,0,L|78:149,1,25
326,205,149498,6,0,B|275:212|231:188|231:188|222:217|196:241,1,150,0|0,3:0|0:0,0:0:0:0:
231,173,149851,1,8,3:2:0:0:
369,333,150028,1,0,0:0:0:0:
369,333,150116,1,0,0:0:0:0:
369,333,150204,2,0,B|417:339|460:320|460:320|471:342|496:363,1,150,0|0,3:0|0:0,0:0:0:0:
464,300,150557,1,8,3:2:0:0:
305,134,150733,1,0,0:0:0:0:
305,134,150822,1,0,0:0:0:0:
305,134,150910,38,0,L|308:171,1,25,0|0,3:0|0:0,0:0:0:0:
370,211,151086,2,0,L|367:248,1,25
298,271,151263,2,0,L|301:308,1,25,8|0,3:2|0:0,0:0:0:0:
357,330,151439,2,0,L|354:367,1,25
461,122,151616,1,0,3:0:0:0:
425,101,151704,1,0,0:0:0:0:
384,97,151792,1,0,0:0:0:0:
345,110,151880,1,0,0:0:0:0:
319,141,151968,1,8,3:2:0:0:
292,172,152057,1,0,0:0:0:0:
252,182,152145,1,0,3:0:0:0:
213,170,152233,1,0,0:0:0:0:
195,149,152322,5,0,3:0:0:0:
213,168,152410,1,0,0:0:0:0:
220,194,152498,1,0,0:0:0:0:
217,220,152586,1,0,0:0:0:0:
202,243,152674,1,8,3:2:0:0:
179,257,152763,1,0,0:0:0:0:
153,260,152851,1,0,0:0:0:0:
127,251,152939,1,0,0:0:0:0:
104,224,153027,5,0,3:0:0:0:
135,207,153115,1,0,0:0:0:0:
171,202,153204,1,0,0:0:0:0:
206,207,153292,1,0,0:0:0:0:
234,228,153380,1,8,3:2:0:0:
269,237,153469,1,0,0:0:0:0:
313,232,153557,2,0,P|339:228|365:214,1,50
438,88,153733,6,0,B|396:97|345:97|345:97|376:101|401:116,1,150,0|0,3:0|0:0,0:0:0:0:
327,88,154086,1,8,3:2:0:0:
356,282,154263,2,0,P|361:253|356:219,1,50
173,158,154439,38,0,B|215:149|266:149|266:149|235:145|210:131,1,150,0|0,3:0|0:0,0:0:0:0:
285,158,154792,1,8,3:2:0:0:
296,187,154880,1,0,0:0:0:0:
299,218,154968,1,0,0:0:0:0:
293,249,155056,1,0,0:0:0:0:
279,276,155145,6,0,B|373:267|373:267|439:288,1,150,0|0,3:0|0:0,0:0:0:0:
362,242,155498,1,8,3:2:0:0:
188,336,155675,1,0,0:0:0:0:
188,336,155763,1,0,0:0:0:0:
188,336,155851,2,0,B|281:326|281:326|347:347,1,150,0|0,3:0|0:0,0:0:0:0:
270,301,156204,1,8,3:2:0:0:
85,375,156381,1,0,0:0:0:0:
85,375,156469,1,0,0:0:0:0:
85,375,156557,5,0,3:0:0:0:
50,346,156645,1,0,0:0:0:0:
40,303,156733,1,0,0:0:0:0:
58,263,156821,1,0,0:0:0:0:
97,241,156909,1,8,3:2:0:0:
140,248,156998,1,0,0:0:0:0:
171,279,157086,2,0,L|164:336,1,50
116,133,157263,5,0,3:0:0:0:
155,111,157351,1,0,0:0:0:0:
199,107,157439,1,0,0:0:0:0:
241,122,157527,1,0,0:0:0:0:
274,153,157615,1,8,3:2:0:0:
306,183,157705,1,0,0:0:0:0:
348,198,157793,1,0,0:0:0:0:
392,194,157881,1,0,0:0:0:0:
432,173,157969,37,4,3:0:0:0:
117,157,158233,1,0,0:0:0:0:
117,157,158322,1,8,3:2:0:0:
364,103,158498,1,0,0:0:0:0:
364,103,158586,1,0,0:0:0:0:
364,103,158675,1,0,3:0:0:0:
91,152,158939,5,0,0:0:0:0:
90,152,159028,1,8,3:2:0:0:
385,99,159204,1,0,0:0:0:0:
385,99,159292,1,0,0:0:0:0:
385,99,159381,1,0,3:0:0:0:
69,147,159645,5,0,0:0:0:0:
68,147,159734,1,8,3:2:0:0:
402,99,159910,1,0,0:0:0:0:
402,99,159998,1,0,0:0:0:0:
402,99,160086,5,0,3:0:0:0:
356,73,160174,1,0,0:0:0:0:
305,68,160262,1,0,0:0:0:0:
256,86,160350,1,0,0:0:0:0:
218,122,160438,1,8,3:2:0:0:
181,157,160528,1,0,0:0:0:0:
132,174,160616,1,0,0:0:0:0:
81,169,160704,1,0,0:0:0:0:
34,145,160792,37,0,3:0:0:0:
404,118,161056,1,0,0:0:0:0:
404,118,161145,1,8,3:2:0:0:
113,64,161321,1,0,0:0:0:0:
113,64,161409,1,0,0:0:0:0:
113,64,161498,1,0,3:0:0:0:
434,115,161762,5,0,0:0:0:0:
435,115,161851,1,8,3:2:0:0:
89,59,162027,1,0,0:0:0:0:
89,59,162115,1,0,0:0:0:0:
89,59,162204,1,0,3:0:0:0:
464,112,162468,5,0,0:0:0:0:
465,112,162557,1,8,3:2:0:0:
63,54,162733,1,0,0:0:0:0:
63,54,162821,1,0,0:0:0:0:
63,54,162910,5,0,3:0:0:0:
74,88,162998,1,0,0:0:0:0:
80,123,163086,1,0,0:0:0:0:
78,159,163174,1,0,0:0:0:0:
70,194,163262,1,8,3:2:0:0:
59,228,163351,1,0,0:0:0:0:
54,264,163439,1,0,3:0:0:0:
57,300,163527,1,0,0:0:0:0:
65,335,163616,38,0,P|101:280|36:268,1,150,4|0,3:0|0:0,0:0:0:0:
126,353,163969,1,8,3:2:0:0:
138,334,164057,1,0,0:0:0:0:
145,313,164145,1,0,0:0:0:0:
145,290,164233,1,0,0:0:0:0:
139,269,164321,1,0,3:0:0:0:
126,250,164410,1,0,0:0:0:0:
109,236,164498,1,0,0:0:0:0:
88,228,164586,1,0,0:0:0:0:
66,227,164674,1,8,3:2:0:0:
44,232,164763,1,0,0:0:0:0:
25,243,164851,1,0,0:0:0:0:
10,260,164939,1,0,0:0:0:0:
0,279,165028,5,0,3:0:0:0:
21,302,165116,1,0,0:0:0:0:
49,316,165204,1,0,0:0:0:0:
80,320,165292,1,0,0:0:0:0:
110,313,165380,1,8,3:2:0:0:
137,296,165469,1,0,0:0:0:0:
156,271,165557,1,0,0:0:0:0:
165,241,165645,1,0,0:0:0:0:
160,205,165733,5,0,3:0:0:0:
161,168,165821,1,0,0:0:0:0:
175,132,165909,1,0,0:0:0:0:
202,107,165997,1,0,0:0:0:0:
237,93,166085,1,8,3:2:0:0:
274,95,166174,1,0,0:0:0:0:
308,111,166262,1,0,0:0:0:0:
335,138,166350,1,0,0:0:0:0:
346,174,166439,6,0,B|344:238|311:266|311:266|305:240|320:220,1,150,0|0,3:0|0:0,0:0:0:0:
300,282,166792,1,8,3:2:0:0:
441,151,166969,1,0,0:0:0:0:
441,151,167057,1,0,0:0:0:0:
441,151,167145,2,0,B|439:86|406:59|406:59|403:88|417:106,1,150,0|0,3:0|0:0,0:0:0:0:
395,43,167498,1,8,3:2:0:0:
257,171,167675,2,0,P|255:205|260:229,1,50
330,349,167851,37,0,3:0:0:0:
425,153,168028,1,0,0:0:0:0:
425,153,168116,1,0,0:0:0:0:
425,153,168204,1,8,3:2:0:0:
246,239,168381,1,0,0:0:0:0:
246,239,168469,1,0,0:0:0:0:
246,239,168557,1,0,3:0:0:0:
471,280,168733,5,0,0:0:0:0:
441,259,168821,1,0,0:0:0:0:
405,252,168909,1,8,3:2:0:0:
369,259,168997,1,0,0:0:0:0:
342,283,169085,1,0,0:0:0:0:
327,316,169174,1,0,0:0:0:0:
324,351,169262,5,6,0:0:0:0:
410,124,169792,1,2,0:0:0:0:
410,124,169881,1,2,0:0:0:0:
410,124,169969,1,2,0:0:0:0:
324,351,170498,1,2,0:0:0:0:
324,351,170586,1,2,0:0:0:0:
324,351,170675,5,2,0:0:0:0:
410,124,170851,1,2,0:0:0:0:
410,124,170939,1,2,0:0:0:0:
410,124,171028,1,2,0:0:0:0:
335,364,171204,1,0,0:0:0:0:
292,80,171381,1,2,0:0:0:0:
501,261,171557,37,0,2:0:0:0:
471,281,171645,1,0,2:0:0:0:
435,286,171733,1,0,2:0:0:0:
410,289,171821,1,2,0:0:0:0:
410,289,171909,1,2,0:0:0:0:
410,289,171998,1,2,0:0:0:0:
410,289,172086,5,6,0:0:0:0:
161,208,172616,1,2,0:0:0:0:
161,208,172704,1,2,0:0:0:0:
161,208,172792,1,2,0:0:0:0:
399,278,173322,1,2,0:0:0:0:
399,278,173410,1,2,0:0:0:0:
399,278,173498,5,2,0:0:0:0:
161,208,173675,1,2,0:0:0:0:
161,208,173763,1,2,0:0:0:0:
161,208,173851,1,2,0:0:0:0:
406,294,174028,1,0,0:0:0:0:
271,34,174204,5,6,0:0:0:0:
284,67,174292,1,0,2:0:0:0:
285,102,174380,1,0,0:0:0:0:
271,135,174468,1,0,0:0:0:0:
260,169,174556,1,0,0:0:0:0:
264,205,174645,1,0,2:0:0:0:
280,236,174733,1,0,0:0:0:0:
310,255,174822,1,0,0:0:0:0:
345,257,174910,37,6,0:0:0:0:
412,34,175439,1,2,0:0:0:0:
412,34,175528,1,2,0:0:0:0:
412,34,175616,1,2,0:0:0:0:
345,257,176145,1,2,0:0:0:0:
345,257,176233,1,2,0:0:0:0:
345,257,176322,5,2,0:0:0:0:
412,34,176498,1,2,0:0:0:0:
412,34,176587,1,2,0:0:0:0:
412,34,176675,1,2,0:0:0:0:
359,272,176851,1,0,0:0:0:0:
268,9,177028,1,2,0:0:0:0:
466,187,177204,5,0,2:0:0:0:
431,164,177292,1,0,2:0:0:0:
396,163,177380,1,0,2:0:0:0:
363,179,177469,1,2,0:0:0:0:
363,179,177557,2,0,L|359:240,1,50,2|2,0:0|0:0,0:0:0:0:
231,333,177733,5,2,0:0:0:0:
231,333,177822,1,2,0:0:0:0:
231,333,177910,2,0,P|206:321|184:304,1,50,2|0,0:0|2:0,0:0:0:0:
65,282,178086,1,2,0:0:0:0:
65,282,178175,1,2,0:0:0:0:
65,282,178263,2,0,P|54:256|51:229,1,50,2|0,0:0|2:0,0:0:0:0:
158,67,178439,37,2,0:0:0:0:
196,90,178527,1,2,0:0:0:0:
222,126,178615,1,2,0:0:0:0:
227,170,178703,1,0,2:0:0:0:
213,212,178791,1,2,0:0:0:0:
181,244,178880,1,2,0:0:0:0:
140,257,178968,1,2,0:0:0:0:
95,251,179056,1,0,2:0:0:0:
61,208,179145,5,4,3:0:0:0:
108,183,179233,1,0,0:0:0:0:
162,182,179322,1,0,0:0:0:0:
209,207,179410,1,0,0:0:0:0:
248,243,179498,1,0,0:0:0:0:
295,268,179586,1,0,0:0:0:0:
349,267,179675,1,0,0:0:0:0:
396,242,179763,1,0,0:0:0:0:
424,196,179851,37,0,0:0:0:0:
425,190,179910,1,0,0:0:0:0:
426,184,179969,1,0,0:0:0:0:
426,177,180028,2,0,L|429:138,2,33.3333333333333
359,93,180204,5,0,0:0:0:0:
358,87,180263,1,0,0:0:0:0:
357,81,180322,1,0,0:0:0:0:
357,74,180381,2,0,L|354:35,2,33.3333333333333
297,254,180557,6,0,B|263:268|230:260|230:260|180:221|103:243,1,179.999994506836,4|0,3:0|0:0,0:0:0:0:
224,281,180910,1,8,3:0:0:0:
315,154,181086,1,0,0:0:0:0:
315,154,181175,1,0,0:0:0:0:
315,154,181263,6,0,B|349:168|382:160|382:160|432:121|509:143,1,179.999994506836,4|0,3:0|0:0,0:0:0:0:
388,181,181616,1,8,3:0:0:0:
210,66,181793,1,0,0:0:0:0:
210,66,181881,1,0,0:0:0:0:
210,66,181969,5,4,3:0:0:0:
230,109,182057,1,0,0:0:0:0:
227,157,182145,1,0,0:0:0:0:
208,202,182233,1,0,0:0:0:0:
201,249,182321,1,8,3:0:0:0:
221,293,182410,1,0,0:0:0:0:
264,314,182498,1,0,0:0:0:0:
312,310,182586,1,0,0:0:0:0:
357,290,182675,6,0,B|377:284|403:285|429:295|429:295|453:240|425:181,1,179.999994506836,4|0,3:0|0:0,0:0:0:0:
438,306,183028,1,8,3:0:0:0:
221,195,183204,1,0,0:0:0:0:
221,195,183292,1,0,0:0:0:0:
221,195,183381,38,0,B|201:189|175:190|149:200|149:200|125:145|153:86,1,179.999994506836,4|0,3:0|0:0,0:0:0:0:
140,219,183734,1,8,3:0:0:0:
101,237,183821,1,0,0:0:0:0:
57,235,183909,1,0,0:0:0:0:
24,206,183997,1,0,0:0:0:0:
17,162,184087,2,0,B|17:110|59:55|59:55|25:81|-14:89,1,179.999994506836,4|0,3:0|0:0,0:0:0:0:
80,45,184439,1,8,3:0:0:0:
112,63,184527,1,0,0:0:0:0:
149,68,184615,1,0,0:0:0:0:
186,65,184703,1,0,0:0:0:0:
221,51,184792,5,4,3:0:0:0:
177,82,184880,1,0,0:0:0:0:
154,130,184968,1,0,0:0:0:0:
155,183,185056,1,0,0:0:0:0:
182,230,185144,1,8,3:0:0:0:
227,259,185233,1,0,0:0:0:0:
280,263,185321,1,0,0:0:0:0:
329,243,185409,1,0,0:0:0:0:
361,198,185498,6,0,B|369:122|369:122|349:71,1,119.999996337891,4|0,3:0|0:0,0:0:0:0:
392,124,185763,1,0,0:0:0:0:
392,124,185851,1,8,3:0:0:0:
101,231,186028,1,0,3:0:0:0:
287,36,186204,5,4,3:0:0:0:
299,59,186292,1,0,0:0:0:0:
305,86,186380,1,0,0:0:0:0:
304,113,186468,1,0,0:0:0:0:
296,138,186556,1,8,3:0:0:0:
283,162,186645,1,0,0:0:0:0:
264,180,186733,1,0,0:0:0:0:
240,194,186821,1,0,0:0:0:0:
197,201,186910,37,4,3:0:0:0:
230,174,186998,1,0,0:0:0:0:
272,167,187086,1,0,0:0:0:0:
312,182,187174,1,0,0:0:0:0:
338,216,187262,1,8,3:0:0:0:
344,258,187351,1,0,0:0:0:0:
328,298,187439,1,0,0:0:0:0:
294,323,187527,1,0,0:0:0:0:
250,327,187616,6,0,B|205:296|140:302|140:302|136:335|152:369,1,179.999994506836,4|0,3:0|0:0,0:0:0:0:
131,288,187969,1,8,3:0:0:0:
119,252,188057,1,0,0:0:0:0:
117,214,188145,1,0,0:0:0:0:
126,178,188233,1,0,0:0:0:0:
143,146,188322,6,0,B|188:115|253:121|253:121|257:154|241:188,1,179.999994506836,4|0,3:0|0:0,0:0:0:0:
268,113,188675,1,8,3:0:0:0:
300,132,188763,1,0,0:0:0:0:
335,143,188851,1,0,0:0:0:0:
372,141,188939,1,0,0:0:0:0:
408,130,189028,5,4,3:0:0:0:
405,357,189204,1,0,0:0:0:0:
437,321,189292,1,0,0:0:0:0:
442,273,189380,1,8,3:0:0:0:
418,231,189468,1,0,0:0:0:0:
370,216,189556,1,0,0:0:0:0:
325,232,189645,1,0,0:0:0:0:
298,271,189733,37,4,3:0:0:0:
75,195,189910,1,0,0:0:0:0:
121,179,189998,1,0,0:0:0:0:
169,177,190086,1,8,3:0:0:0:
216,193,190174,1,0,0:0:0:0:
263,210,190262,1,0,0:0:0:0:
312,213,190351,1,0,0:0:0:0:
359,199,190439,5,4,3:0:0:0:
359,199,190528,1,0,0:0:0:0:
359,199,190616,2,0,P|364:172|362:131,1,59.9999981689454
267,300,190792,1,12,3:0:0:0:
267,300,190881,1,0,0:0:0:0:
267,300,190969,2,0,P|272:327|270:368,1,59.9999981689454
201,99,191146,5,2,3:0:0:0:
374,322,191322,1,2,3:0:0:0:
479,29,191498,1,2,3:0:0:0:
305,194,191675,1,0,0:0:0:0:
305,194,191763,1,0,0:0:0:0:
305,194,191851,6,0,B|351:192|407:210|407:210|377:188|360:143,1,179.999994506836,4|0,3:0|0:0,0:0:0:0:
425,220,192204,1,8,3:0:0:0:
293,347,192380,1,0,0:0:0:0:
293,347,192468,1,0,0:0:0:0:
293,347,192556,1,4,3:0:0:0:
208,87,192733,1,0,0:0:0:0:
116,374,192910,1,8,3:0:0:0:
331,272,193087,1,0,0:0:0:0:
331,272,193175,1,0,0:0:0:0:
331,272,193263,37,4,3:0:0:0:
306,282,193351,1,0,0:0:0:0:
279,286,193439,1,0,0:0:0:0:
252,284,193527,1,0,0:0:0:0:
217,271,193615,1,8,3:0:0:0:
181,256,193704,1,0,0:0:0:0:
143,257,193792,1,0,0:0:0:0:
107,271,193881,1,0,0:0:0:0:
80,317,193969,5,4,3:0:0:0:
120,289,194057,1,0,0:0:0:0:
128,241,194145,1,0,0:0:0:0:
121,192,194233,1,0,0:0:0:0:
96,150,194321,1,8,3:0:0:0:
77,104,194410,1,0,0:0:0:0:
81,55,194498,1,0,0:0:0:0:
108,15,194586,1,0,0:0:0:0:
156,9,194674,5,4,3:0:0:0:
72,336,194940,1,0,0:0:0:0:
72,336,195028,1,8,3:0:0:0:
173,106,195204,1,0,0:0:0:0:
173,106,195293,1,0,0:0:0:0:
173,106,195381,1,4,3:0:0:0:
65,362,195646,5,0,0:0:0:0:
66,362,195734,1,8,3:0:0:0:
185,85,195910,1,0,0:0:0:0:
185,85,195998,1,0,0:0:0:0:
185,85,196086,37,4,3:0:0:0:
133,70,196174,1,0,0:0:0:0:
82,85,196262,1,0,0:0:0:0:
48,125,196350,1,0,0:0:0:0:
41,178,196438,1,8,3:0:0:0:
65,226,196527,1,0,0:0:0:0:
110,254,196615,1,0,0:0:0:0:
164,252,196703,1,0,0:0:0:0:
207,221,196792,37,4,3:0:0:0:
250,200,196880,1,0,0:0:0:0:
298,203,196968,1,0,0:0:0:0:
338,230,197056,1,0,0:0:0:0:
359,273,197144,1,8,3:0:0:0:
356,321,197233,1,0,0:0:0:0:
323,358,197322,2,0,L|246:349,1,59.9999981689454,0|0,3:0|0:0,0:0:0:0:
453,116,197499,37,4,3:0:0:0:
450,148,197587,1,0,0:0:0:0:
446,180,197675,1,0,0:0:0:0:
443,213,197763,1,0,0:0:0:0:
440,245,197851,1,8,3:0:0:0:
436,277,197940,1,0,0:0:0:0:
433,309,198028,2,0,L|425:234,1,59.9999981689454
297,32,198204,5,4,3:0:0:0:
260,39,198292,1,0,0:0:0:0:
228,59,198380,1,0,0:0:0:0:
206,90,198468,1,0,0:0:0:0:
199,127,198556,1,8,3:0:0:0:
205,164,198645,1,0,0:0:0:0:
226,195,198733,2,0,L|290:189,1,59.9999981689454
247,384,198910,5,4,3:0:0:0:
203,374,198998,1,0,0:0:0:0:
166,351,199086,1,0,0:0:0:0:
141,316,199175,1,0,0:0:0:0:
133,273,199262,1,8,3:0:0:0:
140,229,199351,1,0,0:0:0:0:
164,194,199439,2,0,L|238:200,1,59.9999981689454
512,215,199616,53,4,3:0:0:0:
176,35,199792,1,0,0:0:0:0:
136,78,199880,1,0,0:0:0:0:
126,135,199968,1,8,3:0:0:0:
149,189,200056,1,0,0:0:0:0:
199,220,200144,1,0,0:0:0:0:
257,219,200233,1,0,0:0:0:0:
305,186,200321,5,4,3:0:0:0:
443,294,200498,1,0,0:0:0:0:
390,276,200586,1,0,0:0:0:0:
336,273,200674,1,8,3:0:0:0:
284,288,200762,1,0,0:0:0:0:
232,302,200850,1,0,0:0:0:0:
177,296,200939,1,0,0:0:0:0:
127,275,201027,5,4,3:0:0:0:
397,139,201204,1,0,0:0:0:0:
399,181,201292,1,0,0:0:0:0:
382,220,201380,1,8,3:0:0:0:
349,247,201468,1,0,0:0:0:0:
307,256,201556,1,0,0:0:0:0:
265,245,201645,1,0,0:0:0:0:
234,216,201733,5,4,3:0:0:0:
177,187,201821,1,0,0:0:0:0:
115,200,201909,1,0,0:0:0:0:
74,249,201997,1,0,0:0:0:0:
73,312,202086,37,8,3:0:0:0:
119,257,202174,1,0,0:0:0:0:
129,185,202263,1,0,0:0:0:0:
89,126,202350,1,0,0:0:0:0:
22,97,202439,5,2,3:0:0:0:
168,342,202616,1,2,3:0:0:0:
280,37,202793,1,2,3:0:0:0:
374,271,203146,5,6,0:0:0:0:
373,284,203498,1,2,0:0:0:0:
371,295,203851,1,2,0:0:0:0:
370,307,204204,1,2,0:0:0:0:
186,68,204381,5,2,0:0:0:0:
188,80,204734,1,2,0:0:0:0:
190,92,205087,1,2,0:0:0:0:
373,208,205263,1,2,0:0:0:0:
359,231,205351,1,0,2:0:0:0:
339,248,205439,1,0,2:0:0:0:
313,258,205527,1,0,2:0:0:0:
287,258,205615,1,0,2:0:0:0:
261,249,205704,1,0,2:0:0:0:
240,232,205792,1,0,2:0:0:0:
227,209,205880,1,0,2:0:0:0:
225,165,205969,37,6,0:0:0:0:
226,152,206321,1,2,0:0:0:0:
228,141,206674,1,2,0:0:0:0:
229,129,207027,1,2,0:0:0:0:
71,281,207204,5,2,0:0:0:0:
72,294,207556,1,2,0:0:0:0:
74,305,207909,1,2,0:0:0:0:
123,78,208086,1,2,0:0:0:0:
115,103,208174,1,0,2:0:0:0:
111,130,208262,1,0,2:0:0:0:
113,157,208350,1,0,2:0:0:0:
121,183,208438,1,0,2:0:0:0:
129,208,208527,1,0,2:0:0:0:
132,235,208615,1,0,2:0:0:0:
130,262,208703,1,0,2:0:0:0:
108,300,208792,5,6,0:0:0:0:
95,298,209144,1,2,0:0:0:0:
84,296,209497,1,2,0:0:0:0:
72,294,209850,1,2,0:0:0:0:
363,237,210028,5,2,0:0:0:0:
375,236,210381,1,2,0:0:0:0:
387,235,210734,1,2,0:0:0:0:
234,47,210910,1,2,0:0:0:0:
236,73,210998,1,0,2:0:0:0:
239,100,211086,1,0,2:0:0:0:
242,127,211174,1,0,2:0:0:0:
245,154,211262,1,0,2:0:0:0:
248,181,211351,1,0,2:0:0:0:
250,208,211439,1,0,2:0:0:0:
253,234,211527,1,0,2:0:0:0:
257,278,211616,37,6,0:0:0:0:
255,291,211968,1,2,0:0:0:0:
253,302,212321,1,2,0:0:0:0:
251,314,212674,1,2,0:0:0:0:
104,95,212851,5,2,0:0:0:0:
106,108,213204,1,2,0:0:0:0:
107,120,213557,1,2,0:0:0:0:
295,238,213733,37,2,0:0:0:0:
301,239,213792,1,0,2:0:0:0:
308,240,213851,1,0,2:0:0:0:
315,241,213910,2,0,L|365:235,2,39.9999987792969,0|0|0,2:0|2:0|2:0,2:0:0:0:
216,288,214086,5,0,2:0:0:0:
210,289,214145,1,0,2:0:0:0:
203,290,214204,1,0,2:0:0:0:
195,292,214263,2,0,L|145:286,2,39.9999987792969,0|0|0,2:0|2:0|2:0,2:0:0:0:
328,340,214439,6,0,P|384:350|448:327,1,119.999996337891,4|0,3:0|0:0,0:0:0:0:
376,215,214969,1,0,0:0:0:0:
376,215,215057,1,0,0:0:0:0:
376,215,215145,2,0,P|369:246|375:277,1,59.9999981689454
241,162,215498,1,0,0:0:0:0:
340,133,215675,1,0,0:0:0:0:
263,273,215851,6,0,B|179:281|179:281|144:267,1,119.999996337891,2|0,0:0|0:0,0:0:0:0:
361,221,216381,1,0,0:0:0:0:
361,221,216469,1,0,0:0:0:0:
361,221,216557,1,0,0:0:0:0:
332,340,216733,1,0,0:0:0:0:
212,205,216910,1,0,0:0:0:0:
205,190,216998,1,0,0:0:0:0:
201,174,217086,1,0,0:0:0:0:
202,157,217174,1,0,0:0:0:0:
208,141,217263,5,2,0:0:0:0:
227,111,217351,1,0,0:0:0:0:
235,77,217439,1,0,0:0:0:0:
227,42,217527,1,0,0:0:0:0:
201,18,217615,1,0,0:0:0:0:
375,176,217792,1,0,0:0:0:0:
375,176,217881,1,0,0:0:0:0:
402,165,217969,5,2,0:0:0:0:
371,152,218057,1,0,0:0:0:0:
338,149,218145,1,0,0:0:0:0:
305,152,218233,1,0,0:0:0:0:
276,167,218322,1,0,0:0:0:0:
185,48,218498,1,0,0:0:0:0:
185,48,218586,1,0,0:0:0:0:
162,35,218675,37,2,0:0:0:0:
172,71,218763,1,0,0:0:0:0:
173,108,218851,1,0,0:0:0:0:
164,145,218939,1,0,0:0:0:0:
151,180,219027,1,0,0:0:0:0:
147,218,219116,1,0,0:0:0:0:
157,258,219204,1,0,0:0:0:0:
157,258,219292,1,0,0:0:0:0:
122,252,219381,5,2,0:0:0:0:
146,239,219469,1,0,0:0:0:0:
173,232,219557,1,0,0:0:0:0:
200,232,219645,1,0,0:0:0:0:
228,239,219733,1,0,0:0:0:0:
252,252,219822,1,0,0:0:0:0:
273,271,219910,1,0,0:0:0:0:
288,294,219998,1,0,0:0:0:0:
301,319,220086,5,2,0:0:0:0:
451,238,220263,1,0,0:0:0:0:
451,238,220351,1,0,0:0:0:0:
451,238,220439,2,0,P|409:233|378:240,1,59.9999981689454
312,304,220792,1,2,0:0:0:0:
355,169,220969,1,0,0:0:0:0:
355,169,221057,1,0,0:0:0:0:
355,169,221145,2,0,P|326:200|313:229,1,59.9999981689454
317,352,221498,5,2,0:0:0:0:
329,320,221586,1,0,0:0:0:0:
333,285,221674,1,0,0:0:0:0:
328,250,221762,1,0,0:0:0:0:
316,215,221851,2,0,P|317:201|319:184,1,29.9999990844727
257,152,222028,2,0,P|266:141|277:128,1,29.9999990844727
494,31,222204,38,0,P|498:52|499:78,1,29.9999990844727
470,174,222381,1,0,0:0:0:0:
442,196,222469,1,0,0:0:0:0:
408,212,222557,1,0,0:0:0:0:
373,218,222645,1,0,0:0:0:0:
336,216,222733,1,0,0:0:0:0:
302,206,222822,1,0,0:0:0:0:
271,184,222910,5,2,0:0:0:0:
246,164,222998,1,0,0:0:0:0:
215,156,223086,1,0,0:0:0:0:
184,162,223174,1,0,0:0:0:0:
159,180,223262,1,0,0:0:0:0:
145,209,223351,1,0,0:0:0:0:
145,240,223439,1,0,0:0:0:0:
159,268,223527,1,0,0:0:0:0:
182,286,223616,5,2,0:0:0:0:
188,268,223704,1,0,0:0:0:0:
193,250,223792,1,0,0:0:0:0:
197,231,223880,1,0,0:0:0:0:
198,212,223968,1,0,0:0:0:0:
196,193,224057,1,0,0:0:0:0:
193,175,224145,1,0,0:0:0:0:
188,157,224233,1,0,0:0:0:0:
181,139,224321,5,2,0:0:0:0:
77,286,224498,1,0,0:0:0:0:
77,286,224586,1,0,0:0:0:0:
77,286,224675,2,0,P|76:325|80:362,1,59.9999981689454
384,144,225028,2,0,B|354:137|354:137|331:141|331:141|300:132|260:139,1,119.999996337891,2|0,0:3|0:0,0:0:0:0:
251,137,225733,37,0,0:0:0:0:
152,101,225910,1,0,0:0:0:0:
264,274,226086,1,8,0:0:0:0:
328,85,226263,1,2,0:0:0:0:
328,85,226351,1,0,0:0:0:0:
328,85,226439,2,0,P|298:65|219:59,1,100,0|2,0:0|0:0,0:0:0:0:
103,198,226792,1,8,0:0:0:0:
156,22,226969,1,2,0:0:0:0:
156,22,227057,1,0,0:0:0:0:
156,22,227145,6,0,B|165:63|165:63|155:121,1,100,0|2,0:0|0:0,0:0:0:0:
121,282,227498,1,8,0:0:0:0:
277,188,227675,1,0,0:0:0:0:
103,135,227851,2,0,P|46:137|-4:149,1,100,8|8,0:0|0:0,0:0:0:0:
258,11,228204,1,8,0:0:0:0:
206,230,228381,1,2,0:0:0:0:
206,230,228469,1,0,0:0:0:0:
206,230,228557,6,0,L|199:160,1,50
303,359,228733,2,0,L|310:289,1,50
336,73,228910,1,8,0:0:0:0:
186,240,229086,1,2,0:0:0:0:
411,171,229263,6,0,L|357:164,1,50
246,244,229439,2,0,L|192:250,1,50
315,370,229615,1,8,0:0:0:0:
396,110,229792,1,2,0:0:0:0:
252,257,229969,38,0,L|259:325,3,50
383,126,230322,2,0,L|390:58,3,50,8|0|2|0,0:0|0:0|0:0|0:0,0:0:0:0:
507,254,230675,1,8,0:0:0:0:
492,201,230763,1,8,0:0:0:0:
454,162,230851,1,8,0:0:0:0:
404,146,230939,1,0,0:0:0:0:
352,158,231027,1,8,0:0:0:0:
311,194,231116,1,0,0:0:0:0:
293,243,231204,1,2,0:0:0:0:
303,296,231292,1,0,0:0:0:0:
335,338,231381,6,0,B|390:347|390:347|447:337,1,100
507,129,231733,1,8,0:0:0:0:
367,243,231910,1,2,0:0:0:0:
367,243,231998,1,0,0:0:0:0:
367,243,232086,2,0,P|423:255|476:245,1,100,0|2,0:0|0:0,0:0:0:0:
270,125,232439,1,8,0:0:0:0:
287,325,232616,1,2,0:0:0:0:
287,325,232704,1,0,0:0:0:0:
287,325,232792,6,0,B|294:291|294:291|284:220,1,100
258,33,233145,1,8,0:0:0:0:
160,245,233322,1,2,0:0:0:0:
300,104,233498,1,8,0:0:0:0:
85,153,233675,2,0,P|84:186|90:213,1,50,8|0,0:0|0:0,0:0:0:0:
234,185,233851,2,0,P|205:167|179:159,1,50,8|0,0:0|0:0,0:0:0:0:
156,271,234027,1,2,0:0:0:0:
156,271,234116,1,0,0:0:0:0:
156,271,234204,6,0,P|214:263|268:278,1,100
444,381,234557,1,8,0:0:0:0:
509,235,234733,1,2,0:0:0:0:
331,296,234910,2,0,P|324:239|331:184,1,100,0|2,0:0|0:0,0:0:0:0:
409,53,235263,1,8,0:0:0:0:
255,115,235439,37,2,0:0:0:0:
282,105,235527,1,0,0:0:0:0:
312,103,235615,1,0,0:0:0:0:
341,111,235703,1,0,0:0:0:0:
366,127,235791,1,8,0:0:0:0:
426,277,235969,1,8,0:0:0:0:
426,277,236057,1,0,0:0:0:0:
426,277,236145,1,2,0:0:0:0:
470,66,236322,5,8,0:0:0:0:
361,228,236498,1,8,0:0:0:0:
360,39,236675,1,8,0:0:0:0:
454,267,236851,1,2,0:0:0:0:
229,103,237028,70,0,P|279:103|329:122,1,100,4|0,0:3|0:0,0:0:0:0:
426,269,237380,1,8,0:0:0:0:
458,142,237557,1,2,0:0:0:0:
315,291,237733,1,0,0:0:0:0:
315,291,237822,1,0,0:0:0:0:
315,291,237910,1,2,0:0:0:0:
280,140,238086,1,8,0:0:0:0:
438,254,238263,2,0,L|488:259,1,50,2|0,0:0|0:0,0:0:0:0:
317,305,238439,5,0,0:0:0:0:
294,308,238528,1,0,0:0:0:0:
271,310,238616,1,8,0:0:0:0:
119,265,238792,2,0,L|69:259,2,50,8|0|0,0:0|0:0|0:0,0:0:0:0:
279,224,239145,2,0,L|319:218,4,25,8|8|8|8|0,0:0|0:0|0:0|0:0|0:0,0:0:0:0:
117,187,239498,2,0,P|112:160|115:120,1,50,8|2,0:0|0:0,0:0:0:0:
191,237,239675,2,0,P|196:264|193:304,1,50,2|2,0:0|0:0,0:0:0:0:
232,147,239851,6,0,P|277:136|333:148,1,100
475,243,240204,1,8,0:0:0:0:
349,269,240380,1,2,0:0:0:0:
387,87,240557,1,0,0:0:0:0:
387,87,240645,1,0,0:0:0:0:
387,87,240733,1,2,0:0:0:0:
230,191,240910,1,8,0:0:0:0:
360,333,241086,2,0,L|357:266,1,50,2|0,0:0|0:0,0:0:0:0:
308,151,241263,5,0,0:0:0:0:
311,129,241351,1,0,0:0:0:0:
313,107,241439,1,8,0:0:0:0:
176,248,241616,2,0,L|186:316,2,50,8|0|0,0:0|0:0|0:0,0:0:0:0:
228,106,241969,2,0,L|232:60,4,25,8|8|8|8|0,0:0|0:0|0:0|0:0|0:0,0:0:0:0:
341,254,242322,2,0,L|396:249,1,50,8|2,0:0|0:0,0:0:0:0:
511,305,242498,2,0,L|455:300,1,50,8|2,0:0|0:0,0:0:0:0:
281,313,242675,38,0,P|265:268|274:211,1,100
393,67,243027,1,8,0:0:0:0:
421,200,243204,1,2,0:0:0:0:
241,99,243380,1,0,0:0:0:0:
241,99,243469,1,0,0:0:0:0:
241,99,243557,1,2,0:0:0:0:
223,243,243733,1,8,0:0:0:0:
390,94,243910,2,0,L|341:88,1,50,2|0,0:0|0:0,0:0:0:0:
176,32,244086,5,0,0:0:0:0:
153,34,244175,1,0,0:0:0:0:
130,37,244263,1,2,0:0:0:0:
257,115,244439,2,0,L|316:109,2,50,8|0|0,0:0|0:0|0:0,0:0:0:0:
122,166,244792,2,0,L|77:163,4,25,8|8|8|8|0,0:0|0:0|0:0|0:0|0:0,0:0:0:0:
284,243,245145,2,0,P|289:219|289:181,1,50,8|2,0:0|0:0,0:0:0:0:
237,69,245322,2,0,P|232:93|232:131,1,50,2|2,0:0|0:0,0:0:0:0:
290,335,245498,5,0,0:0:0:0:
330,340,245586,1,0,0:0:0:0:
372,330,245674,1,0,0:0:0:0:
405,306,245762,1,0,0:0:0:0:
428,271,245850,1,8,0:0:0:0:
436,229,245939,1,0,0:0:0:0:
428,188,246027,1,0,0:0:0:0:
405,153,246115,1,0,0:0:0:0:
382,133,246204,5,8,0:0:0:0:
352,126,246292,1,0,0:0:0:0:
321,128,246381,1,0,0:0:0:0:
293,139,246469,1,8,0:0:0:0:
266,153,246557,1,0,0:0:0:0:
236,154,246645,1,0,0:0:0:0:
212,141,246733,1,8,0:0:0:0:
200,113,246821,1,0,0:0:0:0:
203,82,246910,38,0,P|206:60|203:32,1,50,2|0,3:0|0:0,0:0:0:0:
139,112,247086,2,0,P|136:90|139:62,1,50
229,142,247263,2,0,P|225:120|213:94,1,50
108,169,247439,2,0,P|111:147|123:121,1,50
265,194,247616,2,0,P|254:174|235:153,1,50
72,215,247792,2,0,P|82:195|101:174,1,50
310,236,247969,2,0,P|293:220|269:206,1,50
26,263,248145,2,0,P|42:247|66:233,1,50
179,354,248322,38,0,B|200:281|177:208|177:208|149:246|169:292,1,225.000008583069,4|2,0:0|0:0,0:0:0:0:
184,191,248939,1,2,0:0:0:0:
184,191,249028,2,0,B|254:181|317:211|317:211|277:184|249:137,1,225.000008583069,4|2,0:0|0:0,0:0:0:0:
335,229,249645,1,2,0:0:0:0:
335,229,249733,37,4,0:0:0:0:
101,324,249910,1,0,0:0:0:0:
168,69,250086,1,0,0:0:0:0:
201,65,250175,1,0,0:0:0:0:
235,73,250263,1,0,0:0:0:0:
263,94,250351,1,0,0:0:0:0:
280,123,250439,6,0,B|271:88|276:50|276:50|297:10,1,100,4|0,0:0|2:0,0:0:0:0:
300,137,250704,1,0,0:0:0:0:
272,154,250792,1,0,0:0:0:0:
241,163,250880,1,0,0:0:0:0:
207,162,250968,1,0,0:0:0:0:
178,152,251056,1,0,0:0:0:0:
139,120,251145,5,4,0:0:0:0:
98,100,251233,1,0,2:0:0:0:
54,106,251321,1,0,2:0:0:0:
20,135,251409,1,0,2:0:0:0:
7,177,251497,1,0,0:0:0:0:
11,207,251586,1,0,0:0:0:0:
29,232,251674,1,0,0:0:0:0:
57,245,251762,1,0,0:0:0:0:
102,239,251851,5,4,0:0:0:0:
143,220,251939,1,0,2:0:0:0:
188,222,252028,1,0,2:0:0:0:
226,244,252116,1,0,2:0:0:0:
250,281,252204,1,0,0:0:0:0:
275,297,252292,1,0,0:0:0:0:
304,303,252381,1,0,0:0:0:0:
333,298,252469,1,0,0:0:0:0:
371,276,252557,37,4,0:0:0:0:
390,236,252645,1,0,2:0:0:0:
382,192,252733,1,0,0:0:0:0:
350,161,252821,1,0,0:0:0:0:
306,155,252909,1,4,0:0:0:0:
262,166,252998,1,0,2:0:0:0:
218,160,253086,1,0,2:0:0:0:
187,129,253174,1,0,2:0:0:0:
186,84,253262,5,0,3:0:0:0:
241,77,253351,1,0,3:0:0:0:
293,91,253439,1,0,3:0:0:0:
336,125,253528,1,0,3:0:0:0:
353,177,253616,1,2,3:0:0:0:
353,177,253704,1,2,0:0:0:0:
353,177,253792,1,2,0:0:0:0:
353,177,253881,1,2,0:0:0:0:
350,224,253969,5,4,0:0:0:0:
318,192,254057,1,0,2:0:0:0:
276,175,254145,1,0,2:0:0:0:
232,176,254233,1,0,2:0:0:0:
191,193,254321,1,0,2:0:0:0:
160,226,254410,1,0,2:0:0:0:
144,267,254498,1,2,0:0:0:0:
144,267,254586,1,2,0:0:0:0:
129,223,254675,5,6,0:0:0:0:
161,254,254763,1,0,2:0:0:0:
203,271,254851,1,0,2:0:0:0:
247,271,254939,1,0,2:0:0:0:
288,253,255027,1,0,2:0:0:0:
319,221,255116,1,0,2:0:0:0:
335,179,255204,1,2,0:0:0:0:
335,179,255292,1,2,0:0:0:0:
347,233,255381,37,4,0:0:0:0:
294,222,255469,1,0,2:0:0:0:
258,181,255557,1,0,2:0:0:0:
256,127,255645,1,0,0:0:0:0:
287,83,255733,1,0,0:0:0:0:
339,67,255822,1,0,0:0:0:0:
389,87,255910,1,0,0:0:0:0:
418,133,255998,1,0,0:0:0:0:
415,187,256086,6,0,B|403:226|403:226|415:313,1,100,4|0,0:0|2:0,0:0:0:0:
378,220,256351,1,0,0:0:0:0:
349,185,256439,1,0,0:0:0:0:
311,162,256527,1,0,0:0:0:0:
267,154,256615,1,0,0:0:0:0:
223,163,256703,1,0,0:0:0:0:
192,196,256792,5,4,0:0:0:0:
221,212,256880,1,0,0:0:0:0:
254,215,256969,1,0,0:0:0:0:
286,205,257057,1,0,0:0:0:0:
312,183,257145,1,0,2:0:0:0:
350,161,257233,1,0,2:0:0:0:
395,158,257322,1,0,2:0:0:0:
437,174,257410,1,4,0:0:0:0:
462,212,257498,5,4,0:0:0:0:
468,237,257586,1,0,0:0:0:0:
464,262,257675,1,0,0:0:0:0:
456,286,257763,1,0,0:0:0:0:
425,319,257851,1,0,0:0:0:0:
383,337,257939,1,0,2:0:0:0:
338,329,258027,1,0,2:0:0:0:
306,297,258116,1,4,0:0:0:0:
302,252,258204,37,4,0:0:0:0:
302,252,258292,1,0,2:0:0:0:
302,252,258381,2,0,P|304:219|318:181,1,50
368,20,258557,1,4,0:0:0:0:
368,20,258645,1,0,2:0:0:0:
368,20,258734,2,0,P|373:52|391:88,1,50
510,206,258910,5,2,0:0:0:0:
295,11,259086,1,2,0:0:0:0:
262,283,259263,1,2,0:0:0:0:
355,138,259616,5,6,0:0:0:0:
368,139,259968,1,2,0:0:0:0:
379,141,260321,1,2,0:0:0:0:
391,142,260674,1,2,0:0:0:0:
145,88,260851,5,2,0:0:0:0:
133,90,261204,1,2,0:0:0:0:
121,92,261557,1,2,0:0:0:0:
272,166,261733,1,2,0:0:0:0:
295,152,261821,1,0,2:0:0:0:
312,132,261909,1,0,2:0:0:0:
322,106,261997,1,0,2:0:0:0:
322,80,262085,1,0,2:0:0:0:
313,54,262174,1,0,2:0:0:0:
296,33,262262,1,0,2:0:0:0:
273,20,262350,1,0,2:0:0:0:
229,18,262439,37,6,0:0:0:0:
216,19,262791,1,2,0:0:0:0:
205,21,263144,1,2,0:0:0:0:
193,22,263497,1,2,0:0:0:0:
461,103,263674,5,2,0:0:0:0:
474,102,264028,1,2,0:0:0:0:
485,100,264381,1,2,0:0:0:0:
307,10,264556,1,2,0:0:0:0:
299,35,264644,1,0,2:0:0:0:
295,62,264732,1,0,2:0:0:0:
297,89,264822,1,0,2:0:0:0:
305,115,264910,1,0,2:0:0:0:
313,140,264998,1,0,2:0:0:0:
316,167,265086,1,0,2:0:0:0:
314,194,265175,1,0,2:0:0:0:
297,232,265263,5,6,0:0:0:0:
298,245,265615,1,2,0:0:0:0:
300,256,265968,1,2,0:0:0:0:
301,268,266321,1,2,0:0:0:0:
182,69,266498,5,2,0:0:0:0:
183,56,266850,1,2,0:0:0:0:
185,45,267203,1,2,0:0:0:0:
401,171,267380,1,2,0:0:0:0:
375,169,267468,1,0,2:0:0:0:
348,166,267556,1,0,2:0:0:0:
321,163,267644,1,0,2:0:0:0:
294,160,267732,1,0,2:0:0:0:
267,157,267821,1,0,2:0:0:0:
240,155,267909,1,0,2:0:0:0:
214,152,267997,1,0,2:0:0:0:
170,148,268086,37,6,0:0:0:0:
157,149,268438,1,2,0:0:0:0:
146,151,268791,1,2,0:0:0:0:
134,152,269144,1,2,0:0:0:0:
379,80,269321,5,2,0:0:0:0:
392,82,269674,1,2,0:0:0:0:
404,83,270027,1,2,0:0:0:0:
237,214,270204,37,2,0:0:0:0:
235,206,270263,1,0,2:0:0:0:
233,198,270322,1,0,2:0:0:0:
231,190,270381,2,0,L|235:145,2,39.9999987792969,0|0|0,2:0|2:0|2:0,2:0:0:0:
321,79,270557,22,0,P|326:115|318:150,1,59.9999981689454,0|0,2:0|2:0,2:0:0:0:
298,311,270733,2,0,P|293:275|301:240,1,59.9999981689454,0|0,2:0|2:0,2:0:0:0:
407,160,270910,6,0,P|351:221|244:181,1,200,4|8,3:0|3:2,0:0:0:0:
177,15,271439,1,0,0:0:0:0:
177,15,271528,1,0,0:0:0:0:
177,15,271616,2,0,L|179:42,1,25,0|0,3:0|0:0,0:0:0:0:
268,92,271792,2,0,L|265:119,1,25
186,150,271969,2,0,L|188:177,1,25,8|0,3:2|0:0,0:0:0:0:
240,231,272145,2,0,L|237:258,1,25
102,191,272322,6,0,B|93:121|93:121|109:79,1,100,0|0,3:0|0:0,0:0:0:0:
73,123,272586,1,0,0:0:0:0:
97,140,272674,1,8,3:2:0:0:
126,146,272762,1,0,0:0:0:0:
155,141,272850,1,0,0:0:0:0:
180,125,272938,1,0,0:0:0:0:
197,101,273028,2,0,L|201:59,1,25,0|0,3:0|0:0,0:0:0:0:
247,216,273204,2,0,L|242:174,1,25
179,322,273381,2,0,L|183:280,1,25,8|0,3:2|0:0,0:0:0:0:
257,204,273557,2,0,L|252:162,1,25
31,222,273733,6,0,B|59:217|82:200|82:200|122:224|187:216,1,150,0|0,3:0|0:0,0:0:0:0:
76,182,274086,1,8,3:2:0:0:
229,348,274263,1,0,0:0:0:0:
229,348,274351,1,0,0:0:0:0:
229,348,274439,2,0,B|201:343|178:326|178:326|136:350|73:342,1,150,0|0,3:0|0:0,0:0:0:0:
184,308,274792,1,8,3:2:0:0:
102,124,274969,2,0,P|99:158|102:189,1,50
255,267,275145,38,0,L|302:263,1,25,0|0,3:0|0:0,0:0:0:0:
411,236,275322,2,0,L|364:232,1,25
266,184,275498,2,0,L|312:180,1,25,8|0,3:2|0:0,0:0:0:0:
397,148,275675,2,0,L|350:144,1,25
205,108,275851,1,0,3:0:0:0:
181,146,275939,1,0,0:0:0:0:
178,190,276027,1,0,0:0:0:0:
195,231,276115,1,0,0:0:0:0:
228,260,276203,1,8,3:2:0:0:
272,271,276292,1,0,0:0:0:0:
315,261,276380,1,0,3:0:0:0:
349,232,276468,1,0,0:0:0:0:
364,189,276557,5,0,3:0:0:0:
379,166,276645,1,0,0:0:0:0:
402,153,276733,1,0,0:0:0:0:
428,150,276822,1,0,0:0:0:0:
454,160,276910,1,8,3:2:0:0:
472,180,276998,1,0,0:0:0:0:
482,204,277086,1,0,0:0:0:0:
478,231,277174,1,0,0:0:0:0:
463,262,277262,5,0,3:0:0:0:
432,279,277350,1,0,0:0:0:0:
396,284,277439,1,0,0:0:0:0:
361,279,277527,1,0,0:0:0:0:
333,258,277615,1,8,3:2:0:0:
298,249,277704,1,0,0:0:0:0:
263,246,277792,2,0,P|234:249|203:263,1,50
66,338,277969,6,0,B|103:348|137:337|137:337|119:330|101:336,1,100,0|0,3:0|0:0,0:0:0:0:
156,330,278233,1,0,0:0:0:0:
172,299,278321,1,8,3:2:0:0:
179,265,278409,1,0,0:0:0:0:
177,230,278497,1,0,0:0:0:0:
164,197,278585,1,0,0:0:0:0:
150,163,278675,38,0,L|152:138,1,25,0|0,3:0|0:0,0:0:0:0:
250,229,278851,2,0,L|247:204,1,25
339,161,279028,2,0,L|341:136,1,25,8|0,3:2|0:0,0:0:0:0:
439,227,279204,2,0,L|436:202,1,25
246,303,279381,6,0,B|220:309|196:319|196:319|252:312|314:338,1,150,0|0,3:0|0:0,0:0:0:0:
181,335,279733,1,8,3:2:0:0:
164,207,279910,1,0,0:0:0:0:
164,207,279998,1,0,0:0:0:0:
164,207,280086,2,0,B|142:223|124:241|124:241|173:212|240:211,1,150,0|0,3:0|0:0,0:0:0:0:
120,259,280438,1,8,3:2:0:0:
309,332,280616,1,0,0:0:0:0:
309,332,280704,1,0,0:0:0:0:
309,332,280792,5,0,3:0:0:0:
341,321,280880,1,0,0:0:0:0:
366,296,280968,1,0,0:0:0:0:
377,263,281056,1,0,0:0:0:0:
372,229,281144,1,8,3:2:0:0:
353,200,281233,1,0,0:0:0:0:
322,183,281321,1,0,0:0:0:0:
288,182,281409,1,0,0:0:0:0:
256,196,281497,5,0,3:0:0:0:
299,229,281586,1,0,0:0:0:0:
353,236,281674,1,0,0:0:0:0:
402,213,281762,1,0,0:0:0:0:
433,168,281850,1,8,3:2:0:0:
435,114,281939,1,0,0:0:0:0:
409,66,282027,1,0,3:0:0:0:
362,39,282115,1,0,0:0:0:0:
308,40,282203,37,4,3:0:0:0:
309,291,282469,1,0,0:0:0:0:
309,291,282558,1,8,3:2:0:0:
294,37,282734,1,0,0:0:0:0:
294,37,282822,1,0,0:0:0:0:
294,37,282911,1,0,3:0:0:0:
315,313,283175,5,0,0:0:0:0:
314,313,283264,1,8,3:2:0:0:
294,18,283440,1,0,0:0:0:0:
294,18,283528,1,0,0:0:0:0:
294,18,283617,1,0,3:0:0:0:
319,334,283881,5,0,0:0:0:0:
318,334,283970,1,8,3:2:0:0:
293,0,284146,1,0,0:0:0:0:
293,0,284234,1,0,0:0:0:0:
293,0,284322,5,0,3:0:0:0:
243,19,284411,1,0,0:0:0:0:
209,63,284499,1,0,0:0:0:0:
205,117,284587,1,0,0:0:0:0:
228,166,284675,1,8,3:2:0:0:
274,195,284764,1,0,0:0:0:0:
329,197,284852,1,0,0:0:0:0:
375,169,284940,1,0,0:0:0:0:
402,122,285028,37,0,3:0:0:0:
124,70,285292,1,0,0:0:0:0:
124,70,285381,1,8,3:2:0:0:
430,129,285557,1,0,0:0:0:0:
430,129,285645,1,0,0:0:0:0:
430,129,285734,1,0,3:0:0:0:
99,68,285998,5,0,0:0:0:0:
100,68,286087,1,8,3:2:0:0:
455,138,286263,1,0,0:0:0:0:
455,138,286351,1,0,0:0:0:0:
455,138,286440,1,0,3:0:0:0:
71,66,286704,5,0,0:0:0:0:
72,66,286793,1,8,3:2:0:0:
479,144,286969,1,0,0:0:0:0:
479,144,287057,1,0,0:0:0:0:
479,144,287146,5,0,3:0:0:0:
445,155,287234,1,0,0:0:0:0:
410,161,287322,1,0,0:0:0:0:
374,159,287410,1,0,0:0:0:0:
339,151,287498,1,8,3:2:0:0:
305,140,287587,1,0,0:0:0:0:
269,135,287675,1,0,0:0:0:0:
233,138,287763,1,0,0:0:0:0:
202,155,287851,38,0,P|268:119|228:88,1,150,4|0,3:0|0:0,0:0:0:0:
177,160,288204,1,8,3:2:0:0:
190,174,288292,1,0,0:0:0:0:
208,184,288380,1,0,0:0:0:0:
227,187,288468,1,0,0:0:0:0:
247,183,288556,1,0,3:0:0:0:
264,174,288645,1,0,0:0:0:0:
278,159,288733,1,0,0:0:0:0:
285,141,288821,1,0,0:0:0:0:
287,121,288909,1,8,3:2:0:0:
282,102,288998,1,0,0:0:0:0:
271,85,289086,1,0,0:0:0:0:
255,73,289174,1,0,0:0:0:0:
225,66,289263,5,0,3:0:0:0:
214,99,289351,1,0,0:0:0:0:
209,134,289439,1,0,0:0:0:0:
213,168,289527,1,0,0:0:0:0:
225,201,289615,1,8,3:2:0:0:
234,235,289704,1,0,0:0:0:0:
234,270,289792,1,0,0:0:0:0:
227,304,289880,1,0,0:0:0:0:
200,334,289969,5,0,3:0:0:0:
201,297,290057,1,0,0:0:0:0:
215,261,290145,1,0,0:0:0:0:
242,236,290233,1,0,0:0:0:0:
277,222,290322,1,8,3:2:0:0:
314,224,290410,1,0,0:0:0:0:
348,240,290498,1,0,0:0:0:0:
375,267,290586,1,0,0:0:0:0:
387,305,290675,6,0,B|382:251|406:212|406:212|393:183|391:144,1,150,0|0,3:0|0:0,0:0:0:0:
427,214,291028,1,8,3:2:0:0:
468,188,291116,1,0,0:0:0:0:
489,143,291204,1,0,0:0:0:0:
482,94,291292,1,0,0:0:0:0:
449,58,291380,1,0,3:0:0:0:
401,45,291469,1,0,0:0:0:0:
355,61,291557,1,0,0:0:0:0:
328,103,291645,1,0,0:0:0:0:
287,131,291733,1,8,3:2:0:0:
237,134,291821,1,0,0:0:0:0:
193,111,291909,1,0,0:0:0:0:
167,70,291997,1,0,0:0:0:0:
171,14,292086,37,0,3:0:0:0:
214,45,292174,1,0,0:0:0:0:
235,95,292262,1,0,3:0:0:0:
227,149,292350,1,0,0:0:0:0:
192,191,292438,1,8,3:2:0:0:
141,208,292527,1,0,0:0:0:0:
88,196,292615,1,0,0:0:0:0:
49,158,292703,1,0,0:0:0:0:
36,94,292792,5,0,3:0:0:0:
99,77,292881,1,0,0:0:0:0:
161,95,292969,1,0,3:0:0:0:
207,139,293057,1,0,3:0:0:0:
268,160,293145,1,8,3:2:0:0:
331,144,293233,1,0,0:0:0:0:
369,91,293322,1,0,3:0:0:0:
352,28,293410,1,0,3:0:0:0:
293,0,293498,5,4,3:0:0:0:
265,14,296322,5,0,0:0:0:0:
285,77,296439,37,0,0:0:0:0:
287,144,296557,5,0,0:0:0:0:
266,208,296675,5,0,0:0:0:0:
250,245,296763,1,0,0:0:0:0:
251,285,296851,21,0,0:0:0:0:
254,292,296910,1,0,0:0:0:0:
256,299,296969,1,0,0:0:0:0:
258,308,297028,2,0,L|254:354,1,34.9999989318848
179,268,297204,2,0,L|182:312,2,23.3333326212565
263,342,297381,2,0,L|267:388,1,34.9999989318848
342,302,297557,2,0,L|338:346,2,23.3333326212565
228,211,297733,5,0,0:0:0:0:
221,210,297792,1,0,0:0:0:0:
214,209,297851,1,0,0:0:0:0:
208,209,297910,2,0,L|157:216,1,46.6666652425131
261,293,298086,69,0,0:0:0:0:
254,292,298145,1,0,0:0:0:0:
247,291,298204,1,0,0:0:0:0:
239,290,298263,2,0,L|194:296,1,34.9999989318848
354,262,298439,21,0,0:0:0:0:
385,245,298528,1,0,0:0:0:0:
400,213,298616,2,0,L|397:186,2,23.3333326212565
345,94,298792,2,0,L|342:120,2,23.3333326212565
279,183,298969,2,0,L|281:209,2,23.3333326212565
226,86,299145,6,0,B|214:37|217:16|217:16|236:-5,1,89.9999972534181,2|0,0:0|0:0,0:0:0:0:
217,103,299410,1,0,0:0:0:0:
183,116,299498,1,2,0:0:0:0:
147,116,299586,1,0,0:0:0:0:
115,97,299675,2,0,L|70:92,2,29.9999990844727
183,193,299851,37,2,0:0:0:0:
185,201,299910,1,0,0:0:0:0:
187,209,299969,1,0,0:0:0:0:
189,217,300028,2,0,L|184:263,1,44.999998626709
118,298,300204,5,2,0:0:0:0:
116,306,300263,1,0,0:0:0:0:
114,314,300322,1,0,0:0:0:0:
111,322,300381,2,0,L|117:368,1,44.999998626709
206,349,300557,69,2,0:0:0:0:
214,351,300616,1,0,0:0:0:0:
222,353,300675,1,0,0:0:0:0:
230,354,300733,1,0,0:0:0:0:
238,352,300792,1,0,0:0:0:0:
246,349,300851,1,0,0:0:0:0:
254,347,300910,6,0,L|257:317,5,29.9999990844727,2|0|0|0|0|0,0:0|0:0|0:0|0:0|0:0|0:0,0:0:0:0:
233,244,301263,6,0,L|229:192,1,44.999998626709,2|0,0:0|0:0,0:0:0:0:
323,281,301439,2,0,L|327:229,1,44.999998626709
295,134,301616,53,2,0:0:0:0:
297,126,301675,1,0,0:0:0:0:
299,118,301734,1,0,0:0:0:0:
301,110,301792,1,0,0:0:0:0:
299,102,301851,1,0,0:0:0:0:
297,94,301910,1,0,0:0:0:0:
294,85,301969,22,0,B|286:28|286:28|298:-13,1,89.9999972534181,2|0,0:0|0:0,0:0:0:0:
262,28,302233,1,0,0:0:0:0:
234,43,302322,2,0,L|198:45,2,29.9999990844727,2|0|0,0:0|0:0|0:0,0:0:0:0:
164,112,302498,2,0,L|116:108,1,44.999998626709
41,182,302675,2,0,L|89:178,1,44.999998626709,2|0,0:0|0:0,0:0:0:0:
155,223,302851,2,0,L|191:225,2,29.9999990844727
72,264,303028,53,2,0:0:0:0:
70,272,303086,1,0,0:0:0:0:
69,281,303145,1,0,0:0:0:0:
68,290,303204,2,0,P|73:319|85:352,1,44.999998626709
163,362,303381,6,0,L|201:359,2,29.9999990844727,2|0|0,0:0|0:0|0:0,0:0:0:0:
267,317,303557,2,0,L|332:324,1,44.999998626709
407,360,303733,2,0,L|404:328,2,29.9999990844727,2|0|0,0:0|0:0|0:0,0:0:0:0:
457,264,303910,2,0,L|460:232,2,29.9999990844727
394,162,304086,69,6,0:3:0:0:
392,152,304145,1,0,0:0:0:0:
393,142,304204,1,0,0:0:0:0:
396,132,304263,1,0,0:0:0:0:
411,100,304351,21,0,0:0:0:0:
412,64,304439,1,0,0:0:0:0:
402,29,304528,1,0,0:0:0:0:
372,8,304616,1,0,0:0:0:0:
336,0,304704,1,0,0:0:0:0:
297,13,304792,5,6,0:0:0:0:
245,252,305322,1,2,0:0:0:0:
245,252,305411,1,2,0:0:0:0:
245,252,305499,1,2,0:0:0:0:
297,13,306028,1,2,0:0:0:0:
297,13,306116,1,2,0:0:0:0:
297,13,306205,5,2,0:0:0:0:
245,252,306381,1,2,0:0:0:0:
245,252,306469,1,2,0:0:0:0:
245,252,306558,1,2,0:0:0:0:
297,13,306734,1,0,0:0:0:0:
400,198,306911,1,2,0:0:0:0:
186,89,307087,1,0,2:0:0:0:
151,97,307175,1,0,2:0:0:0:
123,121,307263,1,0,2:0:0:0:
123,166,307351,1,2,0:0:0:0:
123,166,307439,1,2,0:0:0:0:
123,166,307528,1,2,0:0:0:0:
123,166,307616,5,6,0:0:0:0:
381,131,308146,1,2,0:0:0:0:
381,131,308234,1,2,0:0:0:0:
381,131,308322,1,2,0:0:0:0:
123,166,308852,1,2,0:0:0:0:
123,166,308940,1,2,0:0:0:0:
123,166,309028,37,2,0:0:0:0:
381,131,309205,1,2,0:0:0:0:
381,131,309293,1,2,0:0:0:0:
381,131,309381,1,2,0:0:0:0:
123,166,309558,1,2,0:0:0:0:
300,341,309733,1,2,0:0:0:0:
328,320,309821,1,0,2:0:0:0:
346,290,309909,1,0,0:0:0:0:
350,256,309997,1,0,0:0:0:0:
341,223,310085,1,0,0:0:0:0:
319,195,310174,1,0,2:0:0:0:
289,179,310262,1,0,0:0:0:0:
254,176,310350,1,0,0:0:0:0:
221,188,310438,5,6,0:0:0:0:
433,354,310969,1,2,0:0:0:0:
433,354,311058,1,2,0:0:0:0:
433,354,311146,1,2,0:0:0:0:
221,188,311675,1,2,0:0:0:0:
221,188,311763,1,2,0:0:0:0:
221,188,311852,5,2,0:0:0:0:
433,354,312028,1,2,0:0:0:0:
433,354,312117,1,2,0:0:0:0:
433,354,312205,1,2,0:0:0:0:
221,188,312381,1,0,0:0:0:0:
365,51,312558,1,2,0:0:0:0:
344,293,312734,1,0,2:0:0:0:
320,257,312822,1,0,2:0:0:0:
320,222,312910,1,0,2:0:0:0:
335,189,312999,1,2,0:0:0:0:
335,189,313087,2,0,L|396:185,1,50,2|2,0:0|0:0,0:0:0:0:
217,109,313263,5,2,0:0:0:0:
217,109,313352,1,0,2:0:0:0:
217,109,313440,2,0,P|229:84|246:61,1,50,2|2,0:0|0:0,0:0:0:0:
105,182,313616,1,2,0:0:0:0:
105,182,313705,1,0,2:0:0:0:
105,182,313793,2,0,P|99:154|102:127,1,50,2|2,0:0|0:0,0:0:0:0:
30,367,313969,37,2,0:0:0:0:
71,383,314057,1,0,2:0:0:0:
120,382,314145,1,2,0:0:0:0:
163,359,314233,1,2,0:0:0:0:
192,320,314321,1,2,0:0:0:0:
199,271,314410,1,0,2:0:0:0:
185,227,314498,1,2,0:0:0:0:
150,189,314586,1,2,0:0:0:0:
97,195,314675,53,6,3:0:0:0:
105,208,314733,1,0,0:0:0:0:
119,220,314792,1,0,0:0:0:0:
135,228,314851,1,0,0:0:0:0:
152,230,314910,1,0,0:0:0:0:
169,230,314969,1,0,0:0:0:0:
185,227,315028,37,0,0:0:0:0:
231,198,315116,1,0,0:0:0:0:
285,194,315204,1,0,0:0:0:0:
331,223,315292,1,0,0:0:0:0:
354,273,315381,2,0,L|350:328,5,33.3333333333333
288,170,315733,2,0,L|284:115,5,33.3333333333333
274,292,316086,37,0,0:0:0:0:
267,293,316144,1,0,0:0:0:0:
261,293,316203,1,0,0:0:0:0:
254,294,316262,1,0,0:0:0:0:
248,295,316321,1,0,0:0:0:0:
241,296,316380,1,0,0:0:0:0:
234,296,316439,2,0,L|192:293,5,33.3333333333333
134,226,316792,5,0,0:0:0:0:
141,226,316850,1,0,0:0:0:0:
148,227,316909,1,0,0:0:0:0:
154,228,316968,1,0,0:0:0:0:
161,228,317027,1,0,0:0:0:0:
168,229,317086,1,0,0:0:0:0:
175,229,317145,2,0,L|217:226,5,33.3333333333333
69,188,317498,6,0,B|46:131|60:70|60:70|71:107|93:134,1,179.999994506836,4|0,3:0|0:0,0:0:0:0:
70,53,317851,1,8,3:0:0:0:
212,252,318028,1,0,0:0:0:0:
212,252,318116,1,0,0:0:0:0:
212,252,318204,2,0,B|235:195|221:134|221:134|209:169|188:198,1,179.999994506836,4|0,3:0|0:0,0:0:0:0:
211,117,318557,1,8,3:0:0:0:
92,310,318734,1,0,0:0:0:0:
92,310,318822,1,0,0:0:0:0:
92,310,318910,5,4,3:0:0:0:
136,338,318998,1,0,0:0:0:0:
190,343,319086,1,0,0:0:0:0:
239,322,319174,1,0,0:0:0:0:
272,280,319262,1,8,3:0:0:0:
273,226,319351,1,0,0:0:0:0:
271,172,319439,1,0,0:0:0:0:
303,128,319528,1,0,0:0:0:0:
354,112,319616,6,0,B|395:113|420:126|420:126|383:85|314:96,1,179.999994506836,4|0,3:0|0:0,0:0:0:0:
429,146,319969,1,8,3:0:0:0:
174,208,320145,1,0,0:0:0:0:
174,208,320233,1,0,0:0:0:0:
174,208,320322,6,0,B|133:209|108:222|108:222|145:181|214:192,1,179.999994506836,4|0,3:0|0:0,0:0:0:0:
99,242,320675,1,8,3:0:0:0:
83,287,320763,1,0,0:0:0:0:
88,334,320851,1,0,0:0:0:0:
122,367,320939,1,0,0:0:0:0:
169,373,321028,2,0,B|176:316|196:270|196:270|170:233|167:171,1,179.999994506836,4|0,3:0|0:0,0:0:0:0:
214,273,321381,1,8,3:0:0:0:
256,294,321469,1,0,0:0:0:0:
303,293,321557,1,0,0:0:0:0:
345,270,321645,1,0,0:0:0:0:
368,208,321733,37,4,3:0:0:0:
324,254,321821,1,0,0:0:0:0:
336,317,321909,1,0,0:0:0:0:
394,344,321997,1,0,0:0:0:0:
450,314,322086,1,8,3:0:0:0:
465,250,322174,1,0,0:0:0:0:
440,188,322262,1,0,0:0:0:0:
443,122,322350,1,0,0:0:0:0:
483,68,322439,6,0,B|402:53|402:53|343:71,1,119.999996337891,4|0,3:0|0:0,0:0:0:0:
402,32,322704,1,0,0:0:0:0:
402,32,322792,1,8,3:0:0:0:
476,309,322969,1,0,3:0:0:0:
208,113,323145,5,4,3:0:0:0:
173,102,323233,1,0,0:0:0:0:
138,107,323321,1,0,0:0:0:0:
108,125,323409,1,0,0:0:0:0:
88,155,323497,1,8,3:0:0:0:
82,190,323586,1,0,0:0:0:0:
91,225,323674,1,0,0:0:0:0:
113,253,323762,1,0,0:0:0:0:
145,268,323851,5,4,3:0:0:0:
203,280,323939,1,0,0:0:0:0:
261,267,324027,1,0,0:0:0:0:
309,231,324115,1,0,0:0:0:0:
367,225,324203,1,8,3:0:0:0:
409,266,324292,1,0,0:0:0:0:
409,324,324380,1,0,0:0:0:0:
364,361,324468,1,0,0:0:0:0:
310,364,324557,38,0,B|287:325|291:279|305:257|305:257|335:244|371:259,1,179.999994506836,4|0,3:0|0:0,0:0:0:0:
285,242,324910,1,8,3:0:0:0:
251,226,324998,1,0,0:0:0:0:
214,226,325086,1,0,0:0:0:0:
179,240,325174,1,0,0:0:0:0:
155,275,325263,2,0,B|151:209|166:166|166:166|141:197|113:215,1,179.999994506836,4|0,3:0|0:0,0:0:0:0:
180,147,325616,1,8,3:0:0:0:
200,111,325704,1,0,0:0:0:0:
197,70,325792,1,0,0:0:0:0:
170,38,325880,1,0,0:0:0:0:
130,29,325968,5,4,3:0:0:0:
38,286,326145,1,0,0:0:0:0:
77,322,326233,1,0,0:0:0:0:
130,331,326321,1,8,3:0:0:0:
181,314,326409,1,0,0:0:0:0:
215,272,326497,1,0,0:0:0:0:
223,217,326586,1,0,0:0:0:0:
200,166,326674,5,4,3:0:0:0:
414,267,326851,1,0,0:0:0:0:
369,296,326939,1,0,0:0:0:0:
316,306,327027,1,8,3:0:0:0:
264,293,327115,1,0,0:0:0:0:
222,260,327203,1,0,0:0:0:0:
197,212,327292,1,0,0:0:0:0:
193,159,327381,5,4,3:0:0:0:
193,159,327469,1,0,0:0:0:0:
193,159,327557,2,0,L|198:88,1,59.9999981689454
333,326,327733,1,12,3:0:0:0:
333,326,327822,1,0,0:0:0:0:
333,326,327910,2,0,L|328:255,1,59.9999981689454
308,13,328087,37,2,3:0:0:0:
183,338,328263,1,2,3:0:0:0:
459,160,328439,1,2,3:0:0:0:
190,112,328616,1,0,0:0:0:0:
190,112,328704,1,0,0:0:0:0:
190,112,328792,6,0,B|152:99|123:104|123:104|62:133|0:107,1,179.999994506836,4|0,3:0|0:0,0:0:0:0:
120,83,329145,1,8,3:0:0:0:
0,260,329322,1,0,0:0:0:0:
0,260,329410,1,0,0:0:0:0:
0,260,329498,1,4,3:0:0:0:
69,19,329675,1,0,0:0:0:0:
159,285,329851,1,8,3:0:0:0:
242,82,330028,1,0,0:0:0:0:
242,82,330116,1,0,0:0:0:0:
242,82,330204,5,4,3:0:0:0:
282,90,330292,1,0,0:0:0:0:
312,119,330380,1,0,0:0:0:0:
322,160,330468,1,0,0:0:0:0:
309,199,330556,1,8,3:0:0:0:
277,226,330645,1,0,0:0:0:0:
236,232,330733,1,0,0:0:0:0:
198,215,330821,1,0,0:0:0:0:
158,178,330910,5,4,3:0:0:0:
107,166,330998,1,0,0:0:0:0:
57,185,331086,1,0,0:0:0:0:
27,229,331174,1,0,0:0:0:0:
26,282,331262,1,8,3:0:0:0:
56,326,331351,1,0,0:0:0:0:
105,346,331439,1,0,0:0:0:0:
157,335,331527,1,0,0:0:0:0:
193,294,331615,37,4,3:0:0:0:
159,51,331881,1,0,0:0:0:0:
159,51,331969,1,8,3:0:0:0:
205,317,332145,1,0,0:0:0:0:
205,317,332234,1,0,0:0:0:0:
205,317,332322,1,4,3:0:0:0:
156,31,332587,5,0,0:0:0:0:
157,31,332675,1,8,3:0:0:0:
216,345,332851,1,0,0:0:0:0:
216,345,332939,1,0,0:0:0:0:
216,345,333028,5,4,3:0:0:0:
158,333,333116,1,0,0:0:0:0:
116,290,333204,1,0,0:0:0:0:
105,232,333292,1,0,0:0:0:0:
128,178,333380,1,8,3:0:0:0:
178,146,333469,1,0,0:0:0:0:
237,147,333557,1,0,0:0:0:0:
286,180,333645,1,0,0:0:0:0:
302,238,333734,5,4,3:0:0:0:
260,245,333822,1,0,0:0:0:0:
218,228,333910,1,0,0:0:0:0:
192,192,333998,1,0,0:0:0:0:
192,149,334086,1,8,3:0:0:0:
216,111,334175,1,0,0:0:0:0:
258,88,334263,2,0,P|290:87|335:98,1,59.9999981689454,0|0,3:0|0:0,0:0:0:0:
226,301,334439,37,4,3:0:0:0:
192,314,334527,1,0,0:0:0:0:
157,318,334615,1,0,0:0:0:0:
121,312,334703,1,0,0:0:0:0:
89,296,334791,1,8,3:0:0:0:
63,272,334880,1,0,0:0:0:0:
50,237,334969,2,0,P|48:206|57:173,1,59.9999981689454
209,26,335145,5,4,3:0:0:0:
224,70,335233,1,0,0:0:0:0:
231,117,335321,1,0,0:0:0:0:
222,164,335409,1,0,0:0:0:0:
201,206,335497,1,8,3:0:0:0:
170,242,335586,1,0,0:0:0:0:
122,258,335675,2,0,P|80:260|36:248,1,59.9999981689454
185,27,335851,5,4,3:0:0:0:
237,9,335939,1,0,0:0:0:0:
293,0,336027,1,0,0:0:0:0:
349,11,336115,1,0,0:0:0:0:
399,36,336203,1,8,3:0:0:0:
442,73,336292,1,0,0:0:0:0:
448,128,336381,2,0,P|451:177|436:229,1,59.9999981689454
307,370,336557,5,4,3:0:0:0:
209,66,336733,1,0,0:0:0:0:
257,32,336821,1,0,0:0:0:0:
316,33,336909,1,8,3:0:0:0:
361,70,336997,1,0,0:0:0:0:
376,127,337085,1,0,0:0:0:0:
353,182,337174,1,0,0:0:0:0:
302,211,337262,37,4,3:0:0:0:
30,71,337439,1,0,0:0:0:0:
80,52,337527,1,0,0:0:0:0:
134,51,337615,1,8,3:0:0:0:
185,68,337703,1,0,0:0:0:0:
235,88,337791,1,0,0:0:0:0:
288,89,337880,1,0,0:0:0:0:
340,72,337968,5,4,3:0:0:0:
113,138,338145,1,0,0:0:0:0:
82,173,338233,1,0,0:0:0:0:
76,220,338321,1,8,3:0:0:0:
98,263,338409,1,0,0:0:0:0:
139,286,338497,1,0,0:0:0:0:
186,282,338586,1,0,0:0:0:0:
248,245,338675,5,4,3:0:0:0:
318,231,338763,1,0,0:0:0:0:
386,251,338851,1,0,0:0:0:0:
438,300,338939,1,0,0:0:0:0:
463,367,339027,5,8,3:0:0:0:
405,322,339116,1,0,0:0:0:0:
374,259,339204,1,0,0:0:0:0:
375,187,339292,1,0,0:0:0:0:
409,123,339381,37,2,3:0:0:0:
243,374,339557,1,2,3:0:0:0:
179,21,339734,1,2,3:0:0:0:
453,213,339910,1,0,0:0:0:0:
453,213,339998,1,0,0:0:0:0:
453,213,340086,5,4,3:0:0:0:
412,190,340174,1,0,0:0:0:0:
367,188,340262,1,0,0:0:0:0:
326,206,340350,1,0,0:0:0:0:
297,241,340438,1,8,3:0:0:0:
287,285,340527,1,0,0:0:0:0:
298,329,340615,1,0,0:0:0:0:
327,363,340703,1,0,0:0:0:0:
372,371,340792,5,4,3:0:0:0:
390,329,340880,1,0,0:0:0:0:
394,284,340968,1,0,0:0:0:0:
380,241,341056,1,0,0:0:0:0:
358,201,341144,1,8,3:0:0:0:
343,158,341233,1,0,0:0:0:0:
341,113,341321,1,0,0:0:0:0:
352,69,341409,1,0,0:0:0:0:
396,41,341498,5,4,3:0:0:0:
393,97,341586,1,0,0:0:0:0:
368,146,341674,1,0,0:0:0:0:
328,185,341762,1,0,0:0:0:0:
276,205,341850,1,8,3:0:0:0:
220,204,341939,1,0,0:0:0:0:
169,181,342027,1,0,0:0:0:0:
130,141,342115,1,0,0:0:0:0:
110,88,342204,38,0,P|108:47|119:6,1,64.9999970245363,4|0,3:0|0:0,0:0:0:0:
275,110,342381,53,0,0:0:0:0:
278,122,342439,1,0,0:0:0:0:
276,134,342498,1,0,0:0:0:0:
271,146,342557,2,0,P|303:141|342:144,1,64.9999970245363,8|0,3:0|0:0,0:0:0:0:
239,289,342733,2,0,P|218:263|201:228,1,64.9999970245363
373,278,342910,21,4,3:0:0:0:
115,384,343086,1,0,0:0:0:0:
89,346,343174,1,0,0:0:0:0:
84,302,343262,1,8,3:0:0:0:
100,260,343350,1,0,0:0:0:0:
135,231,343438,1,0,0:0:0:0:
179,222,343527,1,0,0:0:0:0:
223,234,343616,5,4,3:0:0:0:
92,101,343792,1,0,0:0:0:0:
74,141,343880,1,0,0:0:0:0:
77,187,343968,1,8,3:0:0:0:
103,224,344056,1,0,0:0:0:0:
143,245,344144,1,0,0:0:0:0:
188,245,344233,1,0,0:0:0:0:
232,233,344322,5,4,3:0:0:0:
301,218,344410,1,0,0:0:0:0:
369,232,344498,1,0,0:0:0:0:
429,271,344586,1,0,0:0:0:0:
468,330,344674,5,12,3:0:0:0:
400,300,344764,1,0,0:0:0:0:
352,251,344852,1,0,0:0:0:0:
325,185,344940,1,0,0:0:0:0:
324,114,345028,1,4,3:0:0:0:
355,49,345116,1,0,0:0:0:0:
417,16,345204,5,0,0:0:0:0:
430,15,345263,1,0,0:0:0:0:
443,14,345322,1,0,0:0:0:0:
456,13,345381,2,0,P|455:50|446:89,1,64.9999970245363,8|0,3:0|0:0,0:0:0:0:
270,80,345557,2,0,P|302:62|340:50,1,64.9999970245363,0|0,3:0|0:0,0:0:0:0:
490,165,345733,21,4,3:0:0:0:
467,204,345821,1,0,0:0:0:0:
431,231,345909,1,0,0:0:0:0:
387,240,345997,1,0,0:0:0:0:
343,230,346085,1,8,3:0:0:0:
302,208,346175,1,0,0:0:0:0:
257,198,346263,1,0,0:0:0:0:
213,207,346351,1,0,0:0:0:0:
177,234,346439,5,4,3:0:0:0:
216,255,346527,1,0,0:0:0:0:
261,252,346615,1,0,0:0:0:0:
298,227,346703,1,0,0:0:0:0:
317,186,346791,1,8,3:0:0:0:
311,141,346880,1,0,0:0:0:0:
284,106,346968,1,0,0:0:0:0:
242,90,347056,1,0,0:0:0:0:
197,98,347144,37,4,3:0:0:0:
184,102,347203,1,0,0:0:0:0:
170,102,347262,1,0,0:0:0:0:
157,99,347321,1,0,0:0:0:0:
146,91,347380,1,0,0:0:0:0:
139,79,347439,1,0,0:0:0:0:
133,66,347498,2,0,P|129:105|115:140,1,64.9999970245363,8|0,3:0|0:0,0:0:0:0:
284,216,347675,2,0,P|252:193|228:163,1,64.9999970245363
272,33,347851,21,4,3:0:0:0:
308,16,347939,1,0,0:0:0:0:
349,14,348027,1,0,0:0:0:0:
388,25,348115,1,0,0:0:0:0:
421,48,348203,1,8,3:0:0:0:
385,86,348292,1,0,0:0:0:0:
334,98,348381,1,0,0:0:0:0:
282,89,348469,1,0,0:0:0:0:
239,58,348557,5,4,3:0:0:0:
459,162,348733,1,0,0:0:0:0:
469,225,348821,1,0,0:0:0:0:
444,286,348909,1,8,3:0:0:0:
389,324,348997,1,0,0:0:0:0:
325,326,349085,1,0,0:0:0:0:
267,294,349174,1,0,0:0:0:0:
252,228,349263,37,4,3:0:0:0:
255,215,349322,1,0,0:0:0:0:
257,202,349381,1,0,0:0:0:0:
260,189,349439,2,0,P|229:204|177:209,1,64.9999970245363
97,113,349616,21,8,3:0:0:0:
143,89,349704,1,0,0:0:0:0:
194,86,349792,1,0,0:0:0:0:
243,104,349881,1,0,0:0:0:0:
288,157,349969,5,4,3:0:0:0:
352,182,350057,1,0,0:0:0:0:
420,169,350145,1,0,0:0:0:0:
467,120,350233,1,0,0:0:0:0:
486,49,350322,5,8,3:0:0:0:
426,95,350410,1,0,0:0:0:0:
400,167,350498,1,0,0:0:0:0:
420,241,350586,1,0,0:0:0:0:
484,288,350675,5,2,3:0:0:0:
371,27,350851,1,2,3:0:0:0:
239,332,351028,1,2,3:0:0:0:
425,152,351204,1,0,0:0:0:0:
425,152,351292,1,0,0:0:0:0:
425,152,351381,37,4,3:0:0:0:
389,185,351469,1,0,0:0:0:0:
343,199,351557,1,0,0:0:0:0:
295,190,351645,1,0,0:0:0:0:
256,160,351733,1,8,3:0:0:0:
237,116,351822,1,0,0:0:0:0:
239,67,351910,1,0,0:0:0:0:
264,25,351998,1,0,0:0:0:0:
307,3,352086,5,4,3:0:0:0:
331,45,352174,1,0,0:0:0:0:
343,92,352262,1,0,0:0:0:0:
335,141,352350,1,0,0:0:0:0:
310,183,352438,1,8,3:0:0:0:
282,224,352527,1,0,0:0:0:0:
265,269,352615,1,0,0:0:0:0:
268,318,352703,1,0,0:0:0:0:
289,362,352791,5,4,3:0:0:0:
305,308,352880,1,0,0:0:0:0:
297,253,352968,1,0,0:0:0:0:
269,205,353056,1,0,0:0:0:0:
223,174,353144,1,8,3:0:0:0:
168,164,353233,1,0,0:0:0:0:
114,177,353321,1,0,0:0:0:0:
71,212,353409,1,0,0:0:0:0:
58,267,353497,21,4,3:0:0:0:
61,280,353557,1,0,0:0:0:0:
63,292,353616,1,0,0:0:0:0:
66,304,353675,2,0,P|77:277|81:241,1,64.9999970245363
14,71,353851,21,8,3:0:0:0:
58,101,353939,1,0,0:0:0:0:
112,109,354027,1,0,0:0:0:0:
164,92,354115,1,0,0:0:0:0:
201,50,354204,5,4,3:0:0:0:
149,340,354469,1,0,0:0:0:0:
149,340,354557,1,8,3:0:0:0:
213,33,354733,1,0,0:0:0:0:
213,33,354822,1,0,0:0:0:0:
213,33,354910,1,4,3:0:0:0:
149,373,355175,5,0,0:0:0:0:
149,373,355264,1,8,3:0:0:0:
219,10,355439,1,0,0:0:0:0:
219,10,355528,1,0,0:0:0:0:
219,10,355616,5,4,3:0:0:0:
164,42,355704,1,0,0:0:0:0:
143,102,355792,1,0,0:0:0:0:
167,161,355880,1,0,0:0:0:0:
223,191,355968,1,8,3:0:0:0:
285,176,356057,1,0,0:0:0:0:
340,141,356145,1,0,0:0:0:0:
404,139,356233,1,0,0:0:0:0:
460,172,356322,5,4,3:0:0:0:
461,184,356381,1,0,0:0:0:0:
462,196,356439,1,0,0:0:0:0:
463,208,356498,1,0,0:0:0:0:
464,220,356557,1,0,0:0:0:0:
465,232,356616,1,0,0:0:0:0:
466,244,356675,2,0,P|478:212|509:175,1,64.9999970245363,8|0,3:0|0:0,0:0:0:0:
339,113,356851,2,0,P|360:139|377:184,1,64.9999970245363,0|0,3:0|0:0,0:0:0:0:
329,318,357028,21,4,3:0:0:0:
277,315,357116,1,0,0:0:0:0:
232,289,357204,1,0,0:0:0:0:
204,246,357292,1,0,0:0:0:0:
199,195,357380,1,8,3:0:0:0:
217,146,357469,1,0,0:0:0:0:
255,112,357557,1,0,0:0:0:0:
305,98,357645,1,0,0:0:0:0:
363,113,357733,5,4,3:0:0:0:
305,130,357821,1,0,0:0:0:0:
244,122,357909,1,0,0:0:0:0:
194,89,357997,1,0,0:0:0:0:
138,67,358085,1,8,3:0:0:0:
81,87,358174,1,0,0:0:0:0:
49,138,358262,1,0,0:0:0:0:
55,197,358350,1,0,0:0:0:0:
98,241,358438,37,4,3:0:0:0:
109,247,358498,1,0,0:0:0:0:
119,255,358557,1,0,0:0:0:0:
127,264,358616,1,0,0:0:0:0:
132,275,358675,1,0,0:0:0:0:
135,287,358733,1,0,0:0:0:0:
136,299,358792,2,0,P|142:269|160:226,1,64.9999970245363,8|0,3:0|0:0,0:0:0:0:
301,340,358969,2,0,P|272:349|225:355,1,64.9999970245363
298,177,359145,5,4,3:0:0:0:
59,307,359322,1,0,0:0:0:0:
50,304,359381,1,0,0:0:0:0:
41,301,359439,1,0,0:0:0:0:
32,298,359498,2,0,L|-22:303,2,43.3333313496908,8|0|0,3:0|0:0|0:0,0:0:0:0:
137,249,359675,2,0,L|191:254,2,43.3333313496908
11,207,359851,69,4,3:0:0:0:
152,64,360028,1,0,0:0:0:0:
150,77,360087,1,0,0:0:0:0:
148,90,360145,1,0,0:0:0:0:
146,103,360204,2,0,L|153:174,2,43.3333313496908,8|0|0,3:0|0:0|0:0,0:0:0:0:
98,215,360381,2,0,L|120:283,2,43.3333313496908
184,327,360557,5,4,3:0:0:0:
340,184,360733,1,0,0:0:0:0:
338,170,360792,1,0,0:0:0:0:
337,157,360850,1,0,0:0:0:0:
336,144,360910,2,0,L|343:72,2,43.3333313496908,8|0|0,3:0|0:0|0:0,0:0:0:0:
257,218,361086,2,0,L|249:289,2,43.3333313496908
236,103,361263,69,4,3:0:0:0:
224,97,361322,1,0,0:0:0:0:
211,95,361381,1,0,0:0:0:0:
198,94,361439,2,0,L|148:97,2,43.3333313496908
297,36,361616,5,12,3:0:0:0:
309,30,361675,1,0,0:0:0:0:
322,28,361734,1,0,0:0:0:0:
335,27,361792,2,0,L|385:30,2,43.3333313496908
179,6,361969,5,2,3:0:0:0:
142,289,362146,1,2,3:0:0:0:
499,205,362321,1,2,3:0:0:0:
168,36,362675,5,0,0:0:0:0:
139,261,362852,1,0,0:0:0:0:
422,194,363027,1,0,0:0:0:0:
176,53,363381,5,0,0:0:0:0:
152,243,363558,1,0,0:0:0:0:
390,186,363733,1,0,0:0:0:0:
183,35,364086,5,6,3:0:0:0:
202,110,364174,1,0,0:0:0:0:
255,169,364262,1,0,0:0:0:0:
329,196,364350,1,0,0:0:0:0:
408,185,364438,37,6,3:0:0:0:
336,149,364528,1,0,0:0:0:0:
256,153,364616,1,0,0:0:0:0:
188,191,364704,1,0,0:0:0:0:
147,260,364792,5,6,3:0:0:0:
142,275,365145,5,0,0:0:0:0:
256,192,365233,12,0,369733,0:0:0:0:
