osu file format v14

[General]
AudioFilename: audio.mp3
AudioLeadIn: 0
PreviewTime: 314675
Countdown: 0
SampleSet: Soft
StackLeniency: 0.3
Mode: 0
LetterboxInBreaks: 0
WidescreenStoryboard: 0

[Editor]
Bookmarks: 45028,112086,314675
DistanceSpacing: 1
BeatDivisor: 4
GridSize: 32
TimelineZoom: 1.9

[Metadata]
Title:Parodia Sonatina -Grande-
TitleUnicode:Parodia Sonatina -Grande-
Artist:Ice
ArtistUnicode:Ice
Creator:Reol
Version:Grande Finale
Source:
Tags:
BeatmapID:1736181
BeatmapSetID:828676

[Difficulty]
HPDrainRate:6
CircleSize:5
OverallDifficulty:8
ApproachRate:9.3
SliderMultiplier:1.8
SliderTickRate:1

[Events]
//Background and Video events
//Break Periods
//Storyboard Layer 0 (Background)
//Storyboard Layer 1 (Fail)
//Storyboard Layer 2 (Pass)
//Storyboard Layer 3 (Foreground)
//Storyboard Sound Samples

[TimingPoints]
1520,500,4,2,1,30,1,0
17520,-100,4,2,1,30,0,0
33020,714.285714285714,4,2,1,50,1,0
33734,352.941176470588,4,2,1,45,1,0
54910,-100,4,2,1,45,0,0
56322,-83.3333333333333,4,2,1,45,0,0
67616,-71.4285714285714,4,2,1,45,0,0
69733,-100,4,2,1,45,0,0
70439,-100,4,2,1,45,0,0
78910,-100,4,2,1,45,0,0
90204,-100,4,2,1,45,0,0
101498,-100,4,2,1,45,0,0
112792,-100,4,2,1,45,0,1
123733,-100,4,2,1,45,0,0
124086,-100,4,2,1,45,0,1
135381,-100,4,2,1,45,0,0
146675,-100,4,2,1,45,0,0
157969,-100,4,2,1,45,0,0
169263,-100,4,2,1,45,0,0
180557,-100,4,2,1,45,0,1
191498,-100,4,2,1,45,0,0
191851,-100,4,2,1,45,0,1
203145,-100,4,2,1,45,0,0
214439,-100,4,2,1,45,0,0
225733,-100,4,2,1,45,0,0
246910,-100,4,2,1,45,0,0
293498,-100,4,2,1,45,0,0
304792,-100,4,2,1,45,0,0
317498,-100,4,2,1,45,0,1
328439,-100,4,2,1,45,0,0
328792,-100,4,2,1,45,0,1
339733,-100,4,2,1,45,0,0
340086,-100,4,2,1,45,0,1
351028,-100,4,2,1,45,0,0
351381,-100,4,2,1,45,0,1
362322,-100,4,2,1,45,0,0
364086,-100,4,2,1,45,0,1
365145,-100,4,2,1,45,0,0

[HitObjects]
49,343,1520,5,0,0:0:0:0:
223,301,1770,1,0,0:0:0:0:
221,309,2020,1,0,0:0:0:0:
49,343,2270,5,0,0:0:0:0:
50,347,2395,1,0,0:0:0:0:
51,351,2520,1,0,0:0:0:0:
223,301,2770,1,0,0:0:0:0:
221,309,3020,1,0,0:0:0:0:
49,343,3270,5,0,0:0:0:0:
50,347,3395,1,0,0:0:0:0:
51,351,3520,1,0,0:0:0:0:
74,323,3645,1,0,0:0:0:0:
84,289,3770,1,0,0:0:0:0:
81,254,3895,1,0,0:0:0:0:
64,222,4020,1,0,0:0:0:0:
37,199,4145,1,0,0:0:0:0:
23,166,4270,1,0,0:0:0:0:
22,131,4395,1,0,0:0:0:0:
36,98,4520,1,0,0:0:0:0:
221,309,4770,5,0,0:0:0:0:
223,301,5020,1,0,0:0:0:0:
49,343,5270,5,0,0:0:0:0:
63,310,5395,1,0,0:0:0:0:
66,274,5520,1,0,0:0:0:0:
221,309,5770,5,0,0:0:0:0:
223,301,6020,1,0,0:0:0:0:
66,274,6145,1,0,0:0:0:0:
69,291,6270,1,0,0:0:0:0:
72,308,6395,1,0,0:0:0:0:
75,325,6520,1,0,0:0:0:0:
223,301,6770,5,0,0:0:0:0:
221,309,7020,1,0,0:0:0:0:
66,274,7145,1,0,0:0:0:0:
69,291,7270,1,0,0:0:0:0:
72,308,7395,1,0,0:0:0:0:
75,325,7520,1,0,0:0:0:0:
78,342,7645,1,0,0:0:0:0:
81,359,7770,2,0,L|142:351,3,45
223,301,8270,5,0,0:0:0:0:
221,309,8395,1,0,0:0:0:0:
219,317,8520,1,0,0:0:0:0:
49,343,8770,5,0,0:0:0:0:
50,347,8895,1,0,0:0:0:0:
51,351,9020,1,0,0:0:0:0:
51,351,9520,5,0,0:0:0:0:
63,337,9645,1,0,0:0:0:0:
72,322,9770,1,0,0:0:0:0:
79,305,9895,1,0,0:0:0:0:
83,288,10020,1,0,0:0:0:0:
79,252,10145,1,0,0:0:0:0:
65,219,10270,1,0,0:0:0:0:
42,192,10395,1,0,0:0:0:0:
13,171,10520,1,0,0:0:0:0:
4,136,10645,1,0,0:0:0:0:
10,101,10770,1,0,0:0:0:0:
31,72,10895,1,0,0:0:0:0:
63,55,11020,1,0,0:0:0:0:
71,58,11145,1,0,0:0:0:0:
79,60,11270,1,0,0:0:0:0:
87,62,11395,1,0,0:0:0:0:
95,65,11520,5,0,0:0:0:0:
197,27,11770,1,0,0:0:0:0:
105,68,11895,1,0,0:0:0:0:
109,85,12020,1,0,0:0:0:0:
113,102,12145,1,0,0:0:0:0:
118,120,12270,1,0,0:0:0:0:
122,137,12395,1,0,0:0:0:0:
127,155,12520,1,0,0:0:0:0:
223,301,12770,5,0,0:0:0:0:
221,309,13020,1,0,0:0:0:0:
256,306,13145,1,0,0:0:0:0:
292,303,13270,1,0,0:0:0:0:
328,300,13395,1,0,0:0:0:0:
364,297,13520,1,0,0:0:0:0:
478,337,13770,5,0,0:0:0:0:
434,347,13895,1,0,0:0:0:0:
392,332,14020,1,0,0:0:0:0:
365,297,14145,1,0,0:0:0:0:
361,253,14270,1,0,0:0:0:0:
382,214,14395,1,0,0:0:0:0:
421,192,14520,1,0,0:0:0:0:
445,267,14770,5,0,0:0:0:0:
417,176,14895,1,0,0:0:0:0:
412,158,15020,1,0,0:0:0:0:
407,141,15145,1,0,0:0:0:0:
402,123,15270,1,0,0:0:0:0:
398,106,15395,1,0,0:0:0:0:
393,89,15520,1,0,0:0:0:0:
364,55,15645,1,0,0:0:0:0:
323,39,15770,1,0,0:0:0:0:
279,45,15895,1,0,0:0:0:0:
243,72,16020,1,0,0:0:0:0:
214,106,16145,1,0,0:0:0:0:
172,119,16270,1,0,0:0:0:0:
128,109,16395,1,0,0:0:0:0:
97,78,16520,5,0,0:0:0:0:
116,184,16770,1,0,0:0:0:0:
134,290,17020,1,0,0:0:0:0:
97,78,17270,1,0,0:0:0:0:
134,290,17520,5,0,0:0:0:0:
293,227,17770,1,0,0:0:0:0:
292,231,17895,1,0,0:0:0:0:
291,235,18020,1,0,0:0:0:0:
290,239,18145,1,0,0:0:0:0:
289,243,18270,1,0,0:0:0:0:
294,287,18395,1,0,0:0:0:0:
299,331,18520,1,0,0:0:0:0:
404,270,18770,5,0,0:0:0:0:
403,274,18895,1,0,0:0:0:0:
402,278,19020,1,0,0:0:0:0:
401,282,19145,1,0,0:0:0:0:
400,286,19270,1,0,0:0:0:0:
405,330,19395,1,0,0:0:0:0:
410,374,19520,5,0,0:0:0:0:
438,339,19645,1,0,0:0:0:0:
448,296,19770,1,0,0:0:0:0:
439,252,19895,1,0,0:0:0:0:
412,216,20020,1,0,0:0:0:0:
377,189,20145,1,0,0:0:0:0:
361,147,20270,1,0,0:0:0:0:
370,104,20395,1,0,0:0:0:0:
399,70,20520,1,0,0:0:0:0:
456,146,20770,5,0,0:0:0:0:
451,147,20895,1,0,0:0:0:0:
447,146,21020,1,0,0:0:0:0:
445,141,21145,1,0,0:0:0:0:
447,137,21270,1,0,0:0:0:0:
483,109,21395,1,0,0:0:0:0:
487,154,21520,1,0,0:0:0:0:
376,145,21770,5,0,0:0:0:0:
377,153,22020,1,0,0:0:0:0:
332,146,22145,1,0,0:0:0:0:
287,140,22270,1,0,0:0:0:0:
243,133,22395,1,0,0:0:0:0:
198,127,22520,1,0,0:0:0:0:
32,102,22770,5,0,0:0:0:0:
39,96,23020,1,0,0:0:0:0:
32,140,23145,1,0,0:0:0:0:
25,184,23270,1,0,0:0:0:0:
18,229,23395,1,0,0:0:0:0:
11,273,23520,1,0,0:0:0:0:
49,309,23645,1,0,0:0:0:0:
101,319,23770,1,0,0:0:0:0:
150,297,23895,1,0,0:0:0:0:
179,252,24020,1,0,0:0:0:0:
214,213,24145,1,0,0:0:0:0:
266,205,24270,1,0,0:0:0:0:
310,234,24395,1,0,0:0:0:0:
325,284,24520,2,0,P|341:294|379:302,1,45
297,183,24770,5,0,0:0:0:0:
311,117,24895,1,0,0:0:0:0:
326,51,25020,1,0,0:0:0:0:
334,66,25145,1,0,0:0:0:0:
342,81,25270,1,0,0:0:0:0:
426,50,25520,5,0,0:0:0:0:
417,94,25645,1,0,0:0:0:0:
408,138,25770,1,0,0:0:0:0:
400,182,25895,1,0,0:0:0:0:
391,226,26020,1,0,0:0:0:0:
395,244,26145,1,0,0:0:0:0:
398,261,26270,1,0,0:0:0:0:
401,278,26395,1,0,0:0:0:0:
302,180,26520,5,0,0:0:0:0:
310,224,26645,1,0,0:0:0:0:
319,268,26770,1,0,0:0:0:0:
327,312,26895,1,0,0:0:0:0:
336,356,27020,1,0,0:0:0:0:
284,368,27145,1,0,0:0:0:0:
235,346,27270,1,0,0:0:0:0:
209,300,27395,1,0,0:0:0:0:
216,248,27520,1,0,0:0:0:0:
289,286,27770,5,0,0:0:0:0:
216,248,27895,1,0,0:0:0:0:
241,201,28020,1,0,0:0:0:0:
234,148,28145,1,0,0:0:0:0:
197,110,28270,1,0,0:0:0:0:
145,101,28395,1,0,0:0:0:0:
98,124,28520,1,0,0:0:0:0:
163,183,28770,5,0,0:0:0:0:
154,186,28895,1,0,0:0:0:0:
145,189,29020,1,0,0:0:0:0:
114,220,29145,1,0,0:0:0:0:
103,264,29270,1,0,0:0:0:0:
116,306,29395,1,0,0:0:0:0:
150,336,29520,1,0,0:0:0:0:
361,336,29770,5,0,0:0:0:0:
395,306,29895,1,0,0:0:0:0:
408,264,30020,1,0,0:0:0:0:
397,220,30145,1,0,0:0:0:0:
367,189,30270,1,0,0:0:0:0:
338,155,30395,1,0,0:0:0:0:
334,111,30520,1,0,0:0:0:0:
426,39,30770,5,0,0:0:0:0:
393,69,30895,1,0,0:0:0:0:
352,87,31020,1,0,0:0:0:0:
307,90,31145,1,0,0:0:0:0:
265,77,31270,1,0,0:0:0:0:
229,50,31395,1,0,0:0:0:0:
213,8,31520,5,0,0:0:0:0:
189,55,31645,1,0,0:0:0:0:
144,85,31770,1,0,0:0:0:0:
91,86,31895,1,0,0:0:0:0:
55,59,32020,5,0,0:0:0:0:
70,124,32145,1,0,0:0:0:0:
86,190,32270,1,0,0:0:0:0:
102,255,32395,1,0,0:0:0:0:
117,321,32520,1,0,0:0:0:0:
373,343,32770,1,0,0:0:0:0:
336,110,33020,1,0,0:0:0:0:
336,110,33734,6,0,L|353:221,1,90
467,225,34086,2,0,L|450:336,1,90
310,332,34439,1,0,0:0:0:0:
318,334,34528,1,0,0:0:0:0:
326,336,34616,1,0,0:0:0:0:
221,237,34792,2,0,L|280:231,1,45
94,307,34969,2,0,L|153:313,1,45
265,232,35145,5,0,0:0:0:0:
310,227,35234,1,0,0:0:0:0:
354,222,35322,1,0,0:0:0:0:
138,311,35498,1,0,0:0:0:0:
93,306,35587,1,0,0:0:0:0:
49,301,35675,1,0,0:0:0:0:
29,158,35851,2,0,L|22:124,4,22.5
49,301,36204,1,0,0:0:0:0:
166,217,36381,1,0,0:0:0:0:
166,217,36469,1,0,0:0:0:0:
166,217,36557,6,0,L|151:117,1,90
343,16,36910,1,0,0:0:0:0:
343,16,37086,1,0,0:0:0:0:
289,150,37263,2,0,L|280:89,2,45
305,293,37616,1,0,0:0:0:0:
338,306,37704,1,0,0:0:0:0:
371,319,37792,1,0,0:0:0:0:
404,305,37881,1,0,0:0:0:0:
437,292,37969,6,0,L|488:307,1,45
399,232,38145,1,0,0:0:0:0:
462,54,38322,2,0,L|456:109,1,45
462,54,38498,1,0,0:0:0:0:
437,291,38675,2,0,L|445:328,4,22.5
418,124,39028,2,0,L|422:79,1,45
318,22,39204,2,0,L|313:66,1,45
301,184,39381,6,0,P|262:192|206:167,1,90
10,181,39734,2,0,P|49:188|91:232,1,90
111,362,40086,1,0,0:0:0:0:
119,363,40175,1,0,0:0:0:0:
127,364,40263,1,0,0:0:0:0:
232,298,40439,2,0,L|287:288,1,45
374,331,40616,2,0,L|403:365,1,45
356,231,40792,6,0,L|371:188,2,45
307,362,41145,1,0,0:0:0:0:
262,359,41233,1,0,0:0:0:0:
216,356,41322,1,0,0:0:0:0:
94,206,41498,2,0,L|56:217,4,22.5
185,113,41851,2,0,L|198:62,1,45
232,226,42028,2,0,L|220:269,1,45
185,113,42204,6,0,L|210:14,1,90
343,270,42557,1,0,0:0:0:0:
343,270,42733,1,0,0:0:0:0:
313,165,42910,2,0,L|326:114,2,45
284,313,43263,1,0,0:0:0:0:
288,330,43351,1,0,0:0:0:0:
292,347,43439,1,0,0:0:0:0:
308,354,43528,1,0,0:0:0:0:
324,360,43616,6,0,L|391:344,1,45
438,364,43792,1,0,0:0:0:0:
312,140,43969,2,0,L|377:161,1,45
415,220,44145,1,0,0:0:0:0:
252,64,44322,2,0,L|244:23,4,22.5
285,236,44675,2,0,L|293:280,1,45
252,64,44851,2,0,L|243:19,1,45
205,162,45028,6,0,B|150:154|150:154|125:165|125:165|65:156,1,135
63,141,45381,2,0,P|81:190|54:245,1,90
48,357,45733,2,0,P|81:316|142:312,1,90
258,277,46086,2,0,P|218:273|198:263,1,45
154,228,46263,2,0,P|144:203|141:176,1,45
159,115,46439,5,0,0:0:0:0:
188,93,46528,1,0,0:0:0:0:
222,84,46616,1,0,0:0:0:0:
245,175,46792,1,0,0:0:0:0:
280,165,46881,1,0,0:0:0:0:
315,169,46969,1,0,0:0:0:0:
296,265,47145,6,0,L|291:301,4,22.5
343,79,47498,2,0,L|350:31,1,45
302,220,47675,2,0,L|295:264,1,45
396,127,47851,6,0,B|291:94|291:94|258:105,1,135
207,143,48204,2,0,L|110:127,1,90
5,105,48557,1,0,0:0:0:0:
7,113,48645,1,0,0:0:0:0:
9,121,48733,1,0,0:0:0:0:
116,234,48910,1,0,0:0:0:0:
105,268,48998,1,0,0:0:0:0:
95,302,49086,1,0,0:0:0:0:
85,336,49175,1,0,0:0:0:0:
75,370,49263,6,0,L|121:358,2,45
116,234,49616,2,0,L|147:198,2,45
31,121,49969,2,0,L|36:84,4,22.5
75,370,50322,6,0,L|121:358,1,45
116,234,50498,2,0,L|147:198,1,45
31,121,50675,6,0,B|47:17|47:17|62:51,1,135
59,44,51028,1,0,0:0:0:0:
250,12,51204,1,0,0:0:0:0:
134,88,51381,1,0,0:0:0:0:
133,96,51469,1,0,0:0:0:0:
132,104,51557,1,0,0:0:0:0:
80,207,51733,2,0,L|92:269,1,45
194,315,51910,2,0,L|182:377,1,45
301,236,52086,5,0,0:0:0:0:
305,218,52175,1,0,0:0:0:0:
309,200,52263,1,0,0:0:0:0:
408,114,52439,1,0,0:0:0:0:
404,96,52528,1,0,0:0:0:0:
400,78,52616,1,0,0:0:0:0:
225,55,52792,2,0,L|216:82,4,22.5
225,55,53145,2,0,L|282:48,1,45
102,90,53322,2,0,L|146:95,1,45
298,36,53498,6,0,L|282:143,1,90
318,189,53763,1,0,0:0:0:0:
318,189,53851,2,0,L|302:296,1,90
345,337,54116,1,0,0:0:0:0:
345,337,54204,1,0,0:0:0:0:
322,309,54292,1,0,0:0:0:0:
291,292,54380,1,0,0:0:0:0:
255,289,54468,1,0,0:0:0:0:
220,300,54557,2,0,L|166:313,1,45
80,267,54733,2,0,L|50:235,1,45
25,43,54910,5,0,0:0:0:0:
41,49,54998,1,0,0:0:0:0:
58,44,55086,1,0,0:0:0:0:
75,50,55175,1,0,0:0:0:0:
92,45,55263,1,0,0:0:0:0:
123,62,55351,1,0,0:0:0:0:
158,54,55439,1,0,0:0:0:0:
190,70,55528,1,0,0:0:0:0:
225,62,55616,1,0,0:0:0:0:
264,81,55704,1,0,0:0:0:0:
284,120,55792,1,0,0:0:0:0:
277,164,55880,1,0,0:0:0:0:
250,201,55969,1,0,0:0:0:0:
253,245,56057,1,0,0:0:0:0:
280,280,56145,1,0,0:0:0:0:
322,294,56233,1,0,0:0:0:0:
365,281,56322,6,0,B|385:221|385:221|393:276,1,107.999996704102
461,264,56586,2,0,B|502:311|502:311|451:290,1,107.999996704102
422,354,56851,1,0,0:0:0:0:
422,354,56939,1,0,0:0:0:0:
422,354,57028,6,0,B|360:366|360:366|403:332,1,107.999996704102
461,264,57292,2,0,P|477:201|448:150,1,107.999996704102
345,59,57557,2,0,L|367:118,1,53.9999983520508
396,210,57733,5,0,0:0:0:0:
353,217,57821,1,0,0:0:0:0:
313,205,57909,1,0,0:0:0:0:
282,175,57997,1,0,0:0:0:0:
276,132,58086,1,0,0:0:0:0:
259,92,58174,1,0,0:0:0:0:
226,65,58262,1,0,0:0:0:0:
184,58,58350,1,0,0:0:0:0:
142,68,58439,1,0,0:0:0:0:
187,149,58616,1,0,0:0:0:0:
191,158,58704,1,0,0:0:0:0:
195,167,58792,1,0,0:0:0:0:
188,210,58881,1,0,0:0:0:0:
151,233,58969,1,0,0:0:0:0:
108,238,59057,1,0,0:0:0:0:
67,222,59145,6,0,B|71:284|71:284|98:307|98:307|101:378,1,161.999995056153
90,375,59498,2,0,L|154:366,1,53.9999983520508
230,306,59675,2,0,L|294:297,1,53.9999983520508
380,338,59851,1,0,0:0:0:0:
405,116,60028,1,0,0:0:0:0:
399,125,60116,1,0,0:0:0:0:
394,134,60204,2,0,L|447:141,1,53.9999983520508
253,65,60381,2,0,L|306:72,1,53.9999983520508
108,127,60557,5,0,0:0:0:0:
129,130,60645,1,0,0:0:0:0:
150,133,60733,1,0,0:0:0:0:
171,135,60822,1,0,0:0:0:0:
192,137,60910,1,0,0:0:0:0:
205,177,60998,1,0,0:0:0:0:
206,220,61086,1,0,0:0:0:0:
192,261,61175,1,0,0:0:0:0:
162,292,61263,2,0,L|100:282,1,53.9999983520508
253,358,61439,2,0,L|306:349,1,53.9999983520508
474,154,61616,1,0,0:0:0:0:
454,204,61704,1,0,0:0:0:0:
434,254,61792,1,0,0:0:0:0:
414,304,61880,1,0,0:0:0:0:
394,355,61968,5,0,0:0:0:0:
392,344,62057,1,0,0:0:0:0:
389,333,62145,1,0,0:0:0:0:
386,322,62233,1,0,0:0:0:0:
383,311,62322,1,0,0:0:0:0:
367,295,62410,1,0,0:0:0:0:
347,285,62498,1,0,0:0:0:0:
326,279,62586,1,0,0:0:0:0:
304,278,62675,1,0,0:0:0:0:
290,248,62763,1,0,0:0:0:0:
293,215,62851,1,0,0:0:0:0:
286,183,62939,1,0,0:0:0:0:
266,156,63028,1,0,0:0:0:0:
270,113,63116,1,0,0:0:0:0:
274,70,63204,2,0,L|283:10,1,53.9999983520508
162,100,63381,6,0,B|191:177|191:177|201:138,1,107.999996704102
193,173,63645,1,0,0:0:0:0:
186,193,63733,2,0,P|170:219|141:239,1,53.9999983520508
87,311,63910,2,0,P|56:312|23:300,1,53.9999983520508
186,329,64086,2,0,L|305:317,1,107.999996704102
314,325,64351,1,0,0:0:0:0:
334,332,64439,2,0,P|343:358|363:376,1,53.9999983520508
376,191,64616,2,0,P|354:207|343:232,1,53.9999983520508
488,119,64792,5,0,0:0:0:0:
488,119,64969,1,0,0:0:0:0:
491,162,65057,1,0,0:0:0:0:
494,205,65145,1,0,0:0:0:0:
498,248,65233,1,0,0:0:0:0:
501,291,65321,1,0,0:0:0:0:
505,334,65410,1,0,0:0:0:0:
508,377,65498,1,0,0:0:0:0:
399,42,65675,5,0,0:0:0:0:
393,84,65763,1,0,0:0:0:0:
387,127,65851,1,0,0:0:0:0:
382,170,65939,1,0,0:0:0:0:
376,213,66027,1,0,0:0:0:0:
370,256,66116,1,0,0:0:0:0:
364,298,66204,1,0,0:0:0:0:
329,322,66292,1,0,0:0:0:0:
286,328,66380,1,0,0:0:0:0:
246,313,66468,1,0,0:0:0:0:
218,281,66556,1,0,0:0:0:0:
209,229,66645,1,0,0:0:0:0:
173,189,66733,1,0,0:0:0:0:
121,176,66821,1,0,0:0:0:0:
70,192,66910,5,0,0:0:0:0:
190,22,67086,1,0,0:0:0:0:
173,360,67263,1,0,0:0:0:0:
