osu file format v14

[General]
AudioFilename: audio.mp3
AudioLeadIn: 0
PreviewTime: 214439
Countdown: 0
SampleSet: Normal
StackLeniency: 0.7
Mode: 1
LetterboxInBreaks: 0
WidescreenStoryboard: 0

[Editor]
Bookmarks: 17520,33734,54910,67616,78910,90204,101498,112792,124086,135381,146675,157969,169263,180557,191851,203145,213733,214439,225733,237028,248322,259616,270910,282204,293498,304792,317498,328792,340086,351381,361969,365145,369733
DistanceSpacing: 0.3
BeatDivisor: 4
GridSize: 32
TimelineZoom: 2.599999

[Metadata]
Title:Parodia Sonatina -Grande-
TitleUnicode:Parodia Sonatina -Grande-
Artist:Ice
ArtistUnicode:Ice
Creator:[_Chichinya_]
Version:Concerto Finale
Source:Deemo
Tags:Thousand M3-Spring 2017 n.m.s.t the forgotten hourglass samsara collection electronic classical electronica piano violin Ne/nuit C89 rayark Shota Paradise
BeatmapID:1616352
BeatmapSetID:768550

[Difficulty]
HPDrainRate:5
CircleSize:2
OverallDifficulty:7
ApproachRate:10
SliderMultiplier:1.4
SliderTickRate:1

[Events]
//Background and Video events
0,0,"samsaraparodiasonatina_preview.png",0,50
//Break Periods
//Storyboard Layer 0 (Background)
//Storyboard Layer 1 (Fail)
//Storyboard Layer 2 (Pass)
//Storyboard Layer 3 (Foreground)
//Storyboard Sound Samples

[TimingPoints]
1529,500,4,1,0,30,1,0
1529,-111.111111111111,4,1,0,30,0,0
16779,-111.111111111111,4,1,0,32,0,0
17029,-109.090869421502,4,1,0,34,0,0
17279,-107.142895408177,4,1,0,35,0,0
17529,-105.263157894737,4,1,0,30,0,0
32779,-100,4,1,0,30,0,0
33029,352.941176470588,4,1,0,70,1,0
33029,-117.647058823529,4,1,0,70,0,0
33734,352.941176470588,4,3,1,70,1,0
33822,-100,4,1,0,70,0,0
34086,-100,4,1,0,80,0,0
34263,-100,4,1,0,90,0,0
34439,-100,4,1,0,100,0,0
54910,-100,4,1,0,70,0,0
56322,-100,4,1,0,75,0,0
67616,-95.2380952380952,4,1,0,80,0,0
67969,-90.9090909090909,4,1,0,80,0,0
68322,-86.9565217391304,4,1,0,80,0,0
69204,-88.4955752212389,4,1,0,80,0,0
69733,-92.5925925925926,4,1,0,80,0,0
69822,-93.4579439252336,4,1,0,80,0,0
69910,-94.3396226415094,4,1,0,80,0,0
69998,-95.2380952380952,4,1,0,80,0,0
70086,-96.1538461538461,4,1,0,80,0,0
70175,-97.0873786407767,4,1,0,80,0,0
70263,-98.0392156862745,4,1,0,80,0,0
70351,-99.009900990099,4,1,0,80,0,0
70439,-100,4,1,0,80,0,0
70792,-95.2380952380952,4,1,0,80,0,0
71145,-90.9090909090909,4,1,0,80,0,0
71498,-88.4955752212389,4,1,0,80,0,0
71675,-86.9565217391304,4,1,0,80,0,0
72028,-88.4955752212389,4,1,0,80,0,0
72557,-92.5925925925926,4,1,0,80,0,0
72645,-93.4579439252336,4,1,0,80,0,0
72733,-94.3396226415094,4,1,0,80,0,0
72822,-95.2380952380952,4,1,0,80,0,0
72910,-96.1538461538461,4,1,0,80,0,0
72998,-97.0873786407767,4,1,0,80,0,0
73086,-98.0392156862745,4,1,0,80,0,0
73175,-99.009900990099,4,1,0,80,0,0
73263,-100,4,1,0,80,0,0
73616,-95.2380952380952,4,1,0,80,0,0
73969,-90.9090909090909,4,1,0,80,0,0
74322,-88.4955752212389,4,1,0,80,0,0
74498,-86.9565217391304,4,1,0,80,0,0
74851,-88.4955752212389,4,1,0,80,0,0
75381,-92.5925925925926,4,1,0,80,0,0
75469,-93.4579439252336,4,1,0,80,0,0
75557,-94.3396226415094,4,1,0,80,0,0
75645,-95.2380952380952,4,1,0,80,0,0
75733,-96.1538461538461,4,1,0,80,0,0
75822,-97.0873786407767,4,1,0,80,0,0
75910,-98.0392156862745,4,1,0,80,0,0
75998,-99.009900990099,4,1,0,80,0,0
76086,-100,4,1,0,80,0,0
76439,-95.2380952380952,4,1,0,80,0,0
76792,-90.9090909090909,4,1,0,80,0,0
77145,-86.9565217391304,4,1,0,80,0,0
78204,-83.3333333333333,4,1,0,80,0,0
78263,-81.9672131147541,4,1,0,80,0,0
78322,-80.6451612903226,4,1,0,80,0,0
78381,-79.3650793650794,4,1,0,80,0,0
78439,-78.125,4,1,0,80,0,0
78498,-76.9230769230769,4,1,0,80,0,0
78557,-75.7575757575758,4,1,0,80,0,0
78616,-74.6268656716418,4,1,0,80,0,0
78675,-73.5294117647059,4,1,0,80,0,0
78733,-72.463768115942,4,1,0,80,0,0
78792,-71.4285714285714,4,1,0,80,0,0
78851,-70.4225352112676,4,1,0,80,0,0
78910,-69.4444444444444,4,1,0,80,0,0
79263,-100,4,1,0,70,0,0
111998,-100,4,1,0,30,0,0
112175,-100,4,1,0,60,0,0
112792,-90.9090909090909,4,1,0,100,0,1
123381,-92.5925925925926,4,1,0,100,0,0
123557,-94.3396226415094,4,1,0,100,0,0
123733,-96.1538461538461,4,1,0,100,0,0
123910,-94.3396226415094,4,1,0,100,0,0
123998,-92.5925925925926,4,1,0,100,0,0
124086,-90.9090909090909,4,1,0,100,0,1
134675,-92.5925925925926,4,1,0,100,0,0
134851,-94.3396226415094,4,1,0,100,0,0
135028,-96.1538461538461,4,1,0,100,0,0
135381,-95.2380952380952,4,1,0,80,0,0
135733,-90.9090909090909,4,1,0,80,0,0
136086,-86.9565217391304,4,1,0,80,0,0
136969,-88.4955752212389,4,1,0,80,0,0
137498,-92.5925925925926,4,1,0,80,0,0
137586,-93.4579439252336,4,1,0,80,0,0
137675,-94.3396226415094,4,1,0,80,0,0
137763,-95.2380952380952,4,1,0,80,0,0
137851,-96.1538461538461,4,1,0,80,0,0
137939,-97.0873786407767,4,1,0,80,0,0
138028,-98.0392156862745,4,1,0,80,0,0
138116,-99.009900990099,4,1,0,80,0,0
138204,-100,4,1,0,80,0,0
138557,-95.2380952380952,4,1,0,80,0,0
138910,-90.9090909090909,4,1,0,80,0,0
139263,-88.4955752212389,4,1,0,80,0,0
139439,-86.9565217391304,4,1,0,80,0,0
139792,-88.4955752212389,4,1,0,80,0,0
140322,-92.5925925925926,4,1,0,80,0,0
140410,-93.4579439252336,4,1,0,80,0,0
140498,-94.3396226415094,4,1,0,80,0,0
140586,-95.2380952380952,4,1,0,80,0,0
140675,-96.1538461538461,4,1,0,80,0,0
140763,-97.0873786407767,4,1,0,80,0,0
140851,-98.0392156862745,4,1,0,80,0,0
140939,-99.009900990099,4,1,0,80,0,0
141028,-100,4,1,0,80,0,0
141381,-95.2380952380952,4,1,0,80,0,0
141733,-90.9090909090909,4,1,0,80,0,0
142086,-88.4955752212389,4,1,0,80,0,0
142263,-86.9565217391304,4,1,0,80,0,0
142616,-88.4955752212389,4,1,0,80,0,0
143145,-92.5925925925926,4,1,0,80,0,0
143233,-93.4579439252336,4,1,0,80,0,0
143322,-94.3396226415094,4,1,0,80,0,0
143410,-95.2380952380952,4,1,0,80,0,0
143498,-96.1538461538461,4,1,0,80,0,0
143586,-97.0873786407767,4,1,0,80,0,0
143675,-98.0392156862745,4,1,0,80,0,0
143763,-99.009900990099,4,1,0,80,0,0
143851,-100,4,1,0,80,0,0
144204,-95.2380952380952,4,1,0,80,0,0
144557,-90.9090909090909,4,1,0,80,0,0
144910,-86.9565217391304,4,1,0,80,0,0
145969,-83.3333333333333,4,1,0,80,0,0
146028,-81.9672131147541,4,1,0,80,0,0
146086,-80.6451612903226,4,1,0,80,0,0
146145,-79.3650793650794,4,1,0,80,0,0
146204,-78.125,4,1,0,80,0,0
146263,-76.9230769230769,4,1,0,80,0,0
146322,-75.7575757575758,4,1,0,80,0,0
146381,-74.6268656716418,4,1,0,80,0,0
146439,-73.5294117647059,4,1,0,80,0,0
146498,-72.463768115942,4,1,0,80,0,0
146557,-71.4285714285714,4,1,0,80,0,0
146616,-70.4225352112676,4,1,0,80,0,0
146675,-69.4444444444444,4,1,0,80,0,0
146851,-76.9230769230769,4,1,0,75,0,0
146939,-78.125,4,1,0,75,0,0
147028,-79.3650793650794,4,1,0,75,0,0
147204,-81.9672131147541,4,1,0,75,0,0
147292,-83.3333333333333,4,1,0,75,0,0
147381,-84.7457627118644,4,1,0,75,0,0
147557,-87.719298245614,4,1,0,75,0,0
147733,-90.9090909090909,4,1,0,75,0,0
147910,-92.5925925925926,4,1,0,75,0,0
147998,-94.3396226415094,4,1,0,75,0,0
148086,-96.1538461538461,4,1,0,75,0,0
148263,-100,4,1,0,75,0,0
158233,-95.2380952380952,4,1,0,70,0,0
161057,-93.4579439252336,4,1,0,70,0,0
163792,-92.5925925925926,4,1,0,70,0,0
163969,-91.743119266055,4,1,0,70,0,0
169263,-91.743119266055,4,1,0,75,0,0
169792,-90.9090909090909,4,1,0,75,0,0
170498,-89.2857142857143,4,1,0,75,0,0
170851,-87.719298245614,4,1,0,75,0,0
171204,-86.2068965517241,4,1,0,75,0,0
171381,-84.7457627118644,4,1,0,75,0,0
171557,-83.3333333333333,4,1,0,75,0,0
172616,-90.9090909090909,4,1,0,75,0,0
173322,-89.2857142857143,4,1,0,75,0,0
173675,-87.719298245614,4,1,0,75,0,0
174028,-84.7457627118644,4,1,0,75,0,0
174204,-83.3333333333333,4,1,0,75,0,0
175439,-90.9090909090909,4,1,0,75,0,0
176145,-89.2857142857143,4,1,0,75,0,0
176498,-87.719298245614,4,1,0,75,0,0
176851,-86.2068965517241,4,1,0,75,0,0
177028,-84.7457627118644,4,1,0,75,0,0
177204,-83.3333333333333,4,1,0,75,0,0
180145,-83.3333333333333,4,1,0,80,0,0
180204,-82.6446280991736,4,1,0,80,0,0
180263,-81.9672131147541,4,1,0,80,0,0
180322,-81.3008130081301,4,1,0,80,0,0
180381,-80.6451612903226,4,1,0,80,0,0
180439,-80,4,1,0,80,0,0
180498,-79.3650793650794,4,1,0,80,0,0
180557,-78.125,4,1,0,80,0,1
180910,-90.9090909090909,4,1,0,100,0,1
191145,-92.5925925925926,4,1,0,100,0,0
191322,-94.3396226415094,4,1,0,100,0,0
191498,-96.1538461538461,4,1,0,100,0,0
191675,-94.3396226415094,4,1,0,100,0,0
191763,-92.5925925925926,4,1,0,100,0,0
191851,-90.9090909090909,4,1,0,100,0,1
202086,-91.743119266055,4,1,0,100,0,1
202439,-92.5925925925926,4,1,0,100,0,0
202616,-94.3396226415094,4,1,0,100,0,0
202792,-96.1538461538461,4,1,0,100,0,0
203145,-95.2380952380952,4,1,0,80,0,0
203498,-90.9090909090909,4,1,0,80,0,0
203851,-86.9565217391304,4,1,0,80,0,0
204733,-88.4955752212389,4,1,0,80,0,0
205263,-92.5925925925926,4,1,0,80,0,0
205351,-93.4579439252336,4,1,0,80,0,0
205439,-94.3396226415094,4,1,0,80,0,0
205528,-95.2380952380952,4,1,0,80,0,0
205616,-96.1538461538461,4,1,0,80,0,0
205704,-97.0873786407767,4,1,0,80,0,0
205792,-98.0392156862745,4,1,0,80,0,0
205881,-99.009900990099,4,1,0,80,0,0
205969,-100,4,1,0,80,0,0
206322,-95.2380952380952,4,1,0,80,0,0
206675,-90.9090909090909,4,1,0,80,0,0
207028,-88.4955752212389,4,1,0,80,0,0
207204,-86.9565217391304,4,1,0,80,0,0
207557,-88.4955752212389,4,1,0,80,0,0
208086,-92.5925925925926,4,1,0,80,0,0
208175,-93.4579439252336,4,1,0,80,0,0
208263,-94.3396226415094,4,1,0,80,0,0
208351,-95.2380952380952,4,1,0,80,0,0
208439,-96.1538461538461,4,1,0,80,0,0
208528,-97.0873786407767,4,1,0,80,0,0
208616,-98.0392156862745,4,1,0,80,0,0
208704,-99.009900990099,4,1,0,80,0,0
208792,-100,4,1,0,80,0,0
209145,-95.2380952380952,4,1,0,80,0,0
209498,-90.9090909090909,4,1,0,80,0,0
209851,-88.4955752212389,4,1,0,80,0,0
210028,-86.9565217391304,4,1,0,80,0,0
210381,-88.4955752212389,4,1,0,80,0,0
210910,-92.5925925925926,4,1,0,80,0,0
210998,-93.4579439252336,4,1,0,80,0,0
211086,-94.3396226415094,4,1,0,80,0,0
211175,-95.2380952380952,4,1,0,80,0,0
211263,-96.1538461538461,4,1,0,80,0,0
211351,-97.0873786407767,4,1,0,80,0,0
211439,-98.0392156862745,4,1,0,80,0,0
211528,-99.009900990099,4,1,0,80,0,0
211616,-100,4,1,0,80,0,0
211969,-95.2380952380952,4,1,0,80,0,0
212322,-90.9090909090909,4,1,0,80,0,0
212675,-86.9565217391304,4,1,0,80,0,0
213733,-83.3333333333333,4,1,0,80,0,0
213792,-81.9672131147541,4,1,0,80,0,0
213851,-80.6451612903226,4,1,0,80,0,0
213910,-79.3650793650794,4,1,0,80,0,0
213969,-78.125,4,1,0,80,0,0
214028,-76.9230769230769,4,1,0,80,0,0
214086,-75.7575757575758,4,1,0,80,0,0
214145,-74.6268656716418,4,1,0,80,0,0
214204,-73.5294117647059,4,1,0,80,0,0
214263,-72.463768115942,4,1,0,80,0,0
214322,-71.4285714285714,4,1,0,80,0,0
214381,-70.4225352112676,4,1,0,80,0,0
214439,-69.4444444444444,4,1,0,80,0,0
214969,-100,4,1,0,80,0,0
225733,-100,4,1,0,85,0,0
237028,-100,4,1,0,80,0,0
248322,-100,4,1,0,85,0,0
259616,-95.2380952380952,4,1,0,80,0,0
259969,-90.9090909090909,4,1,0,80,0,0
260322,-86.9565217391304,4,1,0,80,0,0
261204,-88.4955752212389,4,1,0,80,0,0
261733,-92.5925925925926,4,1,0,80,0,0
261822,-93.4579439252336,4,1,0,80,0,0
261910,-94.3396226415094,4,1,0,80,0,0
261998,-95.2380952380952,4,1,0,80,0,0
262086,-96.1538461538461,4,1,0,80,0,0
262175,-97.0873786407767,4,1,0,80,0,0
262263,-98.0392156862745,4,1,0,80,0,0
262351,-99.009900990099,4,1,0,80,0,0
262439,-100,4,1,0,80,0,0
262792,-95.2380952380952,4,1,0,80,0,0
263145,-90.9090909090909,4,1,0,80,0,0
263498,-88.4955752212389,4,1,0,80,0,0
263675,-86.9565217391304,4,1,0,80,0,0
264028,-88.4955752212389,4,1,0,80,0,0
264557,-92.5925925925926,4,1,0,80,0,0
264645,-93.4579439252336,4,1,0,80,0,0
264733,-94.3396226415094,4,1,0,80,0,0
264822,-95.2380952380952,4,1,0,80,0,0
264910,-96.1538461538461,4,1,0,80,0,0
264998,-97.0873786407767,4,1,0,80,0,0
265086,-98.0392156862745,4,1,0,80,0,0
265175,-99.009900990099,4,1,0,80,0,0
265263,-100,4,1,0,80,0,0
265616,-95.2380952380952,4,1,0,80,0,0
265969,-90.9090909090909,4,1,0,80,0,0
266322,-88.4955752212389,4,1,0,80,0,0
266498,-86.9565217391304,4,1,0,80,0,0
266851,-88.4955752212389,4,1,0,80,0,0
267381,-92.5925925925926,4,1,0,80,0,0
267469,-93.4579439252336,4,1,0,80,0,0
267557,-94.3396226415094,4,1,0,80,0,0
267645,-95.2380952380952,4,1,0,80,0,0
267733,-96.1538461538461,4,1,0,80,0,0
267822,-97.0873786407767,4,1,0,80,0,0
267910,-98.0392156862745,4,1,0,80,0,0
267998,-99.009900990099,4,1,0,80,0,0
268086,-100,4,1,0,80,0,0
268439,-95.2380952380952,4,1,0,80,0,0
268792,-90.9090909090909,4,1,0,80,0,0
269145,-86.9565217391304,4,1,0,80,0,0
270204,-83.3333333333333,4,1,0,80,0,0
270263,-81.9672131147541,4,1,0,80,0,0
270322,-80.6451612903226,4,1,0,80,0,0
270381,-79.3650793650794,4,1,0,80,0,0
270439,-78.125,4,1,0,80,0,0
270498,-76.9230769230769,4,1,0,80,0,0
270557,-75.7575757575758,4,1,0,80,0,0
270645,-74.6268656716418,4,1,0,80,0,0
270733,-73.5294117647059,4,1,0,80,0,0
270822,-72.463768115942,4,1,0,80,0,0
270910,-71.4285714285714,4,1,0,80,0,0
271263,-100,4,1,0,70,0,0
293454,-100,4,1,0,90,0,0
293675,-101.010101010101,4,1,1,65,0,0
294204,-102.040816326531,4,1,1,65,0,0
294557,-103.092783505155,4,1,1,65,0,0
294910,-104.166666666667,4,1,1,65,0,0
295263,-105.263157894737,4,1,1,65,0,0
295616,-106.382978723404,4,1,1,65,0,0
295969,-107.52688172043,4,1,1,65,0,0
296322,-102.564102564103,4,1,1,65,0,0
296439,-101.010101010101,4,1,1,65,0,0
296557,-100,4,1,1,65,0,0
296675,-99.009900990099,4,1,1,65,0,0
296763,-97.0873786407767,4,1,1,65,0,0
296851,-95.2380952380952,4,1,1,65,0,0
296910,-94.3396226415094,4,1,1,65,0,0
296969,-93.4579439252336,4,1,1,65,0,0
297028,-92.5925925925926,4,1,1,65,0,0
297116,-90.9090909090909,4,1,1,65,0,0
297204,-89.2857142857143,4,1,1,65,0,0
297263,-88.4955752212389,4,1,1,65,0,0
297322,-87.719298245614,4,1,1,65,0,0
297381,-86.9565217391304,4,1,1,65,0,0
297469,-85.4700854700855,4,1,1,65,0,0
297557,-84.0336134453781,4,1,1,65,0,0
297645,-82.6446280991736,4,1,1,65,0,0
297733,-81.3008130081301,4,1,1,65,0,0
297792,-81.9672131147541,4,1,1,65,0,0
297851,-82.6446280991736,4,1,1,65,0,0
297910,-83.3333333333333,4,1,1,65,0,0
297969,-84.0336134453781,4,1,1,65,0,0
298028,-84.7457627118644,4,1,1,65,0,0
298086,-85.4700854700855,4,1,1,65,0,0
298175,-86.9565217391304,4,1,1,65,0,0
298263,-88.4955752212389,4,1,1,65,0,0
298351,-90.0900900900901,4,1,1,65,0,0
298439,-91.743119266055,4,1,1,65,0,0
298528,-93.4579439252336,4,1,1,65,0,0
298616,-95.2380952380952,4,1,1,65,0,0
298704,-97.0873786407767,4,1,1,65,0,0
298792,-99.009900990099,4,1,1,65,0,0
298851,-100,4,1,1,65,0,0
298910,-101.010101010101,4,1,1,65,0,0
298969,-102.040816326531,4,1,1,65,0,0
299028,-103.092783505155,4,1,1,65,0,0
299086,-104.166666666667,4,1,1,65,0,0
299145,-105.263157894737,4,1,1,65,0,0
299322,-103.092783505155,4,1,1,65,0,0
299410,-101.010101010101,4,1,1,65,0,0
299498,-99.009900990099,4,1,1,65,0,0
299586,-97.0873786407767,4,1,1,65,0,0
299675,-95.2380952380952,4,1,1,65,0,0
299763,-93.4579439252336,4,1,1,65,0,0
299851,-91.743119266055,4,1,1,65,0,0
299910,-90.9090909090909,4,1,1,65,0,0
299969,-90.0900900900901,4,1,1,65,0,0
300028,-89.2857142857143,4,1,1,65,0,0
300116,-87.719298245614,4,1,1,65,0,0
300204,-86.2068965517241,4,1,1,65,0,0
300263,-85.4700854700855,4,1,1,65,0,0
300322,-84.7457627118644,4,1,1,65,0,0
300381,-84.0336134453781,4,1,1,65,0,0
300469,-82.6446280991736,4,1,1,65,0,0
300557,-81.3008130081301,4,1,1,65,0,0
300616,-81.9672131147541,4,1,1,65,0,0
300675,-82.6446280991736,4,1,1,65,0,0
300733,-83.3333333333333,4,1,1,65,0,0
300792,-84.0336134453781,4,1,1,65,0,0
300851,-84.7457627118644,4,1,1,65,0,0
300910,-85.4700854700855,4,1,1,65,0,0
300998,-86.9565217391304,4,1,1,65,0,0
301086,-88.4955752212389,4,1,1,65,0,0
301175,-90.0900900900901,4,1,1,65,0,0
301263,-91.743119266055,4,1,1,65,0,0
301351,-93.4579439252336,4,1,1,65,0,0
301439,-95.2380952380952,4,1,1,65,0,0
301528,-97.0873786407767,4,1,1,65,0,0
301616,-99.009900990099,4,1,1,65,0,0
301675,-100,4,1,1,65,0,0
301733,-102.040816326531,4,1,1,65,0,0
301792,-103.092783505155,4,1,1,65,0,0
301851,-104.166666666667,4,1,1,65,0,0
301910,-105.263157894737,4,1,1,65,0,0
301969,-106.382978723404,4,1,1,65,0,0
302145,-102.040816326531,4,1,1,65,0,0
302233,-100,4,1,1,65,0,0
302322,-98.0392156862745,4,1,1,65,0,0
302381,-97.0873786407766,4,1,1,65,0,0
302439,-96.1538461538461,4,1,1,65,0,0
302498,-95.2380952380952,4,1,1,65,0,0
302586,-93.4579439252336,4,1,1,65,0,0
302675,-91.743119266055,4,1,1,65,0,0
302733,-90.9090909090909,4,1,1,65,0,0
302792,-90.0900900900901,4,1,1,65,0,0
302851,-89.2857142857143,4,1,1,65,0,0
302939,-87.719298245614,4,1,1,65,0,0
303028,-86.2068965517241,4,1,1,65,0,0
303086,-85.4700854700855,4,1,1,65,0,0
303145,-84.530853761623,4,1,1,65,0,0
303204,-84.0336134453781,4,1,1,65,0,0
303292,-82.6446280991736,4,1,1,65,0,0
303381,-81.30081300813,4,1,1,65,0,0
303439,-81.9672131147541,4,1,1,65,0,0
303498,-82.6446280991736,4,1,1,65,0,0
303557,-83.3333333333333,4,1,1,65,0,0
303645,-84.7457627118644,4,1,1,65,0,0
303733,-85.4700854700855,4,1,1,65,0,0
303792,-86.2068965517241,4,1,1,65,0,0
303851,-86.9565217391304,4,1,1,65,0,0
303910,-87.719298245614,4,1,1,65,0,0
303969,-88.4955752212389,4,1,1,65,0,0
304028,-89.2857142857143,4,1,1,65,0,0
304086,-90.0900900900901,4,1,1,65,0,0
304175,-89.2857142857143,4,1,1,65,0,0
304263,-88.4955752212389,4,1,1,65,0,0
304351,-87.719298245614,4,1,1,65,0,0
304439,-86.9565217391304,4,1,1,65,0,0
304528,-86.2068965517241,4,1,1,65,0,0
304616,-85.4700854700855,4,1,1,65,0,0
304704,-84.7457627118644,4,1,1,65,0,0
304748,-84.7457627118644,4,1,0,65,0,0
304969,-90.9090909090909,4,1,0,65,0,0
306028,-89.2857142857143,4,1,0,95,0,0
306381,-87.719298245614,4,1,0,95,0,0
306733,-86.2068965517241,4,1,0,95,0,0
306910,-84.7457627118644,4,1,0,95,0,0
307086,-83.3333333333333,4,1,0,95,0,0
308145,-90.9090909090909,4,1,0,95,0,0
308851,-89.2857142857143,4,1,0,95,0,0
309204,-87.719298245614,4,1,0,95,0,0
309557,-86.2068965517241,4,1,0,95,0,0
309733,-84.7457627118644,4,1,0,95,0,0
309822,-84.0336134453781,4,1,0,95,0,0
309910,-83.3333333333333,4,1,0,95,0,0
310969,-83.3333333333333,4,1,0,95,0,0
311675,-81.9672131147541,4,1,0,95,0,0
312028,-80.6451612903226,4,1,0,95,0,0
312381,-79.3650793650794,4,1,0,95,0,0
312557,-78.125,4,1,0,95,0,0
312733,-77.5193798449612,4,1,0,95,0,0
312822,-76.9230769230769,4,1,0,95,0,0
312910,-76.3358778625954,4,1,0,95,0,0
312998,-75.7575757575758,4,1,0,95,0,0
313086,-75.187969924812,4,1,0,95,0,0
313175,-74.6268656716418,4,1,0,95,0,0
313263,-74.0740740740741,4,1,0,95,0,0
313351,-73.5294117647059,4,1,0,95,0,0
313439,-72.992700729927,4,1,0,95,0,0
313528,-72.463768115942,4,1,0,95,0,0
313616,-71.9424460431655,4,1,0,95,0,0
313704,-71.4285714285714,4,1,0,95,0,0
314675,-70.9219858156028,4,1,0,95,0,0
314733,-70.4225352112676,4,1,0,95,0,0
314792,-69.9300699300699,4,1,0,95,0,0
314851,-69.4444444444444,4,1,0,95,0,0
314910,-68.9655172413793,4,1,0,95,0,0
317263,-69.4444444444444,4,1,0,95,0,0
317322,-69.9300699300699,4,1,0,95,0,0
317381,-70.4225352112676,4,1,0,95,0,0
317439,-70.9219858156028,4,1,0,95,0,0
317498,-71.4285714285714,4,1,0,100,0,1
317851,-76.9230769230769,4,1,0,100,0,1
318028,-77.5193798449612,4,1,0,100,0,1
318116,-78.125,4,1,0,100,0,1
318204,-78.7401574803149,4,1,0,100,0,1
318381,-80,4,1,0,100,0,1
318469,-80.6451612903226,4,1,0,100,0,1
318557,-81.3008130081301,4,1,0,100,0,1
318733,-82.6446280991736,4,1,0,100,0,1
318822,-83.3333333333333,4,1,0,100,0,1
318910,-84.0336134453781,4,1,0,100,0,1
318998,-84.7457627118644,4,1,0,100,0,1
319086,-85.4700854700855,4,1,0,100,0,1
319175,-86.2068965517241,4,1,0,100,0,1
319263,-86.9565217391304,4,1,0,100,0,1
319351,-87.719298245614,4,1,0,100,0,1
319439,-88.4955752212389,4,1,0,100,0,1
319528,-89.2857142857143,4,1,0,100,0,1
319616,-90.0900900900901,4,1,0,100,0,1
319792,-90.9090909090909,4,1,0,100,0,1
327733,-90.0900900900901,4,1,0,100,0,1
327822,-89.2857142857143,4,1,0,100,0,1
327910,-88.4955752212389,4,1,0,100,0,1
327998,-87.719298245614,4,1,0,100,0,1
328086,-86.9565217391304,4,1,0,100,0,0
328263,-86.2068965517241,4,1,0,100,0,0
328439,-85.4700854700855,4,1,0,100,0,0
328616,-84.7457627118644,4,1,0,100,0,0
328704,-84.0336134453781,4,1,0,100,0,0
328792,-83.3333333333333,4,1,0,100,0,1
338233,-84.0336134453781,4,1,0,100,0,1
338322,-84.7457627118644,4,1,0,100,0,1
338410,-85.4700854700855,4,1,0,100,0,1
338498,-86.2068965517241,4,1,0,100,0,1
338586,-86.9565217391304,4,1,0,100,0,1
338675,-87.719298245614,4,1,0,100,0,1
338763,-88.4955752212389,4,1,0,100,0,1
338851,-89.2857142857143,4,1,0,100,0,1
338939,-90.0900900900901,4,1,0,100,0,1
339028,-90.9090909090909,4,1,0,100,0,1
339381,-90.9090909090909,4,1,0,100,0,0
339557,-86.9565217391304,4,1,0,100,0,0
339733,-85.4700854700855,4,1,0,100,0,0
339910,-83.3333333333333,4,1,0,100,0,0
339998,-81.3008130081301,4,1,0,100,0,0
340086,-80,4,1,0,100,0,1
348733,-80.6451612903226,4,1,0,100,0,1
348792,-81.3008130081301,4,1,0,100,0,1
348851,-81.9672131147541,4,1,0,100,0,1
348910,-82.6446280991736,4,1,0,100,0,1
348998,-83.3333333333333,4,1,0,100,0,1
349086,-84.0336134453781,4,1,0,100,0,1
349175,-84.7457627118644,4,1,0,100,0,1
349263,-85.4700854700855,4,1,0,100,0,1
349322,-86.2068965517241,4,1,0,100,0,1
349381,-86.9565217391304,4,1,0,100,0,1
349439,-87.719298245614,4,1,0,100,0,1
349528,-88.4955752212389,4,1,0,100,0,1
349616,-89.2857142857143,4,1,0,100,0,1
349704,-90.0900900900901,4,1,0,100,0,1
349792,-90.9090909090909,4,1,0,100,0,1
349881,-91.743119266055,4,1,0,100,0,1
349969,-92.5925925925926,4,1,0,100,0,1
350057,-93.4579439252336,4,1,0,100,0,1
350145,-94.3396226415094,4,1,0,100,0,1
350233,-95.2380952380952,4,1,0,100,0,1
350675,-95.2380952380952,4,1,0,100,0,0
350851,-90.9090909090909,4,1,0,100,0,0
351028,-86.9565217391304,4,1,0,100,0,0
351204,-81.3008130081301,4,1,0,100,0,0
351292,-80,4,1,0,100,0,0
351381,-76.9230769230769,4,1,0,100,0,1
360733,-83.3333333333333,4,1,0,100,0,1
360792,-83.6633853886917,4,1,0,100,0,1
360851,-83.9959917112755,4,1,0,100,0,1
360910,-84.3313242800846,4,1,0,100,0,1
360998,-84.8393736139367,4,1,0,100,0,1
361086,-85.3535086266791,4,1,0,100,0,1
361175,-85.8739867942983,4,1,0,100,0,1
361263,-86.400851566793,4,1,0,100,0,1
361351,-86.9341456459903,4,1,0,100,0,1
361439,-87.4741404572273,4,1,0,100,0,1
361498,-87.837802227918,4,1,0,100,0,1
361557,-88.2045781704254,4,1,0,100,0,1
361616,-88.5744299792559,4,1,0,100,0,1
361704,-89.1350601171413,4,1,0,100,0,1
361792,-89.7027519907283,4,1,0,100,0,1
361851,-90.0853017722481,4,1,0,100,0,1
361910,-90.471128401149,4,1,0,100,0,1
361969,-90.8601916059721,4,1,0,100,0,0
362675,-100,4,1,0,60,0,0
363381,-111.111111111111,4,1,0,50,0,0
364086,-83.3333333333333,4,1,0,95,0,0
364439,-86.9565217391304,4,1,0,95,0,0
364792,-83.3333333333333,4,1,0,95,0,0
365145,-100,4,1,0,80,0,0
365322,-100,4,1,0,40,0,0
369733,-100,4,1,0,5,0,0

[HitObjects]
256,192,1529,5,0,0:0:0:0:
256,192,1779,1,8,0:0:0:0:
256,192,2029,1,8,0:0:0:0:
256,192,2279,1,0,0:0:0:0:
256,192,2404,1,0,0:0:0:0:
256,192,2529,1,0,0:0:0:0:
256,192,2779,1,8,0:0:0:0:
256,192,3029,1,8,0:0:0:0:
256,192,3279,1,0,0:0:0:0:
256,192,3404,1,0,0:0:0:0:
256,192,3529,1,8,0:0:0:0:
256,192,3654,1,8,0:0:0:0:
256,192,3779,1,8,0:0:0:0:
256,192,3904,1,0,0:0:0:0:
256,192,4029,1,0,0:0:0:0:
256,192,4154,1,8,0:0:0:0:
256,192,4279,1,8,0:0:0:0:
256,192,4404,1,0,0:0:0:0:
256,192,4529,1,8,0:0:0:0:
256,192,4779,1,8,0:0:0:0:
256,192,5029,1,8,0:0:0:0:
256,192,5279,1,0,0:0:0:0:
256,192,5404,1,0,0:0:0:0:
256,192,5529,1,0,0:0:0:0:
256,192,5779,1,8,0:0:0:0:
256,192,6029,1,8,0:0:0:0:
256,192,6154,1,8,0:0:0:0:
256,192,6279,1,8,0:0:0:0:
256,192,6404,1,0,0:0:0:0:
256,192,6529,1,8,0:0:0:0:
256,192,6779,1,8,0:0:0:0:
256,192,7029,1,8,0:0:0:0:
256,192,7154,1,8,0:0:0:0:
256,192,7279,1,0,0:0:0:0:
256,192,7404,1,8,0:0:0:0:
256,192,7529,1,0,0:0:0:0:
256,192,7654,1,8,0:0:0:0:
256,192,7779,1,8,0:0:0:0:
256,192,7904,1,0,0:0:0:0:
256,192,8029,1,8,0:0:0:0:
256,192,8154,1,0,0:0:0:0:
256,192,8279,1,8,0:0:0:0:
256,192,8404,1,0,0:0:0:0:
256,192,8529,1,8,0:0:0:0:
256,192,8779,1,0,0:0:0:0:
256,192,8904,1,0,0:0:0:0:
256,192,9029,1,8,0:0:0:0:
256,192,9529,1,0,0:0:0:0:
256,192,9654,1,0,0:0:0:0:
256,192,9779,1,8,0:0:0:0:
256,192,9904,1,8,0:0:0:0:
256,192,10029,1,0,0:0:0:0:
256,192,10154,1,8,0:0:0:0:
256,192,10279,1,0,0:0:0:0:
256,192,10404,1,8,0:0:0:0:
256,192,10529,1,0,0:0:0:0:
256,192,10654,1,0,0:0:0:0:
256,192,10779,1,8,0:0:0:0:
256,192,10904,1,0,0:0:0:0:
256,192,11029,1,8,0:0:0:0:
256,192,11154,1,0,0:0:0:0:
256,192,11279,1,0,0:0:0:0:
256,192,11404,1,0,0:0:0:0:
256,192,11529,1,8,0:0:0:0:
256,192,11779,1,8,0:0:0:0:
256,192,11904,1,0,0:0:0:0:
256,192,12029,1,0,0:0:0:0:
256,192,12154,1,0,0:0:0:0:
256,192,12279,1,8,0:0:0:0:
256,192,12404,1,8,0:0:0:0:
256,192,12529,1,0,0:0:0:0:
256,192,12779,1,8,0:0:0:0:
256,192,13029,1,8,0:0:0:0:
256,192,13154,1,0,0:0:0:0:
256,192,13279,1,0,0:0:0:0:
256,192,13404,1,8,0:0:0:0:
256,192,13529,1,0,0:0:0:0:
256,192,13779,1,8,0:0:0:0:
256,192,13904,1,0,0:0:0:0:
256,192,14029,1,8,0:0:0:0:
256,192,14154,1,0,0:0:0:0:
256,192,14279,1,8,0:0:0:0:
256,192,14404,1,8,0:0:0:0:
256,192,14529,1,0,0:0:0:0:
256,192,14779,1,8,0:0:0:0:
256,192,14904,1,0,0:0:0:0:
256,192,15029,1,8,0:0:0:0:
256,192,15154,1,0,0:0:0:0:
256,192,15279,1,8,0:0:0:0:
256,192,15404,1,8,0:0:0:0:
256,192,15529,1,0,0:0:0:0:
256,192,15654,1,0,0:0:0:0:
256,192,15779,1,8,0:0:0:0:
256,192,15904,1,0,0:0:0:0:
256,192,16029,1,8,0:0:0:0:
256,192,16154,1,8,0:0:0:0:
256,192,16279,1,0,0:0:0:0:
256,192,16404,1,0,0:0:0:0:
256,192,16529,1,8,0:0:0:0:
256,192,16779,1,0,0:0:0:0:
256,192,17029,1,8,0:0:0:0:
256,192,17279,1,0,0:0:0:0:
256,192,17529,1,8,0:0:0:0:
256,192,17779,5,0,0:0:0:0:
256,192,17904,1,8,0:0:0:0:
256,192,18029,1,0,0:0:0:0:
256,192,18154,1,0,0:0:0:0:
256,192,18279,1,8,0:0:0:0:
256,192,18404,1,8,0:0:0:0:
256,192,18529,1,8,0:0:0:0:
256,192,18779,1,0,0:0:0:0:
256,192,18904,1,0,0:0:0:0:
256,192,19029,1,0,0:0:0:0:
256,192,19154,1,0,0:0:0:0:
256,192,19279,1,8,0:0:0:0:
256,192,19404,1,8,0:0:0:0:
256,192,19529,1,8,0:0:0:0:
256,192,19654,1,0,0:0:0:0:
256,192,19779,1,8,0:0:0:0:
256,192,19904,1,0,0:0:0:0:
256,192,20029,1,8,0:0:0:0:
256,192,20154,1,0,0:0:0:0:
256,192,20279,1,8,0:0:0:0:
256,192,20404,1,8,0:0:0:0:
256,192,20529,1,8,0:0:0:0:
256,192,20779,1,0,0:0:0:0:
256,192,20904,1,8,0:0:0:0:
256,192,21029,1,0,0:0:0:0:
256,192,21154,1,0,0:0:0:0:
256,192,21279,1,8,0:0:0:0:
256,192,21404,1,8,0:0:0:0:
256,192,21529,1,0,0:0:0:0:
256,192,21779,1,0,0:0:0:0:
256,192,22029,1,8,0:0:0:0:
256,192,22154,1,8,0:0:0:0:
288,192,22279,1,0,0:0:0:0:
256,192,22404,1,8,0:0:0:0:
256,192,22529,1,8,0:0:0:0:
256,192,22779,1,0,0:0:0:0:
256,192,23029,1,8,0:0:0:0:
256,192,23154,1,8,0:0:0:0:
256,192,23279,1,0,0:0:0:0:
256,192,23404,1,0,0:0:0:0:
256,192,23529,1,8,0:0:0:0:
256,192,23654,1,8,0:0:0:0:
256,192,23779,1,8,0:0:0:0:
256,192,23904,1,0,0:0:0:0:
256,192,24029,1,8,0:0:0:0:
256,192,24154,1,0,0:0:0:0:
256,192,24279,1,8,0:0:0:0:
256,192,24404,1,8,0:0:0:0:
256,192,24529,1,8,0:0:0:0:
256,160,24779,1,8,0:0:0:0:
256,160,24904,1,8,0:0:0:0:
256,160,25029,1,0,0:0:0:0:
256,160,25279,1,0,0:0:0:0:
256,160,25529,1,0,0:0:0:0:
256,160,25654,1,8,0:0:0:0:
256,160,25779,1,0,0:0:0:0:
256,160,25904,1,8,0:0:0:0:
256,160,26029,1,8,0:0:0:0:
256,160,26154,1,0,0:0:0:0:
256,160,26279,1,8,0:0:0:0:
256,160,26404,1,8,0:0:0:0:
256,160,26529,1,0,0:0:0:0:
256,160,26654,1,8,0:0:0:0:
256,160,26779,1,0,0:0:0:0:
256,160,26904,1,0,0:0:0:0:
256,160,27029,1,8,0:0:0:0:
256,160,27154,1,8,0:0:0:0:
256,160,27279,1,8,0:0:0:0:
256,160,27404,1,0,0:0:0:0:
256,160,27529,1,8,0:0:0:0:
256,160,27779,1,0,0:0:0:0:
256,160,27904,1,8,0:0:0:0:
256,160,28029,1,8,0:0:0:0:
256,160,28154,1,0,0:0:0:0:
256,160,28279,1,8,0:0:0:0:
256,160,28404,1,0,0:0:0:0:
256,160,28529,1,0,0:0:0:0:
288,160,28779,1,0,0:0:0:0:
288,160,28904,1,0,0:0:0:0:
288,160,29029,1,0,0:0:0:0:
256,128,29154,1,8,0:0:0:0:
224,160,29279,1,0,0:0:0:0:
224,160,29404,1,8,0:0:0:0:
224,160,29529,1,0,0:0:0:0:
224,160,29779,1,8,0:0:0:0:
224,160,29904,1,8,0:0:0:0:
224,160,30029,1,0,0:0:0:0:
224,160,30154,1,8,0:0:0:0:
224,160,30279,1,8,0:0:0:0:
224,160,30404,1,0,0:0:0:0:
224,160,30529,1,8,0:0:0:0:
224,160,30779,1,8,0:0:0:0:
224,160,30904,1,8,0:0:0:0:
224,160,31029,1,0,0:0:0:0:
224,160,31154,1,8,0:0:0:0:
224,160,31279,1,0,0:0:0:0:
224,160,31404,1,0,0:0:0:0:
224,160,31529,1,0,0:0:0:0:
224,160,31654,1,8,0:0:0:0:
224,160,31779,1,0,0:0:0:0:
224,160,31904,1,8,0:0:0:0:
224,128,32029,1,0,0:0:0:0:
224,128,32154,1,8,0:0:0:0:
224,128,32279,1,8,0:0:0:0:
224,128,32404,1,0,0:0:0:0:
224,128,32529,1,12,0:0:0:0:
224,128,32779,1,4,0:0:0:0:
224,128,33029,1,12,0:0:0:0:
256,192,33734,5,4,0:0:0:0:
256,192,33910,5,0,0:0:0:0:
256,192,34086,1,8,0:0:0:0:
256,192,34263,1,8,0:0:0:0:
256,192,34439,1,0,0:0:0:0:
256,192,34528,1,8,0:0:0:0:
256,192,34616,1,0,0:0:0:0:
256,192,34792,1,8,0:0:0:0:
256,192,34881,1,8,0:0:0:0:
256,192,34969,1,0,0:0:0:0:
256,192,35057,1,0,0:0:0:0:
256,192,35145,1,8,0:0:0:0:
256,192,35234,1,0,0:0:0:0:
256,192,35322,1,8,0:0:0:0:
256,192,35498,1,8,0:0:0:0:
256,192,35586,1,0,0:0:0:0:
256,192,35675,1,8,0:0:0:0:
256,192,35851,1,8,0:0:0:0:
256,192,35910,1,8,0:0:0:0:
256,192,35969,1,8,0:0:0:0:
256,192,36028,1,0,0:0:0:0:
256,192,36204,1,8,0:0:0:0:
256,192,36292,1,8,0:0:0:0:
256,192,36381,1,0,0:0:0:0:
256,192,36469,1,8,0:0:0:0:
256,192,36557,1,0,0:0:0:0:
256,192,36734,1,0,0:0:0:0:
256,192,36910,1,8,0:0:0:0:
256,192,37086,1,8,0:0:0:0:
256,192,37263,1,0,0:0:0:0:
256,192,37351,1,0,0:0:0:0:
256,192,37439,1,8,0:0:0:0:
256,192,37616,1,0,0:0:0:0:
256,192,37704,1,8,0:0:0:0:
256,192,37792,1,8,0:0:0:0:
256,192,37881,1,0,0:0:0:0:
256,192,37969,1,8,0:0:0:0:
256,192,38057,1,0,0:0:0:0:
256,192,38145,1,8,0:0:0:0:
256,192,38322,1,8,0:0:0:0:
256,192,38410,1,0,0:0:0:0:
256,192,38498,1,8,0:0:0:0:
256,192,38675,1,0,0:0:0:0:
256,192,38734,1,0,0:0:0:0:
256,192,38792,1,0,0:0:0:0:
256,192,38851,1,8,0:0:0:0:
256,192,39028,1,8,0:0:0:0:
256,192,39116,1,8,0:0:0:0:
256,192,39204,1,0,0:0:0:0:
256,192,39292,1,8,0:0:0:0:
256,192,39381,5,0,0:0:0:0:
256,192,39557,1,0,0:0:0:0:
256,192,39734,1,8,0:0:0:0:
256,192,39910,1,8,0:0:0:0:
256,192,40086,1,0,0:0:0:0:
256,192,40175,1,8,0:0:0:0:
256,192,40263,1,0,0:0:0:0:
256,192,40439,1,8,0:0:0:0:
256,192,40528,1,8,0:0:0:0:
256,192,40616,1,0,0:0:0:0:
256,192,40704,1,0,0:0:0:0:
256,192,40792,1,8,0:0:0:0:
256,192,40881,1,0,0:0:0:0:
256,192,40969,1,8,0:0:0:0:
256,192,41145,1,8,0:0:0:0:
256,192,41233,1,0,0:0:0:0:
256,192,41322,1,8,0:0:0:0:
256,192,41498,1,8,0:0:0:0:
256,192,41557,1,8,0:0:0:0:
256,192,41616,1,8,0:0:0:0:
256,192,41675,1,0,0:0:0:0:
256,192,41851,1,8,0:0:0:0:
256,192,41939,1,8,0:0:0:0:
256,192,42028,1,0,0:0:0:0:
256,192,42116,1,8,0:0:0:0:
256,192,42204,1,0,0:0:0:0:
256,192,42381,1,0,0:0:0:0:
256,192,42557,1,8,0:0:0:0:
256,192,42733,1,8,0:0:0:0:
256,192,42910,1,0,0:0:0:0:
256,192,42998,1,0,0:0:0:0:
256,192,43086,1,8,0:0:0:0:
256,192,43263,1,0,0:0:0:0:
256,192,43351,1,8,0:0:0:0:
256,192,43439,1,8,0:0:0:0:
256,192,43528,1,0,0:0:0:0:
256,192,43616,1,8,0:0:0:0:
256,192,43704,1,0,0:0:0:0:
256,192,43792,1,8,0:0:0:0:
256,192,43969,1,8,0:0:0:0:
256,192,44057,1,0,0:0:0:0:
256,192,44145,1,8,0:0:0:0:
256,192,44322,1,0,0:0:0:0:
256,192,44381,1,0,0:0:0:0:
256,192,44439,1,0,0:0:0:0:
256,192,44498,1,8,0:0:0:0:
256,192,44675,1,8,0:0:0:0:
256,192,44763,1,8,0:0:0:0:
256,192,44851,1,0,0:0:0:0:
256,192,44939,1,8,0:0:0:0:
256,192,45028,1,0,0:0:0:0:
256,192,45204,1,0,0:0:0:0:
256,192,45381,1,8,0:0:0:0:
256,192,45557,1,8,0:0:0:0:
256,192,45733,1,0,0:0:0:0:
256,192,45822,1,8,0:0:0:0:
256,192,45910,1,0,0:0:0:0:
256,192,46086,1,8,0:0:0:0:
256,192,46175,1,8,0:0:0:0:
256,192,46263,1,0,0:0:0:0:
256,192,46351,1,8,0:0:0:0:
256,192,46439,1,0,0:0:0:0:
256,192,46528,1,0,0:0:0:0:
256,192,46616,1,8,0:0:0:0:
256,192,46792,1,0,0:0:0:0:
256,192,46881,1,0,0:0:0:0:
256,192,46969,1,8,0:0:0:0:
256,192,47145,1,8,0:0:0:0:
256,192,47204,1,8,0:0:0:0:
256,192,47263,1,8,0:0:0:0:
256,192,47322,1,0,0:0:0:0:
256,192,47498,1,8,0:0:0:0:
256,192,47586,1,0,0:0:0:0:
256,192,47675,1,8,0:0:0:0:
256,192,47763,1,8,0:0:0:0:
256,192,47851,1,0,0:0:0:0:
256,192,48028,1,0,0:0:0:0:
256,192,48204,1,8,0:0:0:0:
256,192,48381,1,8,0:0:0:0:
256,192,48557,1,8,0:0:0:0:
256,192,48645,1,0,0:0:0:0:
256,192,48733,1,8,0:0:0:0:
256,192,48910,1,8,0:0:0:0:
256,192,48998,1,8,0:0:0:0:
256,192,49086,1,0,0:0:0:0:
256,192,49175,1,8,0:0:0:0:
256,192,49263,1,0,0:0:0:0:
256,192,49351,1,8,0:0:0:0:
256,192,49439,1,8,0:0:0:0:
256,192,49616,1,0,0:0:0:0:
256,192,49704,1,0,0:0:0:0:
256,192,49792,1,8,0:0:0:0:
256,192,49969,1,0,0:0:0:0:
256,192,50028,1,0,0:0:0:0:
256,192,50086,1,0,0:0:0:0:
256,192,50145,1,8,0:0:0:0:
256,192,50322,1,8,0:0:0:0:
256,192,50410,1,8,0:0:0:0:
256,192,50498,1,0,0:0:0:0:
256,192,50586,1,8,0:0:0:0:
256,192,50675,1,0,0:0:0:0:
256,192,50851,1,8,0:0:0:0:
256,192,51028,1,8,0:0:0:0:
256,192,51116,1,8,0:0:0:0:
256,192,51204,1,8,0:0:0:0:
256,192,51381,1,0,0:0:0:0:
256,192,51469,1,0,0:0:0:0:
256,192,51557,1,8,0:0:0:0:
256,192,51733,1,0,0:0:0:0:
256,192,51822,1,0,0:0:0:0:
256,192,51910,1,8,0:0:0:0:
256,192,51998,1,0,0:0:0:0:
256,192,52086,1,8,0:0:0:0:
256,192,52175,1,0,0:0:0:0:
256,192,52263,1,8,0:0:0:0:
256,192,52439,1,0,0:0:0:0:
256,192,52528,1,0,0:0:0:0:
256,192,52616,1,8,0:0:0:0:
256,192,52792,1,8,0:0:0:0:
256,192,52851,1,8,0:0:0:0:
256,192,52910,1,8,0:0:0:0:
256,192,52969,1,0,0:0:0:0:
256,192,53145,1,8,0:0:0:0:
256,192,53233,1,0,0:0:0:0:
256,192,53322,1,8,0:0:0:0:
256,192,53410,1,8,0:0:0:0:
256,192,53498,1,0,0:0:0:0:
256,192,53675,1,0,0:0:0:0:
256,192,53763,1,0,0:0:0:0:
256,192,53851,1,8,0:0:0:0:
256,192,53939,1,8,0:0:0:0:
256,192,54028,1,8,0:0:0:0:
256,192,54116,1,0,0:0:0:0:
256,192,54204,1,8,0:0:0:0:
256,192,54292,1,8,0:0:0:0:
256,192,54381,1,0,0:0:0:0:
256,192,54469,1,8,0:0:0:0:
256,192,54557,1,0,0:0:0:0:
256,192,54616,1,0,0:0:0:0:
256,192,54675,1,0,0:0:0:0:
256,192,54733,1,8,0:0:0:0:
256,192,54792,1,8,0:0:0:0:
256,192,54851,1,8,0:0:0:0:
256,192,54910,1,0,0:0:0:0:
256,192,54998,1,0,0:0:0:0:
256,192,55086,1,8,0:0:0:0:
256,192,55175,1,8,0:0:0:0:
256,192,55263,1,0,0:0:0:0:
256,192,55351,1,8,0:0:0:0:
256,192,55439,1,0,0:0:0:0:
256,192,55528,1,8,0:0:0:0:
256,192,55616,1,8,0:0:0:0:
256,192,55704,1,0,0:0:0:0:
256,192,55792,1,8,0:0:0:0:
256,192,55881,1,0,0:0:0:0:
256,192,55969,1,8,0:0:0:0:
256,192,56057,1,8,0:0:0:0:
256,192,56145,1,0,0:0:0:0:
256,192,56233,1,8,0:0:0:0:
256,192,56322,1,0,0:0:0:0:
256,192,56498,1,8,0:0:0:0:
256,192,56675,1,0,0:0:0:0:
256,192,56763,1,0,0:0:0:0:
256,192,56851,1,8,0:0:0:0:
256,192,56939,1,0,0:0:0:0:
256,192,57028,1,8,0:0:0:0:
256,192,57204,1,0,0:0:0:0:
256,192,57381,1,0,0:0:0:0:
256,192,57557,1,8,0:0:0:0:
256,192,57645,1,0,0:0:0:0:
256,192,57733,1,8,0:0:0:0:
256,192,57910,1,0,0:0:0:0:
256,192,57998,1,8,0:0:0:0:
256,192,58086,1,0,0:0:0:0:
256,192,58175,1,8,0:0:0:0:
256,192,58263,1,8,0:0:0:0:
256,192,58351,1,0,0:0:0:0:
256,192,58439,1,8,0:0:0:0:
256,192,58616,1,0,0:0:0:0:
256,192,58704,1,8,0:0:0:0:
256,192,58792,1,0,0:0:0:0:
224,160,58881,1,8,0:0:0:0:
224,160,58969,1,8,0:0:0:0:
224,160,59057,1,0,0:0:0:0:
224,160,59145,1,8,0:0:0:0:
224,160,59322,1,0,0:0:0:0:
224,160,59498,1,8,0:0:0:0:
224,160,59586,1,8,0:0:0:0:
224,160,59675,1,8,0:0:0:0:
224,160,59763,1,0,0:0:0:0:
224,160,59851,1,8,0:0:0:0:
224,160,60204,1,0,0:0:0:0:
224,160,60292,1,8,0:0:0:0:
224,160,60381,1,8,0:0:0:0:
224,160,60469,1,0,0:0:0:0:
224,160,60557,1,0,0:0:0:0:
224,160,60645,1,8,0:0:0:0:
224,160,60733,1,8,0:0:0:0:
224,160,60822,1,8,0:0:0:0:
224,160,60910,1,0,0:0:0:0:
224,160,60998,1,8,0:0:0:0:
224,160,61086,1,0,0:0:0:0:
224,160,61175,1,8,0:0:0:0:
224,160,61263,1,8,0:0:0:0:
224,160,61351,1,0,0:0:0:0:
224,160,61439,1,8,0:0:0:0:
224,160,61528,1,0,0:0:0:0:
224,160,61616,1,8,0:0:0:0:
224,160,61704,1,8,0:0:0:0:
224,160,61792,1,0,0:0:0:0:
224,160,61881,1,8,0:0:0:0:
224,160,61969,1,0,0:0:0:0:
256,160,62145,1,0,0:0:0:0:
224,160,62233,1,0,0:0:0:0:
224,160,62322,1,8,0:0:0:0:
224,160,62410,1,8,0:0:0:0:
224,128,62498,1,0,0:0:0:0:
224,128,62586,1,8,0:0:0:0:
224,128,62675,1,0,0:0:0:0:
224,160,62851,1,0,0:0:0:0:
224,160,62939,1,0,0:0:0:0:
224,160,63028,1,8,0:0:0:0:
224,160,63116,1,8,0:0:0:0:
224,128,63204,1,8,0:0:0:0:
224,160,63292,1,0,0:0:0:0:
224,160,63381,1,8,0:0:0:0:
224,128,63645,1,8,0:0:0:0:
224,128,63733,1,8,0:0:0:0:
224,128,63822,1,8,0:0:0:0:
224,128,63910,1,8,0:0:0:0:
224,128,63998,1,8,0:0:0:0:
224,128,64086,1,0,0:0:0:0:
256,128,64439,1,0,0:0:0:0:
256,128,64528,1,8,0:0:0:0:
256,128,64616,1,0,0:0:0:0:
256,128,64704,1,0,0:0:0:0:
256,128,64792,1,8,0:0:0:0:
256,128,64969,1,8,0:0:0:0:
256,128,65057,1,8,0:0:0:0:
256,128,65145,1,0,0:0:0:0:
256,128,65233,1,8,0:0:0:0:
256,128,65322,1,0,0:0:0:0:
256,128,65410,1,8,0:0:0:0:
256,128,65498,1,0,0:0:0:0:
256,128,65675,1,8,0:0:0:0:
256,128,65763,1,8,0:0:0:0:
256,128,65851,1,0,0:0:0:0:
256,128,65939,1,8,0:0:0:0:
256,128,66028,1,0,0:0:0:0:
256,128,66116,1,0,0:0:0:0:
256,128,66204,1,8,0:0:0:0:
256,128,66292,1,8,0:0:0:0:
256,128,66381,1,0,0:0:0:0:
256,128,66469,1,0,0:0:0:0:
256,128,66557,1,8,0:0:0:0:
256,128,66645,1,8,0:0:0:0:
256,128,66733,1,8,0:0:0:0:
256,128,66822,1,0,0:0:0:0:
256,128,66910,1,12,0:0:0:0:
256,128,67086,1,4,0:0:0:0:
256,128,67263,1,12,0:0:0:0:
256,192,67616,1,4,0:0:0:0:
256,192,67969,1,12,0:0:0:0:
256,192,68322,1,12,0:0:0:0:
256,192,68675,1,4,0:0:0:0:
256,192,68851,1,12,0:0:0:0:
256,192,69204,1,4,0:0:0:0:
256,192,69557,1,12,0:0:0:0:
256,192,69733,1,8,0:0:0:0:
256,192,69822,1,8,0:0:0:0:
256,192,69910,1,0,0:0:0:0:
256,192,69998,1,0,0:0:0:0:
256,192,70086,1,8,0:0:0:0:
256,192,70175,1,8,0:0:0:0:
256,192,70263,1,8,0:0:0:0:
256,192,70351,1,8,0:0:0:0:
256,192,70439,1,4,0:0:0:0:
256,192,70792,1,12,0:0:0:0:
256,192,71145,1,4,0:0:0:0:
256,192,71498,1,12,0:0:0:0:
256,192,71675,1,4,0:0:0:0:
256,192,72028,1,12,0:0:0:0:
256,192,72381,1,4,0:0:0:0:
256,192,72557,1,8,0:0:0:0:
256,192,72645,1,8,0:0:0:0:
256,192,72733,1,0,0:0:0:0:
256,192,72822,1,8,0:0:0:0:
256,192,72910,1,0,0:0:0:0:
256,192,72998,1,0,0:0:0:0:
256,192,73086,1,0,0:0:0:0:
256,192,73175,1,0,0:0:0:0:
256,192,73263,1,12,0:0:0:0:
256,192,73616,1,12,0:0:0:0:
256,192,73969,1,4,0:0:0:0:
256,192,74322,1,4,0:0:0:0:
256,192,74498,1,12,0:0:0:0:
256,192,74851,1,4,0:0:0:0:
256,192,75204,1,12,0:0:0:0:
256,192,75381,1,8,0:0:0:0:
256,192,75469,1,8,0:0:0:0:
256,192,75557,1,0,0:0:0:0:
256,192,75645,1,0,0:0:0:0:
256,192,75733,1,8,0:0:0:0:
256,192,75822,1,8,0:0:0:0:
256,192,75910,1,8,0:0:0:0:
256,192,75998,1,8,0:0:0:0:
256,192,76086,1,4,0:0:0:0:
256,192,76439,1,12,0:0:0:0:
256,192,76792,1,4,0:0:0:0:
256,192,77145,1,12,0:0:0:0:
256,192,77322,1,4,0:0:0:0:
256,192,77675,1,12,0:0:0:0:
256,192,78028,1,4,0:0:0:0:
256,192,78204,1,0,0:0:0:0:
256,192,78263,1,0,0:0:0:0:
256,192,78322,1,0,0:0:0:0:
256,192,78381,1,8,0:0:0:0:
256,192,78439,1,8,0:0:0:0:
256,192,78498,1,8,0:0:0:0:
256,192,78557,1,0,0:0:0:0:
256,192,78616,1,0,0:0:0:0:
256,192,78675,1,0,0:0:0:0:
256,192,78733,1,8,0:0:0:0:
256,192,78792,1,8,0:0:0:0:
256,192,78851,1,8,0:0:0:0:
256,192,78910,1,0,0:0:0:0:
256,192,79263,5,8,0:0:0:0:
256,160,79439,1,0,0:0:0:0:
256,160,79528,1,0,0:0:0:0:
256,160,79616,1,8,0:0:0:0:
256,160,79792,1,8,0:0:0:0:
256,160,79969,1,8,0:0:0:0:
256,160,80145,1,0,0:0:0:0:
256,160,80233,1,8,0:0:0:0:
256,160,80322,1,0,0:0:0:0:
256,160,80410,1,8,0:0:0:0:
256,160,80498,1,0,0:0:0:0:
256,160,80675,1,8,0:0:0:0:
256,160,80851,1,8,0:0:0:0:
256,160,80939,1,8,0:0:0:0:
256,160,81028,1,0,0:0:0:0:
256,160,81116,1,8,0:0:0:0:
256,160,81204,1,0,0:0:0:0:
256,128,81381,1,8,0:0:0:0:
256,128,81557,1,8,0:0:0:0:
256,128,81645,1,0,0:0:0:0:
256,128,81733,1,8,0:0:0:0:
256,128,81910,1,8,0:0:0:0:
256,128,82086,1,8,0:0:0:0:
224,128,82263,1,0,0:0:0:0:
224,128,82351,1,0,0:0:0:0:
224,128,82439,1,8,0:0:0:0:
224,128,82616,1,8,0:0:0:0:
224,128,82704,1,0,0:0:0:0:
224,128,82792,1,8,0:0:0:0:
224,128,82969,1,0,0:0:0:0:
224,128,83145,1,8,0:0:0:0:
224,128,83322,1,0,0:0:0:0:
224,128,83410,1,0,0:0:0:0:
224,128,83498,1,8,0:0:0:0:
224,128,83675,1,0,0:0:0:0:
224,128,83851,1,8,0:0:0:0:
224,128,84028,1,0,0:0:0:0:
224,128,84116,1,0,0:0:0:0:
224,128,84204,1,8,0:0:0:0:
224,128,84292,1,0,0:0:0:0:
224,128,84381,1,8,0:0:0:0:
224,128,84469,1,8,0:0:0:0:
224,128,84557,1,8,0:0:0:0:
224,128,84733,1,0,0:0:0:0:
224,128,84910,1,8,0:0:0:0:
192,128,84998,1,0,0:0:0:0:
224,128,85086,1,8,0:0:0:0:
224,128,85175,1,0,0:0:0:0:
224,128,85263,1,8,0:0:0:0:
192,128,85351,1,8,0:0:0:0:
192,128,85528,1,8,0:0:0:0:
192,128,85616,1,0,0:0:0:0:
192,128,85792,1,8,0:0:0:0:
192,128,85969,1,0,0:0:0:0:
192,128,86145,1,0,0:0:0:0:
224,128,86322,1,8,0:0:0:0:
224,128,86410,1,0,0:0:0:0:
224,128,86498,1,8,0:0:0:0:
192,128,86586,1,8,0:0:0:0:
192,128,86675,1,0,0:0:0:0:
192,128,86763,1,8,0:0:0:0:
192,128,86939,1,8,0:0:0:0:
192,128,87028,1,0,0:0:0:0:
192,128,87204,1,8,0:0:0:0:
192,128,87381,1,0,0:0:0:0:
192,128,87557,1,0,0:0:0:0:
192,128,87733,1,8,0:0:0:0:
192,128,87822,1,8,0:0:0:0:
192,128,87910,1,0,0:0:0:0:
192,128,87998,1,8,0:0:0:0:
192,128,88086,1,0,0:0:0:0:
192,128,88175,1,8,0:0:0:0:
192,128,88351,1,8,0:0:0:0:
192,128,88439,1,8,0:0:0:0:
224,128,88528,1,8,0:0:0:0:
224,128,88616,1,0,0:0:0:0:
224,128,88704,1,8,0:0:0:0:
224,128,88792,1,0,0:0:0:0:
224,128,88881,1,8,0:0:0:0:
224,128,88969,1,8,0:0:0:0:
224,96,89057,1,0,0:0:0:0:
224,96,89145,1,8,0:0:0:0:
224,96,89233,1,8,0:0:0:0:
224,96,89322,1,0,0:0:0:0:
224,96,89410,1,8,0:0:0:0:
224,96,89498,1,8,0:0:0:0:
224,96,89586,1,0,0:0:0:0:
224,96,89675,1,8,0:0:0:0:
224,96,89763,5,0,0:0:0:0:
224,96,89851,1,8,0:0:0:0:
224,96,89939,1,8,0:0:0:0:
224,96,90028,1,8,0:0:0:0:
288,192,90116,1,0,0:0:0:0:
256,192,90204,5,12,0:0:0:0:
256,192,90381,1,0,0:0:0:0:
256,192,90469,1,0,0:0:0:0:
256,192,90557,1,8,0:0:0:0:
256,192,90733,1,8,0:0:0:0:
256,192,90822,1,8,0:0:0:0:
256,192,90910,1,0,0:0:0:0:
256,192,91086,1,0,0:0:0:0:
256,192,91263,1,8,0:0:0:0:
256,192,91439,1,0,0:0:0:0:
256,192,91528,1,8,0:0:0:0:
256,192,91616,1,0,0:0:0:0:
256,192,91792,1,0,0:0:0:0:
256,192,91969,1,8,0:0:0:0:
256,192,92145,1,8,0:0:0:0:
256,192,92233,1,8,0:0:0:0:
256,192,92322,1,0,0:0:0:0:
256,192,92498,1,8,0:0:0:0:
256,192,92586,1,0,0:0:0:0:
256,192,92675,1,8,0:0:0:0:
256,192,92851,1,8,0:0:0:0:
256,192,92939,1,8,0:0:0:0:
256,192,93028,1,0,0:0:0:0:
256,192,93204,1,0,0:0:0:0:
256,192,93381,1,8,0:0:0:0:
256,192,93557,1,0,0:0:0:0:
256,192,93645,1,0,0:0:0:0:
256,192,93733,1,0,0:0:0:0:
256,192,93910,1,8,0:0:0:0:
256,192,93998,1,0,0:0:0:0:
256,192,94086,1,8,0:0:0:0:
256,192,94263,1,0,0:0:0:0:
256,192,94351,1,8,0:0:0:0:
256,192,94439,1,0,0:0:0:0:
256,192,94616,1,8,0:0:0:0:
256,192,94704,1,8,0:0:0:0:
256,192,94792,1,8,0:0:0:0:
256,192,94969,1,0,0:0:0:0:
256,192,95057,1,8,0:0:0:0:
256,192,95145,1,0,0:0:0:0:
256,192,95322,1,0,0:0:0:0:
256,192,95498,1,8,0:0:0:0:
256,192,95586,1,8,0:0:0:0:
256,192,95675,1,8,0:0:0:0:
256,192,95763,1,8,0:0:0:0:
256,192,95851,1,0,0:0:0:0:
256,192,96028,1,0,0:0:0:0:
256,192,96116,1,0,0:0:0:0:
256,192,96204,1,8,0:0:0:0:
256,192,96292,1,0,0:0:0:0:
256,192,96381,1,0,0:0:0:0:
256,192,96469,1,8,0:0:0:0:
256,192,96557,1,0,0:0:0:0:
256,192,96645,1,8,0:0:0:0:
256,192,96733,1,8,0:0:0:0:
256,192,96822,1,0,0:0:0:0:
256,192,96910,1,8,0:0:0:0:
256,192,96998,1,8,0:0:0:0:
256,192,97086,1,8,0:0:0:0:
256,192,97175,1,0,0:0:0:0:
256,192,97263,1,0,0:0:0:0:
256,192,97351,1,8,0:0:0:0:
256,192,97439,1,8,0:0:0:0:
256,192,97528,1,0,0:0:0:0:
256,192,97616,1,8,0:0:0:0:
256,192,97704,1,0,0:0:0:0:
256,192,97792,1,0,0:0:0:0:
256,192,97881,1,8,0:0:0:0:
256,192,97969,1,0,0:0:0:0:
256,192,98057,1,0,0:0:0:0:
256,192,98145,1,8,0:0:0:0:
256,192,98233,1,8,0:0:0:0:
256,192,98322,1,8,0:0:0:0:
256,192,98410,1,0,0:0:0:0:
256,192,98498,1,8,0:0:0:0:
256,192,98586,1,8,0:0:0:0:
256,192,98675,1,8,0:0:0:0:
256,192,98763,1,0,0:0:0:0:
256,192,98851,1,0,0:0:0:0:
256,192,98939,1,0,0:0:0:0:
256,192,99028,1,8,0:0:0:0:
256,192,99116,1,8,0:0:0:0:
256,192,99204,1,0,0:0:0:0:
256,192,99292,1,8,0:0:0:0:
256,192,99381,1,0,0:0:0:0:
256,192,99469,1,0,0:0:0:0:
256,192,99557,1,8,0:0:0:0:
256,192,99645,1,0,0:0:0:0:
256,192,99733,1,8,0:0:0:0:
256,192,99822,1,8,0:0:0:0:
256,192,99910,1,8,0:0:0:0:
256,192,99998,1,8,0:0:0:0:
256,192,100086,1,0,0:0:0:0:
256,192,100263,1,8,0:0:0:0:
256,192,100351,1,8,0:0:0:0:
256,192,100439,1,0,0:0:0:0:
256,192,100616,1,8,0:0:0:0:
256,192,100704,1,8,0:0:0:0:
256,192,100792,1,0,0:0:0:0:
256,192,100881,1,0,0:0:0:0:
256,192,100969,1,8,0:0:0:0:
256,192,101057,1,8,0:0:0:0:
256,192,101145,1,0,0:0:0:0:
256,192,101233,1,8,0:0:0:0:
256,192,101322,1,8,0:0:0:0:
256,192,101410,1,8,0:0:0:0:
256,192,101498,1,4,0:0:0:0:
256,160,101675,5,4,0:0:0:0:
256,160,102028,1,12,0:0:0:0:
256,192,102381,1,8,0:0:0:0:
256,192,102469,1,0,0:0:0:0:
256,192,102557,1,8,0:0:0:0:
256,192,102645,1,8,0:0:0:0:
256,192,102733,1,0,0:0:0:0:
256,192,102822,1,0,0:0:0:0:
256,160,102910,1,12,0:0:0:0:
256,160,103086,1,12,0:0:0:0:
256,160,103439,1,4,0:0:0:0:
256,192,103792,1,8,0:0:0:0:
256,192,103881,1,8,0:0:0:0:
256,192,103969,1,0,0:0:0:0:
256,192,104057,1,8,0:0:0:0:
256,192,104145,1,8,0:0:0:0:
256,192,104233,1,0,0:0:0:0:
256,160,104322,1,12,0:0:0:0:
256,160,104498,1,12,0:0:0:0:
256,160,104851,1,4,0:0:0:0:
256,192,105204,1,0,0:0:0:0:
256,192,105292,1,8,0:0:0:0:
256,192,105381,1,0,0:0:0:0:
256,192,105469,1,8,0:0:0:0:
256,192,105557,1,8,0:0:0:0:
256,192,105645,1,0,0:0:0:0:
256,160,105733,1,8,0:0:0:0:
256,160,105910,1,0,0:0:0:0:
256,160,105998,1,0,0:0:0:0:
256,160,106086,1,8,0:0:0:0:
256,160,106175,1,8,0:0:0:0:
256,160,106263,1,0,0:0:0:0:
256,160,106351,1,8,0:0:0:0:
256,160,106439,1,8,0:0:0:0:
288,160,106528,1,0,0:0:0:0:
288,160,106616,1,8,0:0:0:0:
256,160,106704,1,8,0:0:0:0:
256,160,106792,1,8,0:0:0:0:
256,160,106851,1,0,0:0:0:0:
256,160,106910,1,0,0:0:0:0:
256,160,106969,1,8,0:0:0:0:
288,160,107057,1,0,0:0:0:0:
288,160,107145,1,12,0:0:0:0:
288,160,107322,1,12,0:0:0:0:
288,160,107675,1,4,0:0:0:0:
288,160,107851,1,8,0:0:0:0:
288,160,107939,1,8,0:0:0:0:
288,160,108028,1,0,0:0:0:0:
288,160,108116,1,8,0:0:0:0:
288,160,108204,1,0,0:0:0:0:
288,160,108292,1,8,0:0:0:0:
288,160,108381,1,8,0:0:0:0:
288,160,108469,1,0,0:0:0:0:
288,160,108557,1,12,0:0:0:0:
288,160,108733,1,12,0:0:0:0:
288,160,109086,1,4,0:0:0:0:
288,192,109263,1,8,0:0:0:0:
288,192,109351,1,0,0:0:0:0:
288,192,109439,1,0,0:0:0:0:
288,192,109528,1,8,0:0:0:0:
288,192,109616,1,8,0:0:0:0:
288,192,109704,1,0,0:0:0:0:
288,192,109792,1,8,0:0:0:0:
288,192,109881,1,0,0:0:0:0:
288,160,109969,1,12,0:0:0:0:
288,160,110145,1,12,0:0:0:0:
288,160,110498,1,4,0:0:0:0:
288,192,110675,1,8,0:0:0:0:
288,192,110763,1,0,0:0:0:0:
288,192,110851,1,8,0:0:0:0:
288,192,110939,1,0,0:0:0:0:
288,192,111028,1,8,0:0:0:0:
288,192,111116,1,8,0:0:0:0:
288,192,111204,1,0,0:0:0:0:
288,192,111292,1,8,0:0:0:0:
288,160,111381,1,4,0:0:0:0:
256,192,112086,5,12,0:0:0:0:
256,192,112792,5,4,0:0:0:0:
256,192,113145,1,8,0:0:0:0:
256,192,113322,1,0,0:0:0:0:
256,192,113410,1,0,0:0:0:0:
256,192,113498,1,8,0:0:0:0:
256,192,113675,1,8,0:0:0:0:
256,192,113763,1,0,0:0:0:0:
256,192,113851,1,8,0:0:0:0:
256,192,114028,1,0,0:0:0:0:
256,192,114116,1,0,0:0:0:0:
256,192,114204,1,8,0:0:0:0:
256,192,114292,1,8,0:0:0:0:
256,192,114381,1,8,0:0:0:0:
256,192,114469,1,0,0:0:0:0:
256,192,114557,1,8,0:0:0:0:
256,192,114645,1,0,0:0:0:0:
256,192,114733,1,0,0:0:0:0:
256,192,114822,1,8,0:0:0:0:
256,192,114910,1,0,0:0:0:0:
256,192,115086,1,0,0:0:0:0:
256,192,115175,1,0,0:0:0:0:
256,192,115263,1,8,0:0:0:0:
256,192,115439,1,8,0:0:0:0:
256,192,115528,1,8,0:0:0:0:
256,192,115616,1,0,0:0:0:0:
256,192,115792,1,8,0:0:0:0:
256,192,115969,1,8,0:0:0:0:
256,192,116057,1,8,0:0:0:0:
256,192,116145,1,8,0:0:0:0:
256,192,116233,1,8,0:0:0:0:
256,192,116322,1,0,0:0:0:0:
256,192,116498,1,0,0:0:0:0:
256,192,116675,1,8,0:0:0:0:
256,192,116763,1,0,0:0:0:0:
256,192,116851,1,8,0:0:0:0:
256,192,116939,1,8,0:0:0:0:
256,192,117028,1,0,0:0:0:0:
256,192,117116,1,8,0:0:0:0:
256,192,117204,1,8,0:0:0:0:
256,192,117292,1,8,0:0:0:0:
256,192,117381,1,0,0:0:0:0:
256,192,117469,1,8,0:0:0:0:
256,192,117557,1,8,0:0:0:0:
256,192,117645,1,8,0:0:0:0:
256,192,117733,1,0,0:0:0:0:
256,192,117910,1,8,0:0:0:0:
256,192,117998,1,0,0:0:0:0:
256,192,118086,1,8,0:0:0:0:
256,192,118263,1,0,0:0:0:0:
256,192,118439,1,0,0:0:0:0:
256,192,118528,1,0,0:0:0:0:
256,192,118616,1,0,0:0:0:0:
256,192,118704,1,0,0:0:0:0:
256,192,118792,1,8,0:0:0:0:
256,192,118881,1,8,0:0:0:0:
256,192,118969,1,0,0:0:0:0:
256,192,119057,1,8,0:0:0:0:
256,192,119145,1,8,0:0:0:0:
256,192,119233,1,0,0:0:0:0:
256,192,119322,1,0,0:0:0:0:
256,192,119410,1,8,0:0:0:0:
256,192,119498,1,0,0:0:0:0:
256,192,119586,1,8,0:0:0:0:
256,192,119675,1,8,0:0:0:0:
256,192,119763,1,8,0:0:0:0:
256,192,119851,1,0,0:0:0:0:
256,192,120028,1,0,0:0:0:0:
256,192,120116,1,0,0:0:0:0:
256,192,120204,1,8,0:0:0:0:
256,192,120292,1,8,0:0:0:0:
256,192,120381,1,0,0:0:0:0:
256,192,120469,1,8,0:0:0:0:
256,192,120557,1,0,0:0:0:0:
256,192,120733,1,0,0:0:0:0:
256,192,120910,1,8,0:0:0:0:
256,192,120998,1,8,0:0:0:0:
256,192,121086,1,0,0:0:0:0:
256,192,121175,1,0,0:0:0:0:
256,192,121263,1,8,0:0:0:0:
256,192,121439,1,8,0:0:0:0:
256,192,121528,1,8,0:0:0:0:
256,192,121616,1,8,0:0:0:0:
256,192,121704,1,0,0:0:0:0:
256,192,121792,1,0,0:0:0:0:
256,192,121881,1,8,0:0:0:0:
256,192,121969,1,0,0:0:0:0:
256,192,122145,1,0,0:0:0:0:
256,192,122233,1,0,0:0:0:0:
256,192,122322,1,8,0:0:0:0:
256,192,122410,1,8,0:0:0:0:
256,192,122498,1,0,0:0:0:0:
256,192,122586,1,8,0:0:0:0:
256,192,122675,1,0,0:0:0:0:
256,192,122763,1,8,0:0:0:0:
256,192,122851,1,0,0:0:0:0:
256,192,122939,1,0,0:0:0:0:
256,192,123028,1,8,0:0:0:0:
256,192,123116,1,8,0:0:0:0:
256,192,123204,1,0,0:0:0:0:
256,192,123381,1,4,0:0:0:0:
256,192,123557,1,12,0:0:0:0:
256,192,123733,1,4,0:0:0:0:
256,192,123910,1,8,0:0:0:0:
256,192,123998,1,8,0:0:0:0:
256,192,124086,1,4,0:0:0:0:
256,192,124263,5,0,0:0:0:0:
288,224,124351,1,0,0:0:0:0:
256,192,124439,1,8,0:0:0:0:
256,192,124528,1,0,0:0:0:0:
256,192,124616,1,8,0:0:0:0:
256,192,124704,1,8,0:0:0:0:
256,192,124792,1,8,0:0:0:0:
256,192,124881,1,0,0:0:0:0:
256,192,124969,1,8,0:0:0:0:
256,192,125145,1,8,0:0:0:0:
256,192,125233,1,0,0:0:0:0:
256,192,125322,1,8,0:0:0:0:
256,192,125410,1,0,0:0:0:0:
256,192,125498,1,8,0:0:0:0:
256,192,125586,1,8,0:0:0:0:
256,192,125675,1,0,0:0:0:0:
256,192,125763,1,0,0:0:0:0:
256,192,125851,1,8,0:0:0:0:
256,192,125939,1,0,0:0:0:0:
256,192,126028,1,8,0:0:0:0:
256,192,126116,1,8,0:0:0:0:
256,192,126204,1,0,0:0:0:0:
256,192,126292,1,8,0:0:0:0:
256,192,126381,1,8,0:0:0:0:
256,192,126469,1,8,0:0:0:0:
256,192,126557,1,0,0:0:0:0:
256,192,126645,1,8,0:0:0:0:
256,192,126733,1,8,0:0:0:0:
256,192,126822,1,0,0:0:0:0:
256,192,126910,1,8,0:0:0:0:
256,192,127175,1,8,0:0:0:0:
256,192,127263,1,8,0:0:0:0:
256,192,127439,1,8,0:0:0:0:
256,192,127528,1,0,0:0:0:0:
256,192,127616,1,8,0:0:0:0:
256,192,127881,1,8,0:0:0:0:
256,192,127969,1,8,0:0:0:0:
256,192,128145,1,0,0:0:0:0:
256,192,128233,1,8,0:0:0:0:
256,192,128322,1,0,0:0:0:0:
256,192,128410,1,8,0:0:0:0:
256,192,128498,1,8,0:0:0:0:
256,192,128586,1,0,0:0:0:0:
256,192,128675,1,8,0:0:0:0:
256,192,128763,1,8,0:0:0:0:
256,192,128851,1,0,0:0:0:0:
256,192,128939,1,8,0:0:0:0:
256,192,129028,1,0,0:0:0:0:
256,192,129116,1,8,0:0:0:0:
256,192,129204,1,0,0:0:0:0:
256,192,129292,1,8,0:0:0:0:
256,192,129381,1,8,0:0:0:0:
256,192,129469,1,8,0:0:0:0:
256,192,129557,1,0,0:0:0:0:
256,192,129645,1,8,0:0:0:0:
256,192,129733,1,0,0:0:0:0:
288,192,129822,1,8,0:0:0:0:
256,192,129910,1,8,0:0:0:0:
256,192,129998,1,0,0:0:0:0:
256,192,130086,1,8,0:0:0:0:
256,192,130175,1,8,0:0:0:0:
256,192,130263,1,0,0:0:0:0:
256,192,130351,1,8,0:0:0:0:
256,192,130439,1,0,0:0:0:0:
256,192,130528,1,8,0:0:0:0:
256,160,130616,1,0,0:0:0:0:
256,160,130704,1,8,0:0:0:0:
256,160,130792,1,8,0:0:0:0:
256,192,130881,1,8,0:0:0:0:
256,192,130969,1,8,0:0:0:0:
256,160,131057,1,0,0:0:0:0:
256,160,131145,1,8,0:0:0:0:
256,160,131410,1,8,0:0:0:0:
256,160,131498,1,0,0:0:0:0:
256,160,131586,1,8,0:0:0:0:
256,160,131675,1,8,0:0:0:0:
256,192,131763,1,8,0:0:0:0:
256,192,131851,1,0,0:0:0:0:
256,192,132028,1,8,0:0:0:0:
256,192,132116,1,8,0:0:0:0:
256,192,132204,1,0,0:0:0:0:
256,192,132292,1,8,0:0:0:0:
256,192,132381,1,8,0:0:0:0:
256,160,132469,1,0,0:0:0:0:
256,160,132557,1,8,0:0:0:0:
256,160,132733,1,8,0:0:0:0:
256,160,132822,1,8,0:0:0:0:
256,160,132910,1,8,0:0:0:0:
256,160,132998,1,0,0:0:0:0:
256,160,133086,1,8,0:0:0:0:
256,160,133175,1,0,0:0:0:0:
256,160,133263,1,8,0:0:0:0:
256,160,133439,1,8,0:0:0:0:
256,160,133528,1,8,0:0:0:0:
256,160,133616,1,0,0:0:0:0:
256,160,133704,1,8,0:0:0:0:
256,160,133792,1,0,0:0:0:0:
256,160,133881,1,0,0:0:0:0:
256,160,133969,1,8,0:0:0:0:
256,160,134057,1,8,0:0:0:0:
256,160,134145,1,8,0:0:0:0:
256,160,134233,1,0,0:0:0:0:
256,160,134322,1,8,0:0:0:0:
256,160,134410,1,8,0:0:0:0:
256,160,134498,1,8,0:0:0:0:
256,160,134586,1,0,0:0:0:0:
256,160,134675,1,12,0:0:0:0:
256,160,134851,1,4,0:0:0:0:
256,160,135028,5,12,0:0:0:0:
256,192,135381,5,4,0:0:0:0:
256,192,135733,1,12,0:0:0:0:
256,192,136086,1,12,0:0:0:0:
256,192,136439,1,4,0:0:0:0:
256,192,136616,1,12,0:0:0:0:
256,192,136969,1,4,0:0:0:0:
256,192,137322,1,4,0:0:0:0:
256,192,137498,1,8,0:0:0:0:
256,192,137586,1,8,0:0:0:0:
256,192,137675,1,0,0:0:0:0:
256,192,137763,1,0,0:0:0:0:
256,192,137851,1,8,0:0:0:0:
256,192,137939,1,8,0:0:0:0:
256,192,138028,1,8,0:0:0:0:
256,192,138116,1,8,0:0:0:0:
256,192,138204,1,4,0:0:0:0:
256,192,138557,1,12,0:0:0:0:
256,192,138910,1,12,0:0:0:0:
256,192,139263,1,4,0:0:0:0:
256,192,139439,1,12,0:0:0:0:
256,192,139792,1,12,0:0:0:0:
256,192,140145,1,4,0:0:0:0:
256,192,140322,1,8,0:0:0:0:
256,192,140410,1,8,0:0:0:0:
256,192,140498,1,8,0:0:0:0:
256,192,140586,1,8,0:0:0:0:
256,192,140675,1,0,0:0:0:0:
256,192,140763,1,0,0:0:0:0:
256,192,140851,1,8,0:0:0:0:
256,192,140939,1,8,0:0:0:0:
256,192,141028,1,4,0:0:0:0:
256,192,141381,1,12,0:0:0:0:
256,192,141733,1,4,0:0:0:0:
256,192,142086,1,4,0:0:0:0:
256,192,142263,1,12,0:0:0:0:
256,192,142616,1,4,0:0:0:0:
256,192,142969,1,12,0:0:0:0:
256,192,143145,1,0,0:0:0:0:
256,192,143233,1,0,0:0:0:0:
256,192,143322,1,0,0:0:0:0:
256,192,143410,1,0,0:0:0:0:
256,192,143498,1,8,0:0:0:0:
256,192,143586,1,8,0:0:0:0:
256,192,143675,1,8,0:0:0:0:
256,192,143763,1,8,0:0:0:0:
256,192,143851,1,4,0:0:0:0:
256,192,144204,1,12,0:0:0:0:
256,192,144557,1,4,0:0:0:0:
256,192,144910,1,12,0:0:0:0:
256,192,145086,1,4,0:0:0:0:
256,192,145439,1,12,0:0:0:0:
256,192,145792,1,12,0:0:0:0:
256,192,145969,1,0,0:0:0:0:
256,192,146028,1,0,0:0:0:0:
256,192,146086,1,0,0:0:0:0:
256,192,146145,1,8,0:0:0:0:
256,192,146204,1,8,0:0:0:0:
256,192,146263,1,8,0:0:0:0:
256,192,146322,1,0,0:0:0:0:
256,192,146381,1,0,0:0:0:0:
256,192,146439,1,0,0:0:0:0:
256,192,146498,1,8,0:0:0:0:
256,192,146557,1,8,0:0:0:0:
256,192,146616,1,8,0:0:0:0:
256,192,146675,1,0,0:0:0:0:
256,192,146851,1,0,0:0:0:0:
256,192,146939,1,0,0:0:0:0:
256,192,147028,1,8,0:0:0:0:
256,192,147204,1,0,0:0:0:0:
256,192,147292,1,8,0:0:0:0:
256,192,147381,1,0,0:0:0:0:
256,192,147557,1,8,0:0:0:0:
256,192,147733,1,8,0:0:0:0:
256,192,147910,1,8,0:0:0:0:
256,192,147998,1,0,0:0:0:0:
256,192,148086,1,0,0:0:0:0:
256,192,148263,1,0,0:0:0:0:
256,192,148351,1,0,0:0:0:0:
256,192,148439,1,8,0:0:0:0:
256,192,148528,1,0,0:0:0:0:
256,192,148616,1,8,0:0:0:0:
256,192,148704,1,8,0:0:0:0:
256,192,148792,1,0,0:0:0:0:
256,192,148969,1,8,0:0:0:0:
256,192,149145,1,0,0:0:0:0:
256,192,149322,1,8,0:0:0:0:
256,192,149498,1,8,0:0:0:0:
256,192,149675,1,0,0:0:0:0:
256,192,149851,1,8,0:0:0:0:
256,192,150028,1,8,0:0:0:0:
256,192,150116,1,8,0:0:0:0:
256,192,150204,1,0,0:0:0:0:
256,192,150381,1,0,0:0:0:0:
256,192,150557,1,8,0:0:0:0:
256,192,150733,1,0,0:0:0:0:
256,192,150822,1,8,0:0:0:0:
256,192,150910,1,0,0:0:0:0:
256,192,151086,1,8,0:0:0:0:
256,192,151263,1,8,0:0:0:0:
256,192,151439,1,0,0:0:0:0:
256,192,151616,1,8,0:0:0:0:
256,192,151704,1,8,0:0:0:0:
256,192,151792,1,8,0:0:0:0:
256,192,151881,1,0,0:0:0:0:
256,192,151969,1,8,0:0:0:0:
256,192,152057,1,8,0:0:0:0:
256,192,152145,1,0,0:0:0:0:
256,192,152233,1,8,0:0:0:0:
256,192,152322,1,0,0:0:0:0:
256,192,152410,1,8,0:0:0:0:
256,192,152498,1,8,0:0:0:0:
256,192,152586,1,0,0:0:0:0:
256,192,152675,1,8,0:0:0:0:
256,192,152763,1,8,0:0:0:0:
256,192,152851,1,0,0:0:0:0:
256,192,152939,1,8,0:0:0:0:
256,192,153028,1,8,0:0:0:0:
256,192,153116,1,8,0:0:0:0:
256,192,153204,1,0,0:0:0:0:
256,192,153292,1,8,0:0:0:0:
256,192,153381,1,8,0:0:0:0:
256,192,153469,1,0,0:0:0:0:
256,192,153557,1,8,0:0:0:0:
256,192,153645,1,8,0:0:0:0:
256,192,153733,1,0,0:0:0:0:
256,192,153998,1,8,0:0:0:0:
256,192,154086,1,0,0:0:0:0:
256,192,154175,1,0,0:0:0:0:
256,192,154263,1,8,0:0:0:0:
256,192,154351,1,0,0:0:0:0:
256,192,154439,1,8,0:0:0:0:
256,192,154616,1,0,0:0:0:0:
256,192,154792,1,8,0:0:0:0:
256,192,154881,1,8,0:0:0:0:
256,192,154969,1,0,0:0:0:0:
256,192,155057,1,8,0:0:0:0:
256,192,155145,1,8,0:0:0:0:
256,192,155322,1,0,0:0:0:0:
256,192,155498,1,8,0:0:0:0:
256,192,155675,1,8,0:0:0:0:
256,192,155763,1,0,0:0:0:0:
256,192,155851,1,8,0:0:0:0:
256,192,156028,1,0,0:0:0:0:
256,192,156116,1,0,0:0:0:0:
256,192,156204,1,8,0:0:0:0:
256,192,156381,1,0,0:0:0:0:
256,192,156469,1,8,0:0:0:0:
256,192,156557,1,8,0:0:0:0:
256,192,156645,1,0,0:0:0:0:
256,192,156733,1,8,0:0:0:0:
256,192,156822,1,8,0:0:0:0:
288,192,156910,1,0,0:0:0:0:
288,192,157086,1,0,0:0:0:0:
288,192,157175,1,8,0:0:0:0:
288,192,157263,1,8,0:0:0:0:
288,192,157351,1,8,0:0:0:0:
288,192,157439,1,0,0:0:0:0:
288,192,157528,5,8,0:0:0:0:
288,192,157616,1,8,0:0:0:0:
288,192,157704,1,0,0:0:0:0:
288,192,157792,1,8,0:0:0:0:
288,192,157881,1,8,0:0:0:0:
256,192,157969,5,4,0:0:0:0:
256,192,158233,5,8,0:0:0:0:
256,192,158322,1,8,0:0:0:0:
256,192,158498,1,8,0:0:0:0:
256,192,158586,1,8,0:0:0:0:
256,192,158675,1,0,0:0:0:0:
256,192,158939,1,0,0:0:0:0:
256,192,159028,1,8,0:0:0:0:
256,192,159204,1,8,0:0:0:0:
256,192,159292,1,8,0:0:0:0:
256,192,159381,1,0,0:0:0:0:
256,192,159645,1,8,0:0:0:0:
256,192,159733,1,8,0:0:0:0:
256,192,159910,1,0,0:0:0:0:
256,192,160086,1,0,0:0:0:0:
256,192,160175,1,0,0:0:0:0:
256,192,160263,1,8,0:0:0:0:
256,192,160351,1,8,0:0:0:0:
256,192,160439,1,0,0:0:0:0:
256,192,160528,1,8,0:0:0:0:
256,192,160616,1,0,0:0:0:0:
256,192,160704,1,8,0:0:0:0:
256,192,160792,1,0,0:0:0:0:
256,192,161057,1,8,0:0:0:0:
256,192,161145,1,8,0:0:0:0:
256,192,161322,1,0,0:0:0:0:
256,192,161410,1,0,0:0:0:0:
256,192,161498,1,0,0:0:0:0:
256,192,161763,1,8,0:0:0:0:
256,192,161851,1,8,0:0:0:0:
256,192,162028,1,0,0:0:0:0:
256,192,162116,1,0,0:0:0:0:
256,192,162204,1,0,0:0:0:0:
256,192,162469,1,8,0:0:0:0:
256,192,162557,1,8,0:0:0:0:
256,192,162733,1,0,0:0:0:0:
256,192,162822,1,0,0:0:0:0:
256,192,162910,1,8,0:0:0:0:
256,192,162998,1,8,0:0:0:0:
256,192,163086,1,0,0:0:0:0:
256,192,163175,1,8,0:0:0:0:
256,192,163263,1,0,0:0:0:0:
256,192,163351,1,8,0:0:0:0:
256,192,163439,1,0,0:0:0:0:
256,192,163528,1,0,0:0:0:0:
256,192,163616,1,12,0:0:0:0:
256,192,163792,1,0,0:0:0:0:
256,192,163969,1,8,0:0:0:0:
256,192,164057,1,8,0:0:0:0:
256,192,164145,1,0,0:0:0:0:
256,192,164233,1,0,0:0:0:0:
256,192,164322,1,8,0:0:0:0:
256,192,164410,1,0,0:0:0:0:
256,192,164498,1,8,0:0:0:0:
256,192,164586,1,0,0:0:0:0:
256,192,164675,1,0,0:0:0:0:
256,192,164763,1,8,0:0:0:0:
256,192,164851,1,8,0:0:0:0:
256,192,164939,1,0,0:0:0:0:
256,192,165028,1,8,0:0:0:0:
256,192,165116,1,0,0:0:0:0:
256,192,165204,1,0,0:0:0:0:
256,192,165292,1,8,0:0:0:0:
256,192,165381,1,0,0:0:0:0:
256,192,165469,1,8,0:0:0:0:
256,192,165557,1,0,0:0:0:0:
256,192,165645,1,0,0:0:0:0:
256,192,165733,1,8,0:0:0:0:
256,192,165822,1,0,0:0:0:0:
256,192,165910,1,0,0:0:0:0:
256,192,165998,1,0,0:0:0:0:
256,192,166086,1,0,0:0:0:0:
256,192,166175,1,8,0:0:0:0:
256,192,166263,1,8,0:0:0:0:
256,192,166351,1,8,0:0:0:0:
256,192,166439,1,8,0:0:0:0:
256,192,166616,1,8,0:0:0:0:
256,192,166792,1,0,0:0:0:0:
256,192,166969,1,8,0:0:0:0:
256,192,167057,1,8,0:0:0:0:
256,192,167145,1,8,0:0:0:0:
256,192,167322,1,0,0:0:0:0:
256,192,167410,1,0,0:0:0:0:
256,192,167498,1,8,0:0:0:0:
256,192,167586,1,0,0:0:0:0:
256,192,167675,1,8,0:0:0:0:
256,192,167763,1,0,0:0:0:0:
256,192,167851,1,8,0:0:0:0:
256,192,168028,1,0,0:0:0:0:
256,192,168116,1,0,0:0:0:0:
256,192,168204,1,0,0:0:0:0:
256,192,168381,1,0,0:0:0:0:
256,192,168469,1,0,0:0:0:0:
256,192,168557,1,0,0:0:0:0:
256,192,168733,1,0,0:0:0:0:
256,192,168822,1,0,0:0:0:0:
256,192,168910,1,0,0:0:0:0:
256,192,168998,1,0,0:0:0:0:
256,192,169086,1,0,0:0:0:0:
256,192,169175,1,0,0:0:0:0:
256,192,169263,1,12,0:0:0:0:
256,192,169792,5,0,0:0:0:0:
256,192,169881,1,0,0:0:0:0:
288,192,169969,1,12,0:0:0:0:
256,224,170498,1,0,0:0:0:0:
256,192,170586,1,0,0:0:0:0:
256,192,170675,1,12,0:0:0:0:
256,192,170851,1,0,0:0:0:0:
256,192,170939,1,0,0:0:0:0:
256,192,171028,1,12,0:0:0:0:
256,192,171204,1,4,0:0:0:0:
256,192,171381,1,12,0:0:0:0:
256,192,171557,1,0,0:0:0:0:
256,192,171645,1,0,0:0:0:0:
256,192,171733,1,8,0:0:0:0:
256,192,171822,1,8,0:0:0:0:
256,192,171910,1,0,0:0:0:0:
256,192,171998,1,0,0:0:0:0:
256,192,172086,1,12,0:0:0:0:
256,192,172616,1,0,0:0:0:0:
256,192,172704,1,0,0:0:0:0:
256,192,172792,1,12,0:0:0:0:
256,192,173322,1,0,0:0:0:0:
256,192,173410,1,0,0:0:0:0:
256,192,173498,1,12,0:0:0:0:
256,192,173675,1,8,0:0:0:0:
256,192,173763,1,8,0:0:0:0:
256,192,173851,1,4,0:0:0:0:
256,192,174028,1,4,0:0:0:0:
256,192,174204,1,0,0:0:0:0:
256,192,174292,1,8,0:0:0:0:
256,192,174381,1,0,0:0:0:0:
256,192,174469,1,8,0:0:0:0:
256,192,174557,1,0,0:0:0:0:
256,192,174645,1,8,0:0:0:0:
256,192,174733,1,8,0:0:0:0:
256,192,174822,1,0,0:0:0:0:
256,192,174910,1,12,0:0:0:0:
256,192,175439,1,0,0:0:0:0:
256,192,175528,1,0,0:0:0:0:
256,192,175616,1,12,0:0:0:0:
256,192,176145,1,8,0:0:0:0:
256,192,176233,1,8,0:0:0:0:
256,192,176322,1,4,0:0:0:0:
288,192,176498,1,8,0:0:0:0:
288,192,176586,1,8,0:0:0:0:
288,192,176675,1,4,0:0:0:0:
288,192,176851,1,4,0:0:0:0:
288,192,177028,1,12,0:0:0:0:
288,192,177204,1,0,0:0:0:0:
288,192,177292,1,0,0:0:0:0:
288,192,177381,1,8,0:0:0:0:
288,192,177469,1,8,0:0:0:0:
288,192,177557,1,0,0:0:0:0:
288,192,177645,1,8,0:0:0:0:
288,192,177733,1,0,0:0:0:0:
288,192,177822,1,8,0:0:0:0:
288,192,177910,1,8,0:0:0:0:
288,192,177998,1,0,0:0:0:0:
288,192,178086,1,8,0:0:0:0:
288,192,178175,1,8,0:0:0:0:
288,192,178263,1,8,0:0:0:0:
288,192,178351,1,0,0:0:0:0:
288,192,178439,1,8,0:0:0:0:
288,192,178528,1,8,0:0:0:0:
288,192,178616,1,0,0:0:0:0:
288,192,178704,1,8,0:0:0:0:
288,192,178792,1,0,0:0:0:0:
288,192,178881,1,8,0:0:0:0:
288,192,178969,1,8,0:0:0:0:
288,192,179057,1,8,0:0:0:0:
288,192,179145,1,8,0:0:0:0:
288,192,179233,1,8,0:0:0:0:
288,192,179322,1,0,0:0:0:0:
288,192,179410,1,8,0:0:0:0:
288,192,179498,1,8,0:0:0:0:
288,192,179586,1,8,0:0:0:0:
288,192,179675,1,0,0:0:0:0:
288,192,179763,1,0,0:0:0:0:
288,192,179851,1,8,0:0:0:0:
288,192,179910,1,8,0:0:0:0:
288,192,179969,1,0,0:0:0:0:
288,192,180028,1,8,0:0:0:0:
288,192,180086,1,8,0:0:0:0:
288,192,180145,5,8,0:0:0:0:
288,192,180204,1,0,0:0:0:0:
288,192,180263,1,0,0:0:0:0:
288,192,180322,1,0,0:0:0:0:
288,192,180381,1,8,0:0:0:0:
288,192,180439,1,8,0:0:0:0:
288,192,180498,1,8,0:0:0:0:
256,192,180557,5,0,0:0:0:0:
256,192,180910,1,8,0:0:0:0:
256,192,181086,1,0,0:0:0:0:
256,192,181175,1,0,0:0:0:0:
256,192,181263,1,8,0:0:0:0:
256,192,181439,1,8,0:0:0:0:
256,192,181528,1,0,0:0:0:0:
256,192,181616,1,8,0:0:0:0:
256,192,181792,1,0,0:0:0:0:
256,192,181881,1,0,0:0:0:0:
256,192,181969,1,8,0:0:0:0:
256,192,182057,1,8,0:0:0:0:
256,192,182145,1,8,0:0:0:0:
256,192,182233,1,0,0:0:0:0:
256,192,182322,1,8,0:0:0:0:
256,192,182410,1,0,0:0:0:0:
256,192,182498,1,0,0:0:0:0:
256,192,182586,1,8,0:0:0:0:
256,192,182675,1,0,0:0:0:0:
256,192,182851,1,0,0:0:0:0:
256,192,182939,1,0,0:0:0:0:
256,192,183028,1,8,0:0:0:0:
256,192,183204,1,8,0:0:0:0:
256,192,183292,1,8,0:0:0:0:
256,192,183381,1,0,0:0:0:0:
256,192,183557,1,8,0:0:0:0:
256,192,183733,1,8,0:0:0:0:
256,192,183822,1,8,0:0:0:0:
256,192,183910,1,8,0:0:0:0:
256,192,183998,1,8,0:0:0:0:
256,192,184086,1,0,0:0:0:0:
256,192,184263,1,0,0:0:0:0:
256,192,184439,1,8,0:0:0:0:
256,192,184528,1,0,0:0:0:0:
256,192,184616,1,8,0:0:0:0:
256,192,184704,1,8,0:0:0:0:
256,192,184792,1,0,0:0:0:0:
256,192,184881,1,8,0:0:0:0:
256,192,184969,1,8,0:0:0:0:
256,192,185057,1,8,0:0:0:0:
256,192,185145,1,0,0:0:0:0:
256,192,185233,1,8,0:0:0:0:
256,192,185322,1,8,0:0:0:0:
256,192,185410,1,8,0:0:0:0:
256,192,185498,1,0,0:0:0:0:
256,192,185675,1,8,0:0:0:0:
256,192,185763,1,0,0:0:0:0:
256,192,185851,1,8,0:0:0:0:
256,192,186028,1,0,0:0:0:0:
256,192,186204,1,0,0:0:0:0:
256,192,186292,1,0,0:0:0:0:
256,192,186381,1,0,0:0:0:0:
256,192,186469,1,0,0:0:0:0:
256,192,186557,1,8,0:0:0:0:
256,192,186645,1,8,0:0:0:0:
256,192,186733,1,0,0:0:0:0:
256,192,186822,1,8,0:0:0:0:
256,192,186910,1,8,0:0:0:0:
256,192,186998,1,0,0:0:0:0:
256,192,187086,1,0,0:0:0:0:
256,192,187175,1,8,0:0:0:0:
256,192,187263,1,0,0:0:0:0:
256,192,187351,1,8,0:0:0:0:
256,192,187439,1,8,0:0:0:0:
256,192,187528,1,8,0:0:0:0:
256,192,187616,1,0,0:0:0:0:
256,192,187792,1,0,0:0:0:0:
256,192,187881,1,0,0:0:0:0:
256,192,187969,1,8,0:0:0:0:
256,192,188057,1,8,0:0:0:0:
256,192,188145,1,0,0:0:0:0:
256,192,188233,1,8,0:0:0:0:
256,192,188322,1,0,0:0:0:0:
256,192,188498,1,0,0:0:0:0:
256,192,188675,1,8,0:0:0:0:
256,192,188763,1,8,0:0:0:0:
256,192,188851,1,0,0:0:0:0:
256,192,188939,1,0,0:0:0:0:
256,192,189028,1,8,0:0:0:0:
256,192,189204,1,8,0:0:0:0:
256,192,189292,1,8,0:0:0:0:
256,192,189381,1,8,0:0:0:0:
256,192,189469,1,0,0:0:0:0:
256,192,189557,1,0,0:0:0:0:
256,192,189645,1,8,0:0:0:0:
256,192,189733,1,0,0:0:0:0:
256,192,189910,1,0,0:0:0:0:
256,192,189998,1,0,0:0:0:0:
256,192,190086,1,8,0:0:0:0:
256,192,190175,1,8,0:0:0:0:
256,192,190263,1,0,0:0:0:0:
256,192,190351,1,8,0:0:0:0:
256,192,190439,1,0,0:0:0:0:
256,192,190528,1,8,0:0:0:0:
256,192,190616,1,0,0:0:0:0:
256,192,190704,5,0,0:0:0:0:
256,192,190792,1,8,0:0:0:0:
256,192,190881,1,8,0:0:0:0:
256,192,190969,1,0,0:0:0:0:
256,192,191145,5,4,0:0:0:0:
256,192,191322,1,12,0:0:0:0:
256,192,191498,1,4,0:0:0:0:
256,192,191675,1,8,0:0:0:0:
256,192,191763,1,8,0:0:0:0:
256,192,191851,1,0,0:0:0:0:
288,192,192028,5,0,0:0:0:0:
256,192,192204,1,8,0:0:0:0:
256,192,192292,1,8,0:0:0:0:
256,192,192381,1,8,0:0:0:0:
256,192,192469,1,0,0:0:0:0:
256,192,192557,1,8,0:0:0:0:
256,192,192733,1,8,0:0:0:0:
256,192,192822,1,0,0:0:0:0:
256,192,192910,1,8,0:0:0:0:
256,192,192998,1,0,0:0:0:0:
256,192,193086,1,8,0:0:0:0:
256,192,193175,1,0,0:0:0:0:
256,192,193263,1,8,0:0:0:0:
256,192,193351,1,8,0:0:0:0:
256,192,193439,1,0,0:0:0:0:
256,192,193528,1,0,0:0:0:0:
256,192,193616,1,8,0:0:0:0:
288,192,193704,1,8,0:0:0:0:
224,160,193792,1,8,0:0:0:0:
224,160,193881,1,0,0:0:0:0:
224,160,193969,1,8,0:0:0:0:
288,192,194057,1,8,0:0:0:0:
288,192,194145,1,0,0:0:0:0:
288,192,194233,1,0,0:0:0:0:
288,192,194322,1,8,0:0:0:0:
288,192,194410,1,8,0:0:0:0:
288,192,194498,1,0,0:0:0:0:
256,160,194586,1,8,0:0:0:0:
256,160,194675,1,0,0:0:0:0:
256,160,194939,1,8,0:0:0:0:
256,192,195028,1,8,0:0:0:0:
256,192,195204,1,0,0:0:0:0:
256,192,195292,1,8,0:0:0:0:
256,192,195381,1,0,0:0:0:0:
256,192,195645,1,8,0:0:0:0:
256,192,195733,1,8,0:0:0:0:
256,192,195910,1,0,0:0:0:0:
256,192,195998,1,8,0:0:0:0:
256,192,196086,1,0,0:0:0:0:
256,192,196175,1,8,0:0:0:0:
256,192,196263,1,8,0:0:0:0:
256,192,196351,1,0,0:0:0:0:
256,192,196439,1,8,0:0:0:0:
288,192,196528,1,8,0:0:0:0:
288,192,196616,1,0,0:0:0:0:
288,192,196704,1,8,0:0:0:0:
256,160,196792,1,0,0:0:0:0:
256,160,196881,1,0,0:0:0:0:
256,160,196969,1,8,0:0:0:0:
256,160,197057,1,8,0:0:0:0:
256,160,197145,1,0,0:0:0:0:
256,160,197233,1,8,0:0:0:0:
256,160,197322,1,0,0:0:0:0:
256,160,197410,1,8,0:0:0:0:
256,160,197498,1,0,0:0:0:0:
224,192,197675,1,8,0:0:0:0:
256,160,197763,1,8,0:0:0:0:
256,160,197851,1,0,0:0:0:0:
256,160,197939,1,8,0:0:0:0:
256,160,198028,1,8,0:0:0:0:
256,160,198116,1,8,0:0:0:0:
256,160,198204,1,0,0:0:0:0:
256,160,198292,1,0,0:0:0:0:
256,160,198381,1,8,0:0:0:0:
256,160,198469,1,8,0:0:0:0:
256,160,198557,1,0,0:0:0:0:
256,160,198645,1,8,0:0:0:0:
256,160,198733,1,8,0:0:0:0:
256,160,198822,1,0,0:0:0:0:
256,160,198910,1,8,0:0:0:0:
256,160,198998,1,0,0:0:0:0:
256,160,199086,1,8,0:0:0:0:
256,160,199175,1,0,0:0:0:0:
256,160,199263,1,8,0:0:0:0:
256,160,199351,1,8,0:0:0:0:
256,160,199439,1,8,0:0:0:0:
256,160,199528,1,0,0:0:0:0:
256,160,199616,1,8,0:0:0:0:
256,160,199792,1,8,0:0:0:0:
256,160,199881,1,8,0:0:0:0:
256,160,199969,1,8,0:0:0:0:
256,160,200057,1,0,0:0:0:0:
256,160,200145,1,0,0:0:0:0:
256,160,200233,1,8,0:0:0:0:
256,160,200322,1,0,0:0:0:0:
256,160,200498,1,8,0:0:0:0:
256,160,200586,1,8,0:0:0:0:
256,160,200675,1,8,0:0:0:0:
256,160,200763,1,0,0:0:0:0:
256,160,200851,1,8,0:0:0:0:
256,160,200939,1,8,0:0:0:0:
256,160,201028,1,0,0:0:0:0:
256,160,201204,1,8,0:0:0:0:
256,160,201292,1,8,0:0:0:0:
256,160,201381,1,0,0:0:0:0:
256,160,201469,1,8,0:0:0:0:
256,160,201557,1,8,0:0:0:0:
256,160,201645,1,0,0:0:0:0:
256,160,201733,1,8,0:0:0:0:
256,160,201822,1,8,0:0:0:0:
256,160,201910,1,8,0:0:0:0:
256,160,201998,1,0,0:0:0:0:
256,160,202086,1,0,0:0:0:0:
256,160,202175,1,8,0:0:0:0:
256,160,202263,1,8,0:0:0:0:
256,160,202351,1,0,0:0:0:0:
256,160,202439,1,12,0:0:0:0:
256,160,202616,1,4,0:0:0:0:
256,160,202792,5,12,0:0:0:0:
256,192,203145,5,4,0:0:0:0:
256,192,203498,1,12,0:0:0:0:
256,192,203851,1,12,0:0:0:0:
256,192,204204,1,4,0:0:0:0:
256,192,204381,1,12,0:0:0:0:
256,192,204733,1,4,0:0:0:0:
256,192,205086,1,12,0:0:0:0:
256,192,205263,1,8,0:0:0:0:
256,192,205351,1,8,0:0:0:0:
256,192,205439,1,0,0:0:0:0:
256,192,205528,1,0,0:0:0:0:
256,192,205616,1,8,0:0:0:0:
256,192,205704,1,8,0:0:0:0:
256,192,205792,1,8,0:0:0:0:
256,192,205881,1,8,0:0:0:0:
256,192,205969,1,4,0:0:0:0:
256,192,206322,1,12,0:0:0:0:
256,192,206675,1,12,0:0:0:0:
256,192,207028,1,4,0:0:0:0:
256,192,207204,1,12,0:0:0:0:
256,192,207557,1,12,0:0:0:0:
256,192,207910,1,4,0:0:0:0:
256,192,208086,1,8,0:0:0:0:
256,192,208175,1,0,0:0:0:0:
256,192,208263,1,8,0:0:0:0:
256,192,208351,1,8,0:0:0:0:
256,192,208439,1,0,0:0:0:0:
256,192,208528,1,0,0:0:0:0:
256,192,208616,1,0,0:0:0:0:
256,192,208704,1,0,0:0:0:0:
256,192,208792,1,12,0:0:0:0:
256,192,209145,1,12,0:0:0:0:
256,192,209498,1,4,0:0:0:0:
256,192,209851,1,4,0:0:0:0:
256,192,210028,1,12,0:0:0:0:
256,192,210381,1,4,0:0:0:0:
256,192,210733,1,12,0:0:0:0:
256,192,210910,1,8,0:0:0:0:
256,192,210998,1,8,0:0:0:0:
256,192,211086,1,0,0:0:0:0:
256,192,211175,1,0,0:0:0:0:
256,192,211263,1,8,0:0:0:0:
256,192,211351,1,8,0:0:0:0:
256,192,211439,1,8,0:0:0:0:
256,192,211528,1,8,0:0:0:0:
256,192,211616,1,4,0:0:0:0:
256,192,211969,1,12,0:0:0:0:
256,192,212322,1,4,0:0:0:0:
256,192,212675,1,4,0:0:0:0:
256,192,212851,1,12,0:0:0:0:
256,192,213204,1,12,0:0:0:0:
256,192,213557,1,12,0:0:0:0:
256,192,213733,1,0,0:0:0:0:
256,192,213792,1,0,0:0:0:0:
256,192,213851,1,0,0:0:0:0:
256,192,213910,1,8,0:0:0:0:
256,192,213969,1,8,0:0:0:0:
256,192,214028,1,8,0:0:0:0:
256,192,214086,1,0,0:0:0:0:
256,192,214145,1,0,0:0:0:0:
256,192,214204,1,0,0:0:0:0:
256,192,214263,1,8,0:0:0:0:
256,192,214322,1,8,0:0:0:0:
256,192,214381,1,8,0:0:0:0:
256,192,214439,1,0,0:0:0:0:
224,192,214969,5,0,0:0:0:0:
224,192,215057,1,8,0:0:0:0:
224,192,215145,1,8,0:0:0:0:
224,192,215322,1,0,0:0:0:0:
224,192,215498,1,8,0:0:0:0:
224,192,215675,1,0,0:0:0:0:
224,192,215851,1,8,0:0:0:0:
224,192,216381,1,8,0:0:0:0:
224,160,216469,1,0,0:0:0:0:
224,192,216557,1,8,0:0:0:0:
224,192,216733,1,0,0:0:0:0:
224,160,216910,1,8,0:0:0:0:
224,160,216998,1,8,0:0:0:0:
224,160,217086,1,0,0:0:0:0:
224,160,217175,1,0,0:0:0:0:
224,160,217263,1,8,0:0:0:0:
224,160,217351,1,8,0:0:0:0:
224,160,217439,1,8,0:0:0:0:
224,160,217528,1,0,0:0:0:0:
224,160,217616,1,8,0:0:0:0:
224,160,217792,1,0,0:0:0:0:
224,160,217881,1,8,0:0:0:0:
224,160,217969,1,8,0:0:0:0:
224,160,218057,1,0,0:0:0:0:
224,160,218145,1,8,0:0:0:0:
224,160,218233,1,0,0:0:0:0:
224,160,218322,1,8,0:0:0:0:
192,128,218498,1,0,0:0:0:0:
224,128,218586,1,8,0:0:0:0:
224,160,218675,1,8,0:0:0:0:
224,160,218763,1,0,0:0:0:0:
224,160,218851,1,8,0:0:0:0:
224,160,218939,1,0,0:0:0:0:
224,160,219028,1,8,0:0:0:0:
192,160,219116,1,8,0:0:0:0:
224,128,219204,1,0,0:0:0:0:
224,128,219292,1,8,0:0:0:0:
224,128,219381,1,0,0:0:0:0:
224,128,219469,1,8,0:0:0:0:
192,160,219557,1,8,0:0:0:0:
192,160,219645,1,0,0:0:0:0:
192,160,219733,1,8,0:0:0:0:
192,160,219822,1,8,0:0:0:0:
224,160,219910,1,8,0:0:0:0:
224,160,219998,1,0,0:0:0:0:
224,160,220086,1,8,0:0:0:0:
224,160,220263,1,8,0:0:0:0:
224,160,220351,1,0,0:0:0:0:
224,160,220439,1,8,0:0:0:0:
224,160,220616,1,0,0:0:0:0:
224,160,220792,1,0,0:0:0:0:
224,160,220969,1,8,0:0:0:0:
224,160,221057,1,8,0:0:0:0:
224,160,221145,1,0,0:0:0:0:
224,160,221322,1,0,0:0:0:0:
192,160,221498,1,8,0:0:0:0:
192,160,221586,1,0,0:0:0:0:
192,160,221675,1,8,0:0:0:0:
192,160,221763,1,8,0:0:0:0:
192,160,221851,1,8,0:0:0:0:
192,160,221939,1,0,0:0:0:0:
192,160,222028,1,8,0:0:0:0:
192,160,222116,1,0,0:0:0:0:
192,160,222204,1,8,0:0:0:0:
192,160,222292,1,0,0:0:0:0:
192,160,222381,1,8,0:0:0:0:
192,160,222469,1,8,0:0:0:0:
192,160,222557,1,8,0:0:0:0:
192,160,222645,1,0,0:0:0:0:
192,160,222733,1,8,0:0:0:0:
192,160,222822,1,8,0:0:0:0:
192,160,222910,1,8,0:0:0:0:
192,160,222998,1,0,0:0:0:0:
192,160,223086,1,8,0:0:0:0:
192,160,223175,1,8,0:0:0:0:
192,160,223263,1,0,0:0:0:0:
192,160,223351,1,8,0:0:0:0:
192,160,223439,1,0,0:0:0:0:
192,160,223528,1,0,0:0:0:0:
192,160,223616,1,0,0:0:0:0:
192,160,223704,1,8,0:0:0:0:
192,160,223792,1,0,0:0:0:0:
192,160,223881,1,8,0:0:0:0:
288,192,223969,1,0,0:0:0:0:
288,128,224057,1,0,0:0:0:0:
224,160,224145,1,8,0:0:0:0:
256,160,224233,1,0,0:0:0:0:
256,96,224322,1,8,0:0:0:0:
224,160,224498,1,8,0:0:0:0:
224,160,224586,1,8,0:0:0:0:
192,160,224675,1,8,0:0:0:0:
256,160,224851,1,0,0:0:0:0:
192,128,225028,1,8,0:0:0:0:
192,128,225086,1,8,0:0:0:0:
256,160,225145,1,8,0:0:0:0:
256,160,225204,1,0,0:0:0:0:
160,128,225292,5,8,0:0:0:0:
160,128,225381,1,0,0:0:0:0:
256,192,225733,5,4,0:0:0:0:
256,192,225910,5,0,0:0:0:0:
256,192,226086,1,8,0:0:0:0:
256,192,226263,1,8,0:0:0:0:
256,192,226351,1,8,0:0:0:0:
256,192,226439,1,0,0:0:0:0:
256,192,226528,1,8,0:0:0:0:
256,192,226616,1,0,0:0:0:0:
256,192,226792,1,8,0:0:0:0:
256,192,226881,1,8,0:0:0:0:
256,192,226969,1,0,0:0:0:0:
256,192,227057,1,0,0:0:0:0:
256,192,227145,1,8,0:0:0:0:
256,192,227233,1,0,0:0:0:0:
256,192,227322,1,8,0:0:0:0:
256,192,227498,1,8,0:0:0:0:
256,192,227586,1,0,0:0:0:0:
256,192,227675,1,8,0:0:0:0:
256,192,227851,1,8,0:0:0:0:
256,192,227910,1,8,0:0:0:0:
256,192,227969,1,8,0:0:0:0:
256,192,228028,1,0,0:0:0:0:
256,192,228204,1,8,0:0:0:0:
256,192,228292,1,8,0:0:0:0:
256,192,228381,1,0,0:0:0:0:
256,192,228469,1,8,0:0:0:0:
256,192,228557,1,0,0:0:0:0:
256,192,228645,1,0,0:0:0:0:
256,192,228733,1,0,0:0:0:0:
256,192,228822,1,8,0:0:0:0:
256,192,228910,1,8,0:0:0:0:
256,192,228998,1,0,0:0:0:0:
256,192,229086,1,8,0:0:0:0:
256,192,229263,1,0,0:0:0:0:
256,192,229351,1,0,0:0:0:0:
256,192,229439,1,8,0:0:0:0:
256,192,229528,1,8,0:0:0:0:
256,192,229616,1,0,0:0:0:0:
256,192,229792,1,8,0:0:0:0:
256,192,229969,1,8,0:0:0:0:
256,192,230057,1,0,0:0:0:0:
256,192,230145,1,8,0:0:0:0:
256,192,230233,1,8,0:0:0:0:
256,192,230322,1,8,0:0:0:0:
256,192,230410,1,0,0:0:0:0:
256,192,230498,1,8,0:0:0:0:
256,192,230586,1,8,0:0:0:0:
256,192,230675,1,0,0:0:0:0:
256,192,230733,1,0,0:0:0:0:
256,192,230792,1,0,0:0:0:0:
256,192,230851,1,8,0:0:0:0:
256,192,231028,1,8,0:0:0:0:
256,192,231116,1,8,0:0:0:0:
256,192,231204,1,0,0:0:0:0:
256,192,231292,1,8,0:0:0:0:
256,192,231381,5,0,0:0:0:0:
256,192,231557,1,0,0:0:0:0:
256,192,231733,1,8,0:0:0:0:
256,192,231910,1,8,0:0:0:0:
256,192,231998,1,8,0:0:0:0:
256,192,232086,1,0,0:0:0:0:
256,192,232175,1,8,0:0:0:0:
256,192,232263,1,0,0:0:0:0:
256,192,232439,1,8,0:0:0:0:
256,192,232528,1,8,0:0:0:0:
256,192,232616,1,0,0:0:0:0:
256,192,232704,1,0,0:0:0:0:
256,192,232792,1,8,0:0:0:0:
256,192,232881,1,0,0:0:0:0:
256,192,232969,1,8,0:0:0:0:
256,192,233057,1,8,0:0:0:0:
256,192,233145,1,8,0:0:0:0:
256,192,233233,1,0,0:0:0:0:
256,192,233322,1,8,0:0:0:0:
256,192,233410,1,0,0:0:0:0:
256,192,233498,1,8,0:0:0:0:
256,192,233557,1,8,0:0:0:0:
256,192,233616,1,8,0:0:0:0:
256,192,233675,1,0,0:0:0:0:
256,192,233851,1,8,0:0:0:0:
256,192,233939,1,8,0:0:0:0:
256,192,234028,1,0,0:0:0:0:
256,192,234116,1,8,0:0:0:0:
256,192,234204,1,0,0:0:0:0:
256,192,234292,1,0,0:0:0:0:
256,192,234381,1,8,0:0:0:0:
256,192,234469,1,0,0:0:0:0:
256,192,234557,1,0,0:0:0:0:
256,192,234645,1,8,0:0:0:0:
256,192,234733,1,8,0:0:0:0:
256,192,234822,1,8,0:0:0:0:
256,192,234910,1,0,0:0:0:0:
256,192,234998,1,0,0:0:0:0:
256,192,235086,1,8,0:0:0:0:
256,192,235175,1,0,0:0:0:0:
256,192,235263,1,0,0:0:0:0:
256,192,235351,1,8,0:0:0:0:
256,192,235439,1,8,0:0:0:0:
256,192,235528,1,0,0:0:0:0:
256,192,235616,1,8,0:0:0:0:
256,192,235704,1,0,0:0:0:0:
256,192,235792,1,8,0:0:0:0:
256,192,235881,1,8,0:0:0:0:
256,192,235969,1,8,0:0:0:0:
256,192,236057,1,0,0:0:0:0:
256,192,236145,1,8,0:0:0:0:
256,192,236233,1,8,0:0:0:0:
256,192,236322,1,0,0:0:0:0:
256,192,236381,1,0,0:0:0:0:
256,192,236439,1,0,0:0:0:0:
256,192,236498,1,8,0:0:0:0:
256,192,236586,1,8,0:0:0:0:
256,192,236675,1,0,0:0:0:0:
256,192,236763,1,0,0:0:0:0:
256,192,236851,1,8,0:0:0:0:
256,192,236939,1,0,0:0:0:0:
256,192,237028,1,8,0:0:0:0:
224,192,237204,5,0,0:0:0:0:
240,194,237381,1,8,0:0:0:0:
224,192,237557,1,0,0:0:0:0:
224,192,237645,1,8,0:0:0:0:
224,192,237733,1,8,0:0:0:0:
224,192,237822,1,0,0:0:0:0:
224,192,237910,1,8,0:0:0:0:
224,192,237998,1,8,0:0:0:0:
224,192,238086,1,0,0:0:0:0:
240,194,238175,1,8,0:0:0:0:
240,194,238263,1,8,0:0:0:0:
224,192,238351,1,0,0:0:0:0:
224,192,238439,1,0,0:0:0:0:
256,192,238528,1,0,0:0:0:0:
256,192,238616,1,8,0:0:0:0:
256,192,238792,1,0,0:0:0:0:
256,192,238881,1,8,0:0:0:0:
256,192,238969,1,0,0:0:0:0:
240,194,239145,1,8,0:0:0:0:
256,192,239204,1,8,0:0:0:0:
256,192,239263,1,8,0:0:0:0:
256,192,239322,1,0,0:0:0:0:
256,192,239498,1,8,0:0:0:0:
256,192,239586,1,0,0:0:0:0:
256,192,239675,1,8,0:0:0:0:
256,192,239763,1,8,0:0:0:0:
256,192,239851,1,0,0:0:0:0:
256,192,240028,1,0,0:0:0:0:
256,192,240204,1,8,0:0:0:0:
256,192,240292,1,0,0:0:0:0:
256,192,240381,1,8,0:0:0:0:
256,192,240557,1,0,0:0:0:0:
256,192,240645,1,8,0:0:0:0:
256,192,240733,1,0,0:0:0:0:
256,192,240910,1,8,0:0:0:0:
256,192,240998,1,0,0:0:0:0:
256,192,241086,1,8,0:0:0:0:
256,192,241175,1,8,0:0:0:0:
256,192,241263,1,0,0:0:0:0:
256,192,241351,1,0,0:0:0:0:
256,192,241439,1,8,0:0:0:0:
256,192,241616,1,0,0:0:0:0:
256,192,241704,1,0,0:0:0:0:
256,192,241792,1,8,0:0:0:0:
256,192,241881,1,8,0:0:0:0:
256,192,241969,1,0,0:0:0:0:
256,192,242028,1,0,0:0:0:0:
256,192,242086,1,0,0:0:0:0:
256,192,242145,1,8,0:0:0:0:
256,192,242322,1,8,0:0:0:0:
256,160,242410,1,0,0:0:0:0:
256,160,242498,1,8,0:0:0:0:
256,160,242586,1,8,0:0:0:0:
256,192,242675,1,0,0:0:0:0:
256,192,242851,1,0,0:0:0:0:
256,192,243028,1,8,0:0:0:0:
256,192,243116,1,0,0:0:0:0:
256,192,243204,1,8,0:0:0:0:
256,192,243381,1,0,0:0:0:0:
256,192,243469,1,8,0:0:0:0:
256,192,243557,1,8,0:0:0:0:
256,192,243645,1,0,0:0:0:0:
256,192,243733,1,8,0:0:0:0:
256,192,243822,1,0,0:0:0:0:
256,192,243910,1,8,0:0:0:0:
256,192,243998,1,8,0:0:0:0:
256,192,244086,1,0,0:0:0:0:
256,192,244145,1,0,0:0:0:0:
224,192,244204,1,0,0:0:0:0:
256,192,244263,1,8,0:0:0:0:
224,192,244439,1,8,0:0:0:0:
224,192,244528,1,0,0:0:0:0:
224,192,244616,1,8,0:0:0:0:
224,192,244704,1,0,0:0:0:0:
224,192,244792,1,8,0:0:0:0:
224,192,244851,1,8,0:0:0:0:
224,192,244910,1,8,0:0:0:0:
224,192,244969,1,0,0:0:0:0:
256,160,245057,1,0,0:0:0:0:
256,160,245145,1,8,0:0:0:0:
256,160,245233,1,0,0:0:0:0:
256,160,245322,1,8,0:0:0:0:
256,160,245410,1,8,0:0:0:0:
256,160,245498,1,0,0:0:0:0:
256,160,245675,1,8,0:0:0:0:
288,160,245763,1,0,0:0:0:0:
256,160,245851,1,8,0:0:0:0:
256,160,245910,1,8,0:0:0:0:
256,160,245969,1,8,0:0:0:0:
256,160,246028,1,0,0:0:0:0:
256,160,246086,1,0,0:0:0:0:
256,160,246145,1,0,0:0:0:0:
256,160,246204,1,8,0:0:0:0:
256,160,246292,1,8,0:0:0:0:
256,160,246381,1,0,0:0:0:0:
224,160,246469,1,0,0:0:0:0:
224,160,246557,1,8,0:0:0:0:
256,160,246645,1,0,0:0:0:0:
256,160,246733,1,8,0:0:0:0:
256,160,246792,1,8,0:0:0:0:
256,192,246851,1,8,0:0:0:0:
256,160,246910,1,0,0:0:0:0:
256,192,246998,1,0,0:0:0:0:
256,192,247086,1,8,0:0:0:0:
256,192,247175,1,8,0:0:0:0:
256,192,247263,1,8,0:0:0:0:
256,192,247351,1,0,0:0:0:0:
256,192,247439,1,8,0:0:0:0:
256,192,247528,1,8,0:0:0:0:
256,192,247616,1,8,0:0:0:0:
256,192,247704,1,0,0:0:0:0:
256,192,247792,1,8,0:0:0:0:
256,192,247881,5,0,0:0:0:0:
256,192,247969,1,8,0:0:0:0:
256,192,248057,1,8,0:0:0:0:
256,192,248145,1,0,0:0:0:0:
256,192,248233,1,8,0:0:0:0:
256,192,248322,5,0,0:0:0:0:
256,192,248586,1,0,0:0:0:0:
256,192,248675,1,8,0:0:0:0:
256,192,248763,1,8,0:0:0:0:
256,192,248851,1,0,0:0:0:0:
256,192,248939,1,8,0:0:0:0:
256,192,249028,1,0,0:0:0:0:
256,192,249292,1,0,0:0:0:0:
256,192,249381,1,8,0:0:0:0:
256,192,249469,1,8,0:0:0:0:
256,192,249557,1,0,0:0:0:0:
256,192,249645,1,8,0:0:0:0:
256,192,249733,1,0,0:0:0:0:
256,192,249910,1,8,0:0:0:0:
256,192,250086,1,8,0:0:0:0:
256,192,250175,1,0,0:0:0:0:
256,192,250263,1,8,0:0:0:0:
256,192,250351,1,0,0:0:0:0:
256,192,250439,1,8,0:0:0:0:
256,192,250616,1,0,0:0:0:0:
256,192,250704,1,0,0:0:0:0:
256,192,250792,1,0,0:0:0:0:
256,192,250881,1,0,0:0:0:0:
256,192,250969,1,8,0:0:0:0:
256,192,251057,1,8,0:0:0:0:
256,192,251145,1,0,0:0:0:0:
256,192,251233,1,8,0:0:0:0:
256,192,251322,1,0,0:0:0:0:
256,192,251410,1,8,0:0:0:0:
256,192,251498,1,0,0:0:0:0:
256,192,251675,1,8,0:0:0:0:
256,192,251851,1,8,0:0:0:0:
256,192,251939,1,8,0:0:0:0:
256,192,252028,1,0,0:0:0:0:
256,192,252116,1,8,0:0:0:0:
256,192,252204,1,0,0:0:0:0:
256,192,252381,1,0,0:0:0:0:
256,192,252557,1,0,0:0:0:0:
256,192,252645,1,8,0:0:0:0:
256,192,252733,1,8,0:0:0:0:
256,192,252822,1,8,0:0:0:0:
256,192,252910,1,0,0:0:0:0:
256,192,252998,1,8,0:0:0:0:
256,192,253086,1,8,0:0:0:0:
256,192,253175,1,8,0:0:0:0:
256,192,253263,1,0,0:0:0:0:
256,192,253351,1,0,0:0:0:0:
256,192,253439,1,8,0:0:0:0:
256,192,253528,1,0,0:0:0:0:
256,192,253616,1,8,0:0:0:0:
256,192,253704,1,0,0:0:0:0:
256,192,253792,1,8,0:0:0:0:
256,192,253881,1,8,0:0:0:0:
256,192,253969,1,0,0:0:0:0:
256,192,254145,1,8,0:0:0:0:
256,192,254233,1,8,0:0:0:0:
256,192,254322,1,8,0:0:0:0:
256,192,254410,1,0,0:0:0:0:
256,192,254498,1,0,0:0:0:0:
256,192,254586,1,0,0:0:0:0:
256,192,254675,1,8,0:0:0:0:
256,192,254763,1,8,0:0:0:0:
256,192,254851,1,0,0:0:0:0:
256,192,254939,1,0,0:0:0:0:
256,192,255028,1,0,0:0:0:0:
256,192,255116,1,8,0:0:0:0:
256,192,255204,1,8,0:0:0:0:
256,192,255292,1,8,0:0:0:0:
256,192,255381,1,0,0:0:0:0:
256,192,255469,1,8,0:0:0:0:
256,192,255557,1,8,0:0:0:0:
256,192,255645,1,8,0:0:0:0:
256,192,255733,1,8,0:0:0:0:
256,192,255822,1,0,0:0:0:0:
256,192,255910,1,0,0:0:0:0:
256,192,255998,1,0,0:0:0:0:
256,192,256086,1,8,0:0:0:0:
256,192,256263,1,8,0:0:0:0:
256,192,256351,1,8,0:0:0:0:
256,192,256439,1,0,0:0:0:0:
256,192,256528,1,0,0:0:0:0:
256,192,256616,1,8,0:0:0:0:
256,192,256704,1,8,0:0:0:0:
256,192,256792,1,8,0:0:0:0:
256,192,256881,1,0,0:0:0:0:
256,192,256969,1,8,0:0:0:0:
256,192,257057,1,0,0:0:0:0:
256,192,257145,1,8,0:0:0:0:
256,192,257233,1,8,0:0:0:0:
256,192,257322,1,8,0:0:0:0:
256,192,257410,1,0,0:0:0:0:
256,192,257498,1,0,0:0:0:0:
256,192,257586,1,0,0:0:0:0:
256,192,257675,1,8,0:0:0:0:
256,192,257763,1,8,0:0:0:0:
256,192,257851,1,0,0:0:0:0:
256,192,257939,1,8,0:0:0:0:
256,192,258028,1,0,0:0:0:0:
256,192,258116,1,8,0:0:0:0:
256,192,258204,1,8,0:0:0:0:
256,192,258292,1,8,0:0:0:0:
256,192,258381,1,0,0:0:0:0:
256,192,258469,1,0,0:0:0:0:
256,192,258557,1,8,0:0:0:0:
256,192,258645,1,8,0:0:0:0:
256,192,258733,1,8,0:0:0:0:
256,192,258822,1,8,0:0:0:0:
256,192,258910,1,4,0:0:0:0:
256,192,259086,1,12,0:0:0:0:
256,192,259263,1,12,0:0:0:0:
256,192,259616,1,4,0:0:0:0:
256,192,259969,5,12,0:0:0:0:
256,192,260322,1,12,0:0:0:0:
256,192,260675,1,4,0:0:0:0:
256,192,260851,1,12,0:0:0:0:
256,192,261204,1,12,0:0:0:0:
256,192,261557,1,4,0:0:0:0:
256,192,261733,1,8,0:0:0:0:
256,192,261822,1,8,0:0:0:0:
256,192,261910,1,0,0:0:0:0:
256,192,261998,1,0,0:0:0:0:
256,192,262086,1,8,0:0:0:0:
256,192,262175,1,0,0:0:0:0:
256,192,262263,1,8,0:0:0:0:
256,192,262351,1,8,0:0:0:0:
256,192,262439,1,4,0:0:0:0:
256,192,262792,1,12,0:0:0:0:
256,192,263145,1,4,0:0:0:0:
256,192,263498,1,4,0:0:0:0:
256,192,263675,1,12,0:0:0:0:
256,192,264028,1,12,0:0:0:0:
256,192,264381,1,4,0:0:0:0:
256,192,264557,1,8,0:0:0:0:
256,192,264645,1,8,0:0:0:0:
256,192,264733,1,8,0:0:0:0:
256,192,264822,1,0,0:0:0:0:
256,192,264910,1,0,0:0:0:0:
256,192,264998,1,8,0:0:0:0:
256,192,265086,1,8,0:0:0:0:
256,192,265175,1,8,0:0:0:0:
256,192,265263,1,4,0:0:0:0:
256,192,265616,1,4,0:0:0:0:
256,192,265969,1,12,0:0:0:0:
256,192,266322,1,12,0:0:0:0:
256,192,266498,1,4,0:0:0:0:
256,192,266851,1,12,0:0:0:0:
256,192,267204,1,4,0:0:0:0:
256,192,267381,1,8,0:0:0:0:
256,192,267469,1,8,0:0:0:0:
256,192,267557,1,0,0:0:0:0:
256,192,267645,1,0,0:0:0:0:
256,192,267733,1,8,0:0:0:0:
256,192,267822,1,8,0:0:0:0:
256,192,267910,1,0,0:0:0:0:
256,192,267998,1,8,0:0:0:0:
256,192,268086,1,4,0:0:0:0:
256,192,268439,1,4,0:0:0:0:
256,192,268792,1,12,0:0:0:0:
256,192,269145,1,12,0:0:0:0:
256,192,269322,1,4,0:0:0:0:
256,192,269675,1,4,0:0:0:0:
256,192,270028,1,4,0:0:0:0:
256,192,270204,1,8,0:0:0:0:
256,192,270263,1,8,0:0:0:0:
256,192,270322,1,8,0:0:0:0:
288,192,270381,1,8,0:0:0:0:
320,192,270439,1,8,0:0:0:0:
256,192,270498,5,8,0:0:0:0:
256,192,270557,1,0,0:0:0:0:
288,192,270645,1,0,0:0:0:0:
256,192,270733,1,0,0:0:0:0:
256,192,270822,1,8,0:0:0:0:
256,192,270910,5,0,0:0:0:0:
256,192,271263,1,8,0:0:0:0:
256,192,271439,1,8,0:0:0:0:
256,192,271528,1,8,0:0:0:0:
256,192,271616,1,0,0:0:0:0:
256,192,271792,1,0,0:0:0:0:
256,192,271969,1,8,0:0:0:0:
256,192,272145,1,8,0:0:0:0:
256,192,272322,1,0,0:0:0:0:
256,192,272498,1,8,0:0:0:0:
256,192,272586,1,8,0:0:0:0:
256,192,272675,1,0,0:0:0:0:
256,192,272763,1,0,0:0:0:0:
256,192,272851,1,8,0:0:0:0:
256,192,273028,1,0,0:0:0:0:
256,192,273204,1,0,0:0:0:0:
256,192,273381,1,8,0:0:0:0:
256,192,273557,1,8,0:0:0:0:
256,192,273733,1,8,0:0:0:0:
256,192,274086,1,8,0:0:0:0:
256,192,274263,1,8,0:0:0:0:
256,192,274351,1,8,0:0:0:0:
256,192,274439,1,0,0:0:0:0:
256,192,274616,1,0,0:0:0:0:
256,192,274792,1,8,0:0:0:0:
256,192,274969,1,0,0:0:0:0:
256,192,275057,1,8,0:0:0:0:
256,192,275145,1,0,0:0:0:0:
256,192,275322,1,8,0:0:0:0:
256,192,275498,1,8,0:0:0:0:
256,192,275675,1,0,0:0:0:0:
256,192,275851,1,8,0:0:0:0:
256,192,275939,1,8,0:0:0:0:
256,192,276028,1,0,0:0:0:0:
256,192,276116,1,0,0:0:0:0:
256,192,276204,1,8,0:0:0:0:
256,192,276292,1,0,0:0:0:0:
256,192,276381,1,0,0:0:0:0:
256,192,276469,1,8,0:0:0:0:
256,192,276557,1,0,0:0:0:0:
256,192,276645,1,0,0:0:0:0:
256,192,276733,1,0,0:0:0:0:
256,192,276822,1,8,0:0:0:0:
256,192,276910,1,8,0:0:0:0:
256,192,276998,1,8,0:0:0:0:
256,192,277086,1,0,0:0:0:0:
256,192,277175,1,0,0:0:0:0:
256,192,277263,1,8,0:0:0:0:
256,192,277351,1,8,0:0:0:0:
256,192,277439,1,0,0:0:0:0:
256,192,277528,1,0,0:0:0:0:
256,192,277616,1,8,0:0:0:0:
256,192,277704,1,8,0:0:0:0:
256,192,277792,1,8,0:0:0:0:
256,192,277881,1,8,0:0:0:0:
256,192,277969,1,0,0:0:0:0:
256,192,278145,1,0,0:0:0:0:
256,192,278233,1,0,0:0:0:0:
256,192,278322,1,8,0:0:0:0:
256,192,278410,1,8,0:0:0:0:
256,192,278498,1,8,0:0:0:0:
256,192,278586,1,8,0:0:0:0:
256,192,278675,1,0,0:0:0:0:
256,192,278851,1,0,0:0:0:0:
256,192,279028,1,8,0:0:0:0:
256,192,279204,1,8,0:0:0:0:
256,192,279381,1,0,0:0:0:0:
256,192,279733,1,8,0:0:0:0:
256,192,279910,1,8,0:0:0:0:
256,192,279998,1,8,0:0:0:0:
256,192,280086,1,0,0:0:0:0:
256,192,280439,1,8,0:0:0:0:
256,192,280616,1,0,0:0:0:0:
256,192,280704,1,0,0:0:0:0:
256,192,280792,1,0,0:0:0:0:
256,192,280881,1,8,0:0:0:0:
256,192,280969,1,8,0:0:0:0:
256,192,281057,1,8,0:0:0:0:
256,192,281145,1,0,0:0:0:0:
256,192,281233,1,0,0:0:0:0:
256,192,281322,1,8,0:0:0:0:
256,192,281410,1,8,0:0:0:0:
256,192,281498,1,0,0:0:0:0:
256,192,281586,1,0,0:0:0:0:
256,192,281675,1,8,0:0:0:0:
256,192,281763,1,0,0:0:0:0:
256,192,281851,1,8,0:0:0:0:
256,192,281939,1,8,0:0:0:0:
256,192,282028,1,8,0:0:0:0:
256,192,282116,1,8,0:0:0:0:
256,192,282204,1,0,0:0:0:0:
256,224,282469,5,8,0:0:0:0:
256,224,282557,1,8,0:0:0:0:
256,192,282733,1,0,0:0:0:0:
256,192,282822,1,8,0:0:0:0:
256,192,282910,1,8,0:0:0:0:
256,192,283175,1,8,0:0:0:0:
256,192,283263,1,8,0:0:0:0:
256,192,283439,1,8,0:0:0:0:
256,192,283528,1,8,0:0:0:0:
256,192,283616,1,0,0:0:0:0:
256,192,283881,1,8,0:0:0:0:
256,192,283969,1,8,0:0:0:0:
256,192,284145,1,8,0:0:0:0:
256,192,284233,1,0,0:0:0:0:
256,192,284322,1,0,0:0:0:0:
256,192,284410,1,8,0:0:0:0:
256,192,284498,1,8,0:0:0:0:
256,192,284586,1,0,0:0:0:0:
256,192,284675,1,8,0:0:0:0:
256,192,284763,1,0,0:0:0:0:
256,192,284851,1,8,0:0:0:0:
288,192,284939,1,8,0:0:0:0:
256,192,285028,1,0,0:0:0:0:
256,160,285292,1,8,0:0:0:0:
256,160,285381,1,8,0:0:0:0:
256,160,285557,1,0,0:0:0:0:
256,160,285645,1,8,0:0:0:0:
256,160,285733,1,0,0:0:0:0:
256,160,285998,1,8,0:0:0:0:
256,160,286086,1,8,0:0:0:0:
256,160,286263,1,8,0:0:0:0:
256,160,286351,1,8,0:0:0:0:
256,160,286439,1,0,0:0:0:0:
256,160,286704,1,8,0:0:0:0:
256,160,286792,1,8,0:0:0:0:
256,160,286969,1,0,0:0:0:0:
256,160,287057,1,8,0:0:0:0:
256,160,287145,1,8,0:0:0:0:
256,160,287233,1,0,0:0:0:0:
256,160,287322,1,0,0:0:0:0:
256,160,287410,1,0,0:0:0:0:
256,160,287498,1,8,0:0:0:0:
256,160,287586,1,8,0:0:0:0:
256,160,287675,1,8,0:0:0:0:
256,160,287763,1,0,0:0:0:0:
256,160,287851,1,12,0:0:0:0:
256,160,288116,1,8,0:0:0:0:
256,160,288204,1,0,0:0:0:0:
256,160,288292,1,0,0:0:0:0:
256,160,288381,1,8,0:0:0:0:
256,160,288469,1,8,0:0:0:0:
256,160,288557,1,0,0:0:0:0:
256,160,288645,1,8,0:0:0:0:
256,160,288733,1,0,0:0:0:0:
256,160,288822,1,0,0:0:0:0:
256,160,288910,1,8,0:0:0:0:
256,160,288998,1,0,0:0:0:0:
256,160,289086,1,8,0:0:0:0:
256,160,289175,1,8,0:0:0:0:
256,160,289263,1,0,0:0:0:0:
256,160,289351,1,0,0:0:0:0:
256,160,289439,1,8,0:0:0:0:
256,160,289528,1,0,0:0:0:0:
256,160,289616,1,0,0:0:0:0:
256,160,289792,1,8,0:0:0:0:
224,160,289881,1,8,0:0:0:0:
224,160,289969,1,8,0:0:0:0:
256,160,290057,1,0,0:0:0:0:
256,160,290145,1,0,0:0:0:0:
256,160,290233,1,8,0:0:0:0:
256,160,290322,1,8,0:0:0:0:
256,160,290410,1,0,0:0:0:0:
256,160,290498,1,8,0:0:0:0:
256,160,290586,1,0,0:0:0:0:
256,160,290675,1,8,0:0:0:0:
256,160,291028,1,0,0:0:0:0:
256,160,291116,1,0,0:0:0:0:
256,160,291204,1,8,0:0:0:0:
256,160,291292,1,0,0:0:0:0:
256,160,291381,1,8,0:0:0:0:
224,160,291469,1,0,0:0:0:0:
224,160,291557,1,8,0:0:0:0:
224,160,291645,1,8,0:0:0:0:
224,160,291733,1,0,0:0:0:0:
224,160,291822,1,0,0:0:0:0:
224,160,291910,1,8,0:0:0:0:
224,160,291998,1,8,0:0:0:0:
224,160,292086,1,8,0:0:0:0:
224,160,292175,1,0,0:0:0:0:
224,160,292263,1,8,0:0:0:0:
224,160,292351,1,0,0:0:0:0:
224,160,292439,1,8,0:0:0:0:
192,160,292528,1,0,0:0:0:0:
224,160,292616,1,8,0:0:0:0:
224,160,292704,1,8,0:0:0:0:
224,160,292792,1,0,0:0:0:0:
256,160,292881,1,8,0:0:0:0:
256,160,292969,1,0,0:0:0:0:
256,160,293057,5,8,0:0:0:0:
256,160,293145,1,8,0:0:0:0:
256,160,293233,1,0,0:0:0:0:
256,160,293322,1,0,0:0:0:0:
256,160,293410,1,0,0:0:0:0:
256,192,293498,5,12,0:0:0:0:
256,192,293851,1,8,0:0:0:0:
256,192,294204,1,0,0:0:0:0:
256,192,294557,1,8,0:0:0:0:
256,192,294910,1,0,0:0:0:0:
256,192,295263,1,8,0:0:0:0:
256,192,295616,1,0,0:0:0:0:
256,192,295969,1,8,0:0:0:0:
256,192,296322,1,0,0:0:0:0:
256,192,296439,1,8,0:0:0:0:
256,192,296557,1,8,0:0:0:0:
256,192,296675,1,0,0:0:0:0:
256,192,296763,1,0,0:0:0:0:
256,192,296851,1,8,0:0:0:0:
256,192,296910,1,0,0:0:0:0:
256,192,296969,1,0,0:0:0:0:
256,192,297028,1,8,0:0:0:0:
256,192,297116,1,8,0:0:0:0:
256,192,297204,1,0,0:0:0:0:
256,192,297263,1,0,0:0:0:0:
256,192,297322,1,0,0:0:0:0:
256,192,297381,1,8,0:0:0:0:
256,192,297469,1,0,0:0:0:0:
256,192,297557,1,0,0:0:0:0:
256,192,297645,1,0,0:0:0:0:
256,192,297733,1,8,0:0:0:0:
256,192,297792,1,8,0:0:0:0:
256,192,297851,1,0,0:0:0:0:
256,192,297910,1,0,0:0:0:0:
256,192,297969,1,8,0:0:0:0:
256,192,298028,1,8,0:0:0:0:
256,192,298086,1,0,0:0:0:0:
256,192,298175,1,0,0:0:0:0:
256,192,298263,1,8,0:0:0:0:
256,192,298351,1,8,0:0:0:0:
256,192,298439,1,0,0:0:0:0:
256,192,298528,1,0,0:0:0:0:
256,192,298616,1,8,0:0:0:0:
256,192,298704,1,0,0:0:0:0:
256,192,298792,1,8,0:0:0:0:
256,192,298851,1,8,0:0:0:0:
256,192,298910,1,8,0:0:0:0:
256,192,298969,1,0,0:0:0:0:
256,192,299028,1,0,0:0:0:0:
256,192,299086,1,0,0:0:0:0:
256,192,299145,1,8,0:0:0:0:
256,192,299322,1,8,0:0:0:0:
256,192,299410,1,8,0:0:0:0:
256,192,299498,1,0,0:0:0:0:
256,192,299586,1,8,0:0:0:0:
256,192,299675,1,0,0:0:0:0:
256,192,299763,1,0,0:0:0:0:
256,192,299851,1,8,0:0:0:0:
256,192,299910,1,8,0:0:0:0:
256,192,299969,1,8,0:0:0:0:
256,192,300028,1,0,0:0:0:0:
256,192,300116,1,8,0:0:0:0:
256,192,300204,1,0,0:0:0:0:
256,192,300263,1,0,0:0:0:0:
256,192,300322,1,0,0:0:0:0:
256,192,300381,1,8,0:0:0:0:
256,192,300469,1,8,0:0:0:0:
256,192,300557,1,0,0:0:0:0:
256,192,300616,1,0,0:0:0:0:
256,192,300675,1,0,0:0:0:0:
256,192,300733,1,8,0:0:0:0:
256,192,300792,1,8,0:0:0:0:
256,192,300851,1,8,0:0:0:0:
256,192,300910,1,0,0:0:0:0:
256,192,300998,1,8,0:0:0:0:
256,192,301086,1,8,0:0:0:0:
256,192,301175,1,8,0:0:0:0:
256,192,301263,1,0,0:0:0:0:
256,192,301351,1,0,0:0:0:0:
256,192,301439,1,8,0:0:0:0:
256,192,301528,1,8,0:0:0:0:
256,192,301616,1,0,0:0:0:0:
256,192,301675,1,0,0:0:0:0:
256,192,301733,1,0,0:0:0:0:
256,192,301792,1,8,0:0:0:0:
256,192,301851,1,8,0:0:0:0:
256,192,301910,1,8,0:0:0:0:
256,192,301969,1,0,0:0:0:0:
256,192,302145,1,8,0:0:0:0:
256,192,302233,1,8,0:0:0:0:
256,192,302322,1,0,0:0:0:0:
256,192,302381,1,0,0:0:0:0:
256,192,302439,1,0,0:0:0:0:
256,192,302498,1,8,0:0:0:0:
256,192,302586,1,0,0:0:0:0:
256,192,302675,1,8,0:0:0:0:
256,192,302733,1,8,0:0:0:0:
256,192,302792,1,8,0:0:0:0:
256,192,302851,1,0,0:0:0:0:
256,192,302939,1,8,0:0:0:0:
256,192,303028,1,0,0:0:0:0:
256,192,303086,1,0,0:0:0:0:
256,192,303145,1,0,0:0:0:0:
256,192,303204,1,8,0:0:0:0:
256,192,303292,1,0,0:0:0:0:
256,192,303381,1,8,0:0:0:0:
256,192,303439,1,8,0:0:0:0:
256,192,303498,1,8,0:0:0:0:
256,192,303557,1,0,0:0:0:0:
256,192,303645,1,0,0:0:0:0:
256,192,303733,1,0,0:0:0:0:
256,192,303792,1,0,0:0:0:0:
256,192,303851,1,0,0:0:0:0:
256,192,303910,1,8,0:0:0:0:
256,192,303969,1,8,0:0:0:0:
256,192,304028,1,0,0:0:0:0:
256,192,304086,1,8,0:0:0:0:
256,192,304175,1,8,0:0:0:0:
256,192,304263,1,0,0:0:0:0:
256,192,304351,1,0,0:0:0:0:
256,192,304439,1,8,0:0:0:0:
256,192,304528,1,0,0:0:0:0:
256,192,304616,1,8,0:0:0:0:
256,192,304704,1,8,0:0:0:0:
256,192,304792,1,4,0:0:0:0:
256,160,305322,5,8,0:0:0:0:
256,160,305410,1,0,0:0:0:0:
256,160,305498,1,12,0:0:0:0:
256,160,306028,1,0,0:0:0:0:
256,160,306116,1,0,0:0:0:0:
256,160,306204,1,12,0:0:0:0:
256,160,306381,1,0,0:0:0:0:
256,160,306469,1,8,0:0:0:0:
256,160,306557,1,4,0:0:0:0:
256,160,306733,1,12,0:0:0:0:
256,160,306910,1,12,0:0:0:0:
256,160,307086,1,8,0:0:0:0:
256,160,307175,1,8,0:0:0:0:
256,160,307263,1,0,0:0:0:0:
256,160,307351,1,0,0:0:0:0:
256,160,307439,1,8,0:0:0:0:
256,160,307528,1,0,0:0:0:0:
256,160,307616,1,12,0:0:0:0:
224,160,308145,1,0,0:0:0:0:
224,160,308233,1,0,0:0:0:0:
224,160,308322,1,12,0:0:0:0:
224,160,308851,1,8,0:0:0:0:
224,160,308939,1,0,0:0:0:0:
224,160,309028,1,12,0:0:0:0:
224,160,309204,1,8,0:0:0:0:
224,160,309292,1,8,0:0:0:0:
224,160,309381,1,4,0:0:0:0:
224,160,309557,1,4,0:0:0:0:
224,160,309733,1,8,0:0:0:0:
224,160,309822,1,8,0:0:0:0:
224,160,309910,1,0,0:0:0:0:
224,160,309998,1,0,0:0:0:0:
256,160,310086,1,8,0:0:0:0:
256,160,310145,1,8,0:0:0:0:
256,160,310204,1,8,0:0:0:0:
256,160,310263,1,0,0:0:0:0:
224,160,310351,1,8,0:0:0:0:
224,160,310439,1,4,0:0:0:0:
224,192,310969,1,8,0:0:0:0:
224,192,311057,1,8,0:0:0:0:
224,192,311145,1,4,0:0:0:0:
224,192,311675,1,0,0:0:0:0:
224,192,311763,1,0,0:0:0:0:
224,192,311851,1,12,0:0:0:0:
224,192,312028,1,8,0:0:0:0:
224,192,312116,1,8,0:0:0:0:
224,192,312204,1,4,0:0:0:0:
224,192,312381,1,4,0:0:0:0:
224,192,312557,1,12,0:0:0:0:
224,192,312733,5,0,0:0:0:0:
224,192,312822,1,0,0:0:0:0:
224,192,312910,1,8,0:0:0:0:
224,192,312998,1,0,0:0:0:0:
224,192,313086,1,8,0:0:0:0:
224,192,313175,1,0,0:0:0:0:
224,192,313263,1,0,0:0:0:0:
256,192,313351,1,8,0:0:0:0:
224,192,313439,1,8,0:0:0:0:
224,192,313528,1,0,0:0:0:0:
224,192,313616,1,8,0:0:0:0:
224,192,313704,1,0,0:0:0:0:
224,192,313792,1,8,0:0:0:0:
224,192,313881,1,8,0:0:0:0:
224,192,313969,1,0,0:0:0:0:
224,192,314057,1,0,0:0:0:0:
224,192,314145,1,8,0:0:0:0:
224,192,314233,1,8,0:0:0:0:
256,192,314322,1,0,0:0:0:0:
224,192,314410,1,0,0:0:0:0:
224,192,314498,1,8,0:0:0:0:
224,192,314586,1,8,0:0:0:0:
224,192,314675,5,8,0:0:0:0:
224,192,314733,1,8,0:0:0:0:
224,192,314792,1,8,0:0:0:0:
224,192,314851,1,0,0:0:0:0:
224,192,314910,1,0,0:0:0:0:
224,160,314969,1,0,0:0:0:0:
224,160,315028,1,8,0:0:0:0:
224,160,315116,1,8,0:0:0:0:
224,160,315204,1,8,0:0:0:0:
224,160,315292,1,0,0:0:0:0:
224,160,315381,1,8,0:0:0:0:
192,128,315439,1,8,0:0:0:0:
224,160,315498,1,8,0:0:0:0:
192,128,315557,1,0,0:0:0:0:
192,128,315616,1,0,0:0:0:0:
224,160,315675,1,0,0:0:0:0:
192,128,315733,1,8,0:0:0:0:
192,128,315792,1,8,0:0:0:0:
224,128,315851,1,8,0:0:0:0:
192,128,315910,1,0,0:0:0:0:
224,128,315969,1,0,0:0:0:0:
192,128,316028,1,0,0:0:0:0:
192,128,316086,1,8,0:0:0:0:
224,128,316145,1,8,0:0:0:0:
224,128,316204,1,8,0:0:0:0:
192,160,316263,1,8,0:0:0:0:
192,128,316322,1,8,0:0:0:0:
224,128,316381,1,8,0:0:0:0:
192,128,316439,1,0,0:0:0:0:
192,128,316498,1,0,0:0:0:0:
192,128,316557,1,0,0:0:0:0:
192,128,316616,1,0,0:0:0:0:
192,128,316675,1,0,0:0:0:0:
160,128,316733,1,0,0:0:0:0:
192,128,316792,1,8,0:0:0:0:
192,128,316851,1,8,0:0:0:0:
192,128,316910,1,8,0:0:0:0:
192,128,316969,1,0,0:0:0:0:
192,128,317028,1,0,0:0:0:0:
192,128,317086,1,0,0:0:0:0:
192,128,317145,1,8,0:0:0:0:
192,128,317204,1,8,0:0:0:0:
192,128,317263,1,8,0:0:0:0:
192,128,317322,1,8,0:0:0:0:
192,128,317381,1,8,0:0:0:0:
192,128,317439,1,8,0:0:0:0:
256,192,317498,5,0,0:0:0:0:
256,192,317851,1,8,0:0:0:0:
256,192,318028,1,8,0:0:0:0:
256,192,318116,1,8,0:0:0:0:
256,192,318204,1,0,0:0:0:0:
256,192,318381,1,0,0:0:0:0:
256,192,318469,1,0,0:0:0:0:
256,192,318557,1,8,0:0:0:0:
256,192,318733,1,0,0:0:0:0:
256,192,318822,1,8,0:0:0:0:
256,192,318910,1,8,0:0:0:0:
256,192,318998,1,0,0:0:0:0:
256,192,319086,1,8,0:0:0:0:
256,192,319175,1,0,0:0:0:0:
256,192,319263,1,8,0:0:0:0:
256,192,319351,1,0,0:0:0:0:
256,192,319439,1,0,0:0:0:0:
256,192,319528,1,0,0:0:0:0:
256,192,319616,1,8,0:0:0:0:
256,192,319792,1,0,0:0:0:0:
256,192,319881,1,0,0:0:0:0:
256,192,319969,1,8,0:0:0:0:
256,192,320057,1,0,0:0:0:0:
256,192,320145,1,8,0:0:0:0:
256,192,320233,1,8,0:0:0:0:
256,192,320322,1,0,0:0:0:0:
256,192,320498,1,8,0:0:0:0:
256,192,320675,1,8,0:0:0:0:
256,192,320763,1,8,0:0:0:0:
256,192,320851,1,8,0:0:0:0:
256,192,320939,1,8,0:0:0:0:
256,192,321028,1,0,0:0:0:0:
256,192,321204,1,0,0:0:0:0:
256,192,321381,1,8,0:0:0:0:
256,192,321469,1,8,0:0:0:0:
256,192,321557,1,8,0:0:0:0:
256,192,321645,1,8,0:0:0:0:
256,192,321733,1,0,0:0:0:0:
256,192,321822,1,0,0:0:0:0:
256,192,321910,1,8,0:0:0:0:
256,192,321998,1,0,0:0:0:0:
256,192,322086,1,0,0:0:0:0:
256,192,322175,1,8,0:0:0:0:
256,192,322263,1,8,0:0:0:0:
256,192,322351,1,8,0:0:0:0:
256,192,322439,1,0,0:0:0:0:
256,192,322528,1,0,0:0:0:0:
256,192,322616,1,8,0:0:0:0:
256,192,322704,1,0,0:0:0:0:
256,192,322792,1,8,0:0:0:0:
256,192,322969,1,0,0:0:0:0:
256,192,323145,1,0,0:0:0:0:
256,192,323233,1,0,0:0:0:0:
256,192,323322,1,0,0:0:0:0:
256,192,323410,1,0,0:0:0:0:
256,192,323498,1,8,0:0:0:0:
256,192,323586,1,8,0:0:0:0:
256,192,323675,1,0,0:0:0:0:
256,192,323763,1,8,0:0:0:0:
256,192,323851,1,8,0:0:0:0:
256,192,323939,1,0,0:0:0:0:
256,192,324028,1,0,0:0:0:0:
256,192,324116,1,8,0:0:0:0:
256,192,324204,1,0,0:0:0:0:
256,192,324292,1,8,0:0:0:0:
256,192,324381,1,8,0:0:0:0:
256,192,324469,1,8,0:0:0:0:
256,192,324557,1,0,0:0:0:0:
256,192,324733,1,0,0:0:0:0:
256,192,324822,1,0,0:0:0:0:
256,192,324910,1,8,0:0:0:0:
256,192,324998,1,8,0:0:0:0:
256,192,325086,1,0,0:0:0:0:
256,192,325175,1,8,0:0:0:0:
256,192,325263,1,0,0:0:0:0:
256,192,325439,1,0,0:0:0:0:
256,192,325616,1,8,0:0:0:0:
256,192,325704,1,8,0:0:0:0:
256,192,325792,1,0,0:0:0:0:
256,192,325881,1,0,0:0:0:0:
256,192,325969,1,8,0:0:0:0:
256,192,326145,1,8,0:0:0:0:
256,192,326233,1,8,0:0:0:0:
256,192,326322,1,8,0:0:0:0:
256,192,326410,1,0,0:0:0:0:
256,192,326498,1,0,0:0:0:0:
256,192,326586,1,8,0:0:0:0:
256,192,326675,1,0,0:0:0:0:
256,192,326851,1,0,0:0:0:0:
256,192,326939,1,0,0:0:0:0:
256,192,327028,1,8,0:0:0:0:
256,192,327116,1,8,0:0:0:0:
256,192,327204,1,0,0:0:0:0:
256,192,327292,1,8,0:0:0:0:
256,192,327381,1,0,0:0:0:0:
256,192,327469,1,0,0:0:0:0:
256,192,327557,1,0,0:0:0:0:
256,192,327645,1,0,0:0:0:0:
256,192,327733,1,8,0:0:0:0:
256,192,327822,1,8,0:0:0:0:
256,192,327910,1,0,0:0:0:0:
256,192,327998,1,8,0:0:0:0:
256,192,328086,1,4,0:0:0:0:
256,192,328263,1,12,0:0:0:0:
256,192,328439,1,4,0:0:0:0:
256,192,328616,1,8,0:0:0:0:
256,192,328704,1,8,0:0:0:0:
256,192,328792,1,4,0:0:0:0:
256,160,328969,5,0,0:0:0:0:
256,160,329057,1,0,0:0:0:0:
224,160,329145,1,8,0:0:0:0:
224,160,329233,1,0,0:0:0:0:
224,160,329322,1,8,0:0:0:0:
224,160,329410,1,0,0:0:0:0:
224,160,329498,1,8,0:0:0:0:
224,160,329675,1,0,0:0:0:0:
224,160,329851,1,8,0:0:0:0:
224,160,330028,1,0,0:0:0:0:
224,160,330116,1,0,0:0:0:0:
224,160,330204,1,8,0:0:0:0:
224,160,330292,1,8,0:0:0:0:
224,160,330381,1,0,0:0:0:0:
224,160,330469,1,8,0:0:0:0:
224,160,330557,1,8,0:0:0:0:
224,160,330645,1,8,0:0:0:0:
224,160,330733,1,0,0:0:0:0:
224,160,330822,1,8,0:0:0:0:
224,160,330910,1,8,0:0:0:0:
224,192,330998,1,8,0:0:0:0:
224,192,331086,1,0,0:0:0:0:
224,160,331175,1,8,0:0:0:0:
224,160,331263,1,8,0:0:0:0:
224,192,331351,1,0,0:0:0:0:
224,192,331439,1,0,0:0:0:0:
224,192,331528,1,8,0:0:0:0:
224,192,331616,1,0,0:0:0:0:
224,192,331881,1,8,0:0:0:0:
224,192,331969,1,8,0:0:0:0:
224,192,332145,1,8,0:0:0:0:
224,192,332233,1,8,0:0:0:0:
224,192,332322,1,0,0:0:0:0:
224,192,332586,1,8,0:0:0:0:
224,192,332675,1,8,0:0:0:0:
224,192,332851,1,8,0:0:0:0:
224,192,332939,1,8,0:0:0:0:
224,192,333028,1,0,0:0:0:0:
224,192,333116,1,8,0:0:0:0:
224,192,333204,1,8,0:0:0:0:
224,192,333292,1,0,0:0:0:0:
224,192,333381,1,8,0:0:0:0:
224,192,333469,1,8,0:0:0:0:
224,192,333557,1,0,0:0:0:0:
224,192,333645,1,8,0:0:0:0:
224,192,333733,1,0,0:0:0:0:
224,192,333822,1,0,0:0:0:0:
224,192,333910,1,8,0:0:0:0:
224,192,333998,1,8,0:0:0:0:
224,192,334086,1,8,0:0:0:0:
224,192,334175,1,0,0:0:0:0:
224,192,334263,1,8,0:0:0:0:
224,192,334351,1,0,0:0:0:0:
224,192,334439,1,0,0:0:0:0:
224,192,334528,1,0,0:0:0:0:
224,192,334616,1,8,0:0:0:0:
224,160,334704,1,8,0:0:0:0:
224,160,334792,1,0,0:0:0:0:
224,160,334881,1,8,0:0:0:0:
224,160,334969,1,8,0:0:0:0:
224,160,335057,1,8,0:0:0:0:
224,160,335145,1,0,0:0:0:0:
224,160,335233,1,0,0:0:0:0:
224,160,335322,1,8,0:0:0:0:
224,160,335410,1,8,0:0:0:0:
224,160,335498,1,8,0:0:0:0:
224,160,335586,1,0,0:0:0:0:
224,160,335675,1,8,0:0:0:0:
224,160,335763,1,8,0:0:0:0:
224,160,335851,1,8,0:0:0:0:
224,160,335939,1,0,0:0:0:0:
224,160,336028,1,8,0:0:0:0:
224,160,336116,1,0,0:0:0:0:
224,160,336204,1,8,0:0:0:0:
224,160,336292,1,8,0:0:0:0:
224,160,336381,1,8,0:0:0:0:
224,160,336469,1,0,0:0:0:0:
224,160,336557,1,8,0:0:0:0:
224,160,336733,1,8,0:0:0:0:
224,160,336822,1,8,0:0:0:0:
224,160,336910,1,0,0:0:0:0:
224,160,336998,1,0,0:0:0:0:
224,160,337086,1,8,0:0:0:0:
224,160,337175,1,8,0:0:0:0:
224,160,337263,1,0,0:0:0:0:
224,160,337439,1,8,0:0:0:0:
224,160,337528,1,8,0:0:0:0:
224,160,337616,1,8,0:0:0:0:
224,160,337704,1,0,0:0:0:0:
224,160,337792,1,8,0:0:0:0:
224,160,337881,1,8,0:0:0:0:
224,160,337969,1,0,0:0:0:0:
224,160,338145,1,8,0:0:0:0:
224,160,338233,1,8,0:0:0:0:
224,160,338322,1,0,0:0:0:0:
224,160,338410,1,8,0:0:0:0:
224,160,338498,1,0,0:0:0:0:
224,160,338586,1,0,0:0:0:0:
224,160,338675,1,0,0:0:0:0:
224,160,338763,1,8,0:0:0:0:
224,160,338851,1,8,0:0:0:0:
224,160,338939,1,0,0:0:0:0:
224,160,339028,1,8,0:0:0:0:
224,160,339116,1,8,0:0:0:0:
224,160,339204,1,8,0:0:0:0:
224,160,339292,1,0,0:0:0:0:
224,160,339381,1,12,0:0:0:0:
224,160,339557,1,4,0:0:0:0:
224,160,339733,5,12,0:0:0:0:
224,160,339910,1,0,0:0:0:0:
224,160,339998,1,8,0:0:0:0:
256,192,340086,5,4,0:0:0:0:
256,192,340263,1,0,0:0:0:0:
256,192,340439,5,8,0:0:0:0:
256,192,340528,1,8,0:0:0:0:
256,192,340616,1,0,0:0:0:0:
256,192,340704,1,8,0:0:0:0:
256,192,340792,1,0,0:0:0:0:
256,192,340881,1,0,0:0:0:0:
256,192,340969,1,8,0:0:0:0:
256,192,341057,1,0,0:0:0:0:
256,192,341145,1,8,0:0:0:0:
256,192,341233,1,8,0:0:0:0:
256,192,341322,1,0,0:0:0:0:
256,192,341410,1,8,0:0:0:0:
256,192,341498,1,0,0:0:0:0:
256,192,341586,1,0,0:0:0:0:
256,192,341675,1,8,0:0:0:0:
256,192,341763,1,8,0:0:0:0:
256,192,341851,1,8,0:0:0:0:
256,192,341939,1,0,0:0:0:0:
256,192,342028,1,8,0:0:0:0:
256,192,342116,1,8,0:0:0:0:
256,192,342204,1,0,0:0:0:0:
256,192,342381,1,8,0:0:0:0:
256,192,342439,1,8,0:0:0:0:
256,192,342498,1,8,0:0:0:0:
256,192,342557,1,0,0:0:0:0:
256,192,342616,1,0,0:0:0:0:
256,192,342675,1,0,0:0:0:0:
256,192,342733,1,8,0:0:0:0:
256,192,342822,1,0,0:0:0:0:
256,192,342910,1,8,0:0:0:0:
256,192,343086,1,0,0:0:0:0:
256,192,343175,1,0,0:0:0:0:
256,192,343263,1,8,0:0:0:0:
256,192,343351,1,8,0:0:0:0:
256,192,343439,1,0,0:0:0:0:
256,192,343528,1,8,0:0:0:0:
256,192,343616,1,0,0:0:0:0:
256,192,343792,1,0,0:0:0:0:
256,192,343881,1,0,0:0:0:0:
256,192,343969,1,8,0:0:0:0:
256,192,344057,1,8,0:0:0:0:
256,192,344145,1,0,0:0:0:0:
256,192,344233,1,8,0:0:0:0:
256,192,344322,1,0,0:0:0:0:
256,192,344410,1,0,0:0:0:0:
256,192,344498,1,8,0:0:0:0:
256,192,344586,1,8,0:0:0:0:
256,192,344675,1,0,0:0:0:0:
256,192,344763,1,0,0:0:0:0:
256,192,344851,1,8,0:0:0:0:
256,192,344939,1,8,0:0:0:0:
256,192,345028,1,0,0:0:0:0:
256,192,345116,1,0,0:0:0:0:
256,192,345204,1,0,0:0:0:0:
256,192,345263,1,0,0:0:0:0:
256,192,345322,1,0,0:0:0:0:
256,192,345381,1,8,0:0:0:0:
256,192,345439,1,8,0:0:0:0:
256,192,345498,1,8,0:0:0:0:
256,192,345557,1,0,0:0:0:0:
256,192,345645,1,8,0:0:0:0:
256,192,345733,1,0,0:0:0:0:
256,192,345822,1,0,0:0:0:0:
256,192,345910,1,0,0:0:0:0:
256,192,345998,1,0,0:0:0:0:
256,192,346086,1,8,0:0:0:0:
256,192,346175,1,8,0:0:0:0:
256,192,346263,1,8,0:0:0:0:
256,192,346351,1,8,0:0:0:0:
256,192,346439,1,0,0:0:0:0:
256,192,346528,1,0,0:0:0:0:
256,192,346616,1,8,0:0:0:0:
256,192,346704,1,0,0:0:0:0:
256,192,346792,1,0,0:0:0:0:
256,192,346881,1,8,0:0:0:0:
256,192,346969,1,0,0:0:0:0:
256,192,347057,1,0,0:0:0:0:
256,192,347145,1,8,0:0:0:0:
256,192,347204,1,8,0:0:0:0:
256,192,347263,1,8,0:0:0:0:
256,192,347322,1,0,0:0:0:0:
256,192,347381,1,0,0:0:0:0:
256,192,347439,1,0,0:0:0:0:
256,192,347498,1,8,0:0:0:0:
256,192,347586,1,0,0:0:0:0:
256,192,347675,1,8,0:0:0:0:
256,192,347763,1,8,0:0:0:0:
256,192,347851,1,0,0:0:0:0:
256,192,347939,1,0,0:0:0:0:
256,192,348028,1,8,0:0:0:0:
256,192,348116,1,8,0:0:0:0:
256,192,348204,1,0,0:0:0:0:
256,192,348292,1,8,0:0:0:0:
256,192,348381,1,0,0:0:0:0:
256,192,348469,1,8,0:0:0:0:
256,192,348557,1,0,0:0:0:0:
256,192,348733,5,8,0:0:0:0:
256,192,348792,1,8,0:0:0:0:
256,192,348851,1,8,0:0:0:0:
256,192,348910,1,0,0:0:0:0:
256,192,348998,1,8,0:0:0:0:
256,192,349086,1,0,0:0:0:0:
256,192,349175,1,8,0:0:0:0:
256,192,349263,1,0,0:0:0:0:
256,192,349322,1,0,0:0:0:0:
256,192,349381,1,0,0:0:0:0:
256,192,349439,1,8,0:0:0:0:
256,192,349528,1,8,0:0:0:0:
256,192,349616,1,8,0:0:0:0:
256,192,349704,1,0,0:0:0:0:
256,192,349792,1,8,0:0:0:0:
256,192,349881,1,0,0:0:0:0:
256,192,349969,1,8,0:0:0:0:
256,192,350057,1,0,0:0:0:0:
256,192,350145,1,0,0:0:0:0:
256,192,350233,1,0,0:0:0:0:
256,192,350322,1,8,0:0:0:0:
256,192,350410,1,8,0:0:0:0:
256,192,350498,1,8,0:0:0:0:
256,192,350586,1,8,0:0:0:0:
256,192,350675,1,4,0:0:0:0:
256,192,350851,1,12,0:0:0:0:
256,192,351028,1,4,0:0:0:0:
256,192,351204,1,8,0:0:0:0:
256,192,351292,1,8,0:0:0:0:
256,192,351381,1,4,0:0:0:0:
256,192,351557,5,8,0:0:0:0:
256,192,351645,1,0,0:0:0:0:
256,192,351733,1,8,0:0:0:0:
256,192,351822,1,8,0:0:0:0:
256,192,351910,1,0,0:0:0:0:
256,192,351998,1,0,0:0:0:0:
256,192,352086,1,8,0:0:0:0:
256,192,352263,1,0,0:0:0:0:
256,192,352439,1,8,0:0:0:0:
256,192,352528,1,8,0:0:0:0:
224,192,352616,1,0,0:0:0:0:
224,192,352704,1,8,0:0:0:0:
224,192,352792,1,0,0:0:0:0:
224,192,352969,1,0,0:0:0:0:
224,192,353057,1,0,0:0:0:0:
224,192,353145,1,8,0:0:0:0:
224,192,353233,1,8,0:0:0:0:
224,192,353322,1,8,0:0:0:0:
224,192,353410,1,0,0:0:0:0:
224,192,353498,1,8,0:0:0:0:
224,192,353675,1,0,0:0:0:0:
224,192,353763,1,0,0:0:0:0:
224,192,353851,1,8,0:0:0:0:
224,192,353939,1,8,0:0:0:0:
224,192,354028,1,8,0:0:0:0:
224,192,354116,1,0,0:0:0:0:
224,192,354204,1,8,0:0:0:0:
224,192,354292,1,0,0:0:0:0:
224,192,354381,1,8,0:0:0:0:
224,192,354469,1,8,0:0:0:0:
224,192,354557,1,8,0:0:0:0:
224,192,354645,1,0,0:0:0:0:
224,192,354733,1,8,0:0:0:0:
224,192,354822,1,8,0:0:0:0:
224,192,354910,1,0,0:0:0:0:
224,192,355086,1,8,0:0:0:0:
224,192,355175,1,0,0:0:0:0:
224,192,355263,1,8,0:0:0:0:
224,192,355351,1,8,0:0:0:0:
224,192,355439,1,0,0:0:0:0:
224,192,355528,1,8,0:0:0:0:
224,192,355616,1,0,0:0:0:0:
224,192,355704,1,8,0:0:0:0:
224,192,355792,1,8,0:0:0:0:
224,192,355881,1,8,0:0:0:0:
224,192,355969,1,0,0:0:0:0:
224,192,356057,1,8,0:0:0:0:
224,160,356145,1,0,0:0:0:0:
224,160,356233,1,8,0:0:0:0:
224,160,356322,1,0,0:0:0:0:
224,160,356410,1,8,0:0:0:0:
224,160,356498,1,8,0:0:0:0:
224,160,356586,1,8,0:0:0:0:
224,160,356675,1,0,0:0:0:0:
224,160,356763,1,8,0:0:0:0:
224,160,356851,1,0,0:0:0:0:
224,160,356939,1,8,0:0:0:0:
224,160,357028,1,0,0:0:0:0:
224,160,357204,1,0,0:0:0:0:
224,160,357292,1,0,0:0:0:0:
224,160,357381,1,8,0:0:0:0:
224,160,357469,1,8,0:0:0:0:
224,160,357557,1,0,0:0:0:0:
224,160,357645,1,8,0:0:0:0:
224,160,357733,1,0,0:0:0:0:
224,160,357822,1,0,0:0:0:0:
224,160,357910,1,8,0:0:0:0:
224,160,357998,1,8,0:0:0:0:
224,160,358086,1,0,0:0:0:0:
224,160,358175,1,8,0:0:0:0:
224,160,358263,1,8,0:0:0:0:
256,192,358351,1,0,0:0:0:0:
256,192,358439,1,8,0:0:0:0:
192,160,358528,1,8,0:0:0:0:
192,192,358616,1,8,0:0:0:0:
192,192,358675,1,0,0:0:0:0:
224,160,358733,1,0,0:0:0:0:
224,192,358792,1,8,0:0:0:0:
224,192,358881,1,8,0:0:0:0:
224,160,358969,1,0,0:0:0:0:
224,160,359057,1,8,0:0:0:0:
224,160,359145,1,0,0:0:0:0:
224,160,359322,1,8,0:0:0:0:
224,160,359381,1,8,0:0:0:0:
224,160,359439,1,0,0:0:0:0:
224,160,359498,1,8,0:0:0:0:
224,160,359586,1,8,0:0:0:0:
224,160,359675,1,0,0:0:0:0:
224,160,359763,1,8,0:0:0:0:
224,160,359851,1,0,0:0:0:0:
224,160,360028,1,8,0:0:0:0:
224,160,360086,1,8,0:0:0:0:
224,160,360145,1,8,0:0:0:0:
224,160,360204,1,0,0:0:0:0:
224,160,360292,1,8,0:0:0:0:
224,160,360381,1,0,0:0:0:0:
224,160,360469,1,8,0:0:0:0:
224,160,360557,1,0,0:0:0:0:
224,160,360733,1,8,0:0:0:0:
192,160,360792,1,8,0:0:0:0:
192,160,360851,1,8,0:0:0:0:
192,160,360910,1,0,0:0:0:0:
224,160,360998,1,8,0:0:0:0:
224,160,361086,1,8,0:0:0:0:
224,160,361175,1,0,0:0:0:0:
224,160,361263,1,8,0:0:0:0:
224,160,361351,1,8,0:0:0:0:
224,160,361439,1,0,0:0:0:0:
224,128,361498,1,0,0:0:0:0:
224,128,361557,5,0,0:0:0:0:
224,128,361616,1,8,0:0:0:0:
192,128,361704,1,0,0:0:0:0:
224,128,361792,1,8,0:0:0:0:
224,128,361851,1,8,0:0:0:0:
224,128,361910,1,8,0:0:0:0:
256,192,361969,5,4,0:0:0:0:
256,192,362145,1,12,0:0:0:0:
256,192,362322,1,4,0:0:0:0:
256,192,362675,1,8,0:0:0:0:
256,192,362851,1,0,0:0:0:0:
256,192,363028,1,8,0:0:0:0:
256,192,363381,1,8,0:0:0:0:
256,192,363557,1,8,0:0:0:0:
256,192,363733,1,0,0:0:0:0:
256,192,364086,1,12,0:0:0:0:
256,192,364439,1,4,0:0:0:0:
256,192,364792,1,12,0:0:0:0:
256,192,365145,1,4,0:0:0:0:
256,192,365322,12,4,369910,0:0:0:0:
