osu file format v14

[General]
AudioFilename: audio.mp3
AudioLeadIn: 0
PreviewTime: 370987
Countdown: 0
SampleSet: Soft
StackLeniency: 0.3
Mode: 0
LetterboxInBreaks: 0
WidescreenStoryboard: 1

[Editor]
Bookmarks: 26544,51318,76092,100866,125640,133382,139995,165260,171577,184210,196843,203159,209475,215792,218950,222108,247374,260007,266324,275798,285273,288431,294748,301064,313696,326328,338960,351592,357908,362645,365803,378435,391067,398962,403699,416331,428963,441595,447911,454227,460544
DistanceSpacing: 0.7
BeatDivisor: 6
GridSize: 4
TimelineZoom: 3.399998

[Metadata]
Title:L (Lost, Loneliness, & Liberation)
TitleUnicode:L (Lost, Loneliness, & Liberation)
Artist:Ice
ArtistUnicode:Ice
Creator:Lince Cosmico
Version:Ad Libitum
Source:Cytus
Tags:iceloki chekito m2p mapping2pander mapping pander 5 #5 2nd place second 2 rayark chapter vii 7 ios android instrumental electronic video game compilation ver version b a L2B L2A
BeatmapID:3387968
BeatmapSetID:1659640

[Difficulty]
HPDrainRate:6
CircleSize:4.5
OverallDifficulty:8
ApproachRate:9
SliderMultiplier:1.8
SliderTickRate:1

[Events]
//Background and Video events
0,0,"BG.jpg",0,0
//Break Periods
2,130470,132772
//Storyboard Layer 0 (Background)
//Storyboard Layer 1 (Fail)
//Storyboard Layer 2 (Pass)
//Storyboard Layer 3 (Foreground)
//Storyboard Layer 4 (Overlay)
//Storyboard Sound Samples

[TimingPoints]
1754,387.096774193548,4,2,10,50,1,0
25753,-100,4,2,1,50,0,0
26141,-166.666666666667,4,2,1,50,0,0
27302,-125,4,2,1,50,0,0
27689,-83.3333333333334,4,2,1,50,0,0
28076,-111.111111111111,4,2,1,50,0,0
28366,-125,4,2,1,50,0,0
29624,-83.3333333333333,4,2,1,50,0,0
31173,-100,4,2,1,50,0,0
31366,-80,4,2,1,50,0,0
31560,-66.6666666666667,4,2,1,50,0,0
32141,-83.3333333333333,4,2,1,50,0,0
33302,-100,4,2,1,50,0,0
35044,-125,4,2,1,50,0,0
35431,-83.3333333333333,4,2,1,50,0,0
36592,-125,4,2,1,50,0,0
37560,-100,4,2,1,50,0,0
38915,-66.6666666666667,4,2,1,50,0,0
39302,-100,4,2,1,50,0,0
41237,-76.9230769230769,4,2,1,50,0,0
43947,-100,4,2,1,50,0,0
45108,-125,4,2,1,50,0,0
45883,-50,4,2,1,50,0,0
46173,-83.3333333333333,4,2,1,50,0,0
46657,-50,4,2,1,50,0,0
47044,-71.4285714285714,4,2,1,50,0,0
47818,-50,4,2,1,50,0,0
48786,-83.3333333333333,4,2,1,50,0,0
51302,-62.5,4,2,5,80,0,1
51399,-62.5,4,2,1,65,0,1
52270,-76.9230769230769,4,2,1,65,0,1
54399,-62.5,4,2,1,65,0,1
56334,-83.3333333333333,4,2,1,65,0,1
57495,-55.5555555555556,4,2,1,65,0,1
57786,-83.3333333333333,4,2,1,65,0,1
60592,-55.5555555555556,4,2,1,65,0,1
60979,-71.4285714285714,4,2,1,65,0,1
61753,-55.5555555555556,4,2,1,65,0,1
62141,-71.4285714285714,4,2,1,65,0,1
62528,-55.5555555555556,4,2,1,65,0,1
63302,-62.5,4,2,1,65,0,1
66399,-83.3333333333333,4,2,1,65,0,1
67947,-71.4285714285714,4,2,1,65,0,1
68721,-55.5555555555556,4,2,1,65,0,1
68915,-71.4285714285714,4,2,1,65,0,1
69883,-50,4,2,1,65,0,1
70173,-71.4285714285714,4,2,1,65,0,1
71044,-83.3333333333333,4,2,1,65,0,1
72592,-62.5,4,2,1,65,0,1
74141,-55.5555555555556,4,2,1,65,0,1
74528,-50,4,2,1,65,0,1
75302,-55.5555555555556,4,2,1,65,0,1
75689,-50,4,2,1,65,0,1
76076,-50,4,2,6,80,0,1
76173,-50,4,2,1,65,0,1
77237,-62.5,4,2,1,65,0,1
79560,-66.6666666666667,4,2,1,65,0,1
81883,-71.4285714285714,4,2,1,65,0,1
84205,-66.6666666666667,4,2,1,65,0,1
84979,-55.5555555555556,4,2,1,65,0,1
86528,-83.3333333333333,4,2,1,65,0,1
86915,-55.5555555555556,4,2,1,65,0,1
88753,-62.5,4,2,1,65,0,1
90012,-55.5555555555556,4,2,1,65,0,1
90399,-71.4285714285714,4,2,1,65,0,1
90786,-62.5,4,2,1,65,0,1
93108,-55.5555555555556,4,2,1,65,0,1
93302,-62.5,4,2,1,65,0,1
93495,-71.4285714285714,4,2,1,65,0,1
93689,-83.3333333333333,4,2,1,65,0,1
93883,-62.5,4,2,1,65,0,1
96979,-55.5555555555556,4,2,1,65,0,1
97753,-83.3333333333333,4,2,1,65,0,1
97947,-76.9230769230769,4,2,1,65,0,1
98141,-71.4285714285714,4,2,1,65,0,1
98334,-66.6666666666667,4,2,1,65,0,1
98528,-55.5555555555556,4,2,1,65,0,1
100850,-83.3333333333333,4,2,1,50,0,0
102399,-66.6666666666667,4,2,1,50,0,0
102979,-80,4,2,1,50,0,0
110141,-62.5,4,2,1,50,0,0
110528,-71.4285714285714,4,2,1,50,0,0
114205,-62.5,4,2,1,50,0,0
119624,-83.3333333333333,4,2,1,50,0,0
119818,-80,4,2,1,50,0,0
120012,-76.9230769230769,4,2,1,50,0,0
120205,-74.0740740740741,4,2,1,50,0,0
120399,-71.4285714285714,4,2,1,50,0,0
120592,-68.9655172413793,4,2,1,50,0,0
120786,-66.6666666666667,4,2,1,50,0,0
121173,-76.9230769230769,4,2,1,50,0,0
121366,-74.0740740740741,4,2,1,50,0,0
121560,-71.4285714285714,4,2,1,50,0,0
121753,-68.9655172413793,4,2,1,50,0,0
121947,-66.6666666666667,4,2,1,50,0,0
122141,-64.5161290322581,4,2,1,50,0,0
122334,-62.5,4,2,1,50,0,0
130270,-62.5,4,2,1,5,0,0
133372,789.473684210526,4,2,10,40,1,0
133372,-200,4,2,10,40,0,0
134950,-125,4,2,10,40,0,0
136529,-333.333333333333,4,2,10,40,0,0
140477,-125,4,2,10,40,0,0
142056,-142.857142857143,4,2,10,40,0,0
148710,-125,4,2,10,40,0,0
149161,-142.857142857143,4,2,10,40,0,0
152319,-83.3333333333334,4,2,10,40,0,0
158635,-125,4,2,10,40,0,0
164950,-100,4,2,10,40,0,0
171266,-76.9230769230769,4,2,10,40,0,0
173635,-100,4,2,10,40,0,0
174424,-76.9230769230769,4,2,10,40,0,0
176793,-100,4,2,10,40,0,0
181529,-76.9230769230769,4,2,10,40,0,0
183898,-100,4,2,10,40,0,0
184687,-166.666666666667,4,2,10,40,0,0
186266,-100,4,2,10,40,0,0
187845,-83.3333333333333,4,2,10,40,0,0
191793,-100,4,2,10,40,0,0
212714,-125,4,2,10,40,0,0
213010,-125,4,2,10,5,0,0
213108,-38.4615384615385,4,2,10,40,0,0
213404,-38.4615384615385,4,2,10,5,0,0
213503,-100,4,2,10,40,0,0
213799,-100,4,2,10,5,0,0
213898,-33.3333333333333,4,2,10,40,0,0
214194,-33.3333333333333,4,2,10,5,0,0
214293,-33.3333333333333,4,2,10,40,0,0
214589,-33.3333333333333,4,2,10,5,0,0
214687,-33.3333333333333,4,2,10,40,0,0
215477,-100,4,2,15,85,0,0
215543,-100,4,2,11,30,0,0
215608,-100,4,2,11,70,0,0
215674,-100,4,2,11,30,0,0
215740,-100,4,2,11,70,0,0
215806,-100,4,2,11,30,0,0
215871,-100,4,2,11,70,0,0
215937,-100,4,2,11,30,0,0
216003,-100,4,2,11,70,0,0
216069,-100,4,2,11,30,0,0
216135,-100,4,2,11,70,0,0
216200,-100,4,2,11,30,0,0
216266,-100,4,2,11,70,0,0
216332,-100,4,2,11,30,0,0
216398,-100,4,2,11,70,0,0
216464,-100,4,2,11,30,0,0
216529,-100,4,2,11,70,0,0
216595,-100,4,2,11,30,0,0
216661,-100,4,2,11,70,0,0
216727,-100,4,2,11,30,0,0
216793,-100,4,2,11,70,0,0
216858,-100,4,2,11,30,0,0
216924,-100,4,2,11,70,0,0
216990,-100,4,2,11,30,0,0
217056,-100,4,2,16,85,0,0
217121,-100,4,2,11,30,0,0
217187,-100,4,2,11,70,0,0
217253,-100,4,2,11,30,0,0
217319,-100,4,2,11,70,0,0
217385,-100,4,2,11,30,0,0
217450,-100,4,2,11,70,0,0
217516,-100,4,2,11,30,0,0
217582,-100,4,2,11,70,0,0
217648,-100,4,2,11,30,0,0
217714,-100,4,2,11,70,0,0
217779,-100,4,2,11,30,0,0
217845,-100,4,2,17,85,0,0
217911,-100,4,2,11,30,0,0
217977,-100,4,2,11,70,0,0
218043,-100,4,2,11,30,0,0
218108,-100,4,2,11,70,0,0
218174,-100,4,2,11,30,0,0
218240,-100,4,2,11,70,0,0
218306,-100,4,2,11,30,0,0
218371,-100,4,2,11,70,0,0
218437,-100,4,2,11,30,0,0
218503,-100,4,2,11,70,0,0
218569,-100,4,2,11,30,0,0
218635,-100,4,2,17,85,0,0
218700,-100,4,2,11,30,0,0
218766,-100,4,2,11,70,0,0
218832,-100,4,2,11,30,0,0
218898,-100,4,2,11,70,0,0
218964,-100,4,2,11,30,0,0
219029,-100,4,2,11,70,0,0
219095,-100,4,2,11,30,0,0
219161,-100,4,2,11,70,0,0
219227,-100,4,2,11,30,0,0
219293,-100,4,2,11,70,0,0
219358,-100,4,2,11,30,0,0
219424,-100,4,2,11,70,0,0
219490,-100,4,2,11,30,0,0
219556,-100,4,2,11,70,0,0
219621,-100,4,2,11,30,0,0
219687,-100,4,2,11,70,0,0
219753,-100,4,2,11,30,0,0
219819,-100,4,2,11,70,0,0
219885,-100,4,2,11,30,0,0
219950,-100,4,2,11,70,0,0
220016,-100,4,2,11,30,0,0
220082,-100,4,2,11,70,0,0
220148,-100,4,2,11,30,0,0
220214,-100,4,2,18,85,0,0
220345,-100,4,2,11,70,0,0
221793,-100,4,2,16,85,0,0
221924,-100,4,2,11,70,0,0
223371,-100,4,2,17,85,0,0
223437,-100,4,2,11,30,0,0
223503,-100,4,2,11,70,0,0
223569,-100,4,2,11,30,0,0
223635,-100,4,2,11,70,0,0
223700,-100,4,2,11,30,0,0
223766,-100,4,2,11,70,0,0
223832,-100,4,2,11,30,0,0
223898,-100,4,2,11,70,0,0
223964,-100,4,2,11,30,0,0
224029,-100,4,2,11,70,0,0
224095,-100,4,2,11,30,0,0
224161,-100,4,2,18,85,0,0
224227,-100,4,2,11,30,0,0
224293,-100,4,2,11,70,0,0
224358,-100,4,2,11,30,0,0
224424,-100,4,2,11,70,0,0
224490,-100,4,2,11,30,0,0
224556,-100,4,2,11,70,0,0
224621,-100,4,2,11,30,0,0
224687,-100,4,2,11,70,0,0
224753,-100,4,2,11,30,0,0
224819,-100,4,2,11,70,0,0
224885,-100,4,2,11,30,0,0
224950,-100,4,2,17,85,0,0
225016,-100,4,2,11,75,0,0
226529,-100,4,2,19,85,0,0
226595,-100,4,2,11,30,0,0
226661,-100,4,2,11,70,0,0
226727,-100,4,2,11,30,0,0
226793,-100,4,2,11,70,0,0
226858,-100,4,2,11,30,0,0
226924,-100,4,2,11,70,0,0
226990,-100,4,2,11,30,0,0
227056,-100,4,2,11,70,0,0
227121,-100,4,2,11,30,0,0
227187,-100,4,2,11,70,0,0
227253,-100,4,2,11,30,0,0
227319,-100,4,2,11,70,0,0
227582,-50,4,2,11,70,0,0
227845,-50,4,2,11,30,0,0
227911,-50,4,2,11,70,0,0
228043,-50,4,2,11,30,0,0
228108,-50,4,2,20,85,0,0
228174,-50,4,2,11,30,0,0
228240,-50,4,2,11,70,0,0
228306,-50,4,2,11,30,0,0
228371,-50,4,2,11,70,0,0
228437,-50,4,2,11,30,0,0
228503,-50,4,2,11,70,0,0
228569,-50,4,2,11,30,0,0
228635,-50,4,2,11,70,0,0
228700,-50,4,2,11,30,0,0
228766,-50,4,2,11,70,0,0
228832,-50,4,2,11,30,0,0
228898,-100,4,2,11,70,0,0
228964,-100,4,2,11,30,0,0
229029,-100,4,2,11,70,0,0
229095,-100,4,2,11,30,0,0
229161,-100,4,2,11,70,0,0
229227,-100,4,2,11,30,0,0
229293,-100,4,2,11,70,0,0
229358,-100,4,2,11,30,0,0
229424,-100,4,2,11,70,0,0
229490,-100,4,2,11,30,0,0
229556,-100,4,2,11,70,0,0
229621,-100,4,2,11,30,0,0
229687,-50,4,2,21,85,0,0
229753,-50,4,2,11,30,0,0
229819,-50,4,2,11,70,0,0
229885,-50,4,2,11,30,0,0
229950,-50,4,2,11,70,0,0
230016,-50,4,2,11,30,0,0
230082,-50,4,2,11,70,0,0
230148,-50,4,2,11,30,0,0
230214,-50,4,2,11,70,0,0
230279,-50,4,2,11,30,0,0
230345,-50,4,2,11,70,0,0
230411,-50,4,2,11,30,0,0
230477,-33.3333333333333,4,2,17,85,0,0
230543,-33.3333333333333,4,2,11,30,0,0
230608,-33.3333333333333,4,2,11,70,0,0
230674,-33.3333333333333,4,2,11,30,0,0
230740,-33.3333333333333,4,2,11,70,0,0
230806,-33.3333333333333,4,2,11,30,0,0
230871,-33.3333333333333,4,2,11,70,0,0
230937,-33.3333333333333,4,2,11,30,0,0
231003,-33.3333333333333,4,2,11,70,0,0
231069,-33.3333333333333,4,2,11,30,0,0
231135,-33.3333333333333,4,2,11,70,0,0
231200,-33.3333333333333,4,2,11,30,0,0
231266,-33.3333333333333,4,2,17,85,0,0
231332,-33.3333333333333,4,2,11,30,0,0
231398,-33.3333333333333,4,2,11,70,0,0
231464,-33.3333333333333,4,2,11,30,0,0
231529,-33.3333333333333,4,2,11,70,0,0
231595,-33.3333333333333,4,2,11,30,0,0
231661,-33.3333333333333,4,2,11,70,0,0
231727,-33.3333333333333,4,2,11,30,0,0
231793,-33.3333333333333,4,2,11,70,0,0
231858,-33.3333333333333,4,2,11,30,0,0
231924,-33.3333333333333,4,2,11,70,0,0
231990,-33.3333333333333,4,2,11,30,0,0
232056,-100,4,2,11,70,0,0
232121,-100,4,2,11,30,0,0
232187,-33.3333333333333,4,2,11,70,0,0
232253,-33.3333333333333,4,2,11,30,0,0
232319,-33.3333333333333,4,2,11,70,0,0
232385,-33.3333333333333,4,2,18,85,0,0
232450,-33.3333333333333,4,2,11,70,0,0
232582,-33.3333333333333,4,2,17,85,0,0
232648,-33.3333333333333,4,2,11,70,0,0
232714,-33.3333333333333,4,2,11,30,0,0
232779,-33.3333333333333,4,2,11,70,0,0
232845,-100,4,2,16,85,0,0
232911,-100,4,2,11,30,0,0
232977,-100,4,2,11,70,0,0
233043,-100,4,2,11,30,0,0
233108,-100,4,2,11,70,0,0
233174,-100,4,2,11,30,0,0
233240,-100,4,2,11,70,0,0
233306,-100,4,2,11,30,0,0
233371,-100,4,2,11,70,0,0
233437,-100,4,2,11,30,0,0
233503,-100,4,2,11,70,0,0
233569,-100,4,2,11,30,0,0
233635,-33.3333333333333,4,2,15,85,0,0
233700,-33.3333333333333,4,2,11,30,0,0
233766,-33.3333333333333,4,2,11,70,0,0
233832,-33.3333333333333,4,2,11,30,0,0
233898,-33.3333333333333,4,2,11,70,0,0
233964,-33.3333333333333,4,2,11,30,0,0
234029,-33.3333333333333,4,2,11,70,0,0
234095,-33.3333333333333,4,2,11,30,0,0
234161,-33.3333333333333,4,2,11,70,0,0
234227,-33.3333333333333,4,2,11,30,0,0
234293,-33.3333333333333,4,2,11,70,0,0
234358,-33.3333333333333,4,2,11,30,0,0
234424,-25,4,2,22,85,0,0
234490,-25,4,2,11,30,0,0
234556,-25,4,2,11,70,0,0
234621,-25,4,2,11,30,0,0
234687,-25,4,2,11,70,0,0
234753,-25,4,2,11,30,0,0
234819,-25,4,2,11,70,0,0
234885,-25,4,2,11,30,0,0
234950,-25,4,2,11,70,0,0
235016,-25,4,2,11,30,0,0
235082,-25,4,2,11,70,0,0
235148,-25,4,2,11,30,0,0
235214,-25,4,2,11,70,0,0
235279,-25,4,2,11,30,0,0
235345,-25,4,2,11,70,0,0
235411,-25,4,2,11,30,0,0
235477,-25,4,2,11,70,0,0
235543,-25,4,2,11,30,0,0
235608,-25,4,2,11,70,0,0
235674,-25,4,2,11,30,0,0
235740,-25,4,2,11,70,0,0
235806,-25,4,2,11,30,0,0
235871,-25,4,2,11,70,0,0
235937,-25,4,2,11,30,0,0
236003,-50,4,2,11,70,0,0
236069,-50,4,2,11,30,0,0
236135,-50,4,2,11,70,0,0
236200,-50,4,2,11,30,0,0
236266,-50,4,2,11,70,0,0
236332,-50,4,2,11,30,0,0
236398,-50,4,2,11,70,0,0
236464,-50,4,2,11,30,0,0
236529,-50,4,2,11,70,0,0
236595,-50,4,2,11,30,0,0
236661,-50,4,2,11,70,0,0
236727,-50,4,2,11,30,0,0
236793,-50,4,2,11,70,0,0
236858,-50,4,2,11,30,0,0
236924,-50,4,2,11,70,0,0
236990,-50,4,2,11,30,0,0
237056,-50,4,2,11,70,0,0
237121,-50,4,2,11,30,0,0
237187,-50,4,2,11,70,0,0
237253,-50,4,2,11,30,0,0
237319,-50,4,2,11,70,0,0
237385,-50,4,2,11,30,0,0
237450,-50,4,2,11,70,0,0
237516,-50,4,2,11,30,0,0
237582,-50,4,2,23,85,0,0
237648,-50,4,2,11,30,0,0
237714,-50,4,2,11,70,0,0
237779,-50,4,2,11,30,0,0
237845,-50,4,2,11,70,0,0
237911,-50,4,2,11,30,0,0
237977,-50,4,2,11,70,0,0
238043,-50,4,2,11,30,0,0
238108,-50,4,2,11,70,0,0
238174,-50,4,2,11,30,0,0
238240,-50,4,2,11,70,0,0
238306,-50,4,2,11,30,0,0
238371,-50,4,2,11,70,0,0
238437,-50,4,2,11,30,0,0
238503,-50,4,2,11,70,0,0
238569,-50,4,2,11,30,0,0
238635,-50,4,2,11,70,0,0
238700,-50,4,2,11,30,0,0
238766,-50,4,2,11,70,0,0
238832,-50,4,2,11,30,0,0
238898,-50,4,2,11,70,0,0
238964,-50,4,2,11,30,0,0
239029,-50,4,2,11,70,0,0
239095,-50,4,2,11,30,0,0
239161,-50,4,2,11,70,0,0
239227,-50,4,2,11,30,0,0
239293,-50,4,2,11,70,0,0
239358,-50,4,2,11,30,0,0
239424,-50,4,2,11,70,0,0
239490,-50,4,2,11,30,0,0
239556,-50,4,2,11,70,0,0
239621,-50,4,2,11,30,0,0
239687,-50,4,2,11,70,0,0
239753,-50,4,2,11,30,0,0
239819,-50,4,2,11,70,0,0
239885,-50,4,2,11,30,0,0
239950,-50,4,2,11,70,0,0
240016,-50,4,2,11,30,0,0
240082,-50,4,2,11,70,0,0
240148,-50,4,2,11,30,0,0
240214,-50,4,2,11,70,0,0
240279,-50,4,2,11,30,0,0
240345,-50,4,2,11,70,0,0
240411,-50,4,2,11,30,0,0
240477,-50,4,2,11,70,0,0
240543,-50,4,2,11,30,0,0
240608,-50,4,2,11,70,0,0
240674,-50,4,2,11,30,0,0
240740,-50,4,2,15,85,0,0
240937,-50,4,2,11,70,0,0
241924,-50,4,2,19,85,0,0
242023,-50,4,2,11,70,0,0
242319,-50,4,2,20,85,0,0
242385,-50,4,2,11,70,0,0
243108,-50,4,2,22,85,0,0
243174,-50,4,2,11,70,0,0
243898,-50,4,2,15,70,0,0
243964,-50,4,2,11,70,0,0
245477,-50,4,2,16,85,0,0
245575,-50,4,2,11,70,0,0
246661,-45.4545454545455,4,2,11,70,0,0
247056,-50,4,2,16,85,0,0
247154,-50,4,2,11,70,0,0
248240,-50,4,2,15,85,0,0
248339,-50,4,2,11,70,0,0
248635,-50,4,2,22,85,0,0
248700,-50,4,2,11,70,0,0
249424,-50,4,2,23,85,0,0
249490,-50,4,2,11,70,0,0
250214,-50,4,2,23,85,0,0
250279,-50,4,2,11,70,0,0
251793,-28.5714285714286,4,2,17,85,0,0
251858,-28.5714285714286,4,2,11,70,0,0
253371,-29.4117647058824,4,2,11,70,0,0
254950,-50,4,2,11,70,0,0
256529,-33.3333333333333,4,2,11,70,0,0
258108,-50,4,2,11,70,0,0
258898,-50,4,2,11,50,0,0
259293,-50,4,2,11,60,0,0
259424,-50,4,2,11,70,0,0
259687,-50,4,2,15,90,0,0
259786,-50,4,2,11,50,0,0
259885,-50,4,2,11,70,0,0
259983,-50,4,2,11,50,0,0
260082,-50,4,2,11,70,0,0
260181,-50,4,2,11,50,0,0
260279,-50,4,2,11,70,0,0
260378,-50,4,2,11,50,0,0
260477,-50,4,2,11,70,0,0
260575,-50,4,2,11,50,0,0
260674,-50,4,2,11,70,0,0
260773,-50,4,2,11,50,0,0
260871,-50,4,2,11,70,0,0
260970,-50,4,2,11,50,0,0
261069,-50,4,2,11,70,0,0
261168,-50,4,2,11,50,0,0
261266,-40,4,2,16,90,0,0
261316,-40,4,2,11,70,0,0
261415,-40,4,2,11,50,0,0
261513,-40,4,2,11,70,0,0
261612,-40,4,2,11,50,0,0
261710,-40,4,2,11,70,0,0
261809,-40,4,2,11,50,0,0
261908,-40,4,2,11,70,0,0
262006,-40,4,2,11,50,0,0
262105,-40,4,2,17,90,0,0
262204,-40,4,2,11,50,0,0
262302,-40,4,2,11,70,0,0
262401,-40,4,2,11,50,0,0
262500,-40,4,2,11,70,0,0
262598,-40,4,2,11,50,0,0
262697,-40,4,2,11,70,0,0
262796,-40,4,2,11,50,0,0
262895,-40,4,2,17,90,0,0
262993,-40,4,2,11,50,0,0
263092,-40,4,2,11,70,0,0
263191,-40,4,2,11,50,0,0
263289,-40,4,2,11,70,0,0
263388,-40,4,2,11,50,0,0
263487,-40,4,2,11,70,0,0
263585,-40,4,2,11,50,0,0
263684,-40,4,2,11,70,0,0
263783,-40,4,2,11,50,0,0
263881,-40,4,2,11,70,0,0
263980,-40,4,2,11,50,0,0
264079,-40,4,2,11,70,0,0
264177,-40,4,2,11,50,0,0
264276,-40,4,2,11,70,0,0
264375,-40,4,2,11,50,0,0
264473,-40,4,2,11,70,0,0
264572,-40,4,2,11,50,0,0
264671,-40,4,2,11,70,0,0
264770,-40,4,2,11,50,0,0
264868,-40,4,2,11,70,0,0
264967,-40,4,2,11,50,0,0
265066,-40,4,2,11,70,0,0
265164,-40,4,2,11,50,0,0
265263,-40,4,2,11,70,0,0
266003,-40,4,2,18,90,0,0
266069,-40,4,2,11,70,0,0
266793,-83.3333333333333,4,2,11,70,0,0
268372,-83.3333333333333,4,2,11,50,0,0
269161,-83.3333333333333,4,2,10,40,0,0
270734,789.473684210526,4,2,10,40,1,0
273093,789.473684210526,4,2,10,40,1,0
287497,394.736842105263,4,2,2,55,1,0
288089,394.736842105263,4,2,2,55,1,0
289964,-100,4,2,2,5,0,0
290062,-76.9230769230769,4,2,2,55,0,0
290358,-76.9230769230769,4,2,2,5,0,0
290457,-62.5,4,2,2,55,0,0
290753,-62.5,4,2,2,5,0,0
290852,-52.6315789473684,4,2,2,55,0,0
290950,-52.6315789473684,4,2,2,5,0,0
291049,-52.6315789473684,4,2,2,55,0,0
291148,-52.6315789473684,4,2,2,5,0,0
291246,-52.6315789473684,4,2,2,55,0,0
293023,-71.4285714285714,4,2,2,55,0,0
294404,-83.3333333333333,4,2,2,60,0,0
294996,-50,4,2,2,60,0,0
295194,-83.3333333333333,4,2,2,60,0,0
299141,-66.6666666666667,4,2,2,60,0,0
301608,-83.3333333333333,4,2,2,60,0,0
305457,-66.6666666666667,4,2,2,60,0,0
307036,-71.4285714285714,4,2,2,60,0,0
312069,-83.3333333333333,4,2,2,60,0,0
312365,-71.4285714285714,4,2,2,60,0,0
312957,-62.5,4,2,2,60,0,0
313352,-71.4285714285714,4,2,2,60,0,0
313648,-83.3333333333333,4,2,2,60,0,0
313944,-71.4285714285714,4,2,2,60,0,0
314240,-83.3333333333333,4,2,2,60,0,0
314536,-71.4285714285714,4,2,2,60,0,0
319667,-55.5555555555556,4,2,2,60,0,0
320556,-55.5555555555556,4,2,2,30,0,0
320654,-66.6666666666667,4,2,2,60,0,0
320852,-55.5555555555556,4,2,2,60,0,0
322135,-55.5555555555556,4,2,2,30,0,0
322233,-66.6666666666667,4,2,2,60,0,0
322431,-55.5555555555556,4,2,2,60,0,0
323121,-62.5,4,2,2,60,0,0
323418,-55.5555555555556,4,2,2,60,0,0
323714,-55.5555555555556,4,2,2,30,0,0
323812,-66.6666666666667,4,2,2,60,0,0
324010,-55.5555555555556,4,2,2,60,0,0
325589,-66.6666666666667,4,2,2,60,0,0
325786,-55.5555555555556,4,2,2,60,0,0
326871,-55.5555555555556,4,2,2,30,0,0
326970,-66.6666666666667,4,2,2,60,0,0
327167,-55.5555555555556,4,2,2,60,0,0
328450,-55.5555555555556,4,2,2,30,0,0
328549,-66.6666666666667,4,2,2,60,0,0
328746,-55.5555555555556,4,2,2,60,0,0
331510,-66.6666666666667,4,2,2,60,0,0
331904,-55.5555555555556,4,2,2,60,0,0
332300,-55.5555555555556,4,2,12,60,0,0
332595,-83.3333333333333,4,2,12,60,0,0
332891,-71.4285714285714,4,2,12,60,0,0
333187,-100,4,2,12,60,0,0
333483,-55.5555555555556,4,2,12,60,0,0
333681,-62.5,4,2,12,60,0,0
334174,-100,4,2,12,60,0,0
334470,-83.3333333333333,4,2,12,60,0,0
334766,-125,4,2,12,60,0,0
335062,-83.3333333333333,4,2,12,60,0,0
335260,-66.6666666666667,4,2,12,60,0,0
336839,-83.3333333333333,4,2,12,60,0,0
338615,-55.5555555555556,4,2,12,60,0,0
338911,-71.4285714285714,4,2,12,60,0,0
339207,-55.5555555555556,4,2,12,60,0,0
339799,-62.5,4,2,12,60,0,0
340194,-50,4,2,12,60,0,0
340786,-62.5,4,2,12,60,0,0
344733,-71.4285714285714,4,2,2,60,0,0
345030,-55.5555555555556,4,2,2,60,0,0
345424,-55.5555555555556,4,2,2,30,0,0
345523,-62.5,4,2,2,60,0,0
346707,-55.5555555555556,4,2,2,60,0,0
347003,-55.5555555555556,4,2,2,30,0,0
347102,-62.5,4,2,2,60,0,0
348286,-55.5555555555556,4,2,2,60,0,0
348582,-55.5555555555556,4,2,2,30,0,0
348681,-62.5,4,2,2,60,0,0
349865,-55.5555555555556,4,2,2,60,0,0
350161,-55.5555555555556,4,2,2,30,0,0
350260,-62.5,4,2,2,60,0,0
350852,-83.3333333333333,4,2,2,60,0,0
350901,-83.3333333333333,4,2,2,5,0,0
350951,-83.3333333333333,4,2,2,60,0,0
351000,-83.3333333333333,4,2,2,5,0,0
351049,-83.3333333333333,4,2,2,60,0,0
351098,-83.3333333333333,4,2,2,5,0,0
351148,-83.3333333333333,4,2,2,60,0,0
351197,-83.3333333333333,4,2,2,5,0,0
351246,-55.5555555555556,4,2,2,60,0,0
351641,-200,4,2,2,60,0,0
351690,-200,4,2,2,5,0,0
351740,-200,4,2,2,60,0,0
352431,-200,4,2,2,60,0,0
352480,-200,4,2,2,5,0,0
352529,-200,4,2,2,60,0,0
352677,-200,4,2,2,5,0,0
352727,-200,4,2,2,60,0,0
352776,-200,4,2,2,5,0,0
352825,-200,4,2,2,60,0,0
353220,-200,4,2,2,60,0,0
353269,-200,4,2,2,5,0,0
353319,-200,4,2,2,60,0,0
353615,-71.4285714285714,4,2,2,60,0,0
355194,-62.5,4,2,2,70,0,0
355983,-62.5,4,2,2,40,0,0
358352,-62.5,4,2,8,60,0,0
358450,-62.5,4,2,2,60,0,0
359141,-71.4285714285714,4,2,2,60,0,0
359635,-71.4285714285714,4,2,2,30,0,0
359733,-62.5,4,2,2,60,0,0
361510,-43.4782608695652,4,2,2,60,0,0
362299,-62.5,4,2,2,60,0,0
362792,-62.5,4,2,2,30,0,0
362891,-62.5,4,2,2,60,0,0
370983,-100,4,2,2,60,0,0
371773,-100,4,2,5,70,0,1
371871,-100,4,2,2,70,0,1
373352,-62.5,4,2,2,70,0,1
373450,-62.5,4,2,2,30,0,1
373549,-62.5,4,2,2,70,0,1
373845,-62.5,4,2,2,70,0,1
374042,-62.5,4,2,2,30,0,1
374141,-62.5,4,2,2,70,0,1
374339,-62.5,4,2,2,30,0,1
374437,-62.5,4,2,2,70,0,1
376608,-62.5,4,2,2,30,0,1
376707,-62.5,4,2,2,70,0,1
377003,-62.5,4,2,2,70,0,1
377200,-62.5,4,2,2,30,0,1
377299,-62.5,4,2,2,70,0,1
379667,-50,4,2,2,70,0,1
380062,-62.5,4,2,2,70,0,1
382431,-50,4,2,2,70,0,1
384404,-50,4,2,5,80,0,1
384503,-50,4,2,2,70,0,1
385194,-62.5,4,2,2,70,0,1
385588,-50,4,2,2,70,0,1
385983,-66.6666666666667,4,2,2,70,0,1
393483,-55.5555555555556,4,2,2,70,0,1
393878,-200,4,2,2,70,0,1
393927,-200,4,2,2,5,0,1
393977,-200,4,2,2,70,0,1
394125,-200,4,2,2,5,0,1
394174,-200,4,2,2,70,0,1
394322,-200,4,2,2,5,0,1
394371,-200,4,2,2,70,0,1
394519,-200,4,2,2,5,0,1
394569,-200,4,2,2,70,0,1
394667,-50,4,2,2,70,0,1
395457,-50,4,2,2,60,0,1
395654,-50,4,2,2,50,0,1
396246,-50,4,2,2,60,0,1
397036,-83.3333333333333,4,2,3,60,0,0
398319,-83.3333333333333,4,2,3,30,0,0
398417,-83.3333333333333,4,2,3,60,0,0
398516,-83.3333333333333,4,2,3,30,0,0
398615,-83.3333333333333,4,2,3,60,0,0
401378,-62.5,4,2,3,60,0,0
401477,-62.5,4,2,3,30,0,0
401575,-62.5,4,2,3,60,0,0
401674,-62.5,4,2,3,30,0,0
401773,-62.5,4,2,3,60,0,0
402661,-71.4285714285714,4,2,3,60,0,0
404141,-62.5,4,2,3,60,0,0
404240,-62.5,4,2,3,30,0,0
404338,-62.5,4,2,3,60,0,0
404437,-62.5,4,2,3,30,0,0
404536,-62.5,4,2,3,60,0,0
404635,-62.5,4,2,3,30,0,0
404733,-62.5,4,2,3,60,0,0
404832,-62.5,4,2,3,30,0,0
404931,-62.5,4,2,3,60,0,0
405128,-71.4285714285714,4,2,3,60,0,0
405227,-71.4285714285714,4,2,3,30,0,0
405325,-71.4285714285714,4,2,3,60,0,0
405424,-71.4285714285714,4,2,3,30,0,0
405523,-71.4285714285714,4,2,3,60,0,0
405621,-71.4285714285714,4,2,3,30,0,0
405720,-71.4285714285714,4,2,3,60,0,0
409667,-71.4285714285714,4,2,3,70,0,1
412036,-100,4,2,3,70,0,1
414404,-62.5,4,2,3,70,0,1
420375,-62.5,4,2,2,5,0,1
420424,-62.5,4,2,2,70,0,1
420473,-62.5,4,2,2,5,0,1
420523,-62.5,4,2,2,70,0,1
420572,-62.5,4,2,2,5,0,1
420621,-62.5,4,2,2,70,0,1
420671,-62.5,4,2,2,5,0,1
420720,-71.4285714285714,4,2,2,60,0,0
421510,-71.4285714285714,4,2,8,60,0,0
421608,-71.4285714285714,4,2,2,60,0,0
425852,-100,4,2,2,60,0,0
441246,-71.4285714285714,4,2,3,60,0,0
444404,-71.4285714285714,4,2,3,65,0,0
445194,-71.4285714285714,4,2,3,70,0,0
445983,-71.4285714285714,4,2,3,75,0,0
446378,-55.5555555555556,4,2,3,80,0,0
447562,-55.5555555555556,4,2,1,80,0,0
453878,-55.5555555555556,4,2,3,5,0,0

[Colours]
Combo1 : 250,184,160
Combo2 : 242,65,80
Combo3 : 242,121,166
Combo4 : 50,48,150
Combo5 : 242,148,34

[HitObjects]
149,49,1754,5,2,0:0:0:0:
149,49,3108,5,2,0:0:0:0:
137,65,3205,1,2,0:0:0:0:
168,45,3302,1,2,0:0:0:0:
322,329,3689,5,2,0:0:0:0:
391,352,4076,1,2,0:0:0:0:
454,316,4463,1,2,0:0:0:0:
466,246,4850,5,2,0:0:0:0:
454,316,5431,1,2,0:0:0:0:
496,66,7947,5,2,0:0:0:0:
496,66,9302,5,2,0:0:0:0:
512,85,9399,1,2,0:0:0:0:
469,64,9495,1,2,0:0:0:0:
287,151,9883,5,2,0:0:0:0:
276,222,10270,1,2,0:0:0:0:
254,364,10657,1,2,0:0:0:0:
276,222,11044,5,2,0:0:0:0:
265,293,11624,1,2,0:0:0:0:
265,293,11818,1,2,0:0:0:0:
265,293,13560,5,2,0:0:0:0:
202,321,13753,1,0,0:0:0:0:
142,280,13947,1,0,0:0:0:0:
149,211,14141,1,2,0:0:0:0:
265,293,14915,5,2,0:0:0:0:
92,170,15302,1,2,0:0:0:0:
235,119,15689,1,2,0:0:0:0:
235,119,16270,5,2,0:0:0:0:
238,132,16366,1,2,0:0:0:0:
216,162,16463,1,2,0:0:0:0:
337,277,16850,1,2,0:0:0:0:
137,353,17237,5,2,0:0:0:0:
276,222,17624,1,2,0:0:0:0:
398,332,18012,1,2,0:0:0:0:
461,293,18399,5,2,0:0:0:0:
254,364,18786,1,2,0:0:0:0:
254,364,19560,5,2,0:0:0:0:
187,290,19850,1,0,0:0:0:0:
116,323,20141,1,0,0:0:0:0:
64,277,20334,1,2,0:0:0:0:
254,364,21108,5,2,0:0:0:0:
310,252,21398,1,0,0:0:0:0:
407,268,21689,1,0,0:0:0:0:
456,195,21883,1,2,0:0:0:0:
254,364,22657,5,2,0:0:0:0:
221,211,22947,1,0,0:0:0:0:
101,198,23238,1,0,0:0:0:0:
65,95,23431,1,2,0:0:0:0:
254,364,24012,5,2,0:0:0:0:
187,290,24592,1,2,0:0:0:0:
377,191,24979,1,2,0:0:0:0:
377,191,25753,5,2,0:0:0:0:
379,181,25817,5,2,0:0:0:0:
383,172,25882,5,2,0:0:0:0:
389,163,25946,5,2,0:0:0:0:
395,156,26011,5,0,0:0:0:0:
403,150,26075,5,0,0:0:0:0:
412,145,26141,6,0,P|425:140|436:140,5,17.9999994506836
365,91,26528,5,4,3:1:0:0:
357,77,26592,5,2,0:0:0:0:
347,66,26657,5,2,0:0:0:0:
334,59,26721,5,2,0:0:0:0:
320,55,26786,5,2,0:0:0:0:
305,55,26850,5,0,0:0:0:0:
291,59,26915,5,2,0:3:0:0:
239,109,27012,1,2,0:0:0:0:
170,105,27108,1,2,0:3:0:0:
128,163,27205,1,2,0:0:0:0:
63,139,27302,6,0,L|18:126,3,36,0|2|2|2,0:0|0:0|0:3|0:0,0:0:0:0:
194,200,27689,6,0,L|245:185,3,53.9999983520508,0|2|2|2,0:0|0:0|0:3|0:0,0:0:0:0:
80,264,28076,5,2,0:0:0:0:
71,272,28173,2,0,L|21:258,1,40.4999987640381,2|2,0:0|0:3,0:0:0:0:
118,344,28366,2,0,P|140:316|175:314,1,72,2|0,0:0|0:0,0:0:0:0:
236,271,28657,2,0,P|262:264|273:259,1,36,2|0,0:3|0:0,0:0:0:0:
324,314,28850,5,2,0:0:0:0:
331,313,28914,5,2,0:0:0:0:
338,315,28979,5,2,0:0:0:0:
344,317,29043,5,2,0:3:0:0:
350,320,29108,5,2,0:0:0:0:
356,324,29172,5,2,0:0:0:0:
361,329,29237,5,0,0:0:0:0:
371,312,29301,5,0,0:0:0:0:
384,299,29366,5,0,0:0:0:0:
399,290,29430,5,2,0:3:0:0:
416,284,29495,5,0,0:0:0:0:
434,282,29559,5,0,0:0:0:0:
451,284,29624,6,0,P|458:314|463:341,1,53.9999983520508,2|0,0:0|0:0,0:0:0:0:
360,151,29818,1,2,0:3:0:0:
421,105,29915,2,0,P|435:161|443:211,1,107.999996704102,2|0,0:0|0:0,0:0:0:0:
512,234,30205,1,2,0:3:0:0:
229,87,30399,5,0,0:0:0:0:
216,57,30495,1,2,0:0:0:0:
246,44,30592,1,2,0:3:0:0:
258,74,30689,1,0,0:0:0:0:
238,66,30786,5,0,0:0:0:0:
226,65,30850,5,0,0:0:0:0:
215,66,30915,5,0,0:0:0:0:
204,70,30979,5,2,0:3:0:0:
195,75,31044,5,2,0:0:0:0:
186,82,31108,5,2,0:0:0:0:
179,91,31173,6,0,P|164:121|162:137,1,45,2|0,0:0|0:0,0:0:0:0:
58,151,31366,6,0,P|81:176|95:201,1,56.25,2|0,0:3|0:0,0:0:0:0:
231,215,31560,6,0,P|204:241|186:278,1,67.5000025749208,2|0,0:0|0:0,0:0:0:0:
77,336,31753,5,2,0:3:0:0:
13,361,31850,1,2,0:0:0:0:
85,331,31947,1,2,0:0:0:0:
165,369,32044,5,0,0:0:0:0:
176,375,32141,2,0,L|248:347,1,53.9999983520508,2|2,0:3|0:0,0:0:0:0:
298,304,32334,1,2,0:0:0:0:
307,315,32431,1,2,0:0:0:0:
370,339,32528,2,0,L|442:367,1,53.9999983520508,2|0,3:0|0:0,0:0:0:0:
489,310,32721,5,2,3:2:0:0:
489,310,32915,5,2,0:3:0:0:
477,279,33012,1,2,0:0:0:0:
453,256,33108,2,0,P|433:241|400:230,1,53.9999983520508,2|0,0:0|0:0,0:0:0:0:
492,184,33302,2,0,P|498:164|515:141,1,45,2|2,0:3|0:0,0:0:0:0:
420,153,33495,5,2,0:0:0:0:
405,145,33559,5,0,0:0:0:0:
391,143,33624,5,0,0:0:0:0:
376,144,33688,5,2,0:3:0:0:
362,149,33753,5,0,0:0:0:0:
351,159,33817,5,0,0:0:0:0:
343,172,33882,5,0,0:0:0:0:
324,242,33979,1,2,0:0:0:0:
252,252,34076,1,2,0:3:0:0:
223,185,34173,1,2,0:0:0:0:
278,139,34270,5,2,0:0:0:0:
279,131,34334,5,2,0:0:0:0:
280,124,34399,5,2,0:0:0:0:
282,116,34463,5,2,0:3:0:0:
283,109,34528,5,2,0:0:0:0:
285,102,34592,5,2,0:0:0:0:
286,94,34657,5,2,0:0:0:0:
239,41,34753,1,2,0:0:0:0:
170,55,34850,1,2,0:3:0:0:
109,20,34947,1,2,0:0:0:0:
39,32,35044,6,0,L|-1:40,5,24,2|2|2|2|2|2,0:0|0:0|0:0|0:3|0:0|0:0,0:0:0:0:
17,109,35431,2,0,L|69:98,1,53.9999983520508,2|0,0:0|0:0,0:0:0:0:
199,262,35624,2,0,L|251:251,1,53.9999983520508,2|0,0:3|0:0,0:0:0:0:
363,70,35818,5,2,0:0:0:0:
380,49,35915,1,0,0:0:0:0:
406,42,36012,1,2,0:3:0:0:
421,117,36108,5,2,0:0:0:0:
449,121,36205,1,0,0:0:0:0:
469,141,36302,1,0,0:0:0:0:
411,191,36399,5,2,0:3:0:0:
401,254,36495,1,0,0:0:0:0:
391,318,36592,2,0,L|402:359,1,36
242,216,36786,2,0,L|253:257,1,36,2|0,0:3|0:0,0:0:0:0:
465,312,36979,5,2,0:0:0:0:
477,309,37043,5,2,0:0:0:0:
488,306,37108,5,2,0:0:0:0:
500,302,37172,5,2,0:3:0:0:
286,147,37366,5,2,0:0:0:0:
274,144,37430,5,2,0:0:0:0:
263,141,37495,5,2,0:0:0:0:
251,137,37560,6,0,L|195:122,1,45,2|0,0:3|0:0,0:0:0:0:
483,30,37753,6,2,L|511:22,2,30
397,126,37947,1,2,0:3:0:0:
411,191,38044,1,2,0:0:0:0:
394,114,38141,6,2,L|386:76,2,30
182,48,38399,5,2,0:0:0:0:
113,31,38528,5,2,0:0:0:0:
226,133,38624,5,2,0:0:0:0:
223,143,38721,2,0,P|234:166|248:202,1,45,2|0,3:0|0:0,0:0:0:0:
296,249,38915,6,0,B|371:258|328:315|410:330,1,135.000005149842,6|2,3:0|0:3,0:0:0:0:
419,257,39205,1,2,0:0:0:0:
283,321,39302,5,2,0:0:0:0:
275,323,39366,5,2,0:0:0:0:
268,326,39431,5,2,0:0:0:0:
261,329,39495,5,2,0:3:0:0:
255,331,39560,5,2,0:0:0:0:
248,335,39624,5,2,0:0:0:0:
241,338,39689,6,0,P|228:346|216:355,5,30,0|0|0|2|0|0,0:0|0:0|0:0|0:3|0:0|0:0,0:0:0:0:
163,297,40076,5,0,0:0:0:0:
107,257,40173,1,2,0:0:0:0:
49,293,40270,1,2,0:3:0:0:
103,340,40366,1,2,0:0:0:0:
103,302,40463,5,2,0:0:0:0:
94,293,40560,1,0,0:0:0:0:
90,280,40657,1,2,0:3:0:0:
162,250,40753,5,2,0:0:0:0:
165,206,40850,1,0,0:0:0:0:
198,177,40947,1,0,0:0:0:0:
241,248,41044,5,2,0:3:0:0:
310,240,41141,1,2,0:0:0:0:
360,289,41237,6,0,P|381:321|392:349,1,58.4999973220826,2|0,0:0|0:0,0:0:0:0:
457,148,41431,2,0,P|452:186|442:214,1,58.4999973220826,2|0,0:3|0:0,0:0:0:0:
253,335,41624,6,0,P|289:346|316:360,1,58.4999973220826,2|0,0:0|0:0,0:0:0:0:
512,244,41818,2,0,P|484:270|458:285,1,58.4999973220826,2|0,3:3|0:0,0:0:0:0:
198,177,42012,5,6,3:0:0:0:
198,177,42205,5,2,0:3:0:0:
193,175,42269,5,2,0:0:0:0:
188,174,42334,5,2,0:0:0:0:
183,173,42398,5,2,0:0:0:0:
114,187,42495,1,2,0:0:0:0:
99,118,42592,1,2,0:3:0:0:
168,104,42689,1,2,0:0:0:0:
142,146,42786,5,4,3:0:0:0:
307,95,42979,5,2,0:3:0:0:
311,93,43043,5,2,0:0:0:0:
316,92,43108,5,2,0:0:0:0:
321,91,43172,5,2,0:0:0:0:
391,105,43269,1,2,0:0:0:0:
406,36,43366,1,2,0:3:0:0:
337,22,43463,1,2,0:0:0:0:
363,64,43560,5,6,3:0:0:0:
368,66,43624,5,2,0:0:0:0:
372,68,43688,5,2,0:0:0:0:
377,69,43753,5,2,0:3:0:0:
382,70,43819,5,2,0:0:0:0:
387,71,43883,5,2,0:0:0:0:
470,114,43947,2,0,L|514:105,5,30,2|0|0|2|0|0,0:0|0:0|0:0|0:3|0:0|0:0,0:0:0:0:
422,166,44334,5,0,0:0:0:0:
416,181,44431,1,2,0:0:0:0:
326,187,44528,5,2,0:3:0:0:
336,213,44625,1,2,0:0:0:0:
263,270,44721,5,0,0:0:0:0:
301,291,44818,1,2,0:0:0:0:
269,384,44915,5,2,3:3:0:0:
336,371,45012,1,2,0:0:0:0:
403,357,45108,6,0,L|415:302,1,36,4|0,3:0|0:0,0:0:0:0:
199,236,45302,1,2,0:3:0:0:
132,255,45399,1,2,0:0:0:0:
209,232,45495,5,2,0:0:0:0:
210,226,45560,5,2,0:0:0:0:
212,217,45624,5,2,0:0:0:0:
217,203,45689,5,2,0:3:0:0:
225,185,45753,5,2,0:0:0:0:
236,163,45818,5,2,0:0:0:0:
257,136,45883,6,0,P|321:115|437:89,1,180,2|2,0:0|0:3,0:0:0:0:
321,91,46173,2,0,P|259:59|215:72,1,107.999996704102,2|0,0:0|0:0,0:0:0:0:
444,160,46463,2,0,P|470:152|492:132,1,53.9999983520508,2|0,0:3|0:0,0:0:0:0:
427,18,46657,6,0,P|376:143|330:270,1,270,6|0,3:0|0:0,0:0:0:0:
274,317,47044,2,2,P|256:324|229:340,5,41.9999987182618,2|2|2|2|2|2,0:0|0:0|0:0|0:3|0:0|0:0,0:0:0:0:
389,305,47431,5,2,0:0:0:0:
390,310,47495,5,2,0:0:0:0:
391,315,47560,5,2,0:0:0:0:
393,320,47624,5,2,0:3:0:0:
395,325,47689,5,2,0:0:0:0:
397,329,47753,5,2,0:0:0:0:
397,329,47818,6,0,P|420:357|460:365,2,60,2|2|2,0:0|0:0|0:0,0:0:0:0:
459,290,48012,6,0,P|494:284|521:253,2,60,2|2|2,0:3|0:0|0:0,0:0:0:0:
456,216,48205,5,6,3:0:0:0:
461,207,48269,5,2,0:0:0:0:
465,198,48334,5,2,0:0:0:0:
467,188,48398,5,2,0:3:0:0:
468,178,48463,5,2,0:0:0:0:
467,168,48527,5,2,0:0:0:0:
464,159,48592,5,2,0:0:0:0:
422,100,48689,1,2,0:0:0:0:
475,52,48786,2,0,P|483:36|493:21,2,35.9999989013672,2|0|0,0:3|0:0|0:0,0:0:0:0:
373,156,48979,5,6,3:0:0:0:
364,156,49043,5,2,0:0:0:0:
355,157,49108,5,2,0:0:0:0:
346,161,49172,5,2,0:3:0:0:
338,165,49237,5,2,0:0:0:0:
331,171,49301,5,2,0:0:0:0:
326,178,49366,5,2,0:0:0:0:
256,207,49463,1,2,0:0:0:0:
187,239,49560,1,2,0:3:0:0:
117,269,49657,1,2,0:0:0:0:
46,296,49753,5,0,3:0:0:0:
43,291,49850,1,2,3:2:0:0:
40,285,49947,1,2,3:3:0:0:
37,279,50044,1,2,3:2:0:0:
117,269,50141,5,0,3:0:0:0:
115,255,50238,1,2,3:2:0:0:
113,240,50335,1,2,3:3:0:0:
112,225,50432,1,2,3:2:0:0:
187,239,50528,5,2,3:2:0:0:
194,260,50592,5,2,3:2:0:0:
201,281,50657,5,2,3:2:0:0:
207,303,50721,5,2,3:3:0:0:
256,207,50818,5,0,3:0:0:0:
262,192,50915,1,0,3:0:0:0:
279,156,51012,1,2,3:2:0:0:
305,114,51108,1,2,3:2:0:0:
356,69,51205,1,2,3:2:0:0:
420,38,51302,6,0,P|455:23|492:17,1,72,4|0,3:0|0:0,0:0:0:0:
233,96,51495,2,0,P|203:68|171:52,1,72,2|0,0:3|0:0,0:0:0:0:
395,274,51689,6,0,P|470:268|458:208,1,144,8|2,3:0|0:3,0:0:0:0:
336,179,51979,1,2,0:0:0:0:
326,175,52076,2,0,P|303:148|311:102,1,72,0|0,3:0|0:0,0:0:0:0:
393,281,52270,2,0,P|420:297|459:289,1,58.4999973220826,2|0,0:3|0:0,0:0:0:0:
512,111,52463,5,8,3:0:0:0:
500,97,52560,1,2,0:0:0:0:
483,91,52657,1,2,0:3:0:0:
465,90,52753,1,2,0:0:0:0:
448,96,52850,5,0,3:0:0:0:
427,130,52947,1,2,0:0:0:0:
387,142,53044,1,2,0:3:0:0:
352,119,53141,1,2,0:0:0:0:
315,58,53237,5,8,3:0:0:0:
262,11,53334,1,0,0:0:0:0:
193,27,53431,1,2,0:3:0:0:
163,91,53528,1,2,0:0:0:0:
195,152,53624,6,0,P|221:157|250:183,1,58.4999973220826,2|0,3:2|0:0,0:0:0:0:
91,257,53818,1,2,0:3:0:0:
51,306,53915,1,2,0:0:0:0:
100,249,54012,2,0,P|117:239|137:235,2,38.9999982147218,10|0|0,3:0|0:0|0:0,0:0:0:0:
330,138,54205,2,0,P|346:158|352:197,1,58.4999973220826,2|2,0:3|0:0,0:0:0:0:
452,317,54399,5,2,3:2:0:0:
463,298,54495,1,2,0:0:0:0:
447,328,54592,2,0,L|367:342,1,72,2|0,0:3|0:0,0:0:0:0:
289,268,54786,5,8,3:0:0:0:
300,287,54882,1,2,0:0:0:0:
284,257,54979,2,0,L|204:243,1,72,2|0,0:3|0:0,0:0:0:0:
8,311,55173,5,0,3:0:0:0:
1,325,55270,1,2,0:0:0:0:
0,341,55366,1,2,0:3:0:0:
72,342,55463,5,0,0:0:0:0:
83,366,55560,1,8,3:0:0:0:
108,375,55657,1,2,0:0:0:0:
138,309,55753,5,2,0:3:0:0:
147,305,55818,5,2,0:0:0:0:
154,298,55883,5,2,0:0:0:0:
155,288,55947,6,0,P|143:249|127:205,1,72,2|0,3:2|0:0,0:0:0:0:
230,78,56141,5,2,0:3:0:0:
239,67,56205,5,2,0:0:0:0:
251,59,56270,5,2,0:0:0:0:
265,56,56334,6,0,P|292:65|327:71,1,53.9999983520508,10|0,3:0|0:0,0:0:0:0:
58,202,56528,2,0,P|38:206|21:212,2,35.9999989013672,2|2|2,0:3|0:0|0:0,0:0:0:0:
111,148,56721,5,2,3:2:0:0:
141,129,56817,1,2,0:0:0:0:
172,137,56914,1,2,0:3:0:0:
191,170,57011,1,2,0:0:0:0:
221,234,57108,5,8,3:0:0:0:
269,282,57204,1,2,0:0:0:0:
335,263,57301,1,2,0:3:0:0:
350,196,57398,1,2,0:0:0:0:
306,142,57495,6,0,P|393:176|472:185,1,161.999995056153,2|2,3:2|0:3,0:0:0:0:
383,94,57786,1,0,0:0:0:0:
391,94,57883,2,0,P|418:86|442:76,1,53.9999983520508,10|0,3:0|0:0,0:0:0:0:
479,264,58076,2,0,P|496:269|512:275,2,35.9999989013672,2|0|0,0:3|0:0|0:0,0:0:0:0:
415,303,58270,5,0,3:0:0:0:
382,307,58366,1,2,0:0:0:0:
355,326,58463,1,2,0:3:0:0:
322,331,58560,1,2,0:0:0:0:
263,283,58657,5,8,3:0:0:0:
250,269,58753,1,0,0:0:0:0:
234,264,58850,1,2,0:3:0:0:
216,268,58947,1,2,0:0:0:0:
156,322,59044,5,2,3:0:0:0:
150,316,59108,5,2,0:0:0:0:
156,310,59173,5,2,0:0:0:0:
162,316,59237,5,2,0:3:0:0:
153,321,59302,5,2,0:0:0:0:
153,310,59366,5,2,0:0:0:0:
162,316,59431,5,10,3:0:0:0:
104,359,59528,1,2,0:0:0:0:
43,322,59624,1,2,0:3:0:0:
55,255,59721,1,2,0:0:0:0:
110,208,59818,5,0,3:0:0:0:
125,199,59914,1,0,0:0:0:0:
136,185,60011,1,2,0:3:0:0:
140,167,60108,1,0,0:0:0:0:
71,147,60205,5,8,3:0:0:0:
72,127,60301,1,2,0:0:0:0:
64,109,60398,1,2,0:3:0:0:
50,95,60495,1,2,0:0:0:0:
0,149,60592,6,0,P|92:167|161:187,1,161.999995056153,2|2,3:2|0:3,0:0:0:0:
226,152,60883,1,2,0:0:0:0:
157,193,60979,2,0,P|125:183|72:172,1,62.9999980773926,10|0,3:0|0:0,0:0:0:0:
263,83,61173,2,0,P|253:68|237:47,2,41.9999987182618,2|2|2,0:3|0:0|0:0,0:0:0:0:
330,118,61366,5,2,3:2:0:0:
337,122,61463,1,0,0:0:0:0:
344,125,61560,2,0,P|379:124|399:102,1,62.9999980773926,2|2,0:3|0:0,0:0:0:0:
470,76,61753,2,0,P|485:17|411:29,1,161.999995056153,10|2,3:0|0:3,0:0:0:0:
297,185,62044,1,0,0:0:0:0:
295,191,62141,2,0,P|285:223|278:281,1,62.9999980773926,2|0,3:2|0:0,0:0:0:0:
395,361,62334,6,0,P|409:371|402:358,2,41.9999987182618,2|2|2,0:3|0:0|0:0,0:0:0:0:
391,353,62528,2,0,P|356:326|314:342,1,80.9999975280763,10|0,3:0|0:0,0:0:0:0:
195,213,62721,1,2,0:3:0:0:
189,208,62818,1,2,0:0:0:0:
183,203,62915,5,2,3:2:0:0:
125,252,63011,1,0,0:0:0:0:
60,214,63108,1,2,0:3:0:0:
75,139,63205,1,2,0:0:0:0:
138,103,63302,6,0,P|174:98|204:126,1,72,10|2,3:0|0:0,0:0:0:0:
305,57,63495,2,0,P|327:85|318:125,1,72,2|2,3:3|0:0,0:0:0:0:
428,178,63689,5,6,3:0:0:0:
235,284,63883,1,2,0:3:0:0:
231,289,63979,1,2,0:0:0:0:
228,295,64076,6,0,P|229:338|256:364,1,72,10|0,3:0|0:0,0:0:0:0:
322,334,64270,2,0,P|321:291|294:265,1,72,2|0,0:3|0:0,0:0:0:0:
145,189,64463,1,2,3:2:0:0:
127,176,64560,1,2,0:0:0:0:
118,155,64657,1,2,0:3:0:0:
121,133,64753,1,2,0:0:0:0:
132,114,64850,6,0,P|168:102|197:119,1,72,10|0,3:0|0:0,0:0:0:0:
52,61,65044,2,0,P|59:23|88:7,1,72,2|0,0:3|0:0,0:0:0:0:
316,92,65237,5,0,3:0:0:0:
313,106,65334,1,2,0:0:0:0:
310,120,65431,1,2,0:3:0:0:
349,184,65528,5,2,0:0:0:0:
373,168,65624,1,8,3:0:0:0:
401,167,65721,1,2,0:0:0:0:
395,238,65818,5,2,0:3:0:0:
436,248,65915,1,2,0:0:0:0:
455,286,66012,1,0,3:0:0:0:
388,310,66108,5,2,0:0:0:0:
345,358,66205,1,2,0:3:0:0:
282,339,66302,1,2,0:0:0:0:
274,274,66399,6,0,L|285:230,2,35.9999989013672,10|2|2,3:0|0:0|0:0,0:0:0:0:
206,352,66592,2,0,P|177:355|135:369,1,53.9999983520508,2|2,0:3|0:0,0:0:0:0:
99,310,66786,5,2,3:2:0:0:
91,302,66883,1,2,0:0:0:0:
87,291,66979,1,2,0:3:0:0:
42,224,67076,5,0,0:0:0:0:
3,169,67173,1,10,3:0:0:0:
49,232,67270,2,0,P|77:223|117:217,1,53.9999983520508,2|2,0:0|0:3,0:0:0:0:
199,118,67463,5,0,0:0:0:0:
160,173,67560,1,2,3:0:0:0:
206,110,67657,2,0,P|234:119|274:125,1,53.9999983520508,2|2,0:0|0:3,0:0:0:0:
424,347,67850,1,2,0:0:0:0:
430,350,67947,6,0,P|461:333|470:304,1,62.9999980773926,10|0,3:0|0:0,0:0:0:0:
385,256,68141,2,0,P|392:221|376:195,1,62.9999980773926,2|0,0:3|0:0,0:0:0:0:
284,230,68334,2,0,P|262:201|231:197,1,62.9999980773926,2|0,3:2|0:0,0:0:0:0:
75,317,68528,5,2,0:3:0:0:
12,342,68624,1,0,0:0:0:0:
86,312,68721,6,0,P|126:295|163:271,1,80.9999975280763,8|2,3:0|0:0,0:0:0:0:
243,341,68915,2,0,P|272:353|299:371,1,62.9999980773926,0|2,0:3|0:0,0:0:0:0:
473,193,69108,6,0,P|483:159|512:139,1,62.9999980773926,2|0,3:2|0:0,0:0:0:0:
408,235,69302,1,2,0:3:0:0:
404,243,69399,1,2,0:0:0:0:
401,250,69495,5,8,3:0:0:0:
337,291,69591,1,0,0:0:0:0:
265,266,69688,1,2,3:3:0:0:
240,194,69785,1,0,0:0:0:0:
280,130,69883,6,0,P|355:97|450:69,1,180,6|2,3:0|0:3,0:0:0:0:
290,42,70173,1,0,0:0:0:0:
283,39,70270,2,0,P|263:24|263:-24,2,62.9999980773926,10|2|2,3:0|0:0|0:3,0:0:0:0:
423,165,70560,2,0,P|436:185|484:188,2,62.9999980773926,2|2|0,0:0|3:0|0:0,0:0:0:0:
365,93,70850,5,2,0:3:0:0:
385,28,70947,1,2,0:0:0:0:
362,104,71044,2,0,P|352:135|338:172,1,53.9999983520508,10|0,3:0|0:0,0:0:0:0:
270,256,71237,5,2,0:3:0:0:
290,320,71334,1,0,0:0:0:0:
267,245,71431,5,4,3:0:0:0:
257,211,71527,1,2,0:0:0:0:
226,195,71624,1,2,0:3:0:0:
193,206,71721,1,2,0:0:0:0:
136,258,71818,5,8,3:0:0:0:
63,283,71915,1,2,0:0:0:0:
0,237,72011,1,2,0:3:0:0:
4,159,72108,1,2,0:0:0:0:
70,118,72205,5,0,3:0:0:0:
87,122,72301,1,2,0:0:0:0:
104,127,72398,1,2,0:3:0:0:
122,132,72495,1,2,0:0:0:0:
188,98,72592,6,0,P|228:92|280:78,1,72,10|0,3:0|0:0,0:0:0:0:
345,268,72786,2,0,P|385:274|437:288,1,72,2|0,3:3|0:0,0:0:0:0:
512,132,72979,6,0,P|496:106|447:113,1,72,6|2,3:0|0:0,0:0:0:0:
294,203,73173,1,2,0:3:0:0:
269,265,73270,2,0,P|263:293|256:338,1,72,2|8,0:0|3:0,0:0:0:0:
301,195,73463,1,0,0:0:0:0:
326,133,73560,2,0,P|332:105|339:60,1,72,2|2,0:3|0:0,0:0:0:0:
392,351,73753,5,4,3:0:0:0:
456,364,73849,1,0,0:0:0:0:
508,320,73946,1,2,0:3:0:0:
504,253,74043,1,0,0:0:0:0:
449,214,74141,6,0,P|407:221|361:239,1,80.9999975280763,8|2,3:0|0:0,0:0:0:0:
232,129,74334,2,0,P|190:122|144:104,1,80.9999975280763,2|2,3:3|0:0,0:0:0:0:
36,302,74528,5,4,3:0:0:0:
43,308,74624,1,2,0:0:0:0:
50,311,74721,2,0,P|96:306|123:270,1,90,2|0,3:3|0:0,0:0:0:0:
246,382,74915,1,0,3:0:0:0:
255,379,75011,1,2,0:0:0:0:
261,374,75108,2,0,P|279:331|261:290,1,90,2|0,3:3|0:0,0:0:0:0:
504,127,75302,6,0,P|464:132|421:141,1,80.9999975280763,0|0,3:0|0:0,0:0:0:0:
60,205,75495,2,0,P|99:197|142:190,1,80.9999975280763,2|0,3:3|0:0,0:0:0:0:
329,191,75689,6,0,P|341:148|313:113,1,90,10|2,3:0|0:0,0:0:0:0:
232,129,75883,2,0,P|219:170|245:205,1,90,2|2,3:3|0:0,0:0:0:0:
392,351,76076,5,6,3:0:0:0:
392,351,76270,5,2,0:3:0:0:
431,370,76366,1,2,0:0:0:0:
473,357,76463,1,8,3:0:0:0:
495,318,76560,1,2,0:0:0:0:
485,276,76657,1,2,0:3:0:0:
447,251,76753,1,2,0:0:0:0:
394,205,76850,5,0,3:0:0:0:
388,199,76946,1,0,0:0:0:0:
384,193,77044,1,2,0:3:0:0:
382,186,77140,1,0,0:0:0:0:
330,132,77237,6,0,P|301:106|263:111,1,72,10|2,3:0|0:0,0:0:0:0:
254,33,77431,2,0,P|216:45|202:80,1,72,2|2,0:3|0:2,0:0:0:0:
36,221,77624,5,2,3:0:0:0:
38,215,77688,5,2,0:0:0:0:
41,210,77753,5,2,0:0:0:0:
44,205,77817,5,2,0:3:0:0:
49,201,77882,5,2,0:0:0:0:
53,197,77946,5,2,0:0:0:0:
58,194,78012,6,0,P|94:187|105:192,2,48,8|2|2,3:0|0:0|0:0,0:0:0:0:
149,134,78205,2,0,P|172:162|173:174,2,48,2|2|2,0:3|0:0|0:0,0:0:0:0:
253,193,78399,5,2,3:2:0:0:
225,256,78495,1,2,0:0:0:0:
264,313,78592,1,2,0:3:0:0:
333,311,78689,1,2,0:0:0:0:
368,252,78786,5,8,3:0:0:0:
375,233,78883,1,2,0:0:0:0:
381,246,78979,1,2,0:3:0:0:
362,238,79076,1,2,0:0:0:0:
407,168,79173,6,0,P|433:145|470:140,1,72,2|0,3:2|0:0,0:0:0:0:
373,94,79366,2,0,P|360:57|326:31,1,72,2|0,0:3|0:0,0:0:0:0:
461,214,79560,6,0,P|491:224|512:251,1,67.5000025749208,10|0,3:0|0:0,0:0:0:0:
299,103,79753,2,0,P|267:97|235:110,1,67.5000025749208,2|0,0:3|0:0,0:0:0:0:
135,291,79947,5,2,3:2:0:0:
120,297,80044,1,2,0:0:0:0:
93,302,80141,1,2,0:3:0:0:
55,293,80237,1,2,0:0:0:0:
21,257,80334,1,10,3:0:0:0:
13,204,80431,1,0,0:0:0:0:
48,155,80528,1,2,0:3:0:0:
110,140,80624,1,2,0:0:0:0:
165,181,80721,5,2,3:0:0:0:
294,306,80915,5,2,0:3:0:0:
292,313,80979,5,2,0:0:0:0:
290,320,81044,5,2,0:0:0:0:
288,327,81108,5,8,3:0:0:0:
270,260,81205,1,2,0:0:0:0:
318,211,81302,1,2,0:3:0:0:
284,149,81399,1,2,0:0:0:0:
335,100,81496,5,0,3:0:0:0:
325,81,81593,1,2,0:0:0:0:
341,74,81690,1,2,0:3:0:0:
349,90,81786,1,2,0:0:0:0:
337,86,81883,6,0,P|351:58|379:45,1,62.9999980773926,8|0,3:0|0:0,0:0:0:0:
409,122,82076,2,0,P|439:121|465:138,1,62.9999980773926,2|2,0:3|0:0,0:0:0:0:
504,206,82270,5,0,3:0:0:0:
504,206,82463,5,2,0:3:0:0:
492,213,82560,1,2,0:0:0:0:
484,227,82657,1,8,3:0:0:0:
427,275,82753,5,2,0:0:0:0:
417,305,82850,1,2,0:3:0:0:
389,322,82947,1,0,0:0:0:0:
355,257,83044,5,0,3:0:0:0:
337,267,83141,1,2,0:0:0:0:
295,270,83237,1,2,0:3:0:0:
253,237,83334,1,2,0:0:0:0:
253,172,83431,5,10,3:0:0:0:
423,92,83624,1,2,0:3:0:0:
490,79,83721,1,2,0:0:0:0:
412,94,83818,5,2,3:0:0:0:
401,91,83882,5,2,0:0:0:0:
391,90,83947,5,2,0:0:0:0:
380,88,84011,5,2,0:3:0:0:
370,87,84076,5,2,0:0:0:0:
360,85,84140,5,2,0:0:0:0:
349,84,84205,5,8,3:0:0:0:
287,111,84302,1,2,0:0:0:0:
219,104,84399,1,2,0:3:0:0:
162,140,84495,1,2,0:0:0:0:
73,227,84592,5,0,3:0:0:0:
61,224,84688,1,0,0:0:0:0:
52,218,84785,1,2,0:3:0:0:
47,209,84882,1,0,0:0:0:0:
96,161,84979,6,0,P|123:133|162:140,1,80.9999975280763,10|0,3:0|0:0,0:0:0:0:
208,0,85173,2,0,P|245:9|259:46,1,80.9999975280763,2|0,0:3|0:0,0:0:0:0:
403,16,85366,6,0,P|368:84|350:180,1,161.999995056153,2|2,3:2|0:3,0:0:0:0:
285,279,85657,1,2,0:0:0:0:
313,344,85753,2,0,P|380:357|410:281,1,161.999995056153,10|2,3:0|0:3,0:0:0:0:
422,208,86044,1,2,0:0:0:0:
432,198,86141,6,0,P|492:186|477:259,1,161.999995056153,2|2,3:2|0:3,0:0:0:0:
410,281,86431,1,2,0:0:0:0:
410,281,86528,2,0,P|383:288|343:303,1,53.9999983520508,10|0,3:0|0:0,0:0:0:0:
290,191,86721,2,0,P|263:184|223:169,1,53.9999983520508,2|0,0:3|0:0,0:0:0:0:
90,312,86915,6,0,P|192:336|191:231,1,242.999992584229,2|0,3:2|0:0,0:0:0:0:
227,165,87302,1,8,3:0:0:0:
218,155,87398,1,2,0:0:0:0:
213,142,87495,1,2,0:3:0:0:
214,129,87592,1,0,0:0:0:0:
249,60,87689,5,0,3:0:0:0:
203,3,87785,1,2,0:0:0:0:
132,0,87882,1,2,0:3:0:0:
84,53,87979,1,2,0:0:0:0:
94,127,88076,6,0,P|111:162|148:176,1,80.9999975280763,8|2,3:0|0:0,0:0:0:0:
215,301,88270,2,0,P|253:303|284:278,1,80.9999975280763,2|0,3:3|0:0,0:0:0:0:
426,283,88463,6,0,P|447:210|481:128,1,161.999995056153,6|2,3:0|0:3,0:0:0:0:
414,87,88753,1,2,0:0:0:0:
409,76,88850,2,0,P|357:47|321:125,1,144,10|2,3:0|0:3,0:0:0:0:
257,150,89141,1,2,0:0:0:0:
199,184,89237,5,0,3:0:0:0:
182,166,89333,1,2,0:0:0:0:
160,158,89430,1,2,0:3:0:0:
136,159,89527,1,2,0:0:0:0:
144,233,89624,5,8,3:0:0:0:
116,241,89720,1,0,0:0:0:0:
96,265,89817,1,2,0:3:0:0:
91,294,89914,1,2,0:0:0:0:
165,307,90012,6,0,P|189:344|231:348,1,80.9999975280763,2|0,3:2|0:0,0:0:0:0:
409,264,90205,1,2,0:3:0:0:
471,242,90302,1,2,0:0:0:0:
398,266,90399,2,0,P|368:278|338:287,1,62.9999980773926,10|0,3:0|0:0,0:0:0:0:
199,184,90592,1,2,0:3:0:0:
137,162,90689,1,2,0:0:0:0:
210,187,90786,2,0,P|244:201|282:211,1,72,2|0,3:2|0:0,0:0:0:0:
450,89,90979,1,2,0:3:0:0:
512,67,91076,1,2,0:0:0:0:
439,92,91173,5,8,3:0:0:0:
379,66,91270,1,2,0:0:0:0:
315,73,91366,1,2,0:3:0:0:
260,37,91463,1,2,0:0:0:0:
195,42,91560,5,0,3:0:0:0:
388,254,91753,1,2,0:3:0:0:
393,260,91850,1,0,0:0:0:0:
398,266,91947,5,8,3:0:0:0:
388,308,92044,1,0,0:0:0:0:
352,332,92141,1,2,0:3:0:0:
309,325,92237,1,0,0:0:0:0:
246,285,92334,5,0,3:0:0:0:
228,241,92430,1,2,0:0:0:0:
186,220,92527,1,2,0:3:0:0:
141,234,92624,1,2,0:0:0:0:
101,309,92721,5,8,3:0:0:0:
159,265,92817,1,2,0:0:0:0:
228,241,92914,1,2,0:3:0:0:
301,236,93012,1,2,0:0:0:0:
373,245,93108,6,0,P|416:256|448:277,1,80.9999975280763,0|0,3:0|0:0,0:0:0:0:
332,153,93302,2,0,P|369:135|404:131,1,72,2|0,0:3|0:0,0:0:0:0:
241,108,93495,2,0,P|258:70|282:45,1,62.9999980773926,8|0,3:0|0:0,0:0:0:0:
142,132,93689,2,0,P|131:91|133:57,1,53.9999983520508,2|0,0:3|0:0,0:0:0:0:
446,276,93883,5,0,3:0:0:0:
457,282,93979,1,2,0:0:0:0:
465,290,94076,1,2,0:3:0:0:
471,301,94173,1,2,0:0:0:0:
473,310,94270,5,8,3:0:0:0:
412,343,94366,1,2,0:0:0:0:
347,317,94463,1,2,0:3:0:0:
326,251,94560,1,2,0:0:0:0:
364,193,94657,6,0,P|396:171|436:173,1,72,6|0,3:0|0:0,0:0:0:0:
271,311,94850,1,2,0:3:0:0:
257,316,94947,1,2,0:0:0:0:
246,325,95044,5,8,3:0:0:0:
195,325,95141,1,0,0:0:0:0:
149,345,95237,1,2,0:3:0:0:
98,340,95334,1,2,0:0:0:0:
55,281,95431,5,0,3:0:0:0:
40,255,95528,1,2,0:0:0:0:
35,276,95624,1,2,0:3:0:0:
61,260,95721,1,2,0:0:0:0:
49,268,95818,6,0,P|71:239|115:234,1,72,10|2,3:0|0:0,0:0:0:0:
133,95,96012,2,0,P|169:99|195:135,1,72,2|2,3:3|0:0,0:0:0:0:
309,97,96205,5,6,3:0:0:0:
49,268,96399,1,2,0:3:0:0:
91,322,96495,1,2,0:0:0:0:
145,334,96592,1,8,3:0:0:0:
193,322,96689,1,2,0:0:0:0:
227,286,96786,1,2,0:3:0:0:
240,250,96883,1,0,0:0:0:0:
236,212,96979,6,2,P|199:202|150:193,1,80.9999975280763,2|0,3:2|0:0,0:0:0:0:
86,166,97173,2,0,P|52:136|53:101,1,80.9999975280763,2|0,3:3|0:0,0:0:0:0:
280,151,97366,6,0,P|316:141|366:132,1,80.9999975280763,10|0,3:0|0:0,0:0:0:0:
430,105,97560,2,0,P|463:75|462:40,1,80.9999975280763,2|0,3:3|0:0,0:0:0:0:
263,0,97753,6,0,P|244:18|243:56,1,53.9999983520508,6|0,3:0|0:0,0:0:0:0:
137,71,97947,2,0,P|142:93|170:110,1,58.4999973220826,2|0,3:3|0:0,0:0:0:0:
142,212,98141,2,0,P|165:219|197:201,1,62.9999980773926,10|0,3:0|0:0,0:0:0:0:
270,277,98334,1,2,3:3:0:0:
330,246,98431,1,0,0:0:0:0:
401,255,98528,6,0,P|434:280|441:320,1,80.9999975280763,6|0,3:0|0:0,0:0:0:0:
240,143,98721,6,0,P|245:101|276:75,1,80.9999975280763,2|0,3:3|0:0,0:0:0:0:
348,159,98915,2,0,P|386:142|424:156,1,80.9999975280763,10|0,3:0|0:0,0:0:0:0:
401,255,99108,2,0,P|434:280|441:320,1,80.9999975280763,2|0,3:3|0:0,0:0:0:0:
337,362,99302,5,4,3:0:0:0:
272,376,99398,1,2,3:2:0:0:
216,342,99495,1,2,3:3:0:0:
199,278,99592,1,2,3:2:0:0:
230,212,99689,5,8,3:0:0:0:
239,192,99786,1,0,3:0:0:0:
245,207,99883,1,2,3:3:0:0:
224,198,99979,1,0,3:0:0:0:
158,220,100076,5,2,3:2:0:0:
144,223,100140,5,2,3:2:0:0:
131,226,100205,5,2,3:2:0:0:
118,229,100270,5,2,3:3:0:0:
65,185,100366,5,2,3:2:0:0:
56,175,100463,2,0,P|65:141|110:128,1,80.9999975280763,2|2,3:0|0:2,0:0:0:0:
172,26,100657,2,0,P|207:22|234:60,1,80.9999975280763,2|2,3:3|0:2,0:0:0:0:
351,84,100850,5,6,3:0:0:0:
351,84,102012,5,2,0:0:0:0:
361,69,102108,1,0,0:0:0:0:
376,59,102205,1,2,0:3:0:0:
393,54,102302,1,0,0:0:0:0:
412,126,102399,5,0,0:0:0:0:
403,192,102495,1,2,0:0:0:0:
394,259,102592,1,0,0:3:0:0:
442,310,102689,5,2,0:0:0:0:
448,303,102786,2,0,P|476:289|510:297,1,67.5000025749208,0|2,0:0|0:0,0:0:0:0:
353,333,102979,2,0,P|337:312|308:305,1,56.25,2|0,0:3|0:0,0:0:0:0:
115,204,103173,5,2,0:0:0:0:
80,261,103270,1,0,0:0:0:0:
103,325,103366,1,2,0:3:0:0:
167,346,103463,1,0,0:0:0:0:
224,309,103560,5,0,0:0:0:0:
228,300,103656,1,2,0:0:0:0:
234,293,103753,2,0,L|248:226,1,56.25,2|2,3:3|0:0,0:0:0:0:
151,139,103947,5,0,3:0:0:0:
146,130,104011,5,2,0:0:0:0:
140,123,104076,5,2,0:0:0:0:
133,118,104140,5,2,0:3:0:0:
124,114,104205,5,2,0:0:0:0:
115,112,104269,5,2,0:0:0:0:
106,113,104334,5,0,0:0:0:0:
41,92,104431,1,0,0:0:0:0:
41,24,104527,1,2,0:3:0:0:
106,3,104624,1,0,0:0:0:0:
145,58,104721,1,2,0:0:0:0:
96,186,105108,5,2,0:0:0:0:
92,194,105172,5,2,0:0:0:0:
87,202,105237,5,2,0:0:0:0:
80,208,105301,5,2,0:3:0:0:
71,212,105366,5,2,0:0:0:0:
62,214,105430,5,0,0:0:0:0:
53,213,105495,6,0,P|34:209|23:194,5,37.5,2|0|0|2|0|0,0:0|0:0|0:0|0:3|0:0|0:0,0:0:0:0:
110,277,105883,6,0,P|96:291|77:293,5,37.5,2|0|0|2|0|0,0:0|0:0|0:0|0:3|0:0|0:0,0:0:0:0:
170,317,106270,5,2,0:0:0:0:
178,316,106335,5,2,0:0:0:0:
184,313,106399,5,2,0:0:0:0:
190,307,106463,6,0,P|199:281|191:255,1,56.25,2|2,3:3|0:0,0:0:0:0:
48,125,106657,1,2,0:0:0:0:
274,283,106850,5,2,3:3:0:0:
286,280,106914,5,2,0:0:0:0:
298,277,106979,5,2,0:0:0:0:
310,274,107043,5,6,3:0:0:0:
48,125,107431,5,2,0:0:0:0:
46,118,107495,5,2,0:0:0:0:
45,112,107560,5,0,0:0:0:0:
44,106,107624,5,2,0:3:0:0:
103,56,107721,5,2,0:0:0:0:
112,46,107818,2,0,P|146:53|189:55,1,56.25,2|0,0:0|0:0,0:0:0:0:
238,162,108012,1,2,0:3:0:0:
272,133,108108,2,0,P|299:130|327:123,1,56.25,2|0,0:0|0:0,0:0:0:0:
411,18,108302,1,2,0:0:0:0:
454,70,108399,2,0,P|481:72|509:79,1,56.25,2|0,0:3|0:0,0:0:0:0:
272,133,108592,5,2,0:0:0:0:
259,130,108656,5,2,0:0:0:0:
250,122,108721,5,2,0:0:0:0:
247,111,108785,5,2,0:3:0:0:
302,71,108883,1,0,0:0:0:0:
327,185,108979,5,2,0:0:0:0:
315,199,109043,5,2,0:0:0:0:
298,207,109108,5,2,0:0:0:0:
279,206,109172,5,2,0:3:0:0:
222,249,109270,5,0,0:0:0:0:
162,285,109366,2,0,P|182:312|216:314,1,56.25,2|0,0:0|0:0,0:0:0:0:
257,384,109560,2,0,P|290:380|309:351,1,56.25,2|0,0:3|0:0,0:0:0:0:
390,351,109754,1,2,0:0:0:0:
365,289,109851,1,2,0:0:0:0:
398,232,109948,1,2,3:3:0:0:
463,223,110044,1,0,0:0:0:0:
511,267,110141,6,0,P|474:259|437:253,1,72,4|0,3:0|0:0,0:0:0:0:
323,174,110334,1,2,0:3:0:0:
302,109,110431,1,2,0:0:0:0:
327,185,110528,2,0,P|295:191|264:196,1,62.9999980773926
184,263,110721,1,2,0:3:0:0:
166,317,110818,1,2,0:0:0:0:
187,253,110915,1,2,0:0:0:0:
107,24,111302,5,0,0:0:0:0:
101,14,111398,1,0,0:0:0:0:
94,7,111495,1,2,0:3:0:0:
84,3,111592,1,0,0:0:0:0:
48,66,111689,5,2,0:0:0:0:
27,66,111785,1,0,0:0:0:0:
9,77,111882,1,2,0:3:0:0:
1,95,111979,1,0,0:0:0:0:
61,140,112076,5,2,0:0:0:0:
67,180,112172,1,2,0:0:0:0:
99,205,112269,1,2,0:3:0:0:
140,202,112366,1,2,0:0:0:0:
210,170,112463,5,0,0:0:0:0:
222,149,112560,1,2,0:0:0:0:
275,215,112657,5,2,3:3:0:0:
287,236,112754,1,2,0:0:0:0:
336,162,112850,5,0,0:0:0:0:
365,99,112947,1,2,0:0:0:0:
434,107,113044,1,2,3:3:0:0:
447,175,113141,1,2,0:0:0:0:
386,209,113237,1,4,3:0:0:0:
386,209,113624,5,2,0:0:0:0:
384,219,113688,5,2,0:0:0:0:
383,229,113753,5,2,0:0:0:0:
382,240,113817,5,2,0:3:0:0:
348,301,113915,5,0,0:0:0:0:
337,307,114012,2,0,P|302:313|264:324,1,62.9999980773926,2|0,0:0|0:0,0:0:0:0:
230,195,114205,2,0,P|195:188|157:178,1,72,2|0,0:3|0:0,0:0:0:0:
51,352,114399,5,2,0:0:0:0:
14,302,114495,1,2,0:0:0:0:
40,257,114592,1,2,0:3:0:0:
86,257,114689,1,0,0:0:0:0:
100,286,114786,1,2,0:0:0:0:
247,167,114979,5,2,0:3:0:0:
246,178,115043,5,2,0:0:0:0:
240,189,115108,5,2,0:0:0:0:
229,195,115173,6,0,P|204:188|173:182,2,48,2|2|2,0:0|0:0|0:0,0:0:0:0:
284,245,115366,2,0,P|307:240|330:233,2,48,2|2|2,0:3|0:0|0:0,0:0:0:0:
231,306,115560,5,2,0:0:0:0:
199,305,115656,1,0,0:0:0:0:
176,326,115753,1,2,0:3:0:0:
175,357,115850,1,2,0:0:0:0:
243,383,115947,5,0,0:0:0:0:
297,347,116044,1,2,0:0:0:0:
361,345,116141,2,0,P|395:356|454:369,1,72,2|2,3:3|0:0,0:0:0:0:
512,242,116334,5,4,3:0:0:0:
512,242,116528,5,2,0:3:0:0:
496,238,116592,5,2,0:0:0:0:
480,235,116657,5,2,0:0:0:0:
465,232,116721,6,2,L|411:242,3,48,2|2|2|2,0:0|0:0|0:0|0:3,0:0:0:0:
356,41,117108,1,4,3:0:0:0:
420,81,117302,5,2,0:3:0:0:
409,92,117366,5,2,0:0:0:0:
398,104,117431,5,2,0:0:0:0:
387,116,117495,6,0,L|368:167,3,48,2|0|0|2,0:0|0:0|0:0|0:3,0:0:0:0:
167,115,117883,1,4,3:0:0:0:
234,81,118077,5,2,0:3:0:0:
238,95,118141,5,2,0:0:0:0:
242,110,118206,5,2,0:0:0:0:
247,126,118270,6,0,L|282:167,2,48,2|0|0,0:0|0:0|0:0,0:0:0:0:
273,238,118463,6,0,L|327:228,2,48,2|0|0,0:3|0:0|0:0,0:0:0:0:
382,271,118657,6,0,L|400:219,2,48,2|2|0,0:0|0:0|0:0,0:0:0:0:
465,193,118850,6,0,L|429:151,2,48,2|0|0,0:3|0:0|0:0,0:0:0:0:
438,82,119044,6,0,L|383:91,2,48,2|2|2,0:0|0:0|0:0,0:0:0:0:
328,50,119237,5,2,3:3:0:0:
322,65,119301,5,2,0:0:0:0:
317,80,119366,5,2,0:0:0:0:
311,95,119430,5,4,3:0:0:0:
105,254,119624,6,0,P|82:249|72:236,2,35.9999989013672,2|2|2,0:3|0:0|0:0,0:0:0:0:
125,183,119818,2,0,P|117:160|124:145,2,37.5,2|2|2,0:0|0:0|0:0,0:0:0:0:
196,164,120012,2,0,P|211:146|228:144,2,38.9999982147218,2|2|2,0:3|0:0|0:0,0:0:0:0:
247,215,120205,2,0,P|270:220|280:233,2,40.5000001544952,2|2|2,0:0|0:0|0:0,0:0:0:0:
228,284,120399,2,0,P|235:306|228:322,2,41.9999987182618,2|2|2,0:3|0:0|0:0,0:0:0:0:
158,302,120592,6,0,P|141:320|124:322,2,43.5000013275147,2|2|2,0:0|0:0|0:0,0:0:0:0:
247,209,120786,2,0,P|272:214|283:228,2,45.0000017166138,2|2|2,3:3|0:0|0:0,0:0:0:0:
117,182,120979,1,4,3:0:0:0:
404,166,121173,6,0,P|429:171|440:185,2,38.9999982147218,2|2|2,0:3|0:0|0:0,0:0:0:0:
381,244,121367,2,2,P|388:268|382:285,2,40.5000001544952
303,265,121560,2,0,P|285:284|267:286,2,41.9999987182618,2|2|2,0:3|0:0|0:0,0:0:0:0:
247,208,121754,2,2,P|221:202|210:188,2,43.5000013275147
268,132,121947,2,0,P|259:106|266:89,2,45.0000017166138,0|0|2,0:3|0:0|0:0,0:0:0:0:
345,113,122141,6,2,P|363:92|382:90,2,46.5000003547668
247,215,122335,2,0,P|218:208|206:193,2,48,2|2|2,3:3|0:0|0:0,0:0:0:0:
391,252,122528,5,4,3:0:0:0:
417,271,122624,1,2,0:0:0:0:
432,299,122721,1,2,0:3:0:0:
431,332,122818,1,2,0:0:0:0:
415,360,122915,1,2,0:0:0:0:
387,377,123011,1,2,0:0:0:0:
355,379,123108,2,0,P|316:369|273:353,1,72,2|0,0:3|0:0,0:0:0:0:
163,217,123302,5,4,3:0:0:0:
120,207,123399,1,2,0:0:0:0:
85,232,123495,1,2,0:3:0:0:
81,275,123592,1,2,0:0:0:0:
111,305,123689,2,0,P|152:304|177:278,1,72,2|2,0:0|0:0,0:0:0:0:
241,243,123883,2,0,P|250:209|264:171,1,72,2|0,0:3|0:0,0:0:0:0:
329,132,124076,1,4,3:0:0:0:
84,53,124270,5,2,0:3:0:0:
92,36,124334,5,2,0:0:0:0:
106,26,124399,5,2,0:0:0:0:
124,24,124463,6,0,P|137:33|117:33,2,48,2|2|2,0:0|0:0|0:0,0:0:0:0:
243,47,124657,6,0,P|242:62|232:44,2,48,2|2|2,0:3|0:0|0:0,0:0:0:0:
329,132,124850,6,2,P|315:138|325:121,5,48,2|2|2|2|2|2,0:0|0:0|0:0|0:3|0:0|0:0,0:0:0:0:
355,218,125237,5,2,0:0:0:0:
355,225,125301,5,2,0:0:0:0:
356,233,125366,5,2,0:0:0:0:
358,241,125430,5,2,0:3:0:0:
360,249,125495,5,2,0:0:0:0:
363,256,125559,5,2,0:0:0:0:
366,264,125624,5,4,3:1:0:0:
256,192,125721,12,0,130270,0:0:0:0:
137,364,133372,6,0,P|120:311|57:285,1,126,12|0,0:0|0:0,0:0:0:0:
58,284,134753,5,0,0:0:0:0:
137,364,134950,2,0,P|175:371|212:380,1,72,2|0,0:0|0:0,0:0:0:0:
272,251,135740,2,0,P|310:244|347:235,1,72,2|0,0:0|0:0,0:0:0:0:
428,334,136529,6,0,P|456:339|484:345,1,53.9999983520508,4|0,0:0|0:0,0:0:0:0:
480,345,138108,1,0,0:0:0:0:
207,378,138898,1,2,0:0:0:0:
179,267,139293,1,0,0:0:0:0:
91,225,139687,5,10,0:0:0:0:
207,378,140082,1,0,0:0:0:0:
265,320,140477,2,0,P|275:282|293:247,1,72
146,172,141266,6,0,P|116:149|76:160,1,72,2|0,0:0|0:0,0:0:0:0:
346,106,142056,6,0,P|366:83|400:86,1,62.9999980773926,2|0,0:0|0:0,0:0:0:0:
225,3,142845,5,2,0:0:0:0:
220,10,143635,1,0,0:0:0:0:
168,76,143931,5,0,0:0:0:0:
237,107,144199,5,0,0:0:0:0:
313,45,144424,5,2,0:0:0:0:
147,1,144819,5,0,0:0:0:0:
47,162,145214,5,2,0:0:0:0:
221,332,145608,5,0,0:0:0:0:
426,183,146003,6,0,P|432:155|440:118,1,62.9999980773926,6|0,0:0|0:0,0:0:0:0:
500,187,146793,1,2,0:0:0:0:
372,73,147187,1,0,0:0:0:0:
307,117,147582,1,2,0:0:0:0:
299,106,147977,5,0,0:0:0:0:
235,199,148372,1,2,0:0:0:0:
235,199,148710,2,0,L|243:244,1,41.1428571428571
71,71,149161,6,0,P|65:43|57:6,1,62.9999980773926,2|0,0:0|0:0,0:0:0:0:
73,84,149950,1,2,0:0:0:0:
141,39,150345,1,0,0:0:0:0:
244,108,150740,2,0,P|275:110|316:119,1,62.9999980773926,2|0,0:0|0:0,0:0:0:0:
83,307,151529,5,2,0:0:0:0:
57,297,151661,5,2,0:0:0:0:
47,271,151793,5,2,0:0:0:0:
114,239,151924,5,0,0:0:0:0:
127,204,152056,5,0,0:0:0:0:
164,194,152187,5,0,0:0:0:0:
183,268,152319,6,0,P|239:268|282:299,1,107.999996704102,2|0,0:0|0:0,0:0:0:0:
280,297,153108,1,8,0:0:0:0:
351,267,153503,1,0,0:0:0:0:
184,375,153898,2,0,P|247:291|351:267,1,215.999993408203,2|0,0:0|0:0,0:0:0:0:
411,312,154835,5,2,0:0:0:0:
415,324,154983,5,2,0:0:0:0:
350,266,155131,5,2,0:0:0:0:
371,237,155251,5,0,0:0:0:0:
407,238,155389,5,0,0:0:0:0:
413,233,155477,5,6,0:0:0:0:
143,155,157056,1,0,0:0:0:0:
203,198,157450,1,2,0:0:0:0:
203,198,157845,1,2,0:0:0:0:
203,198,158240,1,2,0:0:0:0:
203,198,158635,6,0,P|245:191|286:188,1,72
352,116,159424,1,2,0:0:0:0:
343,134,159819,1,0,0:0:0:0:
413,249,160214,1,2,0:0:0:0:
394,211,160608,1,0,0:0:0:0:
500,107,161003,1,2,0:0:0:0:
470,169,161398,1,0,0:0:0:0:
309,198,161793,6,0,P|266:191|226:188,1,72,4|0,0:0|0:0,0:0:0:0:
160,116,162582,1,2,0:0:0:0:
169,134,162977,1,0,0:0:0:0:
99,249,163372,1,2,0:0:0:0:
169,134,163766,1,0,0:0:0:0:
0,74,164161,1,2,0:0:0:0:
35,166,164556,1,0,0:0:0:0:
35,166,164950,6,0,P|135:152|192:205,1,180,6|0,0:0|0:0,0:0:0:0:
220,269,166135,1,0,0:0:0:0:
129,335,166529,5,2,0:0:0:0:
108,344,166924,1,0,0:0:0:0:
257,284,167319,1,2,0:0:0:0:
220,269,167714,1,0,0:0:0:0:
309,350,168108,6,0,B|361:369|392:332|377:313|414:272|465:297,2,180,10|0|2,0:0|0:0|0:0,0:0:0:0:
220,269,170477,2,0,P|199:237|143:238,1,90,2|0,0:0|0:0,0:0:0:0:
157,306,171266,6,0,P|239:273|329:276,1,175.499991966248,6|0,0:0|0:0,0:0:0:0:
392,236,172056,2,0,P|448:156|330:217,1,350.999983932496,2|0,0:0|0:0,0:0:0:0:
392,236,173635,2,0,P|430:216|448:173,1,90,2|0,0:0|0:0,0:0:0:0:
318,201,174424,6,0,P|236:168|146:171,1,175.499991966248,6|0,0:0|0:0,0:0:0:0:
83,131,175214,2,0,P|27:51|145:112,1,350.999983932496,2|0,0:0|0:0,0:0:0:0:
83,131,176793,6,0,P|113:100|158:96,1,90,2|0,0:0|0:0,0:0:0:0:
259,300,177582,1,10,0:0:0:0:
183,176,177977,1,0,0:0:0:0:
183,176,178372,6,0,P|224:186|250:223,1,90
477,297,179161,5,2,0:0:0:0:
415,339,179556,1,0,0:0:0:0:
490,289,179950,5,2,0:0:0:0:
250,223,180345,1,0,0:0:0:0:
373,75,180740,6,0,P|412:46|449:59,1,90,2|0,0:0|0:0,0:0:0:0:
309,117,181529,2,0,P|210:97|65:78,2,233.999989288331,2|0|2,0:0|0:0|0:0,0:0:0:0:
448,59,183503,1,0,0:0:0:0:
349,209,183898,2,0,P|301:215|276:185,1,90,6|0,0:0|0:0,0:0:0:0:
232,122,184687,2,0,P|223:67|211:13,1,107.999996704102,2|0,0:0|0:0,0:0:0:0:
211,15,185871,1,0,0:0:0:0:
109,248,186266,5,0,0:0:0:0:
104,256,186316,2,0,P|75:244|75:195,1,78.75
188,370,187056,2,0,P|247:356|256:287,1,135,14|0,0:0|0:0,0:0:0:0:
67,188,187845,2,0,P|132:175|175:295,1,215.999993408203,2|0,0:0|0:0,0:0:0:0:
32,125,189029,5,0,0:0:0:0:
119,66,189424,1,0,0:0:0:0:
237,109,189819,1,0,0:0:0:0:
374,32,190214,1,14,0:0:0:0:
374,32,191266,5,0,0:0:0:0:
306,72,191529,1,0,0:0:0:0:
374,111,191793,2,0,P|425:122|483:137,1,90,10|0,0:0|0:0,0:0:0:0:
237,109,192977,5,0,0:0:0:0:
119,66,193371,1,10,0:0:0:0:
119,66,194556,5,0,0:0:0:0:
120,90,194687,5,0,0:0:0:0:
109,111,194819,5,0,0:0:0:0:
90,126,194950,6,0,P|39:137|-19:152,1,90,10|0,0:0|0:0,0:0:0:0:
254,351,196003,5,2,0:0:0:0:
292,279,196266,1,2,0:0:0:0:
217,197,196529,5,2,0:0:0:0:
210,191,196924,1,0,0:0:0:0:
299,285,197714,5,0,0:0:0:0:
368,152,198108,1,2,0:0:0:0:
374,147,198503,1,2,0:0:0:0:
254,351,199161,5,0,0:0:0:0:
299,285,199424,1,0,0:0:0:0:
146,340,199687,1,2,0:0:0:0:
140,346,200082,1,2,0:0:0:0:
140,346,200740,5,2,0:0:0:0:
65,379,201003,1,0,0:0:0:0:
20,267,201266,1,0,0:0:0:0:
23,260,201661,1,0,0:0:0:0:
254,351,202056,5,2,0:0:0:0:
265,323,202187,1,2,0:0:0:0:
305,307,202319,1,0,0:0:0:0:
226,248,202450,5,2,0:0:0:0:
200,205,202582,1,0,0:0:0:0:
167,204,202714,1,0,0:0:0:0:
256,144,202845,5,14,0:0:0:0:
48,80,203240,5,0,0:0:0:0:
38,67,203339,1,0,0:0:0:0:
40,51,203437,1,0,0:0:0:0:
51,40,203536,1,0,0:0:0:0:
67,38,203635,1,0,0:0:0:0:
80,47,203733,1,0,0:0:0:0:
84,63,203832,1,0,0:0:0:0:
77,77,203931,1,0,0:0:0:0:
74,145,204029,1,2,0:0:0:0:
256,144,204424,5,14,0:0:0:0:
464,80,204819,5,0,0:0:0:0:
474,67,204918,1,0,0:0:0:0:
472,51,205016,1,0,0:0:0:0:
461,40,205115,1,0,0:0:0:0:
445,38,205214,1,0,0:0:0:0:
432,47,205312,1,0,0:0:0:0:
428,63,205411,1,0,0:0:0:0:
435,77,205510,1,0,0:0:0:0:
438,145,205608,1,2,0:0:0:0:
310,89,205806,1,2,0:0:0:0:
256,144,206003,1,0,0:0:0:0:
99,333,206200,5,0,0:0:0:0:
88,309,206299,5,0,0:0:0:0:
122,340,206398,5,0,0:0:0:0:
154,269,206595,5,0,0:0:0:0:
81,198,206793,1,2,0:0:0:0:
12,237,206990,1,0,0:0:0:0:
213,220,207187,1,2,0:0:0:0:
219,219,207286,1,2,0:0:0:0:
225,218,207385,5,2,0:0:0:0:
269,227,207483,1,2,0:0:0:0:
308,248,207582,1,0,0:0:0:0:
352,256,207681,1,0,0:0:0:0:
391,275,207779,5,8,0:0:0:0:
397,289,207878,1,8,0:0:0:0:
411,357,207977,5,2,0:0:0:0:
466,369,208075,1,2,0:0:0:0:
498,322,208174,1,0,0:0:0:0:
468,274,208273,1,0,0:0:0:0:
449,204,208371,5,0,0:0:0:0:
438,178,208470,1,0,0:0:0:0:
456,186,208569,1,2,0:0:0:0:
431,196,208668,1,2,0:0:0:0:
368,156,208766,5,2,0:0:0:0:
301,148,208865,1,0,0:0:0:0:
269,90,208964,1,2,0:0:0:0:
298,30,209062,1,2,0:0:0:0:
292,22,209161,5,14,0:0:0:0:
359,77,209293,5,2,0:0:0:0:
221,157,209424,5,2,0:0:0:0:
115,57,209556,5,0,0:0:0:0:
106,44,209654,1,0,0:0:0:0:
94,36,209753,1,8,0:0:0:0:
78,37,209852,1,8,0:0:0:0:
65,106,209950,5,2,0:0:0:0:
0,127,210049,1,0,0:0:0:0:
0,195,210148,1,2,0:0:0:0:
65,216,210246,1,2,0:0:0:0:
104,161,210345,5,6,0:0:0:0:
179,285,210477,5,2,0:0:0:0:
246,250,210608,5,2,0:0:0:0:
172,277,210740,5,0,0:0:0:0:
279,345,210871,5,2,0:0:0:0:
370,248,211003,5,2,0:0:0:0:
255,110,211135,5,0,0:0:0:0:
263,97,211233,1,0,0:0:0:0:
275,89,211332,1,8,0:0:0:0:
292,90,211431,1,8,0:0:0:0:
305,159,211529,5,2,0:0:0:0:
370,180,211628,1,0,0:0:0:0:
370,248,211727,1,2,0:0:0:0:
305,269,211825,1,2,0:0:0:0:
266,214,211924,5,6,0:0:0:0:
165,108,212056,5,2,0:0:0:0:
104,161,212187,5,2,0:0:0:0:
2,56,212319,5,14,0:0:0:0:
2,56,212714,6,0,P|16:39|52:34,1,54,2|0,0:0|0:0,0:0:0:0:
54,106,213108,2,0,P|145:119|208:178,1,175.499991966248,10|0,0:0|0:0,0:0:0:0:
212,242,213503,2,0,P|245:238|265:213,1,67.5,2|0,0:0|0:0,0:0:0:0:
330,181,213898,6,0,B|352:97|445:69|472:151|412:178|385:119,1,202.500007724762,14|0,0:0|0:0,0:0:0:0:
330,181,214293,6,0,B|365:102|312:21|239:66|268:125|327:98,1,202.500007724762,2|0,0:0|0:0,0:0:0:0:
382,42,214687,5,8,0:0:0:0:
391,14,214786,1,8,0:0:0:0:
399,33,214885,1,2,0:0:0:0:
373,23,214983,1,2,0:0:0:0:
386,28,215082,5,4,0:0:0:0:
344,78,215181,1,4,0:0:0:0:
354,143,215279,1,12,0:0:0:0:
409,179,215378,1,12,0:0:0:0:
472,166,215477,6,0,L|495:157,1,15,2|0,0:0|0:0,0:0:0:0:
421,106,215608,2,0,L|424:81,1,15
343,120,215740,2,0,L|323:104,1,15
316,194,215871,2,0,L|293:203,1,15
283,275,216003,6,0,L|296:269,1,15
256,349,216135,2,0,L|267:358,1,15
178,363,216266,2,0,L|175:377,1,15
127,303,216398,2,0,L|113:308,1,15
153,228,216529,2,0,L|141:218,1,15
230,213,216661,2,0,L|232:198,1,15
283,275,216793,2,0,L|296:269,1,15
256,349,216924,2,0,L|267:358,1,15
178,363,217056,5,2,0:0:0:0:
174,354,217121,5,0,0:0:0:0:
169,347,217187,5,0,0:0:0:0:
162,341,217253,5,0,0:0:0:0:
156,335,217319,5,0,0:0:0:0:
149,330,217385,5,0,0:0:0:0:
142,327,217450,5,0,0:0:0:0:
133,324,217516,5,0,0:0:0:0:
125,322,217582,5,0,0:0:0:0:
116,321,217648,5,0,0:0:0:0:
107,320,217714,5,0,0:0:0:0:
99,322,217779,5,0,0:0:0:0:
67,256,217845,5,2,0:0:0:0:
44,255,217911,5,0,0:0:0:0:
24,246,217977,5,0,0:0:0:0:
8,230,218043,5,0,0:0:0:0:
0,209,218108,5,0,0:0:0:0:
1,187,218174,5,0,0:0:0:0:
10,166,218240,5,0,0:0:0:0:
26,151,218306,5,0,0:0:0:0:
47,143,218371,5,0,0:0:0:0:
69,143,218437,5,0,0:0:0:0:
90,153,218503,5,0,0:0:0:0:
105,169,218569,5,0,0:0:0:0:
113,190,218635,6,0,L|118:210,11,15,2|0|0|0|0|0|0|0|0|0|0|0,0:0|0:0|0:0|0:0|0:0|0:0|0:0|0:0|0:0|0:0|0:0|0:0,0:0:0:0:
182,170,219424,2,0,L|187:190,11,15
262,125,220214,5,2,0:0:0:0:
279,113,220345,1,0,0:0:0:0:
280,134,220477,1,0,0:0:0:0:
258,109,220608,5,0,0:0:0:0:
294,117,220740,1,0,0:0:0:0:
268,144,220871,1,0,0:0:0:0:
266,94,221003,5,0,0:0:0:0:
304,133,221135,1,0,0:0:0:0:
250,144,221266,1,0,0:0:0:0:
286,85,221398,5,0,0:0:0:0:
301,156,221529,1,0,0:0:0:0:
233,129,221661,1,0,0:0:0:0:
346,39,221793,5,2,0:0:0:0:
399,76,221924,1,0,0:0:0:0:
435,130,222056,1,0,0:0:0:0:
450,193,222187,1,0,0:0:0:0:
440,258,222319,1,0,0:0:0:0:
408,314,222450,1,0,0:0:0:0:
96,177,222582,1,0,0:0:0:0:
99,242,222714,1,0,0:0:0:0:
126,301,222845,1,0,0:0:0:0:
172,347,222977,1,0,0:0:0:0:
231,373,223108,1,0,0:0:0:0:
296,376,223240,1,0,0:0:0:0:
358,356,223371,6,0,L|378:345,11,15,2|0|0|0|0|0|0|0|0|0|0|0,0:0|0:0|0:0|0:0|0:0|0:0|0:0|0:0|0:0|0:0|0:0|0:0,0:0:0:0:
440,258,224161,6,0,L|460:247,11,15,2|0|0|0|0|0|0|0|0|0|0|0,0:0|0:0|0:0|0:0|0:0|0:0|0:0|0:0|0:0|0:0|0:0|0:0,0:0:0:0:
341,269,224950,5,2,0:0:0:0:
343,246,225016,5,0,0:0:0:0:
342,224,225082,5,0,0:0:0:0:
337,203,225148,5,0,0:0:0:0:
328,182,225214,5,0,0:0:0:0:
315,164,225279,5,0,0:0:0:0:
299,148,225345,5,0,0:0:0:0:
281,136,225411,5,0,0:0:0:0:
260,127,225477,5,0,0:0:0:0:
239,122,225543,5,0,0:0:0:0:
216,122,225608,5,0,0:0:0:0:
193,125,225674,5,0,0:0:0:0:
174,133,225740,5,0,0:0:0:0:
154,143,225806,5,0,0:0:0:0:
138,159,225871,5,0,0:0:0:0:
124,176,225937,5,0,0:0:0:0:
114,197,226003,5,0,0:0:0:0:
108,217,226069,5,0,0:0:0:0:
105,239,226135,5,0,0:0:0:0:
108,262,226200,5,0,0:0:0:0:
114,283,226266,5,0,0:0:0:0:
123,303,226332,5,0,0:0:0:0:
137,321,226398,5,0,0:0:0:0:
153,336,226464,5,0,0:0:0:0:
172,347,226529,6,0,L|197:342,1,15,2|0,0:0|0:0,0:0:0:0:
233,283,226661,2,0,L|258:278,1,15
307,362,226793,2,0,L|332:357,1,15
175,356,226924,6,0,L|200:351,1,15
236,292,227056,2,0,L|261:287,1,15
310,371,227187,2,0,L|335:366,1,15
386,257,227319,5,0,0:0:0:0:
394,246,227385,5,0,0:0:0:0:
405,239,227450,5,0,0:0:0:0:
417,234,227516,5,0,0:0:0:0:
430,234,227582,6,0,P|447:239|457:254,1,30
315,164,227714,5,0,0:0:0:0:
313,158,227779,2,0,P|312:148|320:129,1,30
393,166,227911,5,0,0:0:0:0:
396,161,227977,2,0,P|404:154|424:153,1,30
390,301,228108,5,2,0:0:0:0:
392,310,228174,5,0,0:0:0:0:
393,320,228240,5,0,0:0:0:0:
392,330,228306,5,0,0:0:0:0:
389,339,228371,5,0,0:0:0:0:
383,348,228437,5,0,0:0:0:0:
376,355,228503,5,0,0:0:0:0:
368,360,228569,5,0,0:0:0:0:
359,363,228635,5,0,0:0:0:0:
349,365,228700,5,0,0:0:0:0:
339,364,228766,5,0,0:0:0:0:
329,360,228832,5,0,0:0:0:0:
321,355,228898,6,0,L|303:342,11,15
233,283,229687,6,0,L|239:248,11,30,2|0|0|0|0|0|0|0|0|0|0|0,0:0|0:0|0:0|0:0|0:0|0:0|0:0|0:0|0:0|0:0|0:0|0:0,0:0:0:0:
164,276,230477,6,0,L|172:226,11,45.0000017166138,2|0|0|0|0|0|0|0|0|0|0|0,0:0|0:0|0:0|0:0|0:0|0:0|0:0|0:0|0:0|0:0|0:0|0:0,0:0:0:0:
99,322,231266,5,2,0:0:0:0:
92,325,231332,5,0,0:0:0:0:
85,328,231398,5,0,0:0:0:0:
78,329,231464,5,0,0:0:0:0:
70,330,231529,5,0,0:0:0:0:
63,329,231595,5,0,0:0:0:0:
56,326,231661,5,0,0:0:0:0:
49,323,231727,5,0,0:0:0:0:
43,319,231793,5,0,0:0:0:0:
38,313,231858,5,0,0:0:0:0:
34,307,231924,5,0,0:0:0:0:
30,300,231990,5,0,0:0:0:0:
28,293,232056,2,0,L|24:268,4,15
77,226,232385,6,0,P|105:183|143:176,1,90.0000034332277,2|0,0:0|0:0,0:0:0:0:
48,128,232582,2,0,P|28:76|-5:64,1,90.0000034332277,2|0,0:0|0:0,0:0:0:0:
127,24,232779,1,0,0:0:0:0:
133,31,232845,6,0,L|158:38,11,15,2|0|0|0|0|0|0|0|0|0|0|0,0:0|0:0|0:0|0:0|0:0|0:0|0:0|0:0|0:0|0:0|0:0|0:0,0:0:0:0:
203,134,233635,6,0,L|239:109,11,45.0000017166138,2|0|0|0|0|0|0|0|0|0|0|0,0:0|0:0|0:0|0:0|0:0|0:0|0:0|0:0|0:0|0:0|0:0|0:0,0:0:0:0:
352,129,234424,6,0,L|358:67,23,60,2|0|0|0|0|0|0|0|0|0|0|0|0|0|0|0|0|0|0|0|0|0|0|0,0:0|0:0|0:0|0:0|0:0|0:0|0:0|0:0|0:0|0:0|0:0|0:0|0:0|0:0|0:0|0:0|0:0|0:0|0:0|0:0|0:0|0:0|0:0|0:0,0:0:0:0:
420,240,236003,6,0,P|431:250|450:250,1,30,6|0,0:0|0:0,0:0:0:0:
425,224,236135,6,0,P|437:216|443:198,1,30,10|0,0:0|0:0,0:0:0:0:
411,214,236266,6,0,P|407:199|392:188,1,30
397,224,236398,6,0,P|382:222|366:233,1,30
402,240,236529,6,0,P|395:253|401:271,3,30
289,363,236793,6,0,P|278:379|257:387,1,30,6|0,0:0|0:0,0:0:0:0:
232,315,236924,6,0,P|212:313|195:299,1,30,10|0,0:0|0:0,0:0:0:0:
245,241,237056,6,0,P|236:223|240:201,1,30
315,215,237187,6,0,P|326:199|347:191,1,30
372,262,237319,6,0,P|391:263|408:277,1,30
359,334,237450,6,0,P|367:351|363:373,1,30
302,289,237582,5,2,0:0:0:0:
296,287,237648,5,0,0:0:0:0:
290,285,237714,5,0,0:0:0:0:
284,283,237779,5,0,0:0:0:0:
279,281,237845,5,0,0:0:0:0:
273,279,237911,5,0,0:0:0:0:
267,277,237977,5,0,0:0:0:0:
262,275,238043,5,0,0:0:0:0:
256,274,238108,5,0,0:0:0:0:
250,272,238174,5,0,0:0:0:0:
245,270,238240,5,0,0:0:0:0:
239,268,238306,5,0,0:0:0:0:
233,266,238371,5,0,0:0:0:0:
227,264,238437,5,0,0:0:0:0:
222,262,238503,5,0,0:0:0:0:
216,260,238569,5,0,0:0:0:0:
210,259,238635,5,0,0:0:0:0:
205,257,238700,5,0,0:0:0:0:
199,255,238766,5,0,0:0:0:0:
193,253,238832,5,0,0:0:0:0:
188,251,238898,5,0,0:0:0:0:
182,249,238964,5,0,0:0:0:0:
176,247,239029,5,0,0:0:0:0:
170,245,239095,5,0,0:0:0:0:
165,244,239161,6,0,L|126:233,23,30
226,186,240740,5,2,0:0:0:0:
226,186,240937,5,0,0:0:0:0:
233,191,241036,2,0,P|260:198|281:204,1,45,2|0,0:0|0:0,0:0:0:0:
342,157,241233,1,0,0:0:0:0:
349,152,241332,2,0,P|376:145|397:139,1,45,2|0,0:0|0:0,0:0:0:0:
448,216,241529,5,0,0:0:0:0:
462,229,241628,1,0,0:0:0:0:
475,227,241727,1,0,0:0:0:0:
483,233,241825,1,0,0:0:0:0:
489,231,241924,5,2,0:0:0:0:
424,202,242023,1,0,0:0:0:0:
381,250,242121,2,0,P|360:258|337:267,1,45,2|0,0:0|0:0,0:0:0:0:
224,313,242319,5,2,0:0:0:0:
223,317,242385,5,0,0:0:0:0:
222,321,242450,5,0,0:0:0:0:
221,325,242516,5,0,0:0:0:0:
272,380,242615,1,0,0:0:0:0:
272,380,242714,6,4,P|295:368|303:344,1,45,2|4,0:0|0:0,0:0:0:0:
221,325,242911,2,0,P|222:299|205:280,1,45,2|0,0:0|0:0,0:0:0:0:
148,342,243108,5,2,0:0:0:0:
143,337,243174,5,0,0:0:0:0:
138,333,243240,5,0,0:0:0:0:
133,330,243306,5,0,0:0:0:0:
126,328,243371,5,0,0:0:0:0:
120,327,243437,5,0,0:0:0:0:
114,327,243503,6,0,L|74:341,2,30,2|0|0,0:0|0:0|0:0,0:0:0:0:
211,284,243700,2,0,L|251:298,2,30
45,233,243898,5,2,0:0:0:0:
45,233,244095,5,8,0:0:0:0:
34,225,244194,1,2,0:0:0:0:
30,213,244293,1,0,0:0:0:0:
95,182,244391,5,8,0:0:0:0:
100,159,244490,1,2,0:0:0:0:
117,146,244589,1,0,0:0:0:0:
166,202,244687,5,0,0:0:0:0:
235,189,244786,2,2,P|265:184|303:181,1,45
68,91,244983,2,0,P|40:46|4:51,1,90,8|0,0:0|0:0,0:0:0:0:
117,146,245279,2,0,P|146:135|158:122,1,45
255,55,245477,5,2,0:0:0:0:
313,15,245575,1,0,0:0:0:0:
248,61,245674,2,0,P|235:87|242:109,1,45
353,213,245871,5,0,0:0:0:0:
394,148,245970,1,2,0:0:0:0:
410,139,246069,1,2,0:0:0:0:
385,131,246168,1,2,0:0:0:0:
401,123,246266,5,2,0:0:0:0:
471,148,246365,1,8,0:0:0:0:
476,222,246464,1,0,0:0:0:0:
411,258,246562,1,0,0:0:0:0:
353,213,246661,2,0,P|314:181|261:196,1,99.0000030212403,4|0,0:0|0:0,0:0:0:0:
99,275,247056,6,0,L|90:331,1,45,2|0,0:0|0:0,0:0:0:0:
41,368,247253,5,0,0:0:0:0:
35,368,247319,5,0,0:0:0:0:
29,371,247385,5,0,0:0:0:0:
23,371,247450,5,0,0:0:0:0:
165,315,247549,5,0,0:0:0:0:
233,332,247648,1,2,0:0:0:0:
173,317,247746,1,8,0:0:0:0:
99,275,247845,5,0,0:0:0:0:
99,269,247911,5,0,0:0:0:0:
96,263,247977,5,0,0:0:0:0:
96,257,248043,5,0,0:0:0:0:
68,192,248141,5,2,0:0:0:0:
0,209,248240,1,2,0:0:0:0:
60,194,248339,1,2,0:0:0:0:
196,6,248536,1,2,0:0:0:0:
155,64,248635,5,2,0:0:0:0:
136,59,248700,5,0,0:0:0:0:
118,63,248766,5,0,0:0:0:0:
103,74,248832,5,0,0:0:0:0:
93,90,248898,5,0,0:0:0:0:
92,108,248964,5,0,0:0:0:0:
97,126,249029,5,8,0:0:0:0:
106,129,249095,5,0,0:0:0:0:
120,134,249161,5,0,0:0:0:0:
139,141,249227,5,0,0:0:0:0:
164,150,249293,5,0,0:0:0:0:
195,161,249358,5,0,0:0:0:0:
231,174,249424,6,0,L|267:186,3,30,2|0|0|0,0:0|0:0|0:0|0:0,0:0:0:0:
320,141,249687,5,0,0:0:0:0:
331,124,249753,5,0,0:0:0:0:
349,115,249819,5,0,0:0:0:0:
368,115,249885,6,0,P|388:122|395:136,2,30,2|2|2,0:0|0:0|0:0,0:0:0:0:
464,115,250082,2,0,P|467:135|459:149,1,30,2|0,0:0|0:0,0:0:0:0:
512,196,250214,6,0,P|499:209|479:213,6,30,2|0|0|0|0|0|0,0:0|0:0|0:0|0:0|0:0|0:0|0:0,0:0:0:0:
465,280,250707,5,8,0:0:0:0:
417,324,250806,1,8,0:0:0:0:
354,309,250904,1,2,0:0:0:0:
269,89,251102,1,2,0:0:0:0:
354,309,251299,5,0,0:0:0:0:
294,284,251398,1,2,0:0:0:0:
241,322,251496,1,2,0:0:0:0:
163,284,251595,2,0,P|139:281|101:268,1,45,10|0,0:0|0:0,0:0:0:0:
44,316,251793,6,0,B|117:350|147:288|140:278|128:272|159:203|228:225,1,236.250002253056,2|0,0:0|0:0,0:0:0:0:
319,105,252187,2,0,P|266:186|241:329,1,236.250002253056
240,321,252582,5,0,0:0:0:0:
236,299,252681,1,0,0:0:0:0:
210,272,252779,1,0,0:0:0:0:
261,211,252878,5,0,0:0:0:0:
274,169,252977,1,2,0:0:0:0:
312,131,253075,1,2,0:0:0:0:
378,110,253174,1,2,0:0:0:0:
447,123,253273,1,2,0:0:0:0:
501,172,253371,6,0,P|410:71|246:96,2,306.000005836487,14|0|8,0:0|0:0|0:0,0:0:0:0:
252,90,254556,1,0,0:0:0:0:
501,172,254950,5,2,0:0:0:0:
501,178,255016,5,2,0:0:0:0:
501,185,255082,5,2,0:0:0:0:
502,192,255148,5,2,0:0:0:0:
502,199,255214,5,2,0:0:0:0:
503,206,255279,5,2,0:0:0:0:
503,213,255345,6,0,L|507:255,2,30,8|0|0,0:0|0:0|0:0,0:0:0:0:
433,264,255543,6,0,L|436:305,2,30
362,314,255740,5,2,0:0:0:0:
357,333,255839,1,2,0:0:0:0:
301,272,255937,5,0,0:0:0:0:
276,278,256036,1,0,0:0:0:0:
305,197,256135,5,2,0:0:0:0:
277,166,256233,1,2,0:0:0:0:
370,158,256332,5,0,0:0:0:0:
385,108,256431,1,0,0:0:0:0:
400,58,256529,6,0,B|417:184|417:184|415:190|415:190|435:340,2,270.000010299683,14|0|8,0:0|0:0|0:0,0:0:0:0:
433,325,257714,1,0,0:0:0:0:
400,58,258108,6,0,P|392:37|364:24,1,45,2|0,0:0|0:0,0:0:0:0:
341,94,258306,1,0,0:0:0:0:
333,89,258404,2,0,P|310:85|285:103,1,45,10|0,0:0|0:0,0:0:0:0:
222,163,258602,1,0,0:0:0:0:
237,226,258700,1,0,0:0:0:0:
219,154,258799,1,0,0:0:0:0:
154,126,258898,5,6,0:0:0:0:
144,128,258964,5,0,0:0:0:0:
134,129,259029,5,0,0:0:0:0:
123,130,259095,5,0,0:0:0:0:
113,129,259161,5,0,0:0:0:0:
102,126,259227,5,0,0:0:0:0:
93,123,259293,5,0,0:0:0:0:
81,119,259358,5,0,0:0:0:0:
67,112,259424,5,0,0:0:0:0:
53,100,259490,5,0,0:0:0:0:
40,87,259556,5,0,0:0:0:0:
30,68,259621,5,0,0:0:0:0:
23,44,259687,6,0,L|29:-6,1,45,2|0,0:0|0:0,0:0:0:0:
223,161,259885,2,0,L|229:111,1,45,2|0,0:0|0:0,0:0:0:0:
16,51,260082,6,0,L|22:1,1,45,2|0,0:0|0:0,0:0:0:0:
216,168,260279,2,0,L|222:118,1,45,2|0,0:0|0:0,0:0:0:0:
9,58,260477,6,0,L|15:8,1,45,2|0,0:0|0:0,0:0:0:0:
209,175,260674,2,0,L|215:125,1,45,2|0,0:0|0:0,0:0:0:0:
2,65,260871,6,0,L|8:15,1,45,2|0,0:0|0:0,0:0:0:0:
202,182,261069,2,0,L|208:132,1,45,2|0,0:0|0:0,0:0:0:0:
15,319,261266,5,2,0:0:0:0:
20,328,261316,2,0,P|51:334|76:316,1,56.25,2|0,0:0|0:0,0:0:0:0:
129,371,261513,2,0,P|149:347|146:316,1,56.25,2|0,0:0|0:0,0:0:0:0:
220,298,261710,2,0,P|209:268|181:255,1,56.25,2|0,0:0|0:0,0:0:0:0:
202,182,261908,2,0,P|171:176|146:194,1,56.25,2|0,0:0|0:0,0:0:0:0:
85,234,262105,6,0,P|60:246|33:239,1,56.25,2|0,0:0|0:0,0:0:0:0:
46,165,262302,2,0,P|22:149|15:123,1,56.25,10|0,0:0|0:0,0:0:0:0:
86,98,262500,2,0,P|87:70|106:50,1,56.25,10|0,0:0|0:0,0:0:0:0:
164,99,262697,2,0,P|188:86|215:93,1,56.25,10|0,0:0|0:0,0:0:0:0:
372,281,262895,6,0,B|378:309|378:309|377:315|377:315|382:338,1,56.25,2|0,0:0|0:0,0:0:0:0:
456,148,263092,2,0,B|462:176|462:176|461:182|461:182|466:205,1,56.25,2|0,0:0|0:0,0:0:0:0:
365,283,263289,6,0,B|371:311|371:311|370:317|370:317|375:340,1,56.25,2|0,0:0|0:0,0:0:0:0:
463,146,263487,2,0,B|469:174|469:174|468:180|468:180|473:203,1,56.25,2|0,0:0|0:0,0:0:0:0:
292,181,263684,6,0,B|298:209|298:209|297:215|297:215|302:238,1,56.25,2|0,0:0|0:0,0:0:0:0:
376,48,263881,2,0,B|382:76|382:76|381:82|381:82|386:105,1,56.25,2|0,0:0|0:0,0:0:0:0:
285,183,264079,6,0,B|291:211|291:211|290:217|290:217|295:240,1,56.25,2|0,0:0|0:0,0:0:0:0:
383,46,264276,2,0,B|389:74|389:74|388:80|388:80|393:103,1,56.25,2|0,0:0|0:0,0:0:0:0:
282,327,264473,6,0,B|253:333|253:333|248:332|248:332|225:337,1,56.25,2|0,0:0|0:0,0:0:0:0:
277,319,264671,2,0,B|248:325|248:325|243:324|243:324|220:329,1,56.25,2|0,0:0|0:0,0:0:0:0:
272,311,264868,2,0,B|243:317|243:317|238:316|238:316|215:321,1,56.25,2|0,0:0|0:0,0:0:0:0:
267,303,265066,2,0,B|238:309|238:309|233:308|233:308|210:313,1,56.25,2|0,0:0|0:0,0:0:0:0:
142,286,265263,6,0,P|103:301|97:342,2,84.375,10|0|0,0:0|0:0|0:0,0:0:0:0:
209,233,265707,5,2,0:0:0:0:
64,165,265855,1,2,0:0:0:0:
155,112,266003,5,2,0:0:0:0:
167,110,266069,5,0,0:0:0:0:
179,108,266135,5,0,0:0:0:0:
192,106,266200,5,0,0:0:0:0:
204,105,266266,5,0,0:0:0:0:
216,103,266332,5,0,0:0:0:0:
229,102,266398,5,0,0:0:0:0:
241,101,266464,5,0,0:0:0:0:
254,100,266529,5,0,0:0:0:0:
266,99,266595,5,0,0:0:0:0:
279,98,266661,5,0,0:0:0:0:
291,97,266727,5,0,0:0:0:0:
306,95,266793,6,0,L|334:93,23,17.9999994506836,8|0|0|0|0|0|0|0|0|0|0|0|0|0|0|0|0|0|0|0|0|0|0|0,0:0|0:0|0:0|0:0|0:0|0:0|0:0|0:0|0:0|0:0|0:0|0:0|0:0|0:0|0:0|0:0|0:0|0:0|0:0|0:0|0:0|0:0|0:0|0:0,0:0:0:0:
274,29,268372,6,0,L|286:3,11,17.9999994506836
200,23,269161,5,14,0:0:0:0:
191,37,269556,1,0,0:0:0:0:
225,107,269950,1,0,0:0:0:0:
174,173,270345,1,0,0:0:0:0:
58,131,270734,1,0,0:0:0:0:
58,131,271523,5,0,0:0:0:0:
98,67,271918,1,0,0:0:0:0:
52,142,272312,1,2,0:0:0:0:
225,107,273093,1,0,0:0:0:0:
221,116,273882,5,2,0:0:0:0:
309,125,274277,1,0,0:0:0:0:
334,230,274671,1,2,0:0:0:0:
463,186,275066,1,0,0:0:0:0:
471,327,275461,5,12,0:0:0:0:
463,186,276250,1,0,0:0:0:0:
471,327,276513,5,2,0:0:0:0:
399,290,276776,1,0,0:0:0:0:
311,360,277039,1,0,0:0:0:0:
311,360,278618,5,2,0:0:0:0:
293,362,278816,1,2,0:0:0:0:
277,355,279013,1,0,0:0:0:0:
266,340,279210,1,0,0:0:0:0:
317,286,279408,5,2,0:0:0:0:
319,259,279605,1,2,0:0:0:0:
336,239,279803,1,0,0:0:0:0:
362,234,280000,1,0,0:0:0:0:
390,302,280987,5,4,0:0:0:0:
273,201,281250,1,0,0:0:0:0:
193,269,281514,1,0,0:0:0:0:
127,228,281777,1,2,0:0:0:0:
299,50,282171,5,0,0:0:0:0:
273,201,282566,1,0,0:0:0:0:
247,352,282961,1,0,0:0:0:0:
424,227,283356,5,2,0:0:0:0:
273,201,283751,1,0,0:0:0:0:
273,201,284409,5,0,0:0:0:0:
188,131,284672,1,0,0:0:0:0:
78,283,284935,1,10,0:0:0:0:
78,283,285329,5,0,0:0:0:0:
254,93,285724,1,0,0:0:0:0:
330,341,286119,1,0,0:0:0:0:
182,209,286514,5,2,0:0:0:0:
270,230,286908,1,0,0:0:0:0:
78,283,287497,5,2,0:0:0:0:
182,209,287694,1,2,0:0:0:0:
270,230,287891,1,2,0:0:0:0:
330,341,288089,6,0,L|512:306,1,180,4|0,3:0|0:0,0:0:0:0:
395,252,288681,1,0,0:0:0:0:
321,350,288878,2,0,B|266:360|266:360|242:238,1,180
230,166,289470,1,0,3:0:0:0:
47,68,289667,6,0,L|22:205,1,135,4|0,3:0|0:0,0:0:0:0:
94,234,290062,2,0,L|124:61,1,175.499991966248
203,55,290457,2,0,L|164:274,1,216
248,213,290852,2,0,L|262:128,1,85.4999977169037
335,139,291049,2,0,L|320:223,1,85.4999977169037,0|0,3:0|0:0,0:0:0:0:
394,314,291246,5,4,3:0:0:0:
445,300,291345,1,0,0:0:0:0:
481,262,291444,1,0,0:0:0:0:
493,211,291542,1,0,0:0:0:0:
476,161,291641,1,0,0:0:0:0:
436,127,291740,1,0,0:0:0:0:
383,119,291839,1,0,0:0:0:0:
335,139,291937,1,0,0:0:0:0:
301,177,292036,5,4,3:0:0:0:
253,197,292135,1,0,0:0:0:0:
200,189,292233,1,0,0:0:0:0:
160,155,292332,1,0,0:0:0:0:
143,105,292431,1,0,0:0:0:0:
155,54,292529,1,0,0:0:0:0:
191,16,292628,1,0,0:0:0:0:
242,2,292727,1,0,0:0:0:0:
291,17,292825,5,4,3:0:0:0:
295,24,292891,5,0,0:0:0:0:
299,31,292957,5,0,0:0:0:0:
302,38,293023,6,0,L|223:24,1,62.9999980773926
89,156,293220,2,0,L|10:142,1,62.9999980773926,2|0,0:0|0:0,0:0:0:0:
356,203,293417,5,0,0:0:0:0:
364,201,293483,5,0,0:0:0:0:
372,199,293549,5,0,0:0:0:0:
381,198,293615,6,0,P|404:205|413:229,2,41.9999987182618,2|0|0,0:0|0:0|0:0,0:0:0:0:
349,266,293812,2,0,P|354:289|338:309,2,41.9999987182618,2|0|0,0:0|0:0|0:0,0:0:0:0:
274,272,294010,2,0,P|256:288|231:284,2,41.9999987182618,2|0|0,0:0|0:0|0:0,0:0:0:0:
231,210,294207,2,0,P|208:202|199:179,2,41.9999987182618,2|0|0,0:0|0:0|0:0,0:0:0:0:
263,141,294404,5,6,3:0:0:0:
94,281,294602,1,2,0:1:0:0:
69,299,294700,1,0,0:0:0:0:
86,304,294799,2,0,L|158:316,1,53.9999983520508,0|0,3:0|0:0,0:0:0:0:
199,360,294996,2,0,B|226:322|226:322|208:274,1,90,2|0,0:1|0:0,0:0:0:0:
287,266,295194,1,0,3:0:0:0:
296,261,295292,2,0,L|355:236,1,53.9999983520508,2|2,0:1|0:3,0:0:0:0:
361,321,295490,2,0,L|474:370,1,107.999996704102,2|0,0:1|0:0,0:0:0:0:
460,363,295786,1,2,0:1:0:0:
94,281,295983,5,0,3:0:0:0:
69,299,296082,1,0,0:0:0:0:
86,304,296181,1,2,0:1:0:0:
173,175,296378,5,0,3:0:0:0:
144,162,296477,1,0,0:0:0:0:
149,179,296575,1,2,0:1:0:0:
304,189,296773,5,0,3:0:0:0:
300,158,296871,2,0,L|285:226,1,53.9999983520508,2|2,0:1|0:3,0:0:0:0:
353,260,297069,2,0,L|377:155,1,107.999996704102,2|0,0:1|0:0,0:0:0:0:
377,155,297365,1,2,0:1:0:0:
82,33,297562,5,0,3:0:0:0:
47,11,297661,1,0,0:0:0:0:
89,39,297760,2,0,L|79:97,1,53.9999983520508,2|0,0:1|0:0,0:0:0:0:
196,47,297957,5,0,3:0:0:0:
161,25,298056,1,0,0:0:0:0:
203,53,298154,2,0,L|193:111,1,53.9999983520508,2|0,0:1|0:0,0:0:0:0:
117,200,298352,1,0,3:0:0:0:
111,209,298450,2,0,L|37:220,1,53.9999983520508,2|2,0:1|0:3,0:0:0:0:
40,289,298648,2,0,L|146:273,1,107.999996704102,2|0,0:1|0:0,0:0:0:0:
219,265,298944,2,0,L|293:254,1,53.9999983520508,2|0,0:1|0:0,0:0:0:0:
402,304,299141,5,0,3:0:0:0:
402,304,299240,2,0,P|396:342|389:374,1,67.5000025749208,2|2,0:1|0:3,0:0:0:0:
461,384,299536,6,0,P|467:346|474:314,1,67.5000025749208,0|0,3:0|0:0,0:0:0:0:
402,304,299733,2,0,P|396:342|389:374,1,67.5000025749208,2|0,3:3|0:0,0:0:0:0:
331,177,299931,5,0,3:0:0:0:
331,177,300029,2,0,P|337:215|344:247,1,67.5000025749208,2|2,0:1|0:3,0:0:0:0:
272,257,300325,6,0,P|266:219|259:187,1,67.5000025749208,0|0,3:0|0:0,0:0:0:0:
331,177,300523,2,0,P|337:215|344:247,1,67.5000025749208,2|0,3:3|0:0,0:0:0:0:
438,153,300720,5,0,3:0:0:0:
469,130,300819,1,0,0:0:0:0:
453,123,300917,1,2,0:1:0:0:
337,101,301115,5,0,3:0:0:0:
332,62,301214,1,0,0:0:0:0:
318,73,301312,1,2,0:1:0:0:
259,190,301510,5,0,3:0:0:0:
223,175,301608,2,0,L|237:235,1,53.9999983520508,2|2,0:1|0:3,0:0:0:0:
174,271,301806,2,0,L|149:165,1,107.999996704102,2|0,0:1|0:0,0:0:0:0:
149,165,302102,1,2,0:1:0:0:
24,353,302299,5,0,3:0:0:0:
13,346,302398,1,0,0:0:0:0:
53,335,302496,1,2,0:1:0:0:
174,271,302694,5,0,3:0:0:0:
163,278,302792,1,0,0:0:0:0:
203,289,302891,1,2,0:1:0:0:
332,362,303089,5,0,3:0:0:0:
321,355,303187,2,0,L|391:342,1,53.9999983520508,2|2,0:1|0:3,0:0:0:0:
386,271,303384,2,0,L|279:290,1,107.999996704102,2|0,0:1|0:0,0:0:0:0:
279,290,303681,1,2,0:1:0:0:
89,206,303878,5,0,3:0:0:0:
57,220,303977,1,0,0:0:0:0:
97,202,304075,2,0,L|107:138,1,53.9999983520508,2|0,0:1|0:0,0:0:0:0:
206,182,304273,5,0,3:0:0:0:
174,196,304371,1,0,0:0:0:0:
214,178,304470,2,0,L|224:114,1,53.9999983520508,2|0,0:1|0:0,0:0:0:0:
336,60,304667,1,0,3:0:0:0:
345,54,304766,2,0,L|408:44,1,53.9999983520508,2|2,0:1|0:3,0:0:0:0:
333,128,304964,2,0,L|441:110,1,107.999996704102,2|0,0:1|0:0,0:0:0:0:
508,94,305260,2,0,L|498:31,1,53.9999983520508,2|0,0:1|0:0,0:0:0:0:
394,213,305457,5,0,3:0:0:0:
394,213,305556,2,0,P|390:253|406:274,1,67.5000025749208,2|2,0:1|0:3,0:0:0:0:
478,254,305852,6,0,P|482:214|466:193,1,67.5000025749208,0|0,3:0|0:0,0:0:0:0:
393,213,306049,2,0,P|387:245|405:273,1,67.5000025749208,2|0,3:3|0:0,0:0:0:0:
317,316,306246,5,0,3:0:0:0:
317,316,306345,2,0,P|321:356|305:377,1,67.5000025749208,2|2,0:1|3:3,0:0:0:0:
233,357,306641,6,0,P|229:317|245:296,1,67.5000025749208,0|0,3:0|0:0,0:0:0:0:
317,316,306839,2,0,P|323:348|305:376,1,67.5000025749208,2|0,3:3|0:0,0:0:0:0:
190,239,307036,6,0,P|131:196|86:214,1,125.999996154785,6|2,3:0|0:3,0:0:0:0:
3,326,307332,2,0,P|62:345|87:285,1,125.999996154785,2|0,0:3|0:0,0:0:0:0:
201,230,307628,2,0,P|245:175|308:183,1,125.999996154785,2|0,0:3|3:0,0:0:0:0:
354,218,307924,1,2,0:3:0:0:
299,170,308023,2,0,P|268:163|238:170,1,62.9999980773926,2|0,0:3|0:0,0:0:0:0:
84,117,308220,6,0,P|80:91|71:52,1,62.9999980773926,2|0,3:3|0:0,0:0:0:0:
145,39,308417,2,0,P|149:65|158:104,1,62.9999980773926,2|0,0:3|0:0,0:0:0:0:
299,170,308615,6,0,P|286:219|276:308,1,125.999996154785,2|2,3:3|0:3,0:0:0:0:
318,361,308911,2,0,P|379:371|390:316,1,125.999996154785,2|0,0:3|0:0,0:0:0:0:
426,255,309207,2,0,P|444:200|499:213,1,125.999996154785,2|0,0:3|3:0,0:0:0:0:
318,361,309503,1,2,0:3:0:0:
307,367,309602,2,0,P|277:370|239:380,1,62.9999980773926,2|0,0:3|0:0,0:0:0:0:
166,237,309799,6,0,P|136:233|98:224,1,62.9999980773926,2|0,3:3|0:0,0:0:0:0:
89,297,309996,2,0,P|120:300|150:308,1,62.9999980773926,2|0,0:3|0:0,0:0:0:0:
272,214,310194,6,0,B|297:150|338:195|364:130,1,125.999996154785,2|2,3:3|0:3,0:0:0:0:
394,70,310490,2,0,P|426:40|403:74,1,125.999996154785,2|0,0:3|0:0,0:0:0:0:
265,231,310786,6,0,B|256:163|205:196|196:126,1,125.999996154785,2|0,0:3|3:0,0:0:0:0:
170,61,311082,2,0,P|172:17|183:59,1,125.999996154785,2|0,0:3|0:0,0:0:0:0:
53,186,311378,2,0,P|19:186|-4:154,1,62.9999980773926,2|0,3:3|0:0,0:0:0:0:
32,100,311575,2,0,P|66:100|89:132,1,62.9999980773926,2|0,0:3|0:0,0:0:0:0:
179,258,311773,6,0,P|241:272|303:293,1,125.999996154785,2|2,3:3|0:3,0:0:0:0:
365,253,312069,2,0,P|405:257|413:322,1,107.999996704102,2|0,0:3|0:0,0:0:0:0:
282,360,312365,2,0,P|222:339|160:326,1,125.999996154785,2|0,0:3|3:0,0:0:0:0:
93,355,312661,1,2,0:3:0:0:
159,333,312760,2,0,P|194:339|226:348,1,62.9999980773926,2|0,0:3|0:0,0:0:0:0:
345,252,312957,6,0,P|382:243|423:237,1,72,2|0,3:3|0:0,0:0:0:0:
395,165,313154,2,0,P|357:173|317:180,1,72,2|0,3:3|0:0,0:0:0:0:
210,155,313352,6,0,P|162:113|172:52,1,125.999996154785,2|2,3:3|0:3,0:0:0:0:
226,5,313648,2,0,P|267:43|250:94,1,107.999996704102,2|0,0:3|0:0,0:0:0:0:
205,164,313944,2,0,P|253:206|243:267,1,125.999996154785,2|0,0:3|3:0,0:0:0:0:
189,314,314240,2,0,P|148:276|165:225,1,107.999996704102,2|0,0:3|0:0,0:0:0:0:
302,143,314536,6,0,P|335:137|374:136,1,62.9999980773926,2|0,3:3|0:0,0:0:0:0:
110,174,314733,2,0,P|76:179|38:181,1,62.9999980773926,2|0,0:3|0:0,0:0:0:0:
320,292,314931,6,0,B|380:290|359:234|428:235,1,125.999996154785,2|2,3:3|0:3,0:0:0:0:
512,344,315227,2,0,P|455:359|427:308,1,125.999996154785,2|0,0:3|0:0,0:0:0:0:
312,221,315523,6,0,B|251:219|272:163|203:164,1,125.999996154785,2|0,0:3|3:0,0:0:0:0:
120,273,315819,2,0,P|176:288|204:237,1,125.999996154785,2|0,0:3|0:0,0:0:0:0:
319,147,316115,6,0,P|323:115|333:67,1,62.9999980773926,2|0,3:3|0:0,0:0:0:0:
399,99,316312,2,0,P|394:130|385:179,1,62.9999980773926,2|0,0:3|0:0,0:0:0:0:
326,339,316510,5,2,3:3:0:0:
272,381,316608,2,0,P|238:374|224:331,1,62.9999980773926,0|2,0:0|0:3,0:0:0:0:
172,295,316806,2,0,P|163:232|147:161,1,125.999996154785,2|0,0:3|0:0,0:0:0:0:
108,108,317102,2,0,P|50:68|7:103,1,125.999996154785,2|0,0:3|3:0,0:0:0:0:
149,171,317398,1,2,0:3:0:0:
209,205,317496,2,0,P|241:202|262:171,1,62.9999980773926,2|0,0:3|0:0,0:0:0:0:
51,256,317694,6,0,P|18:259|-2:290,1,62.9999980773926,2|0,3:3|0:0,0:0:0:0:
97,323,317891,2,0,P|83:352|99:385,1,62.9999980773926,2|0,0:3|0:0,0:0:0:0:
178,316,318089,6,0,P|196:342|285:331,1,125.999996154785,2|0,3:3|0:3,0:0:0:0:
344,292,318385,2,0,P|353:229|369:158,1,125.999996154785,2|0,0:3|0:0,0:0:0:0:
423,117,318681,1,2,0:3:0:0:
423,117,318779,1,0,0:0:0:0:
423,117,318878,6,0,P|453:111|496:108,1,62.9999980773926,0|2,3:0|0:3,0:0:0:0:
411,44,319075,2,0,P|442:38|474:36,1,62.9999980773926,2|0,3:3|0:0,0:0:0:0:
307,260,319273,6,0,P|337:254|355:210,1,62.9999980773926,2|0,3:3|0:0,0:0:0:0:
257,154,319470,6,0,P|267:124|238:87,1,62.9999980773926,2|0,3:3|0:0,0:0:0:0:
141,143,319667,6,0,P|120:119|44:189,1,161.999995056153,6|2,3:2|0:3,0:0:0:0:
44,261,319964,2,0,P|117:223|198:203,1,161.999995056153,2|0,0:2|0:0,0:0:0:0:
98,308,320261,1,2,0:2:0:0:
94,314,320358,2,0,P|115:338|191:268,1,161.999995056153
318,172,320654,6,0,P|322:139|332:95,1,67.5000025749208,2|0,0:2|0:0,0:0:0:0:
249,125,320852,6,0,P|207:116|158:108,1,80.9999975280763,2|0,0:2|0:0,0:0:0:0:
396,155,321049,6,0,P|438:164|487:172,1,80.9999975280763,2|0,0:2|0:0,0:0:0:0:
246,368,321246,6,0,P|176:348|194:276,1,161.999995056153,2|2,3:2|0:3,0:0:0:0:
313,328,321542,1,2,0:2:0:0:
372,362,321641,2,0,P|412:349|423:304,1,80.9999975280763
275,268,321839,1,2,0:2:0:0:
272,262,321937,2,0,P|255:186|245:93,1,161.999995056153
141,13,322233,6,0,P|112:42|122:75,1,67.5000025749208,2|0,0:2|0:0,0:0:0:0:
100,138,322431,6,0,P|90:179|48:202,1,80.9999975280763,2|0,0:2|0:0,0:0:0:0:
204,233,322628,6,0,P|243:264|278:259,1,80.9999975280763,2|0,0:2|0:0,0:0:0:0:
14,350,322825,6,0,P|79:305|179:309,1,161.999995056153,2|2,3:2|0:3,0:0:0:0:
204,226,323121,2,0,P|243:257|304:182,1,144,2|0,0:2|0:0,0:0:0:0:
380,164,323417,1,2,0:2:0:0:
380,164,323516,2,0,P|410:124|374:162,1,161.999995056153
421,291,323812,6,0,P|457:298|486:307,1,67.5000025749208,2|0,0:2|0:0,0:0:0:0:
507,238,324010,6,0,P|477:214|437:219,1,80.9999975280763,2|0,0:2|0:0,0:0:0:0:
398,357,324207,2,0,P|428:381|468:376,1,80.9999975280763,2|0,0:2|0:0,0:0:0:0:
340,298,324404,6,0,P|286:254|285:160,1,161.999995056153,2|2,3:2|0:3,0:0:0:0:
170,208,324700,2,0,P|180:138|261:90,1,161.999995056153,2|0,0:2|0:0,0:0:0:0:
162,14,324996,2,0,P|194:1|239:20,1,80.9999975280763,2|0,0:2|0:0,0:0:0:0:
331,103,325194,1,2,3:2:0:0:
335,109,325292,1,0,0:0:0:0:
339,115,325391,1,2,0:3:0:0:
339,115,325589,6,0,L|420:108,1,67.5000025749208,2|0,3:2|0:0,0:0:0:0:
228,248,325786,2,0,L|309:241,1,80.9999975280763,2|0,3:2|0:0,0:0:0:0:
151,25,325983,6,0,B|123:122|123:122|92:126|72:155,1,161.999995056153,2|2,3:2|0:3,0:0:0:0:
87,318,326279,2,0,B|115:221|115:221|146:217|166:188,1,161.999995056153,2|0,0:2|0:0,0:0:0:0:
43,87,326575,1,2,0:2:0:0:
39,82,326674,2,0,P|7:52|50:80,1,161.999995056153
165,189,326970,6,0,P|197:180|234:175,1,67.5000025749208,2|0,0:2|0:0,0:0:0:0:
186,108,327167,6,0,P|175:67|168:22,1,80.9999975280763,2|0,3:2|0:0,0:0:0:0:
215,253,327365,2,0,P|225:293|232:338,1,80.9999975280763,2|0,0:2|0:0,0:0:0:0:
315,168,327562,6,0,P|341:96|416:115,1,161.999995056153,2|2,3:2|0:3,0:0:0:0:
470,165,327858,2,0,P|396:200|332:252,1,161.999995056153,2|0,0:2|0:0,0:0:0:0:
390,290,328154,1,2,0:2:0:0:
395,295,328253,2,0,P|468:307|492:236,1,161.999995056153
323,95,328549,6,0,P|285:84|243:78,1,67.5000025749208,2|0,0:2|0:0,0:0:0:0:
315,168,328746,2,0,P|362:165|382:139,1,80.9999975280763,2|0,3:2|0:0,0:0:0:0:
262,9,328944,2,0,P|215:12|195:38,1,80.9999975280763,2|0,0:2|0:0,0:0:0:0:
88,147,329141,6,0,P|154:199|150:271,1,161.999995056153,2|2,3:2|0:3,0:0:0:0:
63,361,329437,2,0,P|32:307|97:226,1,161.999995056153,2|0,0:2|0:0,0:0:0:0:
150,270,329733,2,0,P|190:263|221:288,1,80.9999975280763,2|0,0:2|0:0,0:0:0:0:
20,180,329931,6,0,P|-6:148|0:109,1,80.9999975280763,2|0,3:2|0:0,0:0:0:0:
126,170,330128,2,0,P|139:131|177:117,1,80.9999975280763,2|0,0:2|0:0,0:0:0:0:
302,273,330325,2,0,P|342:281|389:295,1,80.9999975280763,2|0,3:2|0:0,0:0:0:0:
361,362,330523,2,0,P|322:350|283:343,1,80.9999975280763,2|0,0:2|0:0,0:0:0:0:
489,180,330720,5,2,3:2:0:0:
498,172,330819,2,0,P|467:143|426:152,1,80.9999975280763,0|2,0:0|0:3,0:0:0:0:
389,54,331016,2,0,P|364:121|350:220,1,161.999995056153
302,273,331312,2,0,P|271:302|230:293,1,80.9999975280763,2|2,0:2|0:3,0:0:0:0:
158,128,331510,6,0,P|154:92|149:53,1,67.5000025749208,0|0,3:0|0:0,0:0:0:0:
144,60,331707,2,0,P|148:93|151:127,1,67.5000025749208,2|0,3:2|0:0,0:0:0:0:
80,106,331904,6,0,P|39:110|0:115,1,80.9999975280763,2|0,3:2|0:0,0:0:0:0:
218,82,332102,2,0,P|258:76|298:72,1,80.9999975280763,2|0,3:2|0:0,0:0:0:0:
484,332,332299,6,0,P|400:341|385:265,1,161.999995056153,6|2,3:2|0:3,0:0:0:0:
341,215,332595,2,0,P|319:190|349:211,1,107.999996704102,2|0,0:2|0:0,0:0:0:0:
307,284,332891,2,0,P|242:296|196:334,1,125.999996154785,2|0,0:2|3:0,0:0:0:0:
144,286,333187,2,0,P|95:251|57:265,1,90,2|0,0:2|0:0,0:0:0:0:
10,356,333483,6,0,P|50:333|92:327,1,80.9999975280763,2|0,0:2|0:0,0:0:0:0:
156,192,333681,2,0,P|191:205|217:228,1,72,2|0,0:2|0:0,0:0:0:0:
329,349,333878,6,0,P|404:347|438:274,1,144,2|2,3:2|0:3,0:0:0:0:
490,240,334174,2,0,P|507:219|483:237,1,90,2|0,0:2|0:0,0:0:0:0:
405,227,334470,2,0,P|392:160|374:100,1,107.999996704102,2|0,0:2|3:0,0:0:0:0:
413,53,334766,2,0,P|436:22|482:29,1,72,2|0,0:2|0:0,0:0:0:0:
381,121,335062,6,0,P|356:117|316:105,1,53.9999983520508,2|0,3:2|0:0,0:0:0:0:
282,212,335260,2,0,P|248:217|216:226,1,67.5000025749208,2|0,0:2|0:0,0:0:0:0:
119,91,335457,5,0,3:0:0:0:
111,76,335556,1,0,0:0:0:0:
97,65,335654,1,2,0:3:0:0:
81,62,335753,1,2,0:0:0:0:
126,112,335852,5,0,3:0:0:0:
123,79,335950,1,0,0:0:0:0:
137,50,336049,1,2,0:3:0:0:
167,34,336148,1,2,0:0:0:0:
123,129,336246,5,0,3:0:0:0:
58,121,336345,1,0,0:0:0:0:
12,167,336444,1,2,0:3:0:0:
21,231,336542,1,0,0:0:0:0:
78,263,336641,6,0,P|119:257|140:231,1,67.5000025749208,2|0,3:2|0:0,0:0:0:0:
208,276,336839,6,0,P|220:244|210:220,1,53.9999983520508,2|0,0:2|0:0,0:0:0:0:
286,193,337036,5,0,3:0:0:0:
296,141,337135,1,0,0:0:0:0:
336,106,337233,1,2,0:3:0:0:
389,103,337332,1,0,0:0:0:0:
438,127,337431,6,0,L|370:138,1,53.9999983520508,2|0,3:2|0:0,0:0:0:0:
235,86,337628,2,0,B|175:74|175:74|163:52|163:52|75:37,1,161.999995056153,2|0,0:3|0:0,0:0:0:0:
28,79,338023,5,2,0:3:0:0:
14,86,338121,1,2,0:0:0:0:
50,147,338220,5,0,3:0:0:0:
36,154,338319,1,2,0:0:0:0:
72,215,338417,5,2,0:3:0:0:
58,222,338516,1,2,0:0:0:0:
44,229,338615,6,0,P|52:304|126:302,1,161.999995056153,6|2,3:2|0:3,0:0:0:0:
185,256,338911,2,0,P|214:227|177:251,1,125.999996154785,2|0,0:2|0:0,0:0:0:0:
241,327,339207,2,0,B|258:356|293:350|293:350|404:330,1,161.999995056153,2|0,0:2|3:0,0:0:0:0:
441,283,339503,2,0,B|423:253|388:259|388:259|277:279,1,161.999995056153,2|0,0:2|0:0,0:0:0:0:
77,165,339799,6,0,P|72:130|65:95,1,72,2|0,3:2|0:0,0:0:0:0:
135,79,339996,2,0,P|142:114|148:149,1,72,2|0,3:2|0:0,0:0:0:0:
221,133,340194,6,0,B|273:142|297:97|285:89|299:36|358:40,1,180,6|2,3:2|0:3,0:0:0:0:
368,109,340490,2,0,B|320:133|282:96|292:85|264:38|209:62,1,180,2|0,0:2|0:0,0:0:0:0:
18,194,340786,2,0,P|79:153|155:151,1,144,2|0,0:2|3:0,0:0:0:0:
134,233,341082,2,0,P|207:240|266:288,1,144,2|0,0:2|0:0,0:0:0:0:
440,306,341378,6,0,P|434:342|430:378,1,72,2|0,3:2|0:0,0:0:0:0:
359,364,341575,2,0,P|364:328|369:292,1,72,2|0,3:2|0:0,0:0:0:0:
496,73,341773,6,0,P|491:110|462:133,1,72,6|0,3:0|0:0,0:0:0:0:
414,237,341970,6,0,P|415:199|390:172,1,72,2|2,3:3|0:2,0:0:0:0:
345,101,342167,6,0,P|327:134|292:145,1,72,0|0,3:3|0:0,0:0:0:0:
247,207,342365,6,0,P|219:181|182:182,1,72,2|0,3:2|0:0,0:0:0:0:
122,140,342562,5,4,3:0:0:0:
90,122,342661,1,2,3:3:0:0:
75,91,342760,1,2,3:2:0:0:
80,56,342858,1,0,3:0:0:0:
104,30,342957,1,2,3:2:0:0:
138,22,343056,1,0,3:0:0:0:
171,36,343154,1,2,3:2:0:0:
190,65,343253,1,0,3:0:0:0:
189,101,343352,5,6,3:2:0:0:
81,293,343549,1,2,0:0:0:0:
21,321,343648,1,0,0:0:0:0:
89,289,343746,5,2,0:0:0:0:
124,349,343845,1,2,0:0:0:0:
191,372,343944,1,0,0:0:0:0:
256,345,344042,1,0,0:0:0:0:
291,283,344141,5,2,0:0:0:0:
294,271,344207,5,2,0:0:0:0:
298,260,344273,5,2,0:0:0:0:
305,250,344339,5,2,0:0:0:0:
261,192,344437,1,0,0:0:0:0:
257,185,344536,6,0,P|234:158|184:159,1,72,2|0,0:0|0:0,0:0:0:0:
384,137,344733,6,0,P|412:121|454:137,1,62.9999980773926,2|0,0:0|0:0,0:0:0:0:
321,22,344931,5,0,3:0:0:0:
283,83,345029,1,0,3:0:0:0:
283,83,345128,6,0,B|310:217|310:217|306:224|306:224|330:337,1,242.999992584229,6|0,3:0|0:0,0:0:0:0:
388,358,345523,2,0,L|472:376,1,72,2|0,3:0|0:0,0:0:0:0:
251,321,345720,6,0,L|233:237,1,72,0|0,3:0|0:0,0:0:0:0:
230,251,345917,2,0,L|246:322,1,72,2|0,3:0|0:0,0:0:0:0:
387,364,346115,6,0,L|471:382,1,72,2|0,3:2|0:0,0:0:0:0:
310,217,346312,2,0,L|394:235,1,72,2|0,3:0|0:0,0:0:0:0:
215,60,346510,5,0,3:0:0:0:
250,121,346608,1,0,3:0:0:0:
250,121,346707,6,0,B|229:256|229:256|223:261|223:261|207:375,1,242.999992584229,6|0,3:0|0:0,0:0:0:0:
141,382,347102,2,0,P|111:361|108:318,1,72,2|0,3:0|0:0,0:0:0:0:
16,167,347299,6,0,L|103:153,1,72,0|0,3:0|0:0,0:0:0:0:
88,161,347496,2,0,L|17:173,1,72,2|0,3:0|0:0,0:0:0:0:
141,382,347694,6,0,P|111:361|108:318,1,72,2|0,3:2|0:0,0:0:0:0:
11,300,347891,2,0,P|14:263|49:239,1,72,2|0,3:0|0:0,0:0:0:0:
168,128,348089,5,0,3:0:0:0:
215,178,348187,1,0,3:0:0:0:
215,178,348286,6,0,B|308:196|308:196|312:202|312:202|458:229,1,242.999992584229,6|0,3:0|0:0,0:0:0:0:
493,168,348681,2,0,B|504:115|504:115|521:107,1,72,2|0,3:0|0:0,0:0:0:0:
404,291,348878,6,0,L|323:277,1,72,0|0,3:0|0:0,0:0:0:0:
332,283,349075,2,0,L|402:295,1,72,2|0,3:0|0:0,0:0:0:0:
477,314,349273,2,0,P|497:342|491:377,1,72,2|0,3:2|0:0,0:0:0:0:
259,268,349470,2,0,P|239:240|245:205,1,72,2|0,3:0|0:0,0:0:0:0:
411,50,349667,5,0,3:0:0:0:
363,100,349766,1,0,3:0:0:0:
363,100,349865,6,0,B|270:118|270:118|266:124|266:124|120:151,1,242.999992584229,6|0,3:0|0:0,0:0:0:0:
68,98,350260,2,0,B|57:45|57:45|40:37,1,72,2|0,3:0|0:0,0:0:0:0:
0,245,350457,5,0,3:0:0:0:
12,308,350556,1,0,3:0:0:0:
76,296,350654,1,2,3:0:0:0:
63,232,350753,1,0,3:0:0:0:
37,267,350852,6,0,L|47:318,1,26.9999991760254,8|0,3:0|0:0,0:0:0:0:
108,254,350950,6,0,L|118:305,1,26.9999991760254,8|0,3:0|0:0,0:0:0:0:
179,241,351049,6,0,L|184:266,2,13.4999995880127,10|0|0,3:0|0:0|0:0,0:0:0:0:
249,228,351148,6,0,L|259:279,1,26.9999991760254,0|0,3:0|0:0,0:0:0:0:
319,215,351246,6,0,L|416:192,1,80.9999975280763,6|0,3:3|0:0,0:0:0:0:
512,119,351444,5,2,0:3:0:0:
488,71,351542,1,2,0:0:0:0:
440,49,351641,2,0,L|443:31,1,11.25,0|0,3:0|0:0,0:0:0:0:
389,63,351740,1,2,0:0:0:0:
359,106,351839,1,2,0:3:0:0:
363,159,351937,1,2,0:0:0:0:
397,196,352036,1,0,3:0:0:0:
316,322,352233,5,2,0:3:0:0:
283,354,352332,1,2,0:0:0:0:
238,358,352431,2,0,L|234:377,1,11.25,0|0,3:0|0:0,0:0:0:0:
201,331,352529,1,2,0:0:0:0:
189,288,352628,2,0,L|168:285,1,11.25,2|0,3:3|0:0,0:0:0:0:
208,247,352727,2,0,L|198:236,1,11.25,2|0,0:0|0:0,0:0:0:0:
249,228,352825,1,4,3:0:0:0:
184,73,353023,5,2,0:3:0:0:
136,25,353121,1,2,0:0:0:0:
71,22,353220,2,0,L|66:3,1,11.25,0|0,3:0|0:0,0:0:0:0:
18,60,353319,1,2,0:0:0:0:
0,122,353417,1,2,0:3:0:0:
28,182,353516,1,2,0:0:0:0:
88,211,353615,6,0,P|119:202|174:194,1,62.9999980773926,0|0,3:0|0:0,0:0:0:0:
184,73,353812,1,2,0:3:0:0:
184,73,353911,1,2,0:0:0:0:
184,73,354010,2,0,P|213:86|260:115,1,62.9999980773926,0|2,3:0|0:0,0:0:0:0:
346,34,354207,2,0,P|360:63|377:115,1,62.9999980773926,2|2,3:3|0:0,0:0:0:0:
141,334,354404,6,0,P|171:315|204:311,1,62.9999980773926,4|0,3:0|0:0,0:0:0:0:
149,202,354602,2,0,P|184:207|212:225,1,62.9999980773926,2|0,3:3|0:0,0:0:0:0:
240,101,354799,2,0,P|263:127|273:159,1,62.9999980773926,0|0,3:0|0:0,0:0:0:0:
370,91,354996,2,0,P|371:126|358:157,1,62.9999980773926,2|0,3:3|0:0,0:0:0:0:
141,334,355194,6,0,P|104:331|78:306,1,72,4|0,3:0|0:0,0:0:0:0:
149,202,355391,2,0,P|122:175|118:140,1,72,2|0,3:3|0:0,0:0:0:0:
240,101,355589,2,0,P|236:64|256:34,1,72,0|0,3:0|0:0,0:0:0:0:
370,91,355786,2,0,P|391:60|425:50,1,72,2|0,3:3|0:0,0:0:0:0:
479,162,355983,5,4,3:0:0:0:
370,91,356773,1,0,0:0:0:0:
240,107,357562,1,0,0:0:0:0:
479,162,358352,5,4,0:0:0:0:
240,107,358746,1,0,0:0:0:0:
141,334,359141,6,0,P|72:362|37:263,1,188.999994232178,6|0,3:0|0:0,0:0:0:0:
31,203,359536,2,0,P|66:204|86:236,1,62.9999980773926,0|0,3:0|0:0,0:0:0:0:
141,334,359733,5,2,0:3:0:0:
201,372,359832,1,0,0:0:0:0:
272,374,359931,6,0,P|306:367|332:342,1,72,0|0,3:0|0:0,0:0:0:0:
344,212,360128,2,0,P|325:181|291:171,1,72,2|0,0:3|0:0,0:0:0:0:
245,231,360325,6,0,P|263:261|297:271,1,72,0|0,3:0|0:0,0:0:0:0:
420,225,360523,2,0,P|437:187|432:155,1,72,2|0,0:3|0:0,0:0:0:0:
354,49,360720,5,0,3:0:0:0:
319,24,360819,1,0,0:0:0:0:
277,21,360917,1,2,0:3:0:0:
241,45,361016,1,0,0:0:0:0:
224,83,361115,1,0,3:0:0:0:
206,122,361214,1,0,0:0:0:0:
171,144,361312,1,2,0:3:0:0:
128,137,361411,1,0,0:0:0:0:
107,103,361510,6,0,B|83:84|92:53|92:53|117:74|109:102,1,103.500001974106,0|0,3:0|0:0,0:0:0:0:
199,241,361707,6,0,B|229:242|239:272|239:272|207:270|199:248,1,103.500001974106,2|0,0:3|0:0,0:0:0:0:
42,183,361904,6,0,B|17:199|-8:181|-8:181|17:164|37:177,1,103.500001974106,0|0,3:0|0:0,0:0:0:0:
203,137,362102,6,0,B|213:108|245:108|245:108|233:137|210:138,1,103.500001974106,2|0,0:3|0:0,0:0:0:0:
100,270,362299,6,0,P|117:349|246:359,1,216,2|0,3:0|0:0,0:0:0:0:
293,319,362694,2,0,P|331:311|368:337,1,72,0|0,3:0|0:0,0:0:0:0:
507,180,362891,5,2,0:3:0:0:
476,122,362990,1,0,0:0:0:0:
411,109,363089,6,0,P|378:119|360:149,1,72,0|0,3:0|0:0,0:0:0:0:
224,151,363286,2,0,P|217:186|206:221,1,72,2|0,0:3|0:0,0:0:0:0:
277,244,363483,6,0,P|284:209|294:175,1,72,0|0,3:0|0:0,0:0:0:0:
178,98,363681,2,0,P|177:63|152:39,1,72,2|0,0:3|0:0,0:0:0:0:
26,246,363878,6,0,P|12:318|122:293,1,216,2|0,3:0|0:0,0:0:0:0:
119,308,364273,2,0,P|119:268|90:241,1,72,0|0,3:0|0:0,0:0:0:0:
181,368,364470,6,0,P|202:337|240:320,1,72,2|0,0:3|0:0,0:0:0:0:
294,175,364667,2,0,P|331:177|365:202,1,72,0|0,3:0|0:0,0:0:0:0:
67,138,364865,5,2,3:3:0:0:
49,131,364964,1,0,0:0:0:0:
26,108,365062,1,0,3:0:0:0:
20,67,365161,1,0,0:0:0:0:
49,30,365260,1,2,3:3:0:0:
111,30,365358,1,2,0:0:0:0:
134,98,365457,1,4,3:0:0:0:
106,223,365654,5,2,0:3:0:0:
93,234,365753,1,0,0:0:0:0:
81,259,365852,1,0,3:0:0:0:
89,296,365950,1,0,0:0:0:0:
123,318,366049,1,2,0:3:0:0:
176,299,366148,1,2,0:0:0:0:
174,235,366246,1,4,3:0:0:0:
244,161,366444,5,2,0:3:0:0:
233,140,366542,1,0,0:0:0:0:
229,103,366641,1,0,3:0:0:0:
255,62,366740,1,0,0:0:0:0:
308,51,366839,1,2,3:3:0:0:
358,95,366937,1,2,0:0:0:0:
338,165,367036,1,4,3:0:0:0:
467,222,367233,5,2,0:3:0:0:
488,236,367332,1,0,0:0:0:0:
512,270,367431,1,0,3:0:0:0:
509,324,367529,1,0,0:0:0:0:
456,365,367628,1,2,0:3:0:0:
385,348,367727,1,2,0:0:0:0:
371,272,367825,1,4,3:0:0:0:
338,165,368023,5,2,0:3:0:0:
349,144,368121,1,0,0:0:0:0:
353,107,368220,1,0,3:0:0:0:
327,66,368319,1,0,0:0:0:0:
274,55,368417,1,2,3:3:0:0:
224,99,368516,1,2,0:0:0:0:
244,169,368615,1,4,3:0:0:0:
174,235,368812,5,2,3:3:0:0:
184,248,368911,1,0,0:0:0:0:
191,275,369010,1,0,3:0:0:0:
176,309,369108,1,0,0:0:0:0:
139,325,369207,1,2,3:3:0:0:
90,296,369306,1,2,0:0:0:0:
104,233,369404,1,4,3:0:0:0:
86,124,369602,5,2,3:3:0:0:
90,110,369700,1,0,0:0:0:0:
89,86,369799,1,0,3:0:0:0:
67,62,369898,1,0,0:0:0:0:
33,59,369996,1,2,3:3:0:0:
0,96,370095,1,2,0:0:0:0:
29,144,370194,6,0,P|63:153|105:173,1,72,4|0,3:0|3:0,0:0:0:0:
176,309,370391,5,2,3:3:0:0:
207,258,370490,1,0,3:0:0:0:
251,217,370589,1,0,3:0:0:0:
303,188,370687,1,0,3:0:0:0:
362,175,370786,1,2,3:3:0:0:
421,177,370885,1,2,3:0:0:0:
479,194,370983,6,0,L|490:162,6,22.5,6|0|0|0|2|0|0,3:0|0:0|0:0|0:0|0:3|0:0|0:0,0:0:0:0:
303,188,371378,2,0,L|290:156,6,22.5,6|0|0|0|2|0|0,3:0|0:0|0:0|0:0|0:3|0:0|0:0,0:0:0:0:
176,309,371773,5,8,3:0:0:0:
176,309,371970,5,2,0:3:0:0:
141,347,372069,1,2,0:0:0:0:
91,356,372167,1,0,3:0:0:0:
45,332,372266,1,0,0:0:0:0:
23,286,372365,1,2,0:3:0:0:
35,236,372464,1,0,0:0:0:0:
95,192,372562,5,2,3:2:0:0:
131,134,372661,1,2,0:0:0:0:
100,76,372760,1,2,0:3:0:0:
33,75,372858,1,2,0:0:0:0:
34,157,372957,5,2,3:2:0:0:
60,131,373056,1,0,0:0:0:0:
96,122,373154,1,2,0:3:0:0:
131,134,373253,1,2,0:0:0:0:
175,192,373352,6,0,P|184:232|188:274,1,72,0|0,3:0|0:0,0:0:0:0:
256,371,373549,1,2,0:3:0:0:
292,311,373648,2,0,P|296:275|304:240,1,72,2|0,0:0|3:0,0:0:0:0:
175,192,373845,1,0,0:0:0:0:
131,134,373944,2,0,P|126:98|118:63,1,72,2|0,0:3|0:0,0:0:0:0:
261,376,374141,5,0,3:0:0:0:
297,316,374240,2,0,P|301:280|309:245,1,72,2|2,0:0|0:3,0:0:0:0:
171,196,374437,1,0,0:0:0:0:
127,138,374536,5,0,3:0:0:0:
154,73,374635,1,0,0:0:0:0:
219,46,374733,1,2,0:3:0:0:
283,74,374832,1,0,0:0:0:0:
338,123,374931,5,2,3:2:0:0:
361,123,375029,1,0,0:0:0:0:
381,110,375128,1,2,0:3:0:0:
389,88,375227,1,0,0:0:0:0:
338,123,375325,5,2,3:2:0:0:
359,102,375424,1,0,0:0:0:0:
360,73,375523,1,2,0:3:0:0:
342,50,375621,1,0,0:0:0:0:
338,123,375720,5,2,3:2:0:0:
305,66,375819,1,2,0:0:0:0:
240,53,375917,1,2,0:3:0:0:
186,94,376016,1,2,0:2:0:0:
186,163,376115,5,0,3:0:0:0:
200,229,376214,1,0,0:0:0:0:
163,284,376312,1,2,0:3:0:0:
97,291,376411,1,2,0:0:0:0:
47,246,376510,6,0,P|76:220|119:229,1,72,2|0,3:2|0:0,0:0:0:0:
68,149,376707,1,2,0:3:0:0:
135,122,376806,2,0,P|172:134|185:175,1,72,2|0,0:2|3:0,0:0:0:0:
229,91,377003,1,0,0:0:0:0:
286,136,377102,2,0,P|294:174|264:206,1,72,2|0,0:3|0:0,0:0:0:0:
347,299,377299,1,2,3:2:0:0:
347,299,377595,5,0,0:0:0:0:
363,321,377694,1,4,3:0:0:0:
401,339,377792,1,0,0:0:0:0:
463,326,377891,1,2,3:3:0:0:
492,264,377990,1,0,0:0:0:0:
462,205,378089,1,4,3:0:0:0:
269,67,378286,5,2,0:3:0:0:
282,29,378385,1,0,0:0:0:0:
305,16,378483,1,0,3:0:0:0:
329,14,378582,1,0,0:0:0:0:
344,20,378681,1,2,0:3:0:0:
336,91,378779,5,0,0:0:0:0:
300,39,378878,1,2,3:2:0:0:
244,12,378977,1,2,0:0:0:0:
182,16,379075,1,2,0:3:0:0:
132,50,379174,1,2,0:0:0:0:
85,110,379273,5,0,3:0:0:0:
91,129,379371,1,0,0:0:0:0:
78,123,379470,1,2,0:3:0:0:
98,117,379569,1,0,0:0:0:0:
88,121,379667,6,0,P|52:99|53:55,1,90,4|0,3:0|0:0,0:0:0:0:
204,75,379865,6,0,P|205:32|243:11,1,90,2|0,0:3|0:0,0:0:0:0:
301,152,380062,5,0,3:0:0:0:
342,131,380161,1,0,0:0:0:0:
386,147,380260,1,2,0:3:0:0:
405,189,380358,1,0,0:0:0:0:
457,243,380457,5,2,3:2:0:0:
448,251,380556,1,0,0:0:0:0:
443,262,380654,1,2,0:3:0:0:
441,274,380753,1,0,0:0:0:0:
462,233,380852,5,2,3:2:0:0:
474,301,380950,1,0,0:0:0:0:
432,357,381049,1,2,0:3:0:0:
362,365,381148,1,2,0:2:0:0:
309,319,381246,5,6,3:0:0:0:
301,307,381345,2,0,P|295:271|286:221,1,72,0|2,0:0|0:3,0:0:0:0:
199,38,381542,5,2,0:0:0:0:
190,50,381641,2,0,P|184:85|175:136,1,72,0|0,3:0|0:0,0:0:0:0:
315,322,381839,5,2,0:3:0:0:
307,310,381937,2,0,P|301:274|292:224,1,72,0|4,0:0|3:0,0:0:0:0:
194,35,382135,5,2,0:0:0:0:
185,47,382233,2,0,P|179:82|170:133,1,72,2|0,0:3|0:0,0:0:0:0:
26,235,382431,6,0,P|78:224|116:213,1,90,2|0,3:2|0:0,0:0:0:0:
435,129,382628,2,0,P|382:139|345:151,1,90,2|0,0:3|0:0,0:0:0:0:
228,193,382825,5,6,3:2:0:0:
229,185,382891,5,2,0:0:0:0:
230,178,382957,5,2,0:0:0:0:
233,171,383023,5,2,3:3:0:0:
197,259,383121,5,0,0:0:0:0:
190,275,383220,1,2,3:2:0:0:
187,315,383319,1,0,0:0:0:0:
222,364,383417,1,2,3:3:0:0:
287,376,383516,1,0,0:0:0:0:
326,338,383615,6,0,P|336:295|299:253,1,90,4|0,3:0|0:0,0:0:0:0:
146,195,383812,5,2,3:3:0:0:
139,193,383878,5,0,0:0:0:0:
133,189,383944,5,0,0:0:0:0:
123,181,384010,5,0,3:0:0:0:
115,171,384075,5,0,0:0:0:0:
106,154,384141,5,0,0:0:0:0:
106,135,384207,5,2,3:3:0:0:
116,113,384273,5,0,0:0:0:0:
134,97,384339,5,0,0:0:0:0:
163,92,384404,6,0,P|256:115|371:132,1,180,2|2,3:0|0:3,0:0:0:0:
400,180,384700,1,2,0:0:0:0:
460,199,384799,1,0,3:0:0:0:
503,166,384898,1,0,0:0:0:0:
512,124,384996,1,2,0:3:0:0:
497,92,385095,1,0,0:0:0:0:
471,74,385194,6,0,P|436:70|403:99,1,72,2|0,3:2|0:0,0:0:0:0:
329,198,385391,2,0,P|320:238|315:278,1,72,2|0,0:3|0:0,0:0:0:0:
247,219,385588,6,0,P|206:211|152:194,1,90,2|0,3:2|0:0,0:0:0:0:
397,247,385786,2,0,P|437:254|492:272,1,90,2|0,0:3|0:0,0:0:0:0:
275,151,385983,5,2,3:2:0:0:
269,143,386082,2,0,P|271:110|270:74,1,67.5000025749208,0|2,0:2|0:3,0:0:0:0:
373,310,386279,1,2,0:0:0:0:
377,318,386378,2,0,P|369:349|365:385,1,67.5000025749208,0|0,3:0|0:0,0:0:0:0:
315,268,386575,5,2,0:3:0:0:
254,236,386674,1,0,0:0:0:0:
187,268,386773,5,2,3:2:0:0:
185,273,386839,5,2,0:0:0:0:
183,278,386904,5,2,0:0:0:0:
181,284,386970,5,2,0:3:0:0:
133,336,387069,5,0,0:0:0:0:
117,348,387167,1,0,3:0:0:0:
78,358,387266,1,0,0:0:0:0:
33,340,387365,1,2,0:3:0:0:
5,282,387463,1,0,0:0:0:0:
37,222,387562,5,6,3:0:0:0:
222,57,387760,5,2,0:3:0:0:
218,34,387858,1,0,0:0:0:0:
203,18,387957,1,2,3:2:0:0:
181,13,388056,1,0,0:0:0:0:
153,80,388154,6,0,P|129:90|111:129,1,67.5000025749208,2|0,0:3|0:0,0:0:0:0:
182,152,388352,5,2,3:2:0:0:
183,174,388417,5,2,0:0:0:0:
192,194,388483,5,2,0:0:0:0:
209,208,388549,5,2,0:3:0:0:
231,215,388615,5,0,0:0:0:0:
253,212,388681,5,0,0:0:0:0:
272,201,388746,5,0,3:0:0:0:
332,172,388845,1,0,0:0:0:0:
395,189,388944,1,2,0:3:0:0:
432,244,389042,1,0,0:0:0:0:
498,280,389141,5,2,3:2:0:0:
492,295,389240,1,0,0:0:0:0:
480,307,389338,1,2,0:3:0:0:
465,312,389437,1,0,0:0:0:0:
432,244,389536,5,2,3:2:0:0:
419,171,389635,1,2,0:0:0:0:
405,98,389733,1,2,0:3:0:0:
432,244,390062,5,0,0:0:0:0:
426,231,390128,5,2,0:3:0:0:
419,220,390194,5,0,0:0:0:0:
410,210,390260,5,0,0:0:0:0:
399,202,390325,5,0,3:0:0:0:
387,196,390391,5,0,0:0:0:0:
374,192,390457,5,0,0:0:0:0:
360,191,390523,5,2,0:3:0:0:
347,192,390589,5,0,0:0:0:0:
334,195,390654,5,0,0:0:0:0:
321,201,390720,6,0,P|296:226|295:271,2,67.5000025749208,4|0|2,3:0|0:0|0:3,0:0:0:0:
180,220,391016,6,0,P|189:254|227:277,2,67.5000025749208,2|2|0,0:0|3:0|0:0,0:0:0:0:
115,332,391312,1,2,0:3:0:0:
120,343,391411,1,0,0:0:0:0:
126,352,391510,6,0,P|160:361|199:339,1,67.5000025749208,2|0,3:2|0:0,0:0:0:0:
321,201,391707,6,0,P|296:226|295:271,1,67.5000025749208,2|0,0:3|0:0,0:0:0:0:
187,209,391904,5,2,3:2:0:0:
184,212,391970,5,2,0:0:0:0:
182,216,392036,5,2,0:0:0:0:
180,220,392102,6,0,P|189:254|227:277,1,67.5000025749208,2|0,0:3|0:0,0:0:0:0:
360,292,392299,6,0,P|385:267|386:222,2,67.5000025749208,4|0|2,3:0|0:0|0:3,0:0:0:0:
249,158,392595,6,0,P|239:123|201:100,2,67.5000025749208,2|0|0,0:0|3:0|0:0,0:0:0:0:
76,195,392891,5,2,0:3:0:0:
71,196,392957,5,2,0:0:0:0:
67,198,393023,5,2,0:0:0:0:
62,200,393089,5,0,3:0:0:0:
13,158,393187,5,0,0:0:0:0:
64,201,393286,1,2,0:3:0:0:
128,219,393385,1,2,0:0:0:0:
194,207,393483,6,0,P|237:203|268:231,1,80.9999975280763,0|0,3:0|0:0,0:0:0:0:
315,103,393681,6,0,P|339:138|331:179,1,80.9999975280763,2|0,3:3|0:0,0:0:0:0:
465,154,393878,6,0,L|472:142,1,11.25,4|0,3:0|0:0,0:0:0:0:
496,205,393977,1,0,0:0:0:0:
499,265,394075,2,0,L|512:269,1,11.25,2|0,3:3|0:0,0:0:0:0:
472,318,394174,1,0,0:0:0:0:
422,352,394273,2,0,L|428:366,1,11.25,0|0,3:0|0:0,0:0:0:0:
362,357,394371,1,0,0:0:0:0:
307,333,394470,2,0,L|297:343,1,11.25,2|0,3:3|0:0,0:0:0:0:
271,284,394569,1,0,0:0:0:0:
264,225,394667,6,0,P|307:213|352:205,1,90,4|0,3:0|0:0,0:0:0:0:
331,133,394865,2,0,P|287:144|243:153,1,90,2|0,3:3|0:0,0:0:0:0:
135,95,395062,5,2,3:2:0:0:
133,87,395128,5,2,0:0:0:0:
131,80,395194,5,2,0:0:0:0:
129,73,395260,5,2,3:3:0:0:
127,66,395325,5,0,0:0:0:0:
124,59,395391,5,0,0:0:0:0:
121,52,395457,5,4,3:0:0:0:
1,21,395654,5,0,0:0:0:0:
10,6,395753,1,0,0:0:0:0:
56,10,395852,1,2,0:0:0:0:
243,152,396049,1,0,0:0:0:0:
49,263,396246,5,2,0:0:0:0:
105,300,396444,1,2,0:0:0:0:
170,277,396641,1,0,0:0:0:0:
192,212,396838,1,0,0:0:0:0:
294,94,397036,5,2,3:0:0:0:
49,263,397431,1,8,3:0:0:0:
49,263,397628,5,2,0:3:0:0:
83,239,397727,1,0,0:0:0:0:
103,246,397825,1,0,3:0:0:0:
227,364,398023,1,2,0:3:0:0:
227,364,398220,6,0,P|232:335|243:306,1,53.9999983520508,8|0,3:0|0:0,0:0:0:0:
185,251,398417,2,0,P|180:224|171:198,1,53.9999983520508,2|0,0:3|0:0,0:0:0:0:
233,367,398615,6,0,P|263:286|370:189,1,215.999993408203,0|8,3:0|3:0,0:0:0:0:
169,78,399404,1,0,3:0:0:0:
113,115,399503,2,0,P|85:121|50:135,1,53.9999983520508,8|2,3:0|0:3,0:0:0:0:
331,51,399799,1,8,3:0:0:0:
287,1,399898,2,0,P|238:37|256:82,1,107.999996704102
296,128,400194,5,0,3:0:0:0:
498,195,400588,1,8,3:0:0:0:
498,195,400786,5,2,0:3:0:0:
465,157,400885,1,0,0:0:0:0:
441,166,400983,1,0,3:0:0:0:
265,367,401181,1,2,0:3:0:0:
265,367,401378,6,0,P|257:331|234:299,1,72,8|0,3:0|0:0,0:0:0:0:
339,239,401575,2,0,P|347:203|370:171,1,72,2|0,0:3|0:0,0:0:0:0:
260,369,401773,6,0,P|223:299|35:311,1,288,0|8,3:0|3:0,0:0:0:0:
136,234,402562,1,0,3:0:0:0:
105,301,402661,2,0,P|73:317|34:312,1,62.9999980773926,8|2,3:0|0:3,0:0:0:0:
198,187,402957,1,8,3:0:0:0:
234,139,403056,1,0,0:0:0:0:
211,83,403154,1,2,3:3:0:0:
152,74,403253,1,0,0:0:0:0:
114,121,403352,5,4,3:0:0:0:
270,207,403549,1,2,0:3:0:0:
273,212,403648,1,0,0:0:0:0:
276,217,403746,1,8,3:0:0:0:
323,232,403845,1,0,0:0:0:0:
370,247,403944,2,0,L|446:230,1,62.9999980773926,2|0,0:3|0:0,0:0:0:0:
246,28,404141,6,0,P|216:49|211:83,1,72,0|0,3:0|0:0,0:0:0:0:
275,123,404338,2,0,P|305:102|310:68,1,72,2|0,0:3|0:0,0:0:0:0:
47,156,404536,6,0,P|50:192|77:213,1,72,8|0,3:0|0:0,0:0:0:0:
143,178,404733,2,0,P|139:141|112:120,1,72,2|0,0:3|0:0,0:0:0:0:
21,298,404931,5,4,3:0:0:0:
26,302,405128,6,0,P|59:309|97:330,1,62.9999980773926,2|0,0:3|0:0,0:0:0:0:
143,178,405325,6,0,P|163:204|179:245,1,62.9999980773926,8|0,3:0|0:0,0:0:0:0:
312,158,405523,6,0,P|310:191|296:232,1,62.9999980773926,2|0,0:3|0:0,0:0:0:0:
454,251,405720,5,0,3:0:0:0:
454,251,406115,5,8,3:0:0:0:
457,291,406246,5,0,0:0:0:0:
426,318,406378,5,0,0:0:0:0:
387,309,406510,5,4,3:0:0:0:
345,93,406904,5,8,3:0:0:0:
331,44,407036,5,0,0:0:0:0:
283,25,407167,5,0,0:0:0:0:
241,53,407299,5,4,3:0:0:0:
197,268,407694,5,8,3:0:0:0:
178,332,407825,5,0,0:0:0:0:
114,358,407957,5,0,0:0:0:0:
59,320,408088,5,4,3:0:0:0:
35,309,408220,5,2,0:0:0:0:
30,282,408352,5,2,0:0:0:0:
100,169,408483,5,0,3:0:0:0:
95,127,408615,5,2,0:0:0:0:
127,100,408746,5,2,0:0:0:0:
232,203,408878,5,0,3:0:0:0:
278,168,409010,5,2,0:0:0:0:
332,187,409141,5,2,0:0:0:0:
388,340,409273,5,0,3:0:0:0:
463,362,409404,5,2,3:2:0:0:
512,299,409536,5,2,3:2:0:0:
472,231,409667,5,0,3:0:0:0:
427,179,409799,2,0,P|421:136|447:104,1,83.9999974365235,2|0,0:0|0:0,0:0:0:0:
472,231,410062,5,8,3:0:0:0:
427,179,410194,1,2,0:0:0:0:
361,160,410325,1,0,0:0:0:0:
295,180,410457,5,0,3:0:0:0:
235,134,410588,1,0,0:0:0:0:
269,66,410720,1,0,0:0:0:0:
472,231,410852,5,8,3:0:0:0:
512,299,410983,1,2,0:0:0:0:
463,362,411115,1,0,0:0:0:0:
389,197,411246,5,0,3:0:0:0:
391,186,411378,1,2,0:0:0:0:
395,177,411510,1,0,0:0:0:0:
338,283,411641,5,8,3:0:0:0:
277,246,411773,2,0,P|230:231|197:215,1,83.9999974365235,2|0,0:0|0:0,0:0:0:0:
150,308,412036,5,0,3:0:0:0:
89,345,412167,2,0,P|42:360|9:376,1,60
0,189,412431,5,8,3:0:0:0:
8,160,412562,1,2,0:0:0:0:
50,147,412694,1,0,0:0:0:0:
150,308,412825,5,2,3:2:0:0:
204,341,412924,5,0,0:0:0:0:
263,320,413023,5,2,0:3:0:0:
284,259,413121,5,0,0:0:0:0:
243,200,413220,5,8,3:0:0:0:
234,185,413352,1,2,0:0:0:0:
233,169,413483,1,0,0:0:0:0:
307,167,413615,5,0,3:0:0:0:
373,87,413746,1,2,0:0:0:0:
408,184,413878,1,0,0:0:0:0:
402,179,414010,5,8,3:0:0:0:
371,94,414141,1,2,0:0:0:0:
313,164,414273,1,0,0:0:0:0:
198,83,414404,6,0,P|187:49|184:14,1,72,0|0,3:0|0:0,0:0:0:0:
114,24,414602,2,0,P|117:59|128:94,1,72,2|0,0:3|0:0,0:0:0:0:
94,219,414799,5,8,3:0:0:0:
91,233,414865,5,0,0:0:0:0:
84,246,414931,5,0,0:0:0:0:
72,256,414996,5,2,0:0:0:0:
58,261,415062,5,2,0:0:0:0:
43,260,415128,5,2,0:0:0:0:
30,254,415194,5,0,3:0:0:0:
0,185,415391,1,0,3:0:0:0:
146,307,415588,5,8,3:0:0:0:
214,293,415687,1,0,0:0:0:0:
272,337,415786,1,2,3:3:0:0:
337,310,415885,1,0,0:0:0:0:
397,349,415983,6,0,P|418:280|455:191,1,144,4|2,3:0|0:3,0:0:0:0:
457,193,416246,1,0,0:0:0:0:
512,288,416477,2,0,B|433:328|387:246|411:232|366:148|278:194,1,288,4|0,0:3|0:0,0:0:0:0:
277,194,416970,1,2,3:3:0:0:
81,121,417167,6,0,P|52:153|57:185,1,72,0|0,3:0|0:0,0:0:0:0:
173,228,417365,2,0,P|199:204|199:169,1,72,2|0,3:3|0:0,0:0:0:0:
127,173,417562,6,0,P|105:104|69:15,1,144,4|2,3:0|0:3,0:0:0:0:
67,17,417825,1,0,0:0:0:0:
12,112,418056,2,0,B|91:152|137:70|113:56|158:-28|246:18,1,288,4|0,0:3|0:0,0:0:0:0:
246,18,418549,1,2,3:3:0:0:
423,225,418746,6,0,P|452:257|447:289,1,72,0|0,3:0|0:0,0:0:0:0:
331,332,418944,2,0,P|304:308|304:273,1,72,2|0,3:3|0:0,0:0:0:0:
377,277,419141,5,4,3:0:0:0:
399,236,419240,1,0,3:2:0:0:
379,194,419338,1,2,3:3:0:0:
334,183,419437,1,0,3:0:0:0:
272,147,419536,5,2,3:2:0:0:
226,136,419635,1,0,3:2:0:0:
205,95,419733,1,2,3:3:0:0:
223,52,419832,1,0,3:0:0:0:
296,27,419931,5,6,3:3:0:0:
298,38,420029,1,0,3:2:0:0:
301,50,420128,1,2,3:3:0:0:
304,61,420227,1,2,3:0:0:0:
226,136,420325,6,0,L|203:165,1,36,2|0,3:2|0:0,0:0:0:0:
217,182,420424,2,0,L|233:220,1,36,0|0,3:0|0:0,0:0:0:0:
204,233,420523,2,0,L|179:265,1,36,2|0,3:3|0:0,0:0:0:0:
192,279,420621,2,0,L|208:317,1,36,0|0,3:0|0:0,0:0:0:0:
180,325,420720,5,4,3:0:0:0:
68,160,421312,1,2,0:0:0:0:
42,149,421411,1,0,0:0:0:0:
90,124,421510,1,4,0:0:0:0:
409,352,422299,5,6,3:0:0:0:
412,366,422398,1,0,0:0:0:0:
433,344,422496,1,2,0:3:0:0:
486,286,422694,5,0,0:0:0:0:
499,290,422792,1,0,0:0:0:0:
491,261,422891,1,2,0:3:0:0:
467,186,423088,5,0,0:0:0:0:
477,177,423187,1,0,0:0:0:0:
448,169,423286,1,2,0:3:0:0:
370,152,423483,5,2,0:0:0:0:
368,139,423582,1,0,0:0:0:0:
346,160,423681,1,2,0:3:0:0:
292,217,423878,5,2,0:0:0:0:
282,226,423977,1,0,0:0:0:0:
263,209,424075,1,2,0:3:0:0:
187,191,424273,5,0,0:0:0:0:
174,186,424371,1,0,0:0:0:0:
180,162,424470,1,2,0:3:0:0:
157,87,424667,5,2,0:0:0:0:
155,73,424766,1,0,0:0:0:0:
179,66,424865,1,2,0:3:0:0:
232,8,425062,5,0,0:0:0:0:
243,0,425161,1,0,0:0:0:0:
261,17,425260,1,2,0:3:0:0:
337,34,425457,5,2,0:0:0:0:
350,39,425556,1,0,0:0:0:0:
344,63,425654,1,2,0:3:0:0:
278,117,425852,5,0,0:0:0:0:
274,128,425950,2,0,P|260:177|247:219,1,90
306,267,426246,2,0,P|313:291|319:312,1,45
318,310,426444,1,2,0:3:0:0:
318,310,426641,6,0,P|312:288|306:267,1,45,2|0,0:0|0:0,0:0:0:0:
248,214,426838,2,0,P|254:192|260:170,1,45,2|0,0:3|0:0,0:0:0:0:
344,63,427036,5,2,0:0:0:0:
350,39,427135,1,0,0:0:0:0:
337,34,427233,1,2,0:3:0:0:
261,17,427431,5,0,0:0:0:0:
243,0,427529,1,0,0:0:0:0:
232,8,427628,1,2,0:3:0:0:
179,66,427825,5,0,0:0:0:0:
155,73,427924,1,0,0:0:0:0:
157,87,428023,1,2,0:3:0:0:
122,157,428220,5,2,0:0:0:0:
81,193,428319,1,2,0:0:0:0:
85,247,428417,1,2,0:3:0:0:
130,277,428516,1,2,0:0:0:0:
182,260,428615,6,0,P|210:258|226:268,2,45,4|0|2,3:0|0:0|0:3,0:0:0:0:
288,171,429010,5,0,0:0:0:0:
302,187,429108,1,0,0:0:0:0:
304,209,429207,1,2,0:3:0:0:
418,217,429404,6,0,P|406:242|389:251,2,45,0|0|2,0:0|0:0|0:3,0:0:0:0:
297,211,429799,5,0,0:0:0:0:
295,189,429898,1,0,0:0:0:0:
281,173,429996,1,2,0:3:0:0:
182,260,430194,6,0,P|210:258|226:268,2,45,0|0|2,0:0|0:0|0:3,0:0:0:0:
288,171,430588,5,0,0:0:0:0:
302,187,430687,1,0,0:0:0:0:
304,209,430786,1,2,0:3:0:0:
418,217,430983,5,0,0:0:0:0:
418,217,431082,2,0,P|406:242|389:251,1,45,0|2,0:0|0:3,0:0:0:0:
288,171,431279,5,0,0:0:0:0:
288,171,431378,2,0,P|304:193|303:212,1,45,2|0,0:0|0:0,0:0:0:0:
183,260,431575,6,0,P|210:257|226:267,1,45,0|0,0:3|0:0,0:0:0:0:
364,348,431773,5,2,0:0:0:0:
369,359,431871,1,0,0:0:0:0:
350,379,431970,1,2,0:3:0:0:
433,310,432167,5,0,0:0:0:0:
446,308,432266,2,0,P|474:303|501:293,1,45,0|2,0:0|0:3,0:0:0:0:
418,217,432463,5,0,0:0:0:0:
422,204,432562,2,0,P|431:177|436:148,1,45
329,182,432760,5,2,0:3:0:0:
319,172,432858,2,0,P|300:150|278:131,1,45
253,241,433056,5,0,0:0:0:0:
225,242,433154,2,0,P|197:247|170:257,1,45,2|0,0:3|0:0,0:0:0:0:
33,318,433352,5,2,0:0:0:0:
51,342,433450,1,0,0:0:0:0:
67,338,433549,1,2,0:3:0:0:
174,169,433746,5,0,0:0:0:0:
192,145,433845,1,0,0:0:0:0:
208,149,433944,1,2,0:3:0:0:
315,318,434141,5,0,0:0:0:0:
323,329,434240,1,0,0:0:0:0:
346,346,434338,1,2,0:3:0:0:
376,358,434437,1,0,0:0:0:0:
417,362,434536,1,0,0:0:0:0:
466,337,434635,1,0,0:0:0:0:
499,284,434733,1,2,0:3:0:0:
492,216,434832,1,0,0:0:0:0:
446,166,434931,6,0,P|421:165|400:181,2,45,6|0|2,3:0|0:0|0:3,0:0:0:0:
357,96,435325,6,0,P|343:117|346:143,2,45,0|0|2,0:0|0:0|0:3,0:0:0:0:
251,138,435720,6,0,P|262:160|286:170,2,45,0|0|2,0:0|0:0|0:3,0:0:0:0:
234,250,436115,6,0,P|259:251|280:234,2,45,0|0|2,0:0|0:0|0:3,0:0:0:0:
196,320,436510,5,0,0:0:0:0:
175,309,436608,1,0,0:0:0:0:
164,290,436707,1,2,0:3:0:0:
83,336,436904,5,0,0:0:0:0:
82,313,437003,1,0,0:0:0:0:
93,294,437102,1,2,0:3:0:0:
14,246,437299,5,0,0:0:0:0:
30,233,437398,1,0,0:0:0:0:
53,233,437496,1,2,0:3:0:0:
54,139,437694,6,0,P|77:143|105:154,1,45,2|0,0:0|0:0,0:0:0:0:
161,99,437891,2,0,P|184:95|211:84,1,45,2|0,0:3|0:0,0:0:0:0:
344,31,438088,5,2,0:0:0:0:
346,22,438187,1,0,0:0:0:0:
366,6,438286,1,2,0:3:0:0:
161,99,438483,5,2,0:0:0:0:
159,90,438582,1,0,0:0:0:0:
139,74,438681,1,2,0:3:0:0:
298,184,438878,5,2,0:0:0:0:
299,176,438977,1,0,0:0:0:0:
315,164,439075,1,2,0:3:0:0:
228,263,439273,5,2,0:0:0:0:
227,256,439371,1,0,0:0:0:0:
213,246,439470,1,2,0:3:0:0:
298,184,439667,5,2,0:0:0:0:
299,176,439766,1,0,0:0:0:0:
315,164,439865,1,2,0:3:0:0:
161,99,440062,5,2,0:0:0:0:
159,90,440161,1,0,0:0:0:0:
139,74,440260,1,2,0:3:0:0:
344,31,440457,5,2,0:0:0:0:
351,29,440556,1,2,0:0:0:0:
358,27,440654,1,2,0:3:0:0:
365,25,440753,1,2,0:0:0:0:
442,48,440852,5,2,0:0:0:0:
397,39,440950,1,2,0:0:0:0:
351,29,441049,1,2,0:3:0:0:
305,19,441148,1,2,0:0:0:0:
259,10,441246,6,0,P|230:30|229:66,1,62.9999980773926,0|0,3:0|0:0,0:0:0:0:
136,62,441444,6,0,P|138:97|169:115,1,62.9999980773926,2|0,3:3|0:0,0:0:0:0:
119,194,441641,6,0,P|150:209|182:191,1,62.9999980773926,8|0,3:0|0:0,0:0:0:0:
224,274,441838,6,0,P|252:254|254:217,1,62.9999980773926,2|0,3:3|0:0,0:0:0:0:
316,167,442036,6,0,P|322:137|349:121,1,62.9999980773926,0|0,3:0|0:0,0:0:0:0:
398,195,442233,6,0,P|427:186|454:200,1,62.9999980773926,2|0,3:3|0:0,0:0:0:0:
414,281,442431,6,0,P|436:301|436:332,1,62.9999980773926,8|0,3:0|0:0,0:0:0:0:
347,339,442628,6,0,P|340:368|313:384,1,62.9999980773926,2|0,3:3|0:0,0:0:0:0:
257,228,442825,6,0,P|250:258|224:274,1,62.9999980773926,0|0,3:0|0:0,0:0:0:0:
175,199,443023,6,0,P|145:208|119:194,1,62.9999980773926,2|0,3:3|0:0,0:0:0:0:
158,113,443220,6,0,P|136:92|136:62,1,62.9999980773926,8|0,3:0|0:0,0:0:0:0:
225,55,443417,6,0,P|232:25|259:10,1,62.9999980773926,2|0,3:3|0:0,0:0:0:0:
315,166,443615,6,0,P|322:136|348:121,1,62.9999980773926,2|0,3:3|0:0,0:0:0:0:
397,195,443812,6,0,P|426:185|454:200,1,62.9999980773926,0|0,3:0|0:0,0:0:0:0:
413,280,444010,6,0,P|436:301|435:332,1,62.9999980773926,10|0,3:3|0:0,0:0:0:0:
346,338,444207,6,0,P|339:368|312:384,1,62.9999980773926,0|0,3:0|0:0,0:0:0:0:
223,274,444404,5,0,3:0:0:0:
179,312,444503,1,0,3:0:0:0:
122,326,444602,1,2,3:3:0:0:
66,311,444700,1,0,3:0:0:0:
23,271,444799,1,8,3:0:0:0:
5,215,444898,1,0,3:0:0:0:
15,158,444996,1,2,3:3:0:0:
51,112,445095,1,0,3:0:0:0:
105,89,445194,5,0,3:0:0:0:
112,143,445292,1,0,3:0:0:0:
146,185,445391,1,2,3:3:0:0:
198,203,445490,1,0,3:0:0:0:
251,191,445588,1,8,3:0:0:0:
289,153,445687,1,0,3:0:0:0:
302,100,445786,1,2,3:3:0:0:
285,48,445885,1,0,3:0:0:0:
244,12,445983,5,0,3:0:0:0:
231,91,446082,1,0,3:0:0:0:
219,169,446181,1,2,3:3:0:0:
207,247,446279,1,0,3:0:0:0:
194,324,446378,6,0,P|157:337|116:362,1,80.9999975280763,2|0,3:0|0:0,0:0:0:0:
296,191,446575,6,0,P|259:175|211:168,1,80.9999975280763,0|0,3:3|0:0,0:0:0:0:
459,153,446773,6,0,P|440:117|408:81,1,80.9999975280763,2|0,3:0|0:0,0:0:0:0:
194,324,446970,5,2,3:3:0:0:
186,326,447036,5,0,0:0:0:0:
177,329,447102,5,0,0:0:0:0:
169,332,447167,5,0,3:0:0:0:
160,335,447233,5,0,0:0:0:0:
152,339,447299,5,0,0:0:0:0:
144,343,447365,5,2,3:3:0:0:
136,347,447431,5,0,3:0:0:0:
128,352,447496,5,0,3:0:0:0:
121,357,447562,5,6,3:1:0:0:
256,192,447661,12,0,453879,0:0:0:0:
