osu file format v14

[General]
AudioFilename: audio.mp3
AudioLeadIn: 0
PreviewTime: -1
Countdown: 1
SampleSet: Soft
StackLeniency: 0.7
Mode: 0
LetterboxInBreaks: 0
WidescreenStoryboard: 0

[Editor]
DistanceSpacing: 1
BeatDivisor: 3
GridSize: 8
TimelineZoom: 1.3

[Metadata]
Title:Entrance
TitleUnicode:Entrance
Artist:Ice
ArtistUnicode:Ice
Creator:Miss Mandii
Version:Hope
Source:
Tags:
BeatmapID:1192853
BeatmapSetID:564190

[Difficulty]
HPDrainRate:6
CircleSize:4
OverallDifficulty:9
ApproachRate:9
SliderMultiplier:1.4
SliderTickRate:1

[Events]
//Background and Video events
0,0,"ice.jpeg",0,0
//Break Periods
2,57477,62178
//Storyboard Layer 0 (Background)
//Storyboard Layer 1 (Fail)
//Storyboard Layer 2 (Pass)
//Storyboard Layer 3 (Foreground)
//Storyboard Sound Samples

[TimingPoints]
1445,666.666666666667,4,1,0,100,1,0
1451,-100,4,2,0,50,0,0
36445,-100,4,2,0,10,0,0
36667,-100,4,2,0,5,0,0
38778,-100,4,2,0,50,0,0
41445,333.333333333333,4,1,0,100,1,0
41445,-100,4,2,0,50,0,0

[HitObjects]
161,83,1445,6,0,P|177:75|217:83,2,46.6666666666667
161,193,2111,2,0,P|161:233|161:289,1,87.5
263,320,2778,6,0,P|295:320|311:296,2,46.6666666666667
225,232,3445,2,0,P|209:184|153:160,1,93.3333333333333
85,85,4111,6,0,P|53:109|53:133,2,46.6666666666667
203,76,4778,2,0,P|253:78|285:38,1,93.3333333333333
271,165,5445,6,0,P|271:205|255:221,2,46.6666666666667
380,116,6111,1,0,0:0:0:0:
352,96,6222,1,0,0:0:0:0:
320,72,6333,1,0,0:0:0:0:
149,111,6556,1,0,0:0:0:0:
344,232,6778,6,0,L|368:288,2,46.6666666666667
264,72,7445,2,0,L|328:56,2,46.6666666666667
152,232,8111,6,0,L|112:280,2,46.6666666666667
378,108,8778,2,0,L|272:36,1,93.3333333333333
352,256,9445,5,0,0:0:0:0:
200,144,9667,2,0,P|201:173|177:197,1,46.6666666666667
112,304,10111,1,0,0:0:0:0:
352,256,10333,2,0,P|384:232|386:206,1,46.6666666666667
191,187,10778,5,0,0:0:0:0:
192,48,11000,2,0,L|248:49,1,46.6666666666667
210,185,11445,1,0,0:0:0:0:
48,200,11667,2,0,L|72:228,1,23.3333333333333
88,296,11889,2,0,L|128:296,1,23.3333333333333
228,276,12111,6,0,L|260:324,2,46.6666666666667
136,136,12778,2,0,L|192:104,2,46.6666666666667
148,260,13444,2,0,L|100:292,2,46.6666666666667
273,255,14111,2,0,L|313:303,2,46.6666666666667
285,147,14778,2,0,L|320:128,4,23.3333333333333
240,144,15333,1,0,0:0:0:0:
192,120,15445,2,0,L|160:64,2,46.6666666666667
81,254,16111,2,0,L|113:302,2,46.6666666666667
95,183,16667,5,0,0:0:0:0:
95,183,16778,1,0,0:0:0:0:
227,92,17000,1,0,0:0:0:0:
330,124,17222,1,0,0:0:0:0:
411,221,17445,2,0,P|395:237|299:325,1,140
296,232,18667,5,0,0:0:0:0:
296,192,18778,2,0,P|224:160|160:184,1,140
240,64,20000,5,0,0:0:0:0:
280,72,20111,2,0,L|408:168,1,140
256,288,21333,5,0,0:0:0:0:
216,272,21445,2,0,L|104:184,1,140
120,328,22778,6,0,L|152:328,3,23.3333333333333
176,328,23222,1,0,0:0:0:0:
208,320,23333,1,0,0:0:0:0:
240,312,23445,1,0,0:0:0:0:
272,296,23556,1,0,0:0:0:0:
304,280,23667,1,0,0:0:0:0:
328,256,23778,1,0,0:0:0:0:
352,232,23889,1,0,0:0:0:0:
368,200,24000,1,0,0:0:0:0:
376,168,24111,1,0,0:0:0:0:
368,136,24222,1,0,0:0:0:0:
344,104,24333,1,0,0:0:0:0:
312,88,24445,1,0,0:0:0:0:
280,72,24556,1,0,0:0:0:0:
248,64,24667,1,0,0:0:0:0:
216,72,24778,1,0,0:0:0:0:
192,96,24889,1,0,0:0:0:0:
176,128,25000,1,0,0:0:0:0:
168,160,25111,1,0,0:0:0:0:
176,192,25222,1,0,0:0:0:0:
200,216,25333,1,0,0:0:0:0:
224,240,25445,1,0,0:0:0:0:
256,248,25556,1,0,0:0:0:0:
288,240,25667,1,0,0:0:0:0:
320,224,25778,1,0,0:0:0:0:
344,200,25889,1,0,0:0:0:0:
352,168,26001,1,0,0:0:0:0:
344,136,26112,5,0,0:0:0:0:
328,104,26223,1,0,0:0:0:0:
304,80,26334,1,0,0:0:0:0:
272,72,26445,1,0,0:0:0:0:
240,72,26556,1,0,0:0:0:0:
208,80,26667,1,0,0:0:0:0:
216,208,26778,6,0,L|245:181,2,23.3333333333333
96,104,27111,6,0,L|125:93,2,23.3333333333333
264,216,27445,6,0,L|293:205,2,23.3333333333333
144,168,27778,6,0,L|160:152,2,23.3333333333333
112,144,28111,5,0,0:0:0:0:
120,112,28223,1,0,0:0:0:0:
144,88,28334,1,0,0:0:0:0:
168,64,28445,2,0,L|200:56,2,23.3333333333333
232,128,28778,5,0,0:0:0:0:
256,152,28889,1,0,0:0:0:0:
288,168,29000,1,0,0:0:0:0:
320,160,29111,2,0,L|352:144,2,23.3333333333333
384,216,29445,5,0,0:0:0:0:
368,248,29556,1,0,0:0:0:0:
344,272,29667,1,0,0:0:0:0:
312,288,29778,1,0,0:0:0:0:
280,296,29889,1,0,0:0:0:0:
248,296,30000,1,0,0:0:0:0:
216,288,30111,1,0,0:0:0:0:
192,264,30222,1,0,0:0:0:0:
168,232,30333,1,0,0:0:0:0:
136,216,30445,1,0,0:0:0:0:
104,216,30556,1,0,0:0:0:0:
72,224,30667,1,0,0:0:0:0:
40,216,30778,5,0,0:0:0:0:
16,192,30889,1,0,0:0:0:0:
16,160,31000,1,0,0:0:0:0:
24,128,31111,1,0,0:0:0:0:
48,96,31222,1,0,0:0:0:0:
72,80,31333,1,0,0:0:0:0:
104,72,31445,1,0,0:0:0:0:
136,72,31556,1,0,0:0:0:0:
168,80,31668,1,0,0:0:0:0:
200,96,31779,1,0,0:0:0:0:
225,120,31890,1,0,0:0:0:0:
248,145,32001,1,0,0:0:0:0:
266,174,32111,2,0,L|290:206,2,23.3333333333333
440,136,32445,6,0,L|464:148,2,23.3333333333333
384,224,32778,2,0,L|346:234,2,23.3333333333333
296,320,33111,6,0,L|338:313,2,23.3333333333333
216,288,33445,1,0,0:0:0:0:
216,288,33556,2,0,L|216:248,1,23.3333333333333
120,232,33778,5,0,0:0:0:0:
120,232,33889,2,0,L|88:216,1,23.3333333333333
144,112,34111,5,0,0:0:0:0:
144,112,34222,2,0,L|106:109,1,23.3333333333333
256,80,34445,5,0,0:0:0:0:
256,80,34556,2,0,L|257:114,1,23.3333333333333
344,144,34778,5,0,0:0:0:0:
344,144,34889,2,0,L|389:143,1,23.3333333333333
344,240,35111,5,0,0:0:0:0:
344,240,35222,2,0,L|374:263,1,23.3333333333333
240,320,35445,5,0,0:0:0:0:
240,320,35556,2,0,L|208:336,1,23.3333333333333
184,336,35778,5,0,0:0:0:0:
152,336,35889,1,0,0:0:0:0:
120,328,36000,1,0,0:0:0:0:
88,312,36111,2,0,P|48:280|34:184,1,140
88,88,38778,5,0,0:0:0:0:
144,72,38889,2,0,L|184:64,1,23.3333333333333
200,136,39111,1,0,0:0:0:0:
216,168,39222,1,0,0:0:0:0:
232,200,39333,1,0,0:0:0:0:
304,168,39445,6,0,L|336:152,1,23.3333333333333
424,128,39667,2,0,L|440:168,1,23.3333333333333
448,240,39889,2,0,L|408:256,1,23.3333333333333
336,208,40111,6,0,L|296:192,1,23.3333333333333
240,136,40333,1,0,0:0:0:0:
192,216,40445,2,0,L|193:254,2,23.3333333333333
192,320,40778,1,0,0:0:0:0:
144,312,40889,1,0,0:0:0:0:
112,280,41000,1,0,0:0:0:0:
96,232,41111,1,0,0:0:0:0:
104,184,41222,1,0,0:0:0:0:
128,144,41333,1,0,0:0:0:0:
200,64,41445,6,0,P|240:56|288:112,1,93.3333333333333
400,160,41778,2,0,P|376:216|336:216,1,93.3333333333333
272,304,42111,2,0,P|224:280|216:224,1,93.3333333333333
144,128,42445,2,0,P|96:168|48:152,1,93.3333333333333
72,296,42778,5,0,0:0:0:0:
104,336,42889,1,0,0:0:0:0:
152,328,43000,1,0,0:0:0:0:
256,288,43111,1,0,0:0:0:0:
264,240,43222,1,0,0:0:0:0:
216,224,43333,1,0,0:0:0:0:
112,128,43445,6,0,L|56:112,2,46.6666666666667
248,88,43778,2,0,L|296:72,2,46.6666666666667
200,208,44111,2,0,L|152:248,2,46.6666666666667
264,128,44445,2,0,L|304:72,2,46.6666666666667
376,64,44778,1,0,0:0:0:0:
344,96,44889,1,0,0:0:0:0:
352,144,45000,1,0,0:0:0:0:
360,192,45111,1,0,0:0:0:0:
360,240,45222,1,0,0:0:0:0:
336,280,45333,1,0,0:0:0:0:
240,344,45444,2,0,L|184:320,2,46.6666666666667
224,224,45778,2,0,L|256:152,2,46.6666666666667
168,144,46111,5,0,0:0:0:0:
120,160,46222,1,0,0:0:0:0:
96,200,46333,1,0,0:0:0:0:
72,296,46444,2,0,L|136:336,1,46.6666666666667
208,328,46667,1,0,0:0:0:0:
208,232,46778,2,0,L|260:188,1,46.6666666666667
184,120,47000,1,0,0:0:0:0:
184,120,47111,2,0,L|123:97,1,46.6666666666667
32,48,47333,1,0,0:0:0:0:
32,48,47444,2,0,L|-5:93,1,46.6666666666667
24,216,47667,1,0,0:0:0:0:
24,216,47778,2,0,L|86:197,1,46.6666666666667
120,112,48000,1,0,0:0:0:0:
168,104,48111,1,0,0:0:0:0:
216,96,48222,2,0,L|259:136,1,46.6666666666667
272,160,48444,1,0,0:0:0:0:
288,208,48556,1,0,0:0:0:0:
272,248,48667,1,0,0:0:0:0:
232,272,48778,1,0,0:0:0:0:
192,288,48889,2,0,L|130:301,1,46.6666666666667
112,272,49111,1,0,0:0:0:0:
88,232,49222,1,0,0:0:0:0:
48,208,49333,1,0,0:0:0:0:
8,184,49444,1,0,0:0:0:0:
0,136,49556,1,0,0:0:0:0:
8,88,49667,2,0,L|55:54,1,46.6666666666667
128,56,49889,2,0,L|192:64,1,46.6666666666667
232,136,50111,2,0,L|274:106,1,46.6666666666667
352,48,50333,2,0,L|399:89,1,46.6666666666667
384,128,50556,1,0,0:0:0:0:
408,168,50667,1,0,0:0:0:0:
456,184,50778,1,0,0:0:0:0:
496,208,50889,1,0,0:0:0:0:
504,256,51000,1,0,0:0:0:0:
416,296,51111,2,0,L|406:345,2,46.6666666666667
344,248,51444,5,0,0:0:0:0:
264,224,51556,1,0,0:0:0:0:
240,312,51667,1,0,0:0:0:0:
168,280,51778,1,0,0:0:0:0:
96,232,51889,1,0,0:0:0:0:
152,160,52000,1,0,0:0:0:0:
368,128,52111,6,0,L|416:136,2,46.6666666666667
344,208,52444,2,0,L|320:248,1,46.6666666666667
224,256,52667,1,0,0:0:0:0:
224,256,52778,6,0,L|176:224,2,46.6666666666667
160,160,53111,2,0,L|184:104,1,46.6666666666667
280,88,53333,1,0,0:0:0:0:
280,88,53444,6,0,L|336:88,2,46.6666666666667
392,144,53778,2,0,L|432:192,1,46.6666666666667
96,136,54000,1,0,0:0:0:0:
128,112,54111,1,0,0:0:0:0:
160,104,54222,1,0,0:0:0:0:
192,88,54333,1,0,0:0:0:0:
224,72,54445,1,0,0:0:0:0:
256,64,54556,1,0,0:0:0:0:
288,56,54667,1,0,0:0:0:0:
328,56,54778,1,0,0:0:0:0:
360,72,54889,1,0,0:0:0:0:
384,96,55000,1,0,0:0:0:0:
400,128,55111,1,0,0:0:0:0:
400,168,55222,1,0,0:0:0:0:
384,200,55333,1,0,0:0:0:0:
368,232,55445,1,0,0:0:0:0:
344,256,55556,1,0,0:0:0:0:
272,264,55667,2,0,L|216:240,1,46.6666666666667
192,168,55889,2,0,L|136:184,1,46.6666666666667
110,102,56111,2,0,L|144:64,1,46.6666666666667
240,72,56333,2,0,L|288:96,1,46.6666666666667
352,136,56556,1,0,0:0:0:0:
368,176,56667,1,0,0:0:0:0:
89,110,56778,2,0,L|128:96,3,23.3333333333333
232,80,57111,2,0,L|271:66,3,23.3333333333333
144,120,62778,6,0,P|220:86|232:96,1,93.3333333333333
335,164,63111,2,0,P|376:166|416:120,1,93.3333333333333
144,120,63444,6,0,P|220:86|232:96,1,93.3333333333333
335,164,63777,2,0,P|376:166|416:120,1,93.3333333333333
144,120,64111,6,0,P|220:86|232:96,1,93.3333333333333
335,164,64444,2,0,P|376:166|416:120,1,93.3333333333333
144,120,64778,6,0,P|220:86|232:96,1,93.3333333333333
335,164,65111,2,0,P|376:166|416:120,1,93.3333333333333
