osu file format v14

[General]
AudioFilename: DJ Mashiro.mp3
AudioLeadIn: 0
PreviewTime: 103552
Countdown: 0
SampleSet: Normal
StackLeniency: 0.7
Mode: 3
LetterboxInBreaks: 0
SpecialStyle: 0
WidescreenStoryboard: 1

[Editor]
Bookmarks: 1711,63605
DistanceSpacing: 0.8
BeatDivisor: 4
GridSize: 16
TimelineZoom: 3.499999

[Metadata]
Title:DJ Mashiro is dead or alive
TitleUnicode:DJ Mashiro is dead or alive
Artist:Ice
ArtistUnicode:Ice
Creator:Ulis-
Version:Hard
Source:Cytus II
Tags:prismatic lollipops dj mashiro remix rayark voez neko#ΦωΦ 3R2 wonderful days prismatic music electronic video game instrumental
BeatmapID:2236351
BeatmapSetID:1068198

[Difficulty]
HPDrainRate:8
CircleSize:4
OverallDifficulty:8
ApproachRate:5
SliderMultiplier:1.4
SliderTickRate:1

[Events]
//Background and Video events
0,0,"Amy Chen.jpg",0,0
//Break Periods
//Storyboard Layer 0 (Background)
//Storyboard Layer 1 (Fail)
//Storyboard Layer 2 (Pass)
//Storyboard Layer 3 (Foreground)
//Storyboard Layer 4 (Overlay)
//Storyboard Sound Samples
Sample,55394,0,"drum_cym_crash.ogg",50
Sample,55473,0,"drum_cym_crash.ogg",50
Sample,57289,0,"LR3_Kick BRH.wav",50
Sample,57605,0,"LR3_Kick BRH.wav",50
Sample,60447,0,"drum_cym_crash.ogg",50
Sample,60526,0,"drum_cym_crash.ogg",50
Sample,62342,0,"LR3_Kick BRH.wav",50
Sample,62658,0,"LR3_Kick BRH.wav",50
Sample,65500,0,"drum_cym_crash.ogg",50
Sample,65579,0,"drum_cym_crash.ogg",50
Sample,67394,0,"LR3_Kick BRH.wav",50
Sample,67710,0,"LR3_Kick BRH.wav",50
Sample,68026,0,"drum_cym_crash.ogg",50
Sample,70552,0,"drum_cym_crash.ogg",50
Sample,70631,0,"drum_cym_crash.ogg",50
Sample,72763,0,"LR3_Kick BRH.wav",50
Sample,139968,0,"LR3_Kick BRH.wav",50
Sample,147576,0,"drum_snare.ogg",40
Sample,147655,0,"drum_snare.ogg",40
Sample,147734,0,"drum_snare.ogg",40
Sample,147813,0,"drum_snare.ogg",40
Sample,147892,0,"drum_snare.ogg",40
Sample,147971,0,"drum_snare.ogg",40
Sample,148050,0,"drum_snare.ogg",40
Sample,148128,0,"drum_snare.ogg",40
Sample,148207,0,"drum_snare.ogg",40
Sample,148286,0,"drum_snare.ogg",40
Sample,148365,0,"drum_snare.ogg",40
Sample,148444,0,"drum_snare.ogg",40
Sample,148523,0,"drum_snare.ogg",40
Sample,148602,0,"drum_snare.ogg",40
Sample,148681,0,"drum_snare.ogg",40
Sample,148760,0,"drum_snare.ogg",40
Sample,148839,0,"drum_snare.ogg",40
Sample,148918,0,"drum_snare.ogg",40
Sample,148997,0,"drum_snare.ogg",40
Sample,149076,0,"drum_snare.ogg",40
Sample,149155,0,"drum_snare.ogg",40
Sample,149234,0,"drum_snare.ogg",40
Sample,149313,0,"drum_snare.ogg",40
Sample,149392,0,"drum_snare.ogg",40
Sample,149471,0,"drum_snare.ogg",40
Sample,149510,0,"drum_snare.ogg",40
Sample,149550,0,"drum_snare.ogg",40
Sample,149589,0,"drum_snare.ogg",40
Sample,149628,0,"drum_snare.ogg",40
Sample,149668,0,"drum_snare.ogg",40
Sample,149707,0,"drum_snare.ogg",40
Sample,149747,0,"drum_snare.ogg",40
Sample,149786,0,"drum_snare.ogg",40
Sample,149826,0,"drum_snare.ogg",40
Sample,149865,0,"drum_snare.ogg",40
Sample,149905,0,"drum_snare.ogg",40
Sample,149944,0,"drum_snare.ogg",40
Sample,149984,0,"drum_snare.ogg",40
Sample,150023,0,"drum_snare.ogg",40
Sample,150063,0,"drum_snare.ogg",40
Sample,150102,0,"drum_snare.ogg",40

[TimingPoints]
1237,315.789473684211,4,1,1,75,1,0
103552,-100,4,1,1,75,0,1
113658,312.5,4,1,1,75,1,1
113658,-101.010101010101,4,1,1,75,0,1
118658,310.880829015544,4,1,1,75,1,1
118658,-102.040816326531,4,1,1,75,0,1
122388,309.278350515464,4,1,1,75,1,1
122388,-102.040816326531,4,1,1,75,0,1
123625,297.029702970297,4,1,1,75,1,1
123625,-106.382978723404,4,1,1,75,0,1
127189,294.117647058824,4,1,1,75,1,1
127189,-107.52688172043,4,1,1,75,0,1
128365,288.461538461538,4,1,1,75,1,1
128365,-109.89010989011,4,1,1,75,0,1
129518,285.714285714286,4,1,1,75,1,1
129518,-111.111111111111,4,1,1,75,0,1
130660,283.018867924528,4,1,1,75,1,1
130660,-111.111111111111,4,1,1,75,0,1
131792,280.373831775701,4,1,1,75,1,1
131792,-112.359550561798,4,1,1,75,0,1
132913,271.493212669683,4,1,1,75,1,1
132913,-116.279069767442,4,1,1,75,0,1
133998,267.857142857143,4,1,1,75,1,1
133998,-117.647058823529,4,1,1,75,0,1
135069,264.31718061674,4,1,1,75,1,1
135069,-119.047619047619,4,1,1,75,0,1
136126,260.869565217391,4,1,1,75,1,1
136126,-120.481927710843,4,1,1,75,0,1
137169,257.510729613734,4,1,1,75,1,1
137169,-121.951219512195,4,1,1,75,0,1
138199,254.237288135593,4,1,1,75,1,1
138199,-123.456790123457,4,1,1,75,0,1
139215,251.046025104603,4,1,1,75,1,1
139215,-126.582278481013,4,1,1,75,0,1
140219,247.933884297521,4,1,1,75,1,1
140219,-126.582278481013,4,1,1,75,0,1
141210,240,4,1,1,75,1,1
141210,-131.578947368421,4,1,1,75,0,1
145050,315.789473684211,4,1,1,75,1,0

[HitObjects]
64,192,1237,5,0,0:0:0:50:drum_cym_crash.ogg
192,192,1237,1,0,0:0:0:50:LR3_Kick BRH.wav
448,192,1394,1,0,0:0:0:0:
320,192,1552,1,0,0:0:0:0:
64,192,1710,1,0,0:0:0:50:drum_cym_crash.ogg
192,192,1710,1,0,0:0:0:50:LR3_Kick BRH.wav
64,192,1868,1,0,0:0:0:50:drum_cym_crash.ogg
192,192,1868,1,0,0:0:0:50:LR3_Kick BRH.wav
448,192,2026,1,0,0:0:0:0:
320,192,2184,1,0,0:0:0:0:
64,192,2342,1,0,0:0:0:50:drum_cym_crash.ogg
192,192,2342,1,0,0:0:0:50:LR3_Kick BRH.wav
64,192,2500,1,0,0:0:0:50:drum_cym_crash.ogg
192,192,2500,1,0,0:0:0:50:LR3_Kick BRH.wav
64,192,2815,1,0,0:0:0:50:LR3_Kick BRH.wav
320,192,2815,1,0,0:0:0:0:
64,192,3131,1,0,0:0:0:50:LR3_Kick BRH.wav
448,192,3131,1,0,0:0:0:0:
192,192,3447,1,0,0:0:0:50:LR3_Kick BRH.wav
448,192,3447,1,0,0:0:0:0:
320,192,3763,1,0,0:0:0:50:drum_cym_crash.ogg
448,192,3763,1,0,0:0:0:50:LR3_Kick BRH.wav
64,192,3921,1,0,0:0:0:0:
192,192,4079,1,0,0:0:0:0:
320,192,4237,1,0,0:0:0:50:drum_cym_crash.ogg
448,192,4237,1,0,0:0:0:50:LR3_Kick BRH.wav
320,192,4394,1,0,0:0:0:50:drum_cym_crash.ogg
448,192,4394,1,0,0:0:0:50:LR3_Kick BRH.wav
64,192,4552,1,0,0:0:0:0:
192,192,4710,1,0,0:0:0:0:
320,192,4868,1,0,0:0:0:50:drum_cym_crash.ogg
448,192,4868,1,0,0:0:0:50:LR3_Kick BRH.wav
320,192,5026,1,0,0:0:0:50:drum_cym_crash.ogg
448,192,5026,1,0,0:0:0:50:LR3_Kick BRH.wav
192,192,5342,1,0,0:0:0:50:LR3_Kick BRH.wav
448,192,5342,1,0,0:0:0:0:
64,192,5658,1,0,0:0:0:50:LR3_Kick BRH.wav
448,192,5658,1,0,0:0:0:0:
64,192,5973,1,0,0:0:0:50:LR3_Kick BRH.wav
320,192,5973,1,0,0:0:0:0:
64,192,6289,1,0,0:0:0:50:drum_cym_crash.ogg
192,192,6289,1,0,0:0:0:50:LR3_Kick BRH.wav
448,192,6447,1,0,0:0:0:0:
320,192,6605,1,0,0:0:0:0:
64,192,6763,1,0,0:0:0:50:drum_cym_crash.ogg
192,192,6763,1,0,0:0:0:50:LR3_Kick BRH.wav
64,192,6921,1,0,0:0:0:50:drum_cym_crash.ogg
192,192,6921,1,0,0:0:0:50:LR3_Kick BRH.wav
448,192,7079,1,0,0:0:0:0:
320,192,7237,1,0,0:0:0:0:
64,192,7394,1,0,0:0:0:50:drum_cym_crash.ogg
192,192,7394,1,0,0:0:0:50:LR3_Kick BRH.wav
64,192,7552,1,0,0:0:0:50:drum_cym_crash.ogg
192,192,7552,1,0,0:0:0:50:LR3_Kick BRH.wav
64,192,7868,1,0,0:0:0:50:LR3_Kick BRH.wav
320,192,7868,1,0,0:0:0:0:
64,192,8184,1,0,0:0:0:50:LR3_Kick BRH.wav
448,192,8184,1,0,0:0:0:0:
192,192,8500,1,0,0:0:0:50:LR3_Kick BRH.wav
448,192,8500,1,0,0:0:0:0:
64,192,8815,1,0,0:0:0:50:drum_cym_crash.ogg
320,192,8815,1,0,0:0:0:50:LR3_Kick BRH.wav
448,192,8815,1,0,0:0:0:0:
192,192,8973,1,0,0:0:0:0:
320,192,9131,1,0,0:0:0:0:
448,192,9289,1,0,0:0:0:0:
192,192,9447,1,0,0:0:0:0:
320,192,9605,1,0,0:0:0:0:
64,192,9763,1,0,0:0:0:0:
192,192,9921,1,0,0:0:0:0:
320,192,10079,1,0,0:0:0:50:LR3_Kick BRH.wav
448,192,10079,1,0,0:0:0:0:
64,192,10394,1,0,0:0:0:50:LR3_Kick BRH.wav
192,192,10394,1,0,0:0:0:0:
320,192,10710,1,0,0:0:0:50:LR3_Kick BRH.wav
448,192,10710,1,0,0:0:0:0:
320,192,10868,1,0,0:0:0:50:LR3_Kick BRH.wav
448,192,10868,1,0,0:0:0:0:
64,192,11026,1,0,0:0:0:50:LR3_Kick BRH.wav
192,192,11026,1,0,0:0:0:0:
64,192,11184,1,0,0:0:0:50:LR3_Kick BRH.wav
192,192,11184,1,0,0:0:0:0:
64,192,11342,1,0,0:0:0:60:cym.ogg
320,192,11342,1,0,0:0:0:50:LR3_Kick BRH.wav
448,192,11342,128,0,11500:0:0:0:0:
192,192,11500,1,0,0:0:0:0:
320,192,11658,1,0,0:0:0:50:LR3_Kick BRH.wav
448,192,11658,128,0,11815:0:0:0:0:
64,192,11815,1,0,0:0:0:0:
192,192,11973,1,0,0:0:0:50:LR3_Kick BRH.wav
448,192,11973,128,0,12131:0:0:0:0:
64,192,12131,128,0,12289:0:0:0:0:
320,192,12289,128,0,12447:0:0:0:50:LR3_Kick BRH.wav
448,192,12289,1,0,0:0:0:0:
192,192,12447,128,0,12605:0:0:0:0:
64,192,12605,128,0,12763:0:0:0:50:LR3_Kick BRH.wav
448,192,12605,1,0,0:0:0:0:
192,192,12921,128,0,13079:0:0:0:50:LR3_Kick BRH.wav
448,192,12921,1,0,0:0:0:0:
64,192,13237,1,0,0:0:0:50:LR3_Kick BRH.wav
320,192,13237,128,0,13394:0:0:0:0:
192,192,13394,1,0,0:0:0:0:
64,192,13552,1,0,0:0:0:50:LR3_Kick BRH.wav
448,192,13552,1,0,0:0:0:0:
320,192,13710,1,0,0:0:0:0:
192,192,13868,1,0,0:0:0:50:LR3_Kick BRH.wav
64,192,13868,128,0,14026:0:0:0:0:
448,192,14026,1,0,0:0:0:0:
192,192,14184,1,0,0:0:0:50:LR3_Kick BRH.wav
64,192,14184,128,0,14342:0:0:0:0:
448,192,14342,1,0,0:0:0:0:
64,192,14500,128,0,14658:0:0:0:50:LR3_Kick BRH.wav
192,192,14500,1,0,0:0:0:0:
448,192,14658,128,0,14815:0:0:0:0:
64,192,14815,1,0,0:0:0:50:LR3_Kick BRH.wav
192,192,14815,128,0,14973:0:0:0:0:
320,192,14973,128,0,15131:0:0:0:0:
64,192,15131,1,0,0:0:0:50:LR3_Kick BRH.wav
448,192,15131,128,0,15289:0:0:0:0:
64,192,15447,1,0,0:0:0:50:LR3_Kick BRH.wav
320,192,15447,128,0,15605:0:0:0:0:
192,192,15763,128,0,15921:0:0:0:50:LR3_Kick BRH.wav
448,192,15763,1,0,0:0:0:0:
320,192,15921,1,0,0:0:0:0:
64,192,16079,1,0,0:0:0:50:LR3_Kick BRH.wav
448,192,16079,1,0,0:0:0:0:
192,192,16237,1,0,0:0:0:50:LR3_Kick BRH.wav
320,192,16394,1,0,0:0:0:50:LR3_Kick BRH.wav
448,192,16394,128,0,16552:0:0:0:0:
64,192,16710,1,0,0:0:0:50:LR3_Kick BRH.wav
192,192,16710,128,0,16868:0:0:0:0:
320,192,17026,1,0,0:0:0:50:LR3_Kick BRH.wav
448,192,17026,128,0,17184:0:0:0:0:
64,192,17184,1,0,0:0:0:0:
192,192,17342,1,0,0:0:0:50:LR3_Kick BRH.wav
320,192,17342,1,0,0:0:0:0:
448,192,17500,1,0,0:0:0:0:
64,192,17658,128,0,17815:0:0:0:50:LR3_Kick BRH.wav
192,192,17658,1,0,0:0:0:0:
320,192,17973,128,0,18131:0:0:0:50:LR3_Kick BRH.wav
448,192,17973,1,0,0:0:0:0:
64,192,18289,128,0,18447:0:0:0:50:LR3_Kick BRH.wav
192,192,18289,1,0,0:0:0:0:
448,192,18447,1,0,0:0:0:0:
192,192,18605,1,0,0:0:0:50:LR3_Kick BRH.wav
320,192,18605,1,0,0:0:0:0:
64,192,18763,1,0,0:0:0:0:
448,192,18921,1,0,0:0:0:50:LR3_Kick BRH.wav
320,192,18921,1,0,0:0:0:0:
64,192,19079,1,0,0:0:0:0:
320,192,19237,1,0,0:0:0:50:LR3_Kick BRH.wav
448,192,19237,1,0,0:0:0:0:
192,192,19394,1,0,0:0:0:0:
64,192,19552,1,0,0:0:0:50:LR3_Kick BRH.wav
448,192,19552,1,0,0:0:0:0:
320,192,19710,1,0,0:0:0:0:
64,192,19868,1,0,0:0:0:50:LR3_Kick BRH.wav
192,192,19868,1,0,0:0:0:0:
320,192,20026,1,0,0:0:0:0:
64,192,20184,1,0,0:0:0:50:LR3_Kick BRH.wav
192,192,20184,1,0,0:0:0:0:
448,192,20184,1,0,0:0:0:0:
320,192,20500,1,0,0:0:0:0:
192,192,20815,1,0,0:0:0:0:
320,192,20973,1,0,0:0:0:50:LR3_Kick BRH.wav
448,192,20973,1,0,0:0:0:0:
320,192,21131,1,0,0:0:0:50:LR3_Kick BRH.wav
448,192,21131,1,0,0:0:0:0:
64,192,21289,1,0,0:0:0:50:LR3_Kick BRH.wav
192,192,21289,1,0,0:0:0:0:
64,192,21447,1,0,0:0:0:60:cym.ogg
192,192,21447,1,0,0:0:0:50:LR3_Kick BRH.wav
448,192,21447,1,0,0:0:0:0:
320,192,21605,1,0,0:0:0:0:
64,192,21763,1,0,0:0:0:50:LR3_Kick BRH.wav
192,192,21763,1,0,0:0:0:0:
448,192,21921,1,0,0:0:0:0:
64,192,22079,1,0,0:0:0:50:LR3_Kick BRH.wav
320,192,22079,1,0,0:0:0:0:
192,192,22237,1,0,0:0:0:0:
64,192,22394,1,0,0:0:0:50:LR3_Kick BRH.wav
320,192,22394,1,0,0:0:0:0:
64,192,22631,1,0,0:0:0:0:
192,192,22710,1,0,0:0:0:50:LR3_Kick BRH.wav
448,192,22710,1,0,0:0:0:0:
320,192,22868,1,0,0:0:0:0:
64,192,23026,1,0,0:0:0:50:LR3_Kick BRH.wav
192,192,23026,1,0,0:0:0:0:
320,192,23184,1,0,0:0:0:0:
64,192,23342,1,0,0:0:0:50:LR3_Kick BRH.wav
448,192,23342,1,0,0:0:0:0:
192,192,23500,1,0,0:0:0:0:
320,192,23658,1,0,0:0:0:50:LR3_Kick BRH.wav
448,192,23658,1,0,0:0:0:0:
448,192,23894,1,0,0:0:0:0:
64,192,23973,1,0,0:0:0:50:LR3_Kick BRH.wav
192,192,23973,1,0,0:0:0:0:
320,192,24131,1,0,0:0:0:0:
64,192,24289,1,0,0:0:0:50:LR3_Kick BRH.wav
448,192,24289,1,0,0:0:0:0:
192,192,24447,1,0,0:0:0:0:
320,192,24605,1,0,0:0:0:50:LR3_Kick BRH.wav
448,192,24605,1,0,0:0:0:0:
192,192,24763,1,0,0:0:0:0:
64,192,24921,1,0,0:0:0:50:LR3_Kick BRH.wav
320,192,24921,1,0,0:0:0:0:
64,192,25158,1,0,0:0:0:0:
192,192,25237,1,0,0:0:0:50:LR3_Kick BRH.wav
448,192,25237,1,0,0:0:0:0:
320,192,25394,1,0,0:0:0:0:
64,192,25552,1,0,0:0:0:50:LR3_Kick BRH.wav
192,192,25552,1,0,0:0:0:0:
320,192,25710,1,0,0:0:0:0:
64,192,25868,1,0,0:0:0:50:LR3_Kick BRH.wav
448,192,25868,1,0,0:0:0:0:
320,192,26026,1,0,0:0:0:0:
64,192,26184,1,0,0:0:0:50:LR3_Kick BRH.wav
192,192,26184,1,0,0:0:0:0:
320,192,26342,1,0,0:0:0:50:LR3_Kick BRH.wav
64,192,26500,1,0,0:0:0:50:drum_cym_crash.ogg
192,192,26500,1,0,0:0:0:50:LR3_Kick BRH.wav
448,192,26500,1,0,0:0:0:0:
320,192,26658,1,0,0:0:0:0:
64,192,26815,1,0,0:0:0:50:LR3_Kick BRH.wav
448,192,26815,1,0,0:0:0:0:
192,192,26973,1,0,0:0:0:0:
320,192,27131,1,0,0:0:0:50:LR3_Kick BRH.wav
448,192,27131,1,0,0:0:0:0:
64,192,27289,1,0,0:0:0:0:
192,192,27447,1,0,0:0:0:50:drum_cym_crash.ogg
448,192,27447,1,0,0:0:0:50:LR3_Kick BRH.wav
448,192,27684,1,0,0:0:0:0:
64,192,27763,1,0,0:0:0:50:drum_cym_crash.ogg
320,192,27763,1,0,0:0:0:50:LR3_Kick BRH.wav
192,192,27921,1,0,0:0:0:0:
64,192,28079,1,0,0:0:0:50:LR3_Kick BRH.wav
320,192,28079,1,0,0:0:0:0:
64,192,28315,1,0,0:0:0:0:
192,192,28394,1,0,0:0:0:50:LR3_Kick BRH.wav
448,192,28394,1,0,0:0:0:0:
320,192,28552,1,0,0:0:0:0:
192,192,28710,1,0,0:0:0:50:drum_cym_crash.ogg
448,192,28710,1,0,0:0:0:50:LR3_Kick BRH.wav
448,192,28947,1,0,0:0:0:0:
64,192,29026,1,0,0:0:0:50:drum_cym_crash.ogg
320,192,29026,1,0,0:0:0:50:LR3_Kick BRH.wav
192,192,29184,1,0,0:0:0:0:
320,192,29342,1,0,0:0:0:50:LR3_Kick BRH.wav
448,192,29342,1,0,0:0:0:0:
192,192,29500,1,0,0:0:0:0:
64,192,29658,1,0,0:0:0:50:LR3_Kick BRH.wav
320,192,29658,1,0,0:0:0:0:
64,192,29894,1,0,0:0:0:0:
192,192,29973,1,0,0:0:0:50:drum_cym_crash.ogg
448,192,29973,1,0,0:0:0:50:LR3_Kick BRH.wav
448,192,30210,1,0,0:0:0:0:
64,192,30289,1,0,0:0:0:50:drum_cym_crash.ogg
320,192,30289,1,0,0:0:0:50:LR3_Kick BRH.wav
320,192,30605,1,0,0:0:0:0:
192,192,30921,1,0,0:0:0:0:
320,192,31079,1,0,0:0:0:50:LR3_Kick BRH.wav
448,192,31079,1,0,0:0:0:0:
320,192,31237,1,0,0:0:0:50:LR3_Kick BRH.wav
448,192,31237,1,0,0:0:0:0:
64,192,31394,1,0,0:0:0:50:LR3_Kick BRH.wav
192,192,31394,1,0,0:0:0:0:
64,192,31552,1,0,0:0:0:60:cym.ogg
192,192,31552,1,0,0:0:0:0:
448,192,31552,1,0,0:0:0:0:
320,192,31868,1,0,0:0:0:0:
448,192,32184,1,0,0:0:0:45:drum_snare.ogg
64,192,32184,1,0,0:0:0:0:
192,192,32500,1,0,0:0:0:0:
320,192,32815,1,0,0:0:0:0:
448,192,32815,1,0,0:0:0:0:
192,192,32973,1,0,0:0:0:0:
64,192,33131,1,0,0:0:0:0:
192,192,33289,1,0,0:0:0:0:
320,192,33447,1,0,0:0:0:45:drum_snare.ogg
448,192,33447,1,0,0:0:0:0:
448,192,33763,1,0,0:0:0:0:
64,192,34079,1,0,0:0:0:0:
192,192,34079,1,0,0:0:0:0:
448,192,34394,1,0,0:0:0:0:
320,192,34710,1,0,0:0:0:45:drum_snare.ogg
64,192,34710,1,0,0:0:0:0:
192,192,35026,1,0,0:0:0:0:
320,192,35184,1,0,0:0:0:0:
64,192,35342,1,0,0:0:0:0:
448,192,35342,1,0,0:0:0:0:
192,192,35658,1,0,0:0:0:0:
320,192,35973,1,0,0:0:0:45:drum_snare.ogg
64,192,35973,1,0,0:0:0:0:
448,192,36289,1,0,0:0:0:0:
192,192,36605,1,0,0:0:0:0:
64,192,36605,1,0,0:0:0:0:
320,192,36921,1,0,0:0:0:0:
64,192,37237,1,0,0:0:0:45:drum_snare.ogg
448,192,37237,1,0,0:0:0:0:
320,192,37552,1,0,0:0:0:0:
192,192,37710,1,0,0:0:0:0:
64,192,37868,1,0,0:0:0:0:
448,192,37868,1,0,0:0:0:0:
320,192,38026,1,0,0:0:0:0:
192,192,38184,1,0,0:0:0:0:
448,192,38342,1,0,0:0:0:0:
320,192,38500,1,0,0:0:0:45:drum_snare.ogg
64,192,38500,1,0,0:0:0:0:
192,192,38815,1,0,0:0:0:0:
320,192,39131,1,0,0:0:0:0:
448,192,39131,1,0,0:0:0:0:
64,192,39447,1,0,0:0:0:0:
448,192,39763,1,0,0:0:0:45:drum_snare.ogg
192,192,39763,1,0,0:0:0:0:
320,192,40079,1,0,0:0:0:0:
64,192,40394,1,0,0:0:0:0:
192,192,40394,1,0,0:0:0:0:
192,192,40710,1,0,0:0:0:0:
448,192,40710,1,0,0:0:0:0:
320,192,40868,1,0,0:0:0:0:
64,192,41026,1,0,0:0:0:45:drum_snare.ogg
192,192,41026,1,0,0:0:0:0:
448,192,41184,1,2,0:0:0:45:drum_snare.ogg
320,192,41263,1,2,0:0:0:45:drum_snare.ogg
64,192,41342,1,2,0:0:0:45:drum_snare.ogg
192,192,41421,1,0,0:0:0:0:
320,192,41500,1,0,0:0:0:45:drum_snare.ogg
448,192,41579,1,0,0:0:0:0:
64,192,41658,128,0,41973:0:0:0:60:cym.ogg
192,192,41658,1,0,0:0:0:50:LR3_Kick BRH.wav
320,192,41658,1,0,0:0:0:0:
448,192,41973,128,0,42289:0:0:0:0:
64,192,42289,128,0,42605:0:0:0:45:drum_snare.ogg
192,192,42289,1,0,0:0:0:0:
320,192,42605,128,0,42921:0:0:0:0:
192,192,42921,1,0,0:0:0:0:
448,192,42921,128,0,43079:0:0:0:0:
64,192,43079,128,0,43237:0:0:0:0:
448,192,43237,128,0,43394:0:0:0:0:
192,192,43394,128,0,43552:0:0:0:0:
64,192,43552,1,0,0:0:0:45:drum_snare.ogg
448,192,43552,128,0,43868:0:0:0:0:
320,192,43868,128,0,44184:0:0:0:0:
64,192,44184,1,0,0:0:0:0:
192,192,44184,128,0,44500:0:0:0:0:
320,192,44500,128,0,44815:0:0:0:0:
192,192,44815,128,0,45131:0:0:0:45:drum_snare.ogg
448,192,44815,1,0,0:0:0:0:
64,192,45131,128,0,45289:0:0:0:0:
192,192,45289,128,0,45447:0:0:0:0:
320,192,45447,128,0,45763:0:0:0:0:
64,192,45447,1,0,0:0:0:0:
448,192,45763,128,0,46079:0:0:0:0:
64,192,46079,128,0,46394:0:0:0:45:drum_snare.ogg
320,192,46079,1,0,0:0:0:0:
192,192,46394,128,0,46710:0:0:0:0:
64,192,46710,1,0,0:0:0:0:
448,192,46710,128,0,47026:0:0:0:0:
320,192,47026,128,0,47342:0:0:0:0:
64,192,47342,128,0,47658:0:0:0:45:drum_snare.ogg
448,192,47342,1,0,0:0:0:0:
320,192,47658,128,0,47815:0:0:0:0:
192,192,47815,128,0,47973:0:0:0:0:
448,192,47973,128,0,48131:0:0:0:0:
64,192,47973,1,0,0:0:0:0:
320,192,48131,128,0,48289:0:0:0:0:
192,192,48289,128,0,48447:0:0:0:0:
64,192,48447,128,0,48605:0:0:0:0:
320,192,48605,1,0,0:0:0:45:drum_snare.ogg
448,192,48605,128,0,48921:0:0:0:0:
64,192,48921,128,0,49237:0:0:0:0:
448,192,49237,128,0,49552:0:0:0:0:
192,192,49237,1,0,0:0:0:0:
320,192,49552,128,0,49868:0:0:0:0:
448,192,49868,1,0,0:0:0:45:drum_snare.ogg
64,192,49868,128,0,50184:0:0:0:0:
192,192,50184,128,0,50500:0:0:0:0:
320,192,50500,1,0,0:0:0:0:
448,192,50500,128,0,50815:0:0:0:0:
64,192,50815,128,0,51131:0:0:0:0:
320,192,51131,1,0,0:0:0:45:drum_snare.ogg
448,192,51131,128,0,51447:0:0:0:0:
64,192,51447,128,0,51763:0:0:0:0:
320,192,51763,1,0,0:0:0:50:drum_cym_crash.ogg
448,192,51763,1,0,0:0:0:50:LR3_Kick BRH.wav
192,192,52079,1,0,0:0:0:50:drum_cym_crash.ogg
64,192,52079,1,0,0:0:0:50:LR3_Kick BRH.wav
448,192,52237,1,0,0:0:0:50:drum_cym_crash.ogg
320,192,52237,1,0,0:0:0:50:LR3_Kick BRH.wav
64,192,53026,1,0,0:0:0:50:drum_cym_crash.ogg
320,192,53026,1,0,0:0:0:50:LR3_Kick BRH.wav
64,192,53342,1,0,0:0:0:50:drum_cym_crash.ogg
320,192,53342,1,0,0:0:0:50:LR3_Kick BRH.wav
64,192,53658,1,0,0:0:0:50:drum_cym_crash.ogg
320,192,53658,1,0,0:0:0:50:LR3_Kick BRH.wav
64,192,53894,1,0,0:0:0:50:drum_cym_crash.ogg
320,192,53894,1,0,0:0:0:50:LR3_Kick BRH.wav
64,192,54131,1,0,0:0:0:50:drum_cym_crash.ogg
320,192,54131,1,0,0:0:0:50:LR3_Kick BRH.wav
192,192,54289,1,0,0:0:0:50:drum_cym_crash.ogg
448,192,54289,1,0,0:0:0:50:LR3_Kick BRH.wav
192,192,54605,1,0,0:0:0:50:drum_cym_crash.ogg
448,192,54605,1,0,0:0:0:50:LR3_Kick BRH.wav
192,192,54921,1,0,0:0:0:50:drum_cym_crash.ogg
448,192,54921,1,0,0:0:0:50:LR3_Kick BRH.wav
192,192,55158,1,0,0:0:0:50:drum_cym_crash.ogg
448,192,55158,1,0,0:0:0:50:LR3_Kick BRH.wav
448,192,55394,1,0,0:0:0:50:LR3_Kick BRH.wav
320,192,55473,1,0,0:0:0:50:LR3_Kick BRH.wav
64,192,55552,1,0,0:0:0:50:drum_cym_crash.ogg
192,192,55552,1,0,0:0:0:50:LR3_Kick BRH.wav
64,192,55868,1,0,0:0:0:50:drum_cym_crash.ogg
192,192,55868,1,0,0:0:0:50:LR3_Kick BRH.wav
64,192,56184,1,0,0:0:0:50:drum_cym_crash.ogg
192,192,56184,1,0,0:0:0:50:LR3_Kick BRH.wav
64,192,56421,1,0,0:0:0:50:drum_cym_crash.ogg
192,192,56421,1,0,0:0:0:50:LR3_Kick BRH.wav
64,192,56658,1,0,0:0:0:50:drum_cym_crash.ogg
192,192,56658,1,0,0:0:0:50:LR3_Kick BRH.wav
320,192,56815,1,0,0:0:0:50:drum_cym_crash.ogg
448,192,56815,1,0,0:0:0:50:LR3_Kick BRH.wav
320,192,57131,1,0,0:0:0:50:drum_cym_crash.ogg
448,192,57131,1,0,0:0:0:50:LR3_Kick BRH.wav
64,192,57289,1,0,0:0:0:50:drum_cym_crash.ogg
320,192,57447,1,0,0:0:0:50:drum_cym_crash.ogg
448,192,57447,1,0,0:0:0:50:LR3_Kick BRH.wav
192,192,57605,5,0,0:0:0:50:drum_cym_crash.ogg
64,192,57684,1,0,0:0:0:50:LR3_Kick BRH.wav
320,192,57763,1,0,0:0:0:50:drum_cym_crash.ogg
448,192,57763,1,0,0:0:0:50:LR3_Kick BRH.wav
320,192,57921,1,0,0:0:0:50:drum_cym_crash.ogg
448,192,57921,1,0,0:0:0:50:LR3_Kick BRH.wav
192,192,58079,1,0,0:0:0:50:drum_cym_crash.ogg
448,192,58079,1,0,0:0:0:50:LR3_Kick BRH.wav
192,192,58394,1,0,0:0:0:50:drum_cym_crash.ogg
448,192,58394,1,0,0:0:0:50:LR3_Kick BRH.wav
192,192,58710,1,0,0:0:0:50:drum_cym_crash.ogg
448,192,58710,1,0,0:0:0:50:LR3_Kick BRH.wav
64,192,58947,1,0,0:0:0:50:drum_cym_crash.ogg
448,192,58947,1,0,0:0:0:50:LR3_Kick BRH.wav
64,192,59184,1,0,0:0:0:50:drum_cym_crash.ogg
448,192,59184,1,0,0:0:0:50:LR3_Kick BRH.wav
64,192,59342,1,0,0:0:0:50:drum_cym_crash.ogg
320,192,59342,1,0,0:0:0:50:LR3_Kick BRH.wav
64,192,59658,1,0,0:0:0:50:drum_cym_crash.ogg
320,192,59658,1,0,0:0:0:50:LR3_Kick BRH.wav
64,192,59973,1,0,0:0:0:50:drum_cym_crash.ogg
320,192,59973,1,0,0:0:0:50:LR3_Kick BRH.wav
64,192,60210,1,0,0:0:0:50:drum_cym_crash.ogg
320,192,60210,1,0,0:0:0:50:LR3_Kick BRH.wav
64,192,60447,1,0,0:0:0:50:LR3_Kick BRH.wav
192,192,60526,1,0,0:0:0:50:LR3_Kick BRH.wav
320,192,60605,1,0,0:0:0:50:drum_cym_crash.ogg
448,192,60605,1,0,0:0:0:50:LR3_Kick BRH.wav
320,192,60921,1,0,0:0:0:50:drum_cym_crash.ogg
448,192,60921,1,0,0:0:0:50:LR3_Kick BRH.wav
320,192,61237,1,0,0:0:0:50:drum_cym_crash.ogg
448,192,61237,1,0,0:0:0:50:LR3_Kick BRH.wav
320,192,61473,1,0,0:0:0:50:drum_cym_crash.ogg
448,192,61473,1,0,0:0:0:50:LR3_Kick BRH.wav
320,192,61710,1,0,0:0:0:50:drum_cym_crash.ogg
448,192,61710,1,0,0:0:0:50:LR3_Kick BRH.wav
64,192,61868,1,0,0:0:0:50:drum_cym_crash.ogg
192,192,61868,1,0,0:0:0:50:LR3_Kick BRH.wav
64,192,62184,1,0,0:0:0:50:drum_cym_crash.ogg
192,192,62184,1,0,0:0:0:50:LR3_Kick BRH.wav
320,192,62342,1,0,0:0:0:50:drum_cym_crash.ogg
64,192,62500,1,0,0:0:0:50:drum_cym_crash.ogg
192,192,62500,1,0,0:0:0:50:LR3_Kick BRH.wav
320,192,62658,1,0,0:0:0:50:drum_cym_crash.ogg
448,192,62737,1,0,0:0:0:50:LR3_Kick BRH.wav
64,192,62815,1,0,0:0:0:50:drum_cym_crash.ogg
192,192,62815,1,0,0:0:0:50:LR3_Kick BRH.wav
64,192,62973,1,0,0:0:0:50:drum_cym_crash.ogg
192,192,62973,1,0,0:0:0:50:LR3_Kick BRH.wav
64,192,63131,1,0,0:0:0:50:drum_cym_crash.ogg
320,192,63131,1,0,0:0:0:50:LR3_Kick BRH.wav
448,192,63131,1,0,0:0:0:0:
192,192,63447,1,0,0:0:0:50:drum_cym_crash.ogg
448,192,63447,1,0,0:0:0:50:LR3_Kick BRH.wav
192,192,63763,1,0,0:0:0:50:drum_cym_crash.ogg
448,192,63763,1,0,0:0:0:50:LR3_Kick BRH.wav
64,192,63921,1,0,0:0:0:0:
192,192,64000,1,0,0:0:0:50:drum_cym_crash.ogg
448,192,64000,1,0,0:0:0:50:LR3_Kick BRH.wav
64,192,64079,1,0,0:0:0:0:
192,192,64237,1,0,0:0:0:50:drum_cym_crash.ogg
448,192,64237,1,0,0:0:0:50:LR3_Kick BRH.wav
64,192,64394,1,0,0:0:0:50:drum_cym_crash.ogg
192,192,64394,1,0,0:0:0:50:LR3_Kick BRH.wav
448,192,64552,1,0,0:0:0:0:
64,192,64710,1,0,0:0:0:50:drum_cym_crash.ogg
192,192,64710,1,0,0:0:0:50:LR3_Kick BRH.wav
448,192,64868,1,0,0:0:0:0:
64,192,65026,1,0,0:0:0:50:drum_cym_crash.ogg
192,192,65026,1,0,0:0:0:50:LR3_Kick BRH.wav
320,192,65184,1,0,0:0:0:0:
64,192,65263,1,0,0:0:0:50:drum_cym_crash.ogg
192,192,65263,1,0,0:0:0:50:LR3_Kick BRH.wav
448,192,65342,1,0,0:0:0:0:
192,192,65500,1,0,0:0:0:50:LR3_Kick BRH.wav
320,192,65579,1,0,0:0:0:50:LR3_Kick BRH.wav
64,192,65658,1,0,0:0:0:50:drum_cym_crash.ogg
448,192,65658,1,0,0:0:0:50:LR3_Kick BRH.wav
64,192,65973,1,0,0:0:0:50:drum_cym_crash.ogg
448,192,65973,1,0,0:0:0:50:LR3_Kick BRH.wav
192,192,66131,1,0,0:0:0:0:
64,192,66289,1,0,0:0:0:50:drum_cym_crash.ogg
448,192,66289,1,0,0:0:0:50:LR3_Kick BRH.wav
320,192,66447,1,0,0:0:0:0:
64,192,66526,1,0,0:0:0:50:drum_cym_crash.ogg
448,192,66526,1,0,0:0:0:50:LR3_Kick BRH.wav
64,192,66763,1,0,0:0:0:50:drum_cym_crash.ogg
448,192,66763,1,0,0:0:0:50:LR3_Kick BRH.wav
320,192,66921,1,0,0:0:0:50:drum_cym_crash.ogg
448,192,66921,1,0,0:0:0:50:LR3_Kick BRH.wav
192,192,67079,1,0,0:0:0:0:
320,192,67237,1,0,0:0:0:50:drum_cym_crash.ogg
448,192,67237,1,0,0:0:0:50:LR3_Kick BRH.wav
64,192,67394,1,0,0:0:0:50:drum_cym_crash.ogg
320,192,67552,1,0,0:0:0:50:drum_cym_crash.ogg
448,192,67552,1,0,0:0:0:50:LR3_Kick BRH.wav
192,192,67710,1,0,0:0:0:50:drum_cym_crash.ogg
64,192,67789,1,0,0:0:0:50:LR3_Kick BRH.wav
320,192,67868,1,0,0:0:0:50:drum_cym_crash.ogg
448,192,67868,1,0,0:0:0:50:LR3_Kick BRH.wav
320,192,68026,1,0,0:0:0:50:LR3_Kick BRH.wav
192,192,68105,1,0,0:0:0:0:
64,192,68184,1,0,0:0:0:50:drum_cym_crash.ogg
320,192,68184,1,0,0:0:0:50:LR3_Kick BRH.wav
64,192,68500,1,0,0:0:0:50:drum_cym_crash.ogg
320,192,68500,1,0,0:0:0:50:LR3_Kick BRH.wav
64,192,68815,1,0,0:0:0:50:drum_cym_crash.ogg
320,192,68815,1,0,0:0:0:50:LR3_Kick BRH.wav
64,192,69052,1,0,0:0:0:50:drum_cym_crash.ogg
320,192,69052,1,0,0:0:0:50:LR3_Kick BRH.wav
192,192,69131,1,0,0:0:0:0:
64,192,69289,1,0,0:0:0:50:drum_cym_crash.ogg
320,192,69289,1,0,0:0:0:50:LR3_Kick BRH.wav
320,192,69447,1,0,0:0:0:50:drum_cym_crash.ogg
448,192,69447,1,0,0:0:0:50:LR3_Kick BRH.wav
64,192,69605,1,0,0:0:0:0:
320,192,69763,1,0,0:0:0:50:drum_cym_crash.ogg
448,192,69763,1,0,0:0:0:50:LR3_Kick BRH.wav
192,192,69921,1,0,0:0:0:0:
320,192,70079,1,0,0:0:0:50:drum_cym_crash.ogg
448,192,70079,1,0,0:0:0:50:LR3_Kick BRH.wav
192,192,70237,1,0,0:0:0:0:
320,192,70315,1,0,0:0:0:50:drum_cym_crash.ogg
448,192,70315,1,0,0:0:0:50:LR3_Kick BRH.wav
64,192,70394,1,0,0:0:0:0:
320,192,70552,1,0,0:0:0:50:LR3_Kick BRH.wav
192,192,70631,1,0,0:0:0:50:LR3_Kick BRH.wav
64,192,70710,1,0,0:0:0:50:drum_cym_crash.ogg
320,192,70710,1,0,0:0:0:50:LR3_Kick BRH.wav
192,192,70868,1,0,0:0:0:0:
64,192,71026,1,0,0:0:0:50:drum_cym_crash.ogg
320,192,71026,1,0,0:0:0:50:LR3_Kick BRH.wav
448,192,71184,1,0,0:0:0:0:
64,192,71342,1,0,0:0:0:50:drum_cym_crash.ogg
320,192,71342,1,0,0:0:0:50:LR3_Kick BRH.wav
192,192,71500,1,0,0:0:0:0:
64,192,71579,1,0,0:0:0:50:drum_cym_crash.ogg
320,192,71579,1,0,0:0:0:50:LR3_Kick BRH.wav
64,192,71815,1,0,0:0:0:50:drum_cym_crash.ogg
320,192,71815,1,0,0:0:0:50:LR3_Kick BRH.wav
320,192,71973,1,0,0:0:0:50:drum_cym_crash.ogg
448,192,71973,1,0,0:0:0:50:LR3_Kick BRH.wav
320,192,72210,1,0,0:0:0:50:drum_cym_crash.ogg
448,192,72210,1,0,0:0:0:50:LR3_Kick BRH.wav
320,192,72447,1,0,0:0:0:50:drum_cym_crash.ogg
448,192,72447,1,0,0:0:0:50:LR3_Kick BRH.wav
320,192,72605,1,0,0:0:0:50:drum_cym_crash.ogg
448,192,72605,1,0,0:0:0:50:LR3_Kick BRH.wav
192,192,72763,1,0,0:0:0:50:drum_cym_crash.ogg
64,192,72842,1,0,0:0:0:50:LR3_Kick BRH.wav
320,192,72921,1,0,0:0:0:50:drum_cym_crash.ogg
448,192,72921,1,0,0:0:0:50:LR3_Kick BRH.wav
320,192,73079,1,0,0:0:0:50:LR3_Kick BRH.wav
448,192,73079,1,0,0:0:0:0:
64,192,73237,1,0,0:0:0:50:LR3_Kick BRH.wav
192,192,73237,1,0,0:0:0:0:
192,192,73394,1,0,0:0:0:50:LR3_Kick BRH.wav
320,192,73394,1,0,0:0:0:0:
320,192,73552,1,0,0:0:0:50:drum_cym_crash.ogg
448,192,73552,1,0,0:0:0:50:LR3_Kick BRH.wav
64,192,73710,1,0,0:0:0:50:LR3_Kick BRH.wav
192,192,73789,1,0,0:0:0:50:LR3_Kick BRH.wav
320,192,73868,1,0,0:0:0:50:LR3_Kick BRH.wav
448,192,73868,1,0,0:0:0:0:
192,192,74026,1,0,0:0:0:50:LR3_Kick BRH.wav
320,192,74026,1,0,0:0:0:0:
64,192,74184,1,0,0:0:0:50:drum_cym_crash.ogg
192,192,74184,1,0,0:0:0:50:LR3_Kick BRH.wav
448,192,74342,1,0,0:0:0:50:LR3_Kick BRH.wav
320,192,74421,1,0,0:0:0:50:LR3_Kick BRH.wav
64,192,74500,1,0,0:0:0:50:LR3_Kick BRH.wav
192,192,74500,1,0,0:0:0:0:
64,192,74658,1,0,0:0:0:50:LR3_Kick BRH.wav
192,192,74658,1,0,0:0:0:0:
320,192,74815,1,0,0:0:0:50:LR3_Kick BRH.wav
448,192,74815,1,0,0:0:0:0:
320,192,74973,1,0,0:0:0:50:LR3_Kick BRH.wav
448,192,74973,1,0,0:0:0:0:
64,192,75131,1,0,0:0:0:50:LR3_Kick BRH.wav
192,192,75210,1,0,0:0:0:0:
320,192,75289,1,0,0:0:0:0:
448,192,75368,1,0,0:0:0:0:
64,192,75447,1,0,0:0:0:0:
192,192,75526,1,0,0:0:0:0:
320,192,75605,1,0,0:0:0:0:
448,192,75684,1,0,0:0:0:0:
64,192,75763,1,0,0:0:0:60:cym.ogg
192,192,75763,1,0,0:0:0:50:LR3_Kick BRH.wav
320,192,75921,1,0,0:0:0:0:
192,192,76000,1,0,0:0:0:0:
320,192,76079,1,0,0:0:0:50:LR3_Kick BRH.wav
192,192,76237,1,0,0:0:0:0:
320,192,76315,1,0,0:0:0:0:
192,192,76394,1,0,0:0:0:50:LR3_Kick BRH.wav
64,192,76552,1,0,0:0:0:0:
448,192,76710,1,0,0:0:0:50:LR3_Kick BRH.wav
192,192,76868,1,0,0:0:0:0:
448,192,77026,1,0,0:0:0:50:LR3_Kick BRH.wav
320,192,77105,1,0,0:0:0:0:
192,192,77184,1,0,0:0:0:0:
64,192,77263,1,0,0:0:0:0:
448,192,77342,1,0,0:0:0:50:LR3_Kick BRH.wav
320,192,77421,1,0,0:0:0:0:
192,192,77500,1,0,0:0:0:0:
64,192,77579,1,0,0:0:0:0:
448,192,77658,1,0,0:0:0:50:LR3_Kick BRH.wav
192,192,77737,1,0,0:0:0:0:
320,192,77815,1,0,0:0:0:0:
64,192,77894,1,0,0:0:0:0:
320,192,77973,1,0,0:0:0:50:LR3_Kick BRH.wav
448,192,78052,1,0,0:0:0:0:
64,192,78131,1,0,0:0:0:0:
192,192,78210,1,0,0:0:0:0:
320,192,78289,1,0,0:0:0:50:LR3_Kick BRH.wav
192,192,78447,1,0,0:0:0:0:
64,192,78526,1,0,0:0:0:0:
192,192,78605,1,0,0:0:0:50:LR3_Kick BRH.wav
320,192,78763,1,0,0:0:0:0:
448,192,78842,1,0,0:0:0:0:
320,192,78921,1,0,0:0:0:50:LR3_Kick BRH.wav
64,192,79079,1,0,0:0:0:0:
192,192,79237,1,0,0:0:0:50:LR3_Kick BRH.wav
320,192,79315,1,0,0:0:0:0:
192,192,79394,1,0,0:0:0:0:
448,192,79473,1,0,0:0:0:0:
192,192,79552,1,0,0:0:0:50:LR3_Kick BRH.wav
64,192,79631,1,0,0:0:0:0:
192,192,79710,1,0,0:0:0:0:
320,192,79789,1,0,0:0:0:0:
448,192,79868,1,0,0:0:0:50:LR3_Kick BRH.wav
320,192,79947,1,0,0:0:0:0:
192,192,80026,1,0,0:0:0:0:
64,192,80105,1,0,0:0:0:0:
448,192,80184,1,0,0:0:0:50:LR3_Kick BRH.wav
320,192,80263,1,0,0:0:0:0:
192,192,80342,1,0,0:0:0:0:
64,192,80421,1,0,0:0:0:0:
448,192,80500,1,0,0:0:0:50:LR3_Kick BRH.wav
320,192,80579,1,0,0:0:0:0:
64,192,80658,1,0,0:0:0:50:LR3_Kick BRH.wav
192,192,80737,1,0,0:0:0:0:
64,192,80815,1,0,0:0:0:50:LR3_Kick BRH.wav
448,192,80973,1,0,0:0:0:0:
320,192,81052,1,0,0:0:0:0:
448,192,81131,1,0,0:0:0:50:LR3_Kick BRH.wav
320,192,81289,1,0,0:0:0:0:
192,192,81447,1,0,0:0:0:50:LR3_Kick BRH.wav
64,192,81526,1,0,0:0:0:0:
320,192,81684,1,0,0:0:0:0:
448,192,81763,1,0,0:0:0:50:LR3_Kick BRH.wav
320,192,81842,1,0,0:0:0:0:
192,192,82000,1,0,0:0:0:0:
320,192,82079,1,0,0:0:0:50:LR3_Kick BRH.wav
192,192,82158,1,0,0:0:0:0:
64,192,82315,1,0,0:0:0:0:
192,192,82394,1,0,0:0:0:50:LR3_Kick BRH.wav
64,192,82473,1,0,0:0:0:0:
320,192,82631,1,0,0:0:0:0:
192,192,82710,1,0,0:0:0:50:LR3_Kick BRH.wav
320,192,82789,1,0,0:0:0:0:
448,192,82947,1,0,0:0:0:0:
320,192,83026,1,0,0:0:0:50:LR3_Kick BRH.wav
448,192,83105,1,0,0:0:0:0:
64,192,83263,1,0,0:0:0:0:
320,192,83342,1,0,0:0:0:50:LR3_Kick BRH.wav
448,192,83421,1,0,0:0:0:0:
192,192,83500,1,0,0:0:0:0:
64,192,83579,1,0,0:0:0:0:
320,192,83658,1,0,0:0:0:50:LR3_Kick BRH.wav
448,192,83737,1,0,0:0:0:0:
192,192,83815,1,0,0:0:0:0:
64,192,83894,1,0,0:0:0:0:
320,192,83973,1,0,0:0:0:50:LR3_Kick BRH.wav
192,192,84052,1,0,0:0:0:0:
64,192,84131,1,0,0:0:0:0:
320,192,84210,1,0,0:0:0:0:
448,192,84289,1,0,0:0:0:50:LR3_Kick BRH.wav
64,192,84368,1,0,0:0:0:0:
320,192,84447,1,0,0:0:0:0:
192,192,84526,1,0,0:0:0:0:
64,192,84605,1,0,0:0:0:50:LR3_Kick BRH.wav
448,192,84605,1,0,0:0:0:0:
320,192,84684,1,0,0:0:0:0:
192,192,84763,1,0,0:0:0:0:
64,192,84842,1,0,0:0:0:0:
448,192,84921,1,0,0:0:0:0:
320,192,85000,1,0,0:0:0:0:
192,192,85079,1,0,0:0:0:0:
64,192,85158,1,0,0:0:0:0:
320,192,85237,1,0,0:0:0:0:
192,192,85315,1,0,0:0:0:0:
448,192,85394,1,0,0:0:0:50:LR3_Kick BRH.wav
64,192,85473,1,0,0:0:0:0:
448,192,85552,1,0,0:0:0:50:LR3_Kick BRH.wav
192,192,85631,1,0,0:0:0:0:
448,192,85710,1,0,0:0:0:50:LR3_Kick BRH.wav
64,192,85789,1,0,0:0:0:0:
448,192,85868,1,0,0:0:0:60:cym.ogg
320,192,85868,1,0,0:0:0:50:LR3_Kick BRH.wav
64,192,86026,1,0,0:0:0:0:
192,192,86105,1,0,0:0:0:0:
320,192,86184,1,0,0:0:0:50:LR3_Kick BRH.wav
64,192,86342,1,0,0:0:0:0:
192,192,86421,1,0,0:0:0:0:
320,192,86500,1,0,0:0:0:50:LR3_Kick BRH.wav
64,192,86658,1,0,0:0:0:0:
192,192,86737,1,0,0:0:0:0:
320,192,86815,1,0,0:0:0:50:LR3_Kick BRH.wav
448,192,86894,1,0,0:0:0:0:
64,192,86973,1,0,0:0:0:0:
192,192,87052,1,0,0:0:0:0:
320,192,87131,1,0,0:0:0:50:LR3_Kick BRH.wav
448,192,87289,1,0,0:0:0:0:
320,192,87368,1,0,0:0:0:0:
192,192,87447,1,0,0:0:0:50:LR3_Kick BRH.wav
448,192,87605,1,0,0:0:0:0:
320,192,87684,1,0,0:0:0:0:
192,192,87763,1,0,0:0:0:50:LR3_Kick BRH.wav
448,192,87921,1,0,0:0:0:0:
320,192,88000,1,0,0:0:0:0:
192,192,88079,1,0,0:0:0:50:LR3_Kick BRH.wav
64,192,88158,1,0,0:0:0:0:
448,192,88237,1,0,0:0:0:0:
320,192,88315,1,0,0:0:0:0:
192,192,88394,1,0,0:0:0:50:LR3_Kick BRH.wav
320,192,88473,1,0,0:0:0:0:
64,192,88631,1,0,0:0:0:0:
320,192,88710,1,0,0:0:0:50:LR3_Kick BRH.wav
64,192,88789,1,0,0:0:0:0:
448,192,88947,1,0,0:0:0:0:
192,192,89026,1,0,0:0:0:50:LR3_Kick BRH.wav
448,192,89105,1,0,0:0:0:0:
64,192,89263,1,0,0:0:0:0:
448,192,89342,1,0,0:0:0:50:LR3_Kick BRH.wav
64,192,89421,1,0,0:0:0:0:
448,192,89579,1,0,0:0:0:0:
64,192,89658,1,0,0:0:0:50:LR3_Kick BRH.wav
320,192,89658,1,0,0:0:0:0:
192,192,89815,1,0,0:0:0:0:
448,192,89815,1,0,0:0:0:0:
64,192,89973,1,0,0:0:0:50:LR3_Kick BRH.wav
320,192,89973,1,0,0:0:0:0:
192,192,90131,1,0,0:0:0:0:
64,192,90131,1,0,0:0:0:0:
64,192,90447,1,0,0:0:0:0:
192,192,90526,1,0,0:0:0:0:
320,192,90605,1,0,0:0:0:50:LR3_Kick BRH.wav
448,192,90684,1,0,0:0:0:0:
64,192,90763,1,0,0:0:0:50:LR3_Kick BRH.wav
192,192,90842,1,0,0:0:0:0:
64,192,90921,1,0,0:0:0:50:drum_cym_crash.ogg
320,192,90921,1,0,0:0:0:50:LR3_Kick BRH.wav
192,192,91079,1,0,0:0:0:0:
448,192,91079,1,0,0:0:0:0:
64,192,91237,1,0,0:0:0:50:LR3_Kick BRH.wav
320,192,91237,1,0,0:0:0:0:
192,192,91394,1,0,0:0:0:0:
448,192,91394,1,0,0:0:0:0:
320,192,91710,1,0,0:0:0:0:
448,192,91789,1,0,0:0:0:0:
64,192,91868,1,0,0:0:0:50:LR3_Kick BRH.wav
192,192,91947,1,0,0:0:0:0:
320,192,92026,1,0,0:0:0:0:
448,192,92105,1,0,0:0:0:0:
64,192,92184,1,0,0:0:0:50:drum_cym_crash.ogg
320,192,92184,1,0,0:0:0:50:LR3_Kick BRH.wav
192,192,92342,1,0,0:0:0:0:
448,192,92342,1,0,0:0:0:0:
64,192,92500,1,0,0:0:0:50:LR3_Kick BRH.wav
320,192,92500,1,0,0:0:0:0:
192,192,92658,1,0,0:0:0:0:
448,192,92658,1,0,0:0:0:0:
64,192,92973,1,0,0:0:0:0:
320,192,93052,1,0,0:0:0:0:
64,192,93131,1,0,0:0:0:50:LR3_Kick BRH.wav
320,192,93210,1,0,0:0:0:0:
64,192,93289,1,0,0:0:0:0:
448,192,93368,1,0,0:0:0:0:
64,192,93447,1,0,0:0:0:50:drum_cym_crash.ogg
192,192,93447,1,0,0:0:0:50:LR3_Kick BRH.wav
448,192,93605,1,0,0:0:0:0:
320,192,93684,1,0,0:0:0:0:
448,192,93763,1,0,0:0:0:0:
64,192,93921,1,0,0:0:0:50:drum_cym_crash.ogg
192,192,93921,1,0,0:0:0:50:LR3_Kick BRH.wav
64,192,94079,1,0,0:0:0:50:drum_cym_crash.ogg
192,192,94079,1,0,0:0:0:50:LR3_Kick BRH.wav
448,192,94237,1,0,0:0:0:0:
320,192,94315,1,0,0:0:0:0:
448,192,94394,1,0,0:0:0:0:
64,192,94552,1,0,0:0:0:50:drum_cym_crash.ogg
192,192,94552,1,0,0:0:0:50:LR3_Kick BRH.wav
64,192,94710,1,0,0:0:0:50:drum_cym_crash.ogg
192,192,94710,1,0,0:0:0:50:LR3_Kick BRH.wav
64,192,95026,1,0,0:0:0:50:LR3_Kick BRH.wav
320,192,95026,1,0,0:0:0:0:
64,192,95342,1,0,0:0:0:50:LR3_Kick BRH.wav
448,192,95342,1,0,0:0:0:0:
192,192,95658,1,0,0:0:0:50:LR3_Kick BRH.wav
448,192,95658,1,0,0:0:0:0:
320,192,95973,1,0,0:0:0:50:drum_cym_crash.ogg
448,192,95973,1,0,0:0:0:50:LR3_Kick BRH.wav
64,192,96131,1,0,0:0:0:0:
192,192,96210,1,0,0:0:0:0:
64,192,96289,1,0,0:0:0:0:
320,192,96447,1,0,0:0:0:50:drum_cym_crash.ogg
448,192,96447,1,0,0:0:0:50:LR3_Kick BRH.wav
320,192,96605,1,0,0:0:0:50:drum_cym_crash.ogg
448,192,96605,1,0,0:0:0:50:LR3_Kick BRH.wav
64,192,96763,1,0,0:0:0:0:
192,192,96842,1,0,0:0:0:0:
64,192,96921,1,0,0:0:0:0:
320,192,97079,1,0,0:0:0:50:drum_cym_crash.ogg
448,192,97079,1,0,0:0:0:50:LR3_Kick BRH.wav
320,192,97237,1,0,0:0:0:50:drum_cym_crash.ogg
448,192,97237,1,0,0:0:0:50:LR3_Kick BRH.wav
192,192,97552,1,0,0:0:0:50:LR3_Kick BRH.wav
448,192,97552,1,0,0:0:0:0:
64,192,97868,1,0,0:0:0:50:LR3_Kick BRH.wav
448,192,97868,1,0,0:0:0:0:
64,192,98184,1,0,0:0:0:50:LR3_Kick BRH.wav
320,192,98184,1,0,0:0:0:0:
64,192,98500,1,0,0:0:0:50:drum_cym_crash.ogg
192,192,98500,1,0,0:0:0:50:LR3_Kick BRH.wav
448,192,98658,1,0,0:0:0:0:
320,192,98737,1,0,0:0:0:0:
448,192,98815,1,0,0:0:0:0:
64,192,98973,1,0,0:0:0:50:drum_cym_crash.ogg
192,192,98973,1,0,0:0:0:50:LR3_Kick BRH.wav
64,192,99131,1,0,0:0:0:50:drum_cym_crash.ogg
192,192,99131,1,0,0:0:0:50:LR3_Kick BRH.wav
448,192,99289,1,0,0:0:0:0:
320,192,99368,1,0,0:0:0:0:
448,192,99447,1,0,0:0:0:0:
64,192,99605,1,0,0:0:0:50:drum_cym_crash.ogg
192,192,99605,1,0,0:0:0:50:LR3_Kick BRH.wav
64,192,99763,1,0,0:0:0:50:drum_cym_crash.ogg
192,192,99763,1,0,0:0:0:50:LR3_Kick BRH.wav
64,192,100079,1,0,0:0:0:50:LR3_Kick BRH.wav
320,192,100079,1,0,0:0:0:0:
64,192,100394,1,0,0:0:0:50:LR3_Kick BRH.wav
448,192,100394,1,0,0:0:0:0:
192,192,100710,1,0,0:0:0:50:LR3_Kick BRH.wav
448,192,100710,1,0,0:0:0:0:
64,192,101026,128,0,101184:0:0:0:50:drum_cym_crash.ogg
448,192,101026,1,0,0:0:0:50:LR3_Kick BRH.wav
320,192,101184,128,0,101342:0:0:0:0:
192,192,101342,128,0,101500:0:0:0:0:
448,192,101500,128,0,101658:0:0:0:0:
320,192,101658,128,0,101815:0:0:0:0:
64,192,101815,128,0,101973:0:0:0:0:
448,192,101973,128,0,102131:0:0:0:0:
192,192,102131,128,0,102289:0:0:0:0:
448,192,102289,128,0,102447:0:0:0:0:
448,192,102605,128,0,102763:0:0:0:0:
448,192,102921,128,0,103079:0:0:0:0:
64,192,103079,1,0,0:0:0:50:LR3_Kick BRH.wav
192,192,103079,1,0,0:0:0:0:
64,192,103237,1,0,0:0:0:50:LR3_Kick BRH.wav
192,192,103237,1,0,0:0:0:0:
320,192,103394,1,0,0:0:0:50:LR3_Kick BRH.wav
448,192,103394,1,0,0:0:0:0:
64,192,103552,1,0,0:0:0:60:cym.ogg
320,192,103552,1,0,0:0:0:50:LR3_Kick BRH.wav
448,192,103552,1,0,0:0:0:0:
192,192,103710,1,0,0:0:0:0:
64,192,103868,1,0,0:0:0:50:LR3_Kick BRH.wav
320,192,103868,1,0,0:0:0:0:
448,192,104026,1,0,0:0:0:0:
192,192,104184,1,0,0:0:0:50:LR3_Kick BRH.wav
320,192,104184,1,0,0:0:0:0:
64,192,104342,1,0,0:0:0:0:
192,192,104500,1,0,0:0:0:50:LR3_Kick BRH.wav
448,192,104500,1,0,0:0:0:0:
320,192,104658,1,0,0:0:0:0:
64,192,104815,1,0,0:0:0:50:LR3_Kick BRH.wav
192,192,104815,1,0,0:0:0:0:
320,192,104973,1,0,0:0:0:0:
64,192,105131,1,0,0:0:0:50:LR3_Kick BRH.wav
448,192,105131,1,0,0:0:0:0:
192,192,105289,1,0,0:0:0:0:
64,192,105447,1,0,0:0:0:50:LR3_Kick BRH.wav
448,192,105447,1,0,0:0:0:0:
320,192,105605,1,0,0:0:0:0:
64,192,105763,1,0,0:0:0:50:LR3_Kick BRH.wav
192,192,105763,1,0,0:0:0:0:
320,192,105921,1,0,0:0:0:0:
64,192,106079,1,0,0:0:0:50:LR3_Kick BRH.wav
448,192,106079,128,0,106868:0:0:0:0:
64,192,106237,1,0,0:0:0:0:
192,192,106394,1,0,0:0:0:50:LR3_Kick BRH.wav
320,192,106394,1,0,0:0:0:0:
320,192,106552,1,0,0:0:0:0:
64,192,106710,1,0,0:0:0:50:LR3_Kick BRH.wav
192,192,106710,1,0,0:0:0:0:
192,192,106868,1,0,0:0:0:0:
320,192,107026,1,0,0:0:0:50:LR3_Kick BRH.wav
448,192,107026,1,0,0:0:0:0:
64,192,107184,1,0,0:0:0:0:
192,192,107342,1,0,0:0:0:50:LR3_Kick BRH.wav
448,192,107342,1,0,0:0:0:0:
320,192,107500,1,0,0:0:0:0:
64,192,107658,1,0,0:0:0:50:LR3_Kick BRH.wav
192,192,107658,1,0,0:0:0:0:
448,192,107815,1,0,0:0:0:0:
64,192,107973,1,0,0:0:0:50:LR3_Kick BRH.wav
320,192,107973,1,0,0:0:0:0:
192,192,108131,1,0,0:0:0:0:
64,192,108289,1,0,0:0:0:50:LR3_Kick BRH.wav
448,192,108289,1,0,0:0:0:0:
320,192,108447,1,0,0:0:0:50:LR3_Kick BRH.wav
64,192,108605,128,0,109237:0:0:0:50:LR3_Kick BRH.wav
448,192,108605,1,0,0:0:0:0:
448,192,108763,1,0,0:0:0:0:
192,192,108921,1,0,0:0:0:50:LR3_Kick BRH.wav
320,192,108921,1,0,0:0:0:0:
320,192,109079,1,0,0:0:0:0:
192,192,109237,1,0,0:0:0:50:LR3_Kick BRH.wav
448,192,109237,1,0,0:0:0:0:
320,192,109394,1,0,0:0:0:0:
64,192,109552,1,0,0:0:0:50:LR3_Kick BRH.wav
448,192,109552,1,0,0:0:0:0:
320,192,109710,1,0,0:0:0:0:
64,192,109868,1,0,0:0:0:50:LR3_Kick BRH.wav
192,192,109868,1,0,0:0:0:0:
448,192,110026,1,0,0:0:0:0:
64,192,110184,1,0,0:0:0:50:LR3_Kick BRH.wav
320,192,110184,1,0,0:0:0:0:
192,192,110342,1,0,0:0:0:0:
320,192,110500,1,0,0:0:0:50:LR3_Kick BRH.wav
448,192,110500,1,0,0:0:0:0:
64,192,110658,1,0,0:0:0:0:
192,192,110815,1,0,0:0:0:50:LR3_Kick BRH.wav
448,192,110815,1,0,0:0:0:0:
320,192,110973,128,0,111763:0:0:0:0:
64,192,111131,1,0,0:0:0:50:LR3_Kick BRH.wav
448,192,111131,1,0,0:0:0:0:
448,192,111289,1,0,0:0:0:0:
64,192,111447,1,0,0:0:0:50:LR3_Kick BRH.wav
192,192,111447,1,0,0:0:0:0:
64,192,111605,1,0,0:0:0:0:
192,192,111763,1,0,0:0:0:50:LR3_Kick BRH.wav
448,192,111763,1,0,0:0:0:0:
64,192,111921,1,0,0:0:0:0:
320,192,112079,1,0,0:0:0:50:LR3_Kick BRH.wav
448,192,112079,1,0,0:0:0:0:
192,192,112237,1,0,0:0:0:0:
64,192,112394,1,0,0:0:0:50:LR3_Kick BRH.wav
320,192,112394,1,0,0:0:0:0:
448,192,112394,128,0,112552:0:0:0:0:
448,192,112710,128,0,112868:0:0:0:0:
448,192,113026,128,0,113184:0:0:0:0:
64,192,113184,1,0,0:0:0:50:LR3_Kick BRH.wav
192,192,113184,1,0,0:0:0:0:
64,192,113342,1,0,0:0:0:50:LR3_Kick BRH.wav
192,192,113342,1,0,0:0:0:0:
320,192,113500,1,0,0:0:0:50:LR3_Kick BRH.wav
448,192,113500,1,0,0:0:0:0:
64,192,113658,1,0,0:0:0:60:cym.ogg
320,192,113658,1,0,0:0:0:50:LR3_Kick BRH.wav
448,192,113658,1,0,0:0:0:0:
64,192,113970,1,0,0:0:0:50:LR3_Kick BRH.wav
320,192,113970,1,0,0:0:0:0:
64,192,114283,1,0,0:0:0:50:LR3_Kick BRH.wav
448,192,114283,1,0,0:0:0:0:
192,192,114595,1,0,0:0:0:50:LR3_Kick BRH.wav
448,192,114595,1,0,0:0:0:0:
64,192,114908,1,0,0:0:0:50:LR3_Kick BRH.wav
192,192,114908,1,0,0:0:0:0:
320,192,115220,1,0,0:0:0:50:LR3_Kick BRH.wav
448,192,115220,1,0,0:0:0:0:
192,192,115376,1,0,0:0:0:0:
192,192,115689,1,0,0:0:0:0:
320,192,115845,1,0,0:0:0:50:LR3_Kick BRH.wav
448,192,115845,1,0,0:0:0:0:
64,192,116001,1,0,0:0:0:0:
192,192,116001,1,0,0:0:0:0:
320,192,116158,1,0,0:0:0:50:LR3_Kick BRH.wav
448,192,116158,1,0,0:0:0:0:
64,192,116470,1,0,0:0:0:50:LR3_Kick BRH.wav
192,192,116470,1,0,0:0:0:0:
320,192,116626,1,0,0:0:0:0:
320,192,116939,1,0,0:0:0:0:
64,192,117095,1,0,0:0:0:50:LR3_Kick BRH.wav
192,192,117095,1,0,0:0:0:0:
320,192,117251,1,0,0:0:0:0:
448,192,117251,1,0,0:0:0:0:
64,192,117408,1,0,0:0:0:50:LR3_Kick BRH.wav
192,192,117408,1,0,0:0:0:0:
64,192,117720,1,0,0:0:0:50:LR3_Kick BRH.wav
320,192,117720,1,0,0:0:0:0:
64,192,118033,1,0,0:0:0:50:LR3_Kick BRH.wav
448,192,118033,1,0,0:0:0:0:
192,192,118345,1,0,0:0:0:50:LR3_Kick BRH.wav
448,192,118345,1,0,0:0:0:0:
64,192,118658,1,0,0:0:0:50:drum_cym_crash.ogg
320,192,118658,128,0,118813:0:0:0:50:LR3_Kick BRH.wav
448,192,118658,1,0,0:0:0:0:
192,192,118968,128,0,119124:0:0:0:50:LR3_Kick BRH.wav
448,192,118968,1,0,0:0:0:0:
64,192,119279,128,0,119435:0:0:0:50:LR3_Kick BRH.wav
320,192,119279,1,0,0:0:0:0:
192,192,119590,1,0,0:0:0:50:drum_cym_crash.ogg
448,192,119590,128,0,119746:0:0:0:50:LR3_Kick BRH.wav
64,192,119901,1,0,0:0:0:50:drum_cym_crash.ogg
320,192,119901,1,0,0:0:0:50:LR3_Kick BRH.wav
448,192,119901,128,0,120056:0:0:0:0:
64,192,120212,1,0,0:0:0:50:LR3_Kick BRH.wav
192,192,120212,128,0,120367:0:0:0:0:
320,192,120367,128,0,120523:0:0:0:0:
64,192,120523,1,0,0:0:0:50:LR3_Kick BRH.wav
448,192,120523,128,0,120678:0:0:0:0:
320,192,120834,128,0,120989:0:0:0:50:drum_cym_crash.ogg
448,192,120834,1,0,0:0:0:50:LR3_Kick BRH.wav
192,192,120989,128,0,121145:0:0:0:0:
64,192,121145,128,0,121300:0:0:0:50:drum_cym_crash.ogg
448,192,121145,1,0,0:0:0:50:LR3_Kick BRH.wav
64,192,121455,1,0,0:0:0:50:LR3_Kick BRH.wav
320,192,121455,128,0,121611:0:0:0:0:
64,192,121766,1,0,0:0:0:50:LR3_Kick BRH.wav
192,192,121766,1,0,0:0:0:0:
64,192,121922,1,0,0:0:0:0:
320,192,122077,1,0,0:0:0:50:drum_cym_crash.ogg
448,192,122077,1,0,0:0:0:50:LR3_Kick BRH.wav
448,192,122233,1,0,0:0:0:0:
64,192,122388,1,0,0:0:0:50:LR3_Kick BRH.wav
320,192,122388,1,0,0:0:0:0:
192,192,122388,1,0,0:0:0:0:
192,192,122697,1,0,0:0:0:0:
192,192,123006,1,0,0:0:0:0:
320,192,123161,1,0,0:0:0:50:LR3_Kick BRH.wav
448,192,123161,1,0,0:0:0:0:
320,192,123315,1,0,0:0:0:50:LR3_Kick BRH.wav
448,192,123315,1,0,0:0:0:0:
64,192,123470,1,0,0:0:0:50:LR3_Kick BRH.wav
192,192,123470,1,0,0:0:0:0:
64,192,123625,1,0,0:0:0:60:cym.ogg
192,192,123625,1,0,0:0:0:50:LR3_Kick BRH.wav
448,192,123625,1,0,0:0:0:0:
320,192,123773,1,0,0:0:0:0:
64,192,123922,1,0,0:0:0:50:LR3_Kick BRH.wav
192,192,123922,1,0,0:0:0:0:
448,192,124070,1,0,0:0:0:0:
64,192,124219,1,0,0:0:0:50:LR3_Kick BRH.wav
320,192,124219,1,0,0:0:0:0:
192,192,124367,1,0,0:0:0:0:
64,192,124516,1,0,0:0:0:50:LR3_Kick BRH.wav
448,192,124516,1,0,0:0:0:0:
320,192,124664,1,0,0:0:0:0:
64,192,124813,1,0,0:0:0:50:LR3_Kick BRH.wav
192,192,124813,1,0,0:0:0:0:
320,192,124961,1,0,0:0:0:0:
64,192,125110,1,0,0:0:0:50:LR3_Kick BRH.wav
448,192,125110,1,0,0:0:0:0:
192,192,125258,1,0,0:0:0:0:
64,192,125407,1,0,0:0:0:50:LR3_Kick BRH.wav
448,192,125407,1,0,0:0:0:0:
320,192,125555,1,0,0:0:0:0:
64,192,125704,1,0,0:0:0:50:LR3_Kick BRH.wav
192,192,125704,1,0,0:0:0:0:
320,192,125852,1,0,0:0:0:0:
64,192,126001,1,0,0:0:0:50:LR3_Kick BRH.wav
448,192,126001,1,0,0:0:0:0:
320,192,126149,1,0,0:0:0:0:
192,192,126224,1,0,0:0:0:0:
64,192,126298,1,0,0:0:0:50:LR3_Kick BRH.wav
192,192,126446,1,0,0:0:0:0:
320,192,126521,1,0,0:0:0:0:
448,192,126595,1,0,0:0:0:50:LR3_Kick BRH.wav
320,192,126743,1,0,0:0:0:0:
192,192,126818,1,0,0:0:0:0:
64,192,126892,1,0,0:0:0:50:LR3_Kick BRH.wav
320,192,127040,1,0,0:0:0:0:
64,192,127189,1,0,0:0:0:50:LR3_Kick BRH.wav
448,192,127189,1,0,0:0:0:0:
192,192,127262,1,0,0:0:0:0:
320,192,127336,1,0,0:0:0:0:
448,192,127409,1,0,0:0:0:0:
64,192,127483,1,0,0:0:0:50:LR3_Kick BRH.wav
192,192,127556,1,0,0:0:0:0:
320,192,127630,1,0,0:0:0:0:
448,192,127703,1,0,0:0:0:0:
64,192,127777,1,0,0:0:0:50:LR3_Kick BRH.wav
192,192,127850,1,0,0:0:0:0:
320,192,127924,1,0,0:0:0:0:
448,192,127997,1,0,0:0:0:0:
64,192,128071,1,0,0:0:0:50:LR3_Kick BRH.wav
192,192,128144,1,0,0:0:0:0:
320,192,128218,1,0,0:0:0:50:LR3_Kick BRH.wav
448,192,128291,1,0,0:0:0:0:
64,192,128365,128,0,128653:0:0:0:50:LR3_Kick BRH.wav
192,192,128365,1,0,0:0:0:0:
320,192,128653,1,0,0:0:0:50:LR3_Kick BRH.wav
448,192,128653,1,0,0:0:0:0:
64,192,128941,1,0,0:0:0:50:LR3_Kick BRH.wav
448,192,128941,1,0,0:0:0:0:
320,192,129014,1,0,0:0:0:0:
64,192,129086,1,0,0:0:0:0:
192,192,129158,1,0,0:0:0:0:
320,192,129230,1,0,0:0:0:50:LR3_Kick BRH.wav
448,192,129230,1,0,0:0:0:0:
192,192,129374,1,0,0:0:0:0:
320,192,129518,1,0,0:0:0:50:LR3_Kick BRH.wav
192,192,129589,1,0,0:0:0:0:
64,192,129660,1,0,0:0:0:0:
320,192,129803,1,0,0:0:0:50:LR3_Kick BRH.wav
448,192,129803,1,0,0:0:0:0:
192,192,129946,1,0,0:0:0:0:
448,192,130089,1,0,0:0:0:50:LR3_Kick BRH.wav
64,192,130089,1,0,0:0:0:0:
192,192,130232,1,0,0:0:0:0:
320,192,130303,1,0,0:0:0:0:
64,192,130375,1,0,0:0:0:50:LR3_Kick BRH.wav
448,192,130375,1,0,0:0:0:0:
192,192,130446,1,0,0:0:0:0:
320,192,130518,1,0,0:0:0:0:
64,192,130660,1,0,0:0:0:50:LR3_Kick BRH.wav
448,192,130660,1,0,0:0:0:0:
192,192,130801,1,0,0:0:0:0:
320,192,130943,1,0,0:0:0:50:LR3_Kick BRH.wav
448,192,130943,1,0,0:0:0:0:
64,192,131084,1,0,0:0:0:0:
192,192,131155,1,0,0:0:0:0:
320,192,131226,1,0,0:0:0:50:LR3_Kick BRH.wav
192,192,131367,1,0,0:0:0:0:
64,192,131509,1,0,0:0:0:50:LR3_Kick BRH.wav
448,192,131509,1,0,0:0:0:0:
320,192,131650,1,0,0:0:0:0:
64,192,131792,1,0,0:0:0:50:LR3_Kick BRH.wav
192,192,131792,1,0,0:0:0:0:
448,192,131792,1,0,0:0:0:0:
320,192,131932,1,0,0:0:0:0:
192,192,132002,1,0,0:0:0:0:
320,192,132072,1,0,0:0:0:0:
192,192,132212,1,0,0:0:0:0:
320,192,132282,1,0,0:0:0:0:
192,192,132352,1,0,0:0:0:0:
320,192,132492,1,0,0:0:0:50:LR3_Kick BRH.wav
448,192,132492,1,0,0:0:0:0:
320,192,132633,1,0,0:0:0:50:LR3_Kick BRH.wav
448,192,132633,1,0,0:0:0:0:
64,192,132773,1,0,0:0:0:50:LR3_Kick BRH.wav
192,192,132773,1,0,0:0:0:0:
64,192,132913,128,0,133184:0:0:0:60:cym.ogg
192,192,132913,1,0,0:0:0:50:LR3_Kick BRH.wav
192,192,133184,128,0,133455:0:0:0:50:LR3_Kick BRH.wav
448,192,133184,1,0,0:0:0:0:
64,192,133455,1,0,0:0:0:50:LR3_Kick BRH.wav
448,192,133455,128,0,133727:0:0:0:0:
64,192,133727,1,0,0:0:0:50:LR3_Kick BRH.wav
320,192,133727,128,0,133998:0:0:0:0:
64,192,133998,128,0,134265:0:0:0:50:LR3_Kick BRH.wav
448,192,133998,1,0,0:0:0:0:
320,192,134131,1,0,0:0:0:0:
192,192,134265,128,0,134533:0:0:0:50:LR3_Kick BRH.wav
448,192,134265,1,0,0:0:0:0:
320,192,134399,1,0,0:0:0:0:
64,192,134533,1,0,0:0:0:50:LR3_Kick BRH.wav
448,192,134533,128,0,134801:0:0:0:0:
192,192,134667,1,0,0:0:0:0:
64,192,134801,1,0,0:0:0:50:LR3_Kick BRH.wav
320,192,134801,128,0,135069:0:0:0:0:
192,192,134935,1,0,0:0:0:0:
64,192,135069,128,0,135201:0:0:0:50:LR3_Kick BRH.wav
448,192,135069,1,0,0:0:0:0:
320,192,135201,128,0,135333:0:0:0:0:
64,192,135333,128,0,135465:0:0:0:50:LR3_Kick BRH.wav
448,192,135465,128,0,135597:0:0:0:0:
192,192,135597,128,0,135729:0:0:0:50:LR3_Kick BRH.wav
448,192,135729,128,0,135861:0:0:0:0:
64,192,135861,128,0,135994:0:0:0:50:LR3_Kick BRH.wav
320,192,135994,128,0,136126:0:0:0:0:
64,192,136126,1,0,0:0:0:50:LR3_Kick BRH.wav
192,192,136191,1,0,0:0:0:0:
320,192,136256,1,0,0:0:0:0:
448,192,136321,1,0,0:0:0:0:
192,192,136386,1,0,0:0:0:50:LR3_Kick BRH.wav
320,192,136452,1,0,0:0:0:0:
64,192,136517,1,0,0:0:0:0:
192,192,136582,1,0,0:0:0:0:
448,192,136647,1,0,0:0:0:50:LR3_Kick BRH.wav
320,192,136712,1,0,0:0:0:0:
192,192,136778,1,0,0:0:0:0:
64,192,136843,1,0,0:0:0:0:
320,192,136908,1,0,0:0:0:50:LR3_Kick BRH.wav
192,192,136973,1,0,0:0:0:0:
448,192,137039,1,0,0:0:0:50:LR3_Kick BRH.wav
320,192,137104,1,0,0:0:0:0:
192,192,137169,1,0,0:0:0:50:drum_cym_crash.ogg
64,192,137169,1,0,0:0:0:50:LR3_Kick BRH.wav
64,192,137426,1,0,0:0:0:50:LR3_Kick BRH.wav
192,192,137426,1,0,0:0:0:0:
192,192,137684,1,0,0:0:0:50:LR3_Kick BRH.wav
320,192,137684,1,0,0:0:0:0:
192,192,137941,1,0,0:0:0:50:drum_cym_crash.ogg
448,192,137941,1,0,0:0:0:50:LR3_Kick BRH.wav
192,192,138199,1,0,0:0:0:50:drum_cym_crash.ogg
448,192,138199,1,0,0:0:0:50:LR3_Kick BRH.wav
64,192,138453,1,0,0:0:0:50:LR3_Kick BRH.wav
448,192,138453,1,0,0:0:0:0:
320,192,138516,1,0,0:0:0:0:
192,192,138580,1,0,0:0:0:0:
64,192,138643,1,0,0:0:0:0:
320,192,138707,1,0,0:0:0:50:LR3_Kick BRH.wav
448,192,138707,1,0,0:0:0:0:
64,192,138961,1,0,0:0:0:50:drum_cym_crash.ogg
320,192,138961,1,0,0:0:0:50:LR3_Kick BRH.wav
192,192,139088,1,0,0:0:0:0:
64,192,139215,1,0,0:0:0:50:drum_cym_crash.ogg
448,192,139215,1,0,0:0:0:50:LR3_Kick BRH.wav
192,192,139466,1,0,0:0:0:50:LR3_Kick BRH.wav
320,192,139466,1,0,0:0:0:0:
64,192,139717,1,0,0:0:0:50:LR3_Kick BRH.wav
448,192,139717,1,0,0:0:0:0:
192,192,139779,1,0,0:0:0:0:
320,192,139842,1,0,0:0:0:0:
448,192,139905,1,0,0:0:0:0:
64,192,139968,1,0,0:0:0:50:drum_cym_crash.ogg
192,192,140030,1,0,0:0:0:0:
320,192,140093,1,0,0:0:0:0:
448,192,140156,1,0,0:0:0:0:
64,192,140219,1,0,0:0:0:50:drum_cym_crash.ogg
192,192,140219,1,0,0:0:0:50:LR3_Kick BRH.wav
320,192,140342,1,0,0:0:0:0:
448,192,140342,1,0,0:0:0:0:
64,192,140466,1,0,0:0:0:50:drum_cym_crash.ogg
192,192,140466,1,0,0:0:0:50:LR3_Kick BRH.wav
320,192,140590,1,0,0:0:0:0:
448,192,140590,1,0,0:0:0:0:
64,192,140714,1,0,0:0:0:50:drum_cym_crash.ogg
192,192,140714,1,0,0:0:0:50:LR3_Kick BRH.wav
320,192,140838,1,0,0:0:0:0:
448,192,140838,1,0,0:0:0:0:
64,192,140962,1,0,0:0:0:50:LR3_Kick BRH.wav
192,192,140962,1,0,0:0:0:0:
320,192,141086,1,0,0:0:0:50:LR3_Kick BRH.wav
448,192,141086,1,0,0:0:0:0:
192,192,141210,1,0,0:0:0:50:LR3_Kick BRH.wav
64,192,141210,1,0,0:0:0:0:
64,192,141330,1,0,0:0:0:50:LR3_Kick BRH.wav
448,192,141450,1,0,0:0:0:50:LR3_Kick BRH.wav
320,192,141450,1,0,0:0:0:0:
448,192,141570,1,0,0:0:0:50:LR3_Kick BRH.wav
192,192,141690,1,0,0:0:0:0:
64,192,141690,1,0,0:0:0:50:LR3_Kick BRH.wav
64,192,141810,1,0,0:0:0:50:LR3_Kick BRH.wav
320,192,141930,1,0,0:0:0:50:LR3_Kick BRH.wav
448,192,141930,1,0,0:0:0:0:
448,192,142050,1,0,0:0:0:50:LR3_Kick BRH.wav
64,192,142170,1,0,0:0:0:50:LR3_Kick BRH.wav
192,192,142170,1,0,0:0:0:0:
192,192,142290,1,0,0:0:0:50:LR3_Kick BRH.wav
320,192,142410,1,0,0:0:0:50:LR3_Kick BRH.wav
448,192,142410,1,0,0:0:0:0:
320,192,142530,1,0,0:0:0:50:LR3_Kick BRH.wav
192,192,142650,1,0,0:0:0:0:
64,192,142650,1,0,0:0:0:50:LR3_Kick BRH.wav
192,192,142770,1,0,0:0:0:50:LR3_Kick BRH.wav
320,192,142890,1,0,0:0:0:50:LR3_Kick BRH.wav
448,192,142890,1,0,0:0:0:0:
320,192,143010,1,0,0:0:0:50:LR3_Kick BRH.wav
192,192,143130,1,0,0:0:0:50:LR3_Kick BRH.wav
64,192,143130,1,0,0:0:0:0:
320,192,143250,1,0,0:0:0:50:LR3_Kick BRH.wav
64,192,143370,1,0,0:0:0:50:LR3_Kick BRH.wav
448,192,143370,1,0,0:0:0:0:
192,192,143490,1,0,0:0:0:50:LR3_Kick BRH.wav
320,192,143610,1,0,0:0:0:50:LR3_Kick BRH.wav
448,192,143610,1,0,0:0:0:0:
192,192,143730,1,0,0:0:0:50:LR3_Kick BRH.wav
64,192,143850,1,0,0:0:0:50:LR3_Kick BRH.wav
448,192,143850,1,0,0:0:0:0:
320,192,143970,1,0,0:0:0:50:LR3_Kick BRH.wav
64,192,144090,1,0,0:0:0:50:LR3_Kick BRH.wav
192,192,144150,1,0,0:0:0:50:LR3_Kick BRH.wav
320,192,144210,1,0,0:0:0:50:LR3_Kick BRH.wav
448,192,144270,1,0,0:0:0:50:LR3_Kick BRH.wav
64,192,144330,1,0,0:0:0:50:LR3_Kick BRH.wav
192,192,144390,1,0,0:0:0:50:LR3_Kick BRH.wav
320,192,144450,1,0,0:0:0:50:LR3_Kick BRH.wav
448,192,144510,1,0,0:0:0:50:LR3_Kick BRH.wav
64,192,144570,1,0,0:0:0:50:LR3_Kick BRH.wav
192,192,144630,1,0,0:0:0:50:LR3_Kick BRH.wav
320,192,144690,1,0,0:0:0:50:LR3_Kick BRH.wav
448,192,144750,1,0,0:0:0:50:LR3_Kick BRH.wav
64,192,144810,1,0,0:0:0:50:LR3_Kick BRH.wav
192,192,144870,1,0,0:0:0:50:LR3_Kick BRH.wav
320,192,144930,1,0,0:0:0:50:LR3_Kick BRH.wav
448,192,144990,1,0,0:0:0:50:LR3_Kick BRH.wav
192,192,145050,1,0,0:0:0:50:drum_cym_crash.ogg
64,192,145050,128,0,147576:0:0:0:50:LR3_Kick BRH.wav
320,192,147576,128,0,149471:0:0:0:0:
64,192,149471,1,0,0:0:0:0:
192,192,149550,1,0,0:0:0:0:
448,192,149628,1,0,0:0:0:0:
320,192,149707,1,0,0:0:0:0:
64,192,149786,1,0,0:0:0:0:
192,192,149865,1,0,0:0:0:0:
448,192,149944,1,0,0:0:0:0:
320,192,150023,1,0,0:0:0:0:
64,192,150102,1,0,0:0:0:50:drum_cym_crash.ogg
192,192,150102,1,0,0:0:0:50:LR3_Kick BRH.wav
448,192,150260,1,0,0:0:0:0:
320,192,150339,1,0,0:0:0:0:
448,192,150418,1,0,0:0:0:0:
64,192,150576,1,0,0:0:0:50:drum_cym_crash.ogg
192,192,150576,1,0,0:0:0:50:LR3_Kick BRH.wav
64,192,150734,1,0,0:0:0:50:drum_cym_crash.ogg
192,192,150734,1,0,0:0:0:50:LR3_Kick BRH.wav
448,192,150892,1,0,0:0:0:0:
320,192,150971,1,0,0:0:0:0:
448,192,151050,1,0,0:0:0:0:
64,192,151207,1,0,0:0:0:50:drum_cym_crash.ogg
192,192,151207,1,0,0:0:0:50:LR3_Kick BRH.wav
64,192,151365,1,0,0:0:0:50:drum_cym_crash.ogg
192,192,151365,1,0,0:0:0:50:LR3_Kick BRH.wav
64,192,151681,1,0,0:0:0:50:LR3_Kick BRH.wav
320,192,151681,1,0,0:0:0:0:
64,192,151997,1,0,0:0:0:50:LR3_Kick BRH.wav
448,192,151997,1,0,0:0:0:0:
192,192,152313,1,0,0:0:0:50:LR3_Kick BRH.wav
448,192,152313,1,0,0:0:0:0:
320,192,152628,1,0,0:0:0:50:drum_cym_crash.ogg
448,192,152628,1,0,0:0:0:50:LR3_Kick BRH.wav
64,192,152786,1,0,0:0:0:0:
192,192,152865,1,0,0:0:0:0:
64,192,152944,1,0,0:0:0:0:
320,192,153102,1,0,0:0:0:50:drum_cym_crash.ogg
448,192,153102,1,0,0:0:0:50:LR3_Kick BRH.wav
320,192,153260,1,0,0:0:0:50:drum_cym_crash.ogg
448,192,153260,1,0,0:0:0:50:LR3_Kick BRH.wav
64,192,153418,1,0,0:0:0:0:
192,192,153497,1,0,0:0:0:0:
64,192,153576,1,0,0:0:0:0:
320,192,153734,1,0,0:0:0:50:drum_cym_crash.ogg
448,192,153734,1,0,0:0:0:50:LR3_Kick BRH.wav
320,192,153892,1,0,0:0:0:50:drum_cym_crash.ogg
448,192,153892,1,0,0:0:0:50:LR3_Kick BRH.wav
192,192,154207,1,0,0:0:0:50:LR3_Kick BRH.wav
448,192,154207,1,0,0:0:0:0:
64,192,154523,1,0,0:0:0:50:LR3_Kick BRH.wav
448,192,154523,1,0,0:0:0:0:
64,192,154839,1,0,0:0:0:50:LR3_Kick BRH.wav
320,192,154839,1,0,0:0:0:0:
64,192,155155,1,0,0:0:0:50:drum_cym_crash.ogg
192,192,155155,1,0,0:0:0:50:LR3_Kick BRH.wav
448,192,155313,1,0,0:0:0:0:
320,192,155392,1,0,0:0:0:0:
448,192,155471,1,0,0:0:0:0:
64,192,155628,1,0,0:0:0:50:drum_cym_crash.ogg
192,192,155628,1,0,0:0:0:50:LR3_Kick BRH.wav
64,192,155786,1,0,0:0:0:50:drum_cym_crash.ogg
192,192,155786,1,0,0:0:0:50:LR3_Kick BRH.wav
448,192,155944,1,0,0:0:0:0:
320,192,156023,1,0,0:0:0:0:
448,192,156102,1,0,0:0:0:0:
64,192,156260,1,0,0:0:0:50:drum_cym_crash.ogg
192,192,156260,1,0,0:0:0:50:LR3_Kick BRH.wav
64,192,156418,1,0,0:0:0:50:drum_cym_crash.ogg
192,192,156418,1,0,0:0:0:50:LR3_Kick BRH.wav
64,192,156734,1,0,0:0:0:50:LR3_Kick BRH.wav
320,192,156734,1,0,0:0:0:0:
64,192,157050,1,0,0:0:0:50:LR3_Kick BRH.wav
448,192,157050,1,0,0:0:0:0:
192,192,157365,1,0,0:0:0:50:LR3_Kick BRH.wav
448,192,157365,1,0,0:0:0:0:
64,192,157681,1,0,0:0:0:50:drum_cym_crash.ogg
320,192,157681,1,0,0:0:0:60:cym.ogg
448,192,157681,1,0,0:0:0:50:LR3_Kick BRH.wav
192,192,157839,1,0,0:0:0:0:
320,192,157997,1,0,0:0:0:0:
448,192,158155,1,0,0:0:0:0:
192,192,158313,1,0,0:0:0:0:
64,192,158471,1,0,0:0:0:0:
448,192,158628,1,0,0:0:0:0:
320,192,158786,1,0,0:0:0:0:
192,192,158944,1,0,0:0:0:0:
64,192,159102,1,0,0:0:0:0:
192,192,159181,1,0,0:0:0:0:
320,192,159260,1,0,0:0:0:0:
448,192,159418,1,0,0:0:0:0:
320,192,159497,1,0,0:0:0:0:
192,192,159576,1,0,0:0:0:0:
192,192,159734,1,0,0:0:0:0:
320,192,159892,1,0,0:0:0:0:
320,192,160050,1,0,0:0:0:0:
64,192,160523,128,0,163365:0:0:0:60:cym.ogg
192,192,160523,128,0,163365:0:0:0:0:
320,192,161155,128,0,163365:0:0:0:0:
448,192,161155,128,0,163365:0:0:0:0:
