osu file format v14

[General]
AudioFilename: DJ Mashiro.mp3
AudioLeadIn: 0
PreviewTime: 103552
Countdown: 0
SampleSet: Normal
StackLeniency: 0.7
Mode: 3
LetterboxInBreaks: 0
SpecialStyle: 0
WidescreenStoryboard: 1

[Editor]
Bookmarks: 11342,21447,31552,41658,53026,75763,93447,103552,123625,150102
DistanceSpacing: 0.8
BeatDivisor: 4
GridSize: 16
TimelineZoom: 3

[Metadata]
Title:DJ Mashiro is dead or alive
TitleUnicode:DJ Mashiro is dead or alive
Artist:Ice
ArtistUnicode:Ice
Creator:Ulis-
Version:Chaos
Source:Cytus II
Tags:prismatic lollipops dj mashiro remix rayark voez neko#ΦωΦ 3R2 wonderful days prismatic music electronic video game instrumental
BeatmapID:2236350
BeatmapSetID:1068198

[Difficulty]
HPDrainRate:8.5
CircleSize:4
OverallDifficulty:8.5
ApproachRate:5
SliderMultiplier:1.4
SliderTickRate:1

[Events]
//Background and Video events
0,0,"Amy Chen.jpg",0,0
//Break Periods
//Storyboard Layer 0 (Background)
//Storyboard Layer 1 (Fail)
//Storyboard Layer 2 (Pass)
//Storyboard Layer 3 (Foreground)
//Storyboard Layer 4 (Overlay)
//Storyboard Sound Samples
Sample,55473,0,"LR3_Kick BRH.wav",50
Sample,57605,0,"LR3_Kick BRH.wav",50
Sample,60526,0,"LR3_Kick BRH.wav",50
Sample,62658,0,"LR3_Kick BRH.wav",50
Sample,65579,0,"LR3_Kick BRH.wav",50
Sample,67710,0,"LR3_Kick BRH.wav",50
Sample,70631,0,"LR3_Kick BRH.wav",50
Sample,72763,0,"LR3_Kick BRH.wav",50
Sample,147576,0,"drum_snare.ogg",40
Sample,147655,0,"drum_snare.ogg",40
Sample,147734,0,"drum_snare.ogg",40
Sample,147813,0,"drum_snare.ogg",40
Sample,147892,0,"drum_snare.ogg",40
Sample,147971,0,"drum_snare.ogg",40
Sample,148050,0,"drum_snare.ogg",40
Sample,148128,0,"drum_snare.ogg",40
Sample,148207,0,"drum_snare.ogg",40
Sample,148286,0,"drum_snare.ogg",40
Sample,148365,0,"drum_snare.ogg",40
Sample,148444,0,"drum_snare.ogg",40
Sample,148523,0,"drum_snare.ogg",40
Sample,148602,0,"drum_snare.ogg",40
Sample,148681,0,"drum_snare.ogg",40
Sample,148760,0,"drum_snare.ogg",40
Sample,148839,0,"drum_snare.ogg",40
Sample,148918,0,"drum_snare.ogg",40
Sample,148997,0,"drum_snare.ogg",40
Sample,149076,0,"drum_snare.ogg",40
Sample,149155,0,"drum_snare.ogg",40
Sample,149234,0,"drum_snare.ogg",40
Sample,149313,0,"drum_snare.ogg",40
Sample,149392,0,"drum_snare.ogg",40
Sample,149471,0,"drum_snare.ogg",40
Sample,149510,0,"drum_snare.ogg",40
Sample,149550,0,"drum_snare.ogg",40
Sample,149589,0,"drum_snare.ogg",40
Sample,149628,0,"drum_snare.ogg",40
Sample,149668,0,"drum_snare.ogg",40
Sample,149707,0,"drum_snare.ogg",40
Sample,149747,0,"drum_snare.ogg",40
Sample,149786,0,"drum_snare.ogg",40
Sample,149826,0,"drum_snare.ogg",40
Sample,149865,0,"drum_snare.ogg",40
Sample,149905,0,"drum_snare.ogg",40
Sample,149944,0,"drum_snare.ogg",40
Sample,149984,0,"drum_snare.ogg",40
Sample,150023,0,"drum_snare.ogg",40
Sample,150063,0,"drum_snare.ogg",40
Sample,150102,0,"drum_snare.ogg",40

[TimingPoints]
1237,315.789473684211,4,1,1,75,1,0
103552,-100,4,1,1,75,0,1
113658,312.5,4,1,1,75,1,1
113658,-101.010101010101,4,1,1,75,0,1
118658,310.880829015544,4,1,1,75,1,1
118658,-102.040816326531,4,1,1,75,0,1
122388,309.278350515464,4,1,1,75,1,1
122388,-102.040816326531,4,1,1,75,0,1
123625,297.029702970297,4,1,1,75,1,1
123625,-106.382978723404,4,1,1,75,0,1
127189,294.117647058824,4,1,1,75,1,1
127189,-107.52688172043,4,1,1,75,0,1
128365,288.461538461538,4,1,1,75,1,1
128365,-109.89010989011,4,1,1,75,0,1
129518,285.714285714286,4,1,1,75,1,1
129518,-111.111111111111,4,1,1,75,0,1
130660,283.018867924528,4,1,1,75,1,1
130660,-111.111111111111,4,1,1,75,0,1
131792,280.373831775701,4,1,1,75,1,1
131792,-112.359550561798,4,1,1,75,0,1
132913,271.493212669683,4,1,1,75,1,1
132913,-116.279069767442,4,1,1,75,0,1
133998,267.857142857143,4,1,1,75,1,1
133998,-117.647058823529,4,1,1,75,0,1
135069,264.31718061674,4,1,1,75,1,1
135069,-119.047619047619,4,1,1,75,0,1
136126,260.869565217391,4,1,1,75,1,1
136126,-120.481927710843,4,1,1,75,0,1
137169,257.510729613734,4,1,1,75,1,1
137169,-121.951219512195,4,1,1,75,0,1
138199,254.237288135593,4,1,1,75,1,1
138199,-123.456790123457,4,1,1,75,0,1
139215,251.046025104603,4,1,1,75,1,1
139215,-126.582278481013,4,1,1,75,0,1
140219,247.933884297521,4,1,1,75,1,1
140219,-126.582278481013,4,1,1,75,0,1
141210,240,4,1,1,75,1,1
141210,-131.578947368421,4,1,1,75,0,1
145050,315.789473684211,4,1,1,75,1,0

[HitObjects]
64,192,1237,128,0,1394:0:0:0:50:drum_cym_crash.ogg
192,192,1237,128,0,1394:0:0:0:50:LR3_Kick BRH.wav
448,192,1394,1,0,0:0:0:0:
448,192,1552,1,0,0:0:0:0:
64,192,1710,128,0,1789:0:0:0:50:drum_cym_crash.ogg
192,192,1710,128,0,1789:0:0:0:50:LR3_Kick BRH.wav
64,192,1868,128,0,2026:0:0:0:50:drum_cym_crash.ogg
192,192,1868,128,0,2026:0:0:0:50:LR3_Kick BRH.wav
448,192,2026,1,0,0:0:0:0:
448,192,2184,1,0,0:0:0:0:
64,192,2342,128,0,2421:0:0:0:50:drum_cym_crash.ogg
192,192,2342,128,0,2421:0:0:0:50:LR3_Kick BRH.wav
64,192,2500,128,0,2658:0:0:0:50:drum_cym_crash.ogg
192,192,2500,1,0,0:0:0:50:LR3_Kick BRH.wav
448,192,2658,1,0,0:0:0:0:
64,192,2815,1,0,0:0:0:50:LR3_Kick BRH.wav
192,192,2815,128,0,2973:0:0:0:0:
320,192,2973,1,0,0:0:0:0:
320,192,3131,128,0,3289:0:0:0:50:LR3_Kick BRH.wav
448,192,3131,1,0,0:0:0:0:
192,192,3289,1,0,0:0:0:0:
320,192,3447,1,0,0:0:0:50:LR3_Kick BRH.wav
448,192,3447,128,0,3605:0:0:0:0:
64,192,3605,1,0,0:0:0:0:
320,192,3763,128,0,3921:0:0:0:50:drum_cym_crash.ogg
448,192,3763,128,0,3921:0:0:0:50:LR3_Kick BRH.wav
64,192,3921,1,0,0:0:0:0:
64,192,4079,1,0,0:0:0:0:
320,192,4237,128,0,4315:0:0:0:50:drum_cym_crash.ogg
448,192,4237,128,0,4315:0:0:0:50:LR3_Kick BRH.wav
320,192,4394,128,0,4552:0:0:0:50:drum_cym_crash.ogg
448,192,4394,128,0,4552:0:0:0:50:LR3_Kick BRH.wav
64,192,4552,1,0,0:0:0:0:
64,192,4710,1,0,0:0:0:0:
320,192,4868,128,0,4947:0:0:0:50:drum_cym_crash.ogg
448,192,4868,128,0,4947:0:0:0:50:LR3_Kick BRH.wav
320,192,5026,1,0,0:0:0:50:drum_cym_crash.ogg
448,192,5026,128,0,5184:0:0:0:50:LR3_Kick BRH.wav
64,192,5184,1,0,0:0:0:0:
320,192,5342,128,0,5500:0:0:0:50:LR3_Kick BRH.wav
448,192,5342,1,0,0:0:0:0:
192,192,5500,1,0,0:0:0:0:
64,192,5658,1,0,0:0:0:50:LR3_Kick BRH.wav
192,192,5658,128,0,5815:0:0:0:0:
320,192,5815,1,0,0:0:0:0:
64,192,5973,128,0,6131:0:0:0:50:LR3_Kick BRH.wav
192,192,5973,1,0,0:0:0:0:
448,192,6131,1,0,0:0:0:0:
64,192,6289,128,0,6447:0:0:0:50:drum_cym_crash.ogg
192,192,6289,128,0,6447:0:0:0:50:LR3_Kick BRH.wav
448,192,6447,1,0,0:0:0:0:
448,192,6605,1,0,0:0:0:0:
64,192,6763,128,0,6842:0:0:0:50:drum_cym_crash.ogg
192,192,6763,128,0,6842:0:0:0:50:LR3_Kick BRH.wav
64,192,6921,128,0,7079:0:0:0:50:drum_cym_crash.ogg
192,192,6921,128,0,7079:0:0:0:50:LR3_Kick BRH.wav
448,192,7079,1,0,0:0:0:0:
448,192,7237,1,0,0:0:0:0:
64,192,7394,128,0,7473:0:0:0:50:drum_cym_crash.ogg
192,192,7394,128,0,7473:0:0:0:50:LR3_Kick BRH.wav
64,192,7552,128,0,7710:0:0:0:50:drum_cym_crash.ogg
192,192,7552,1,0,0:0:0:50:LR3_Kick BRH.wav
448,192,7710,1,0,0:0:0:0:
64,192,7868,1,0,0:0:0:50:LR3_Kick BRH.wav
192,192,7868,128,0,8026:0:0:0:0:
320,192,8026,1,0,0:0:0:0:
320,192,8184,128,0,8342:0:0:0:50:LR3_Kick BRH.wav
448,192,8184,1,0,0:0:0:0:
192,192,8342,1,0,0:0:0:0:
320,192,8500,1,0,0:0:0:50:LR3_Kick BRH.wav
448,192,8500,128,0,8658:0:0:0:0:
64,192,8658,1,0,0:0:0:0:
64,192,8815,128,0,8973:0:0:0:50:drum_cym_crash.ogg
320,192,8815,1,0,0:0:0:50:LR3_Kick BRH.wav
448,192,8815,1,0,0:0:0:0:
448,192,8973,128,0,9131:0:0:0:0:
192,192,9131,128,0,9289:0:0:0:0:
320,192,9289,128,0,9447:0:0:0:0:
448,192,9447,128,0,9605:0:0:0:0:
64,192,9605,128,0,9763:0:0:0:0:
192,192,9763,128,0,9921:0:0:0:0:
320,192,9921,128,0,10079:0:0:0:0:
64,192,10079,128,0,10237:0:0:0:50:LR3_Kick BRH.wav
192,192,10079,128,0,10237:0:0:0:0:
448,192,10079,1,0,0:0:0:0:
64,192,10394,1,0,0:0:0:50:LR3_Kick BRH.wav
320,192,10394,128,0,10552:0:0:0:0:
448,192,10394,128,0,10552:0:0:0:0:
64,192,10710,1,0,0:0:0:50:LR3_Kick BRH.wav
192,192,10710,1,0,0:0:0:0:
448,192,10710,1,0,0:0:0:0:
64,192,10868,1,0,0:0:0:50:LR3_Kick BRH.wav
192,192,10868,1,0,0:0:0:0:
448,192,10868,1,0,0:0:0:0:
64,192,11026,1,0,0:0:0:50:LR3_Kick BRH.wav
192,192,11026,1,0,0:0:0:0:
448,192,11026,1,0,0:0:0:0:
64,192,11184,1,0,0:0:0:50:LR3_Kick BRH.wav
192,192,11184,1,0,0:0:0:0:
448,192,11184,1,0,0:0:0:0:
64,192,11342,1,0,0:0:0:60:cym.ogg
320,192,11342,1,0,0:0:0:50:LR3_Kick BRH.wav
448,192,11342,128,0,11500:0:0:0:0:
192,192,11500,1,0,0:0:0:0:
320,192,11658,1,0,0:0:0:50:LR3_Kick BRH.wav
448,192,11658,128,0,11815:0:0:0:0:
64,192,11815,1,0,0:0:0:0:
320,192,11973,1,0,0:0:0:50:LR3_Kick BRH.wav
448,192,11973,128,0,12131:0:0:0:0:
64,192,12131,128,0,12289:0:0:0:0:
192,192,12289,128,0,12447:0:0:0:50:LR3_Kick BRH.wav
448,192,12289,1,0,0:0:0:0:
64,192,12447,128,0,12605:0:0:0:0:
320,192,12605,1,0,0:0:0:50:LR3_Kick BRH.wav
448,192,12605,128,0,12763:0:0:0:0:
192,192,12763,1,0,0:0:0:0:
320,192,12921,1,0,0:0:0:50:LR3_Kick BRH.wav
448,192,12921,128,0,13079:0:0:0:0:
64,192,13079,1,0,0:0:0:0:
320,192,13237,1,0,0:0:0:50:LR3_Kick BRH.wav
448,192,13237,128,0,13394:0:0:0:0:
192,192,13394,1,0,0:0:0:0:
64,192,13552,1,0,0:0:0:50:LR3_Kick BRH.wav
448,192,13552,1,0,0:0:0:0:
320,192,13710,1,0,0:0:0:0:
64,192,13868,128,0,14026:0:0:0:50:LR3_Kick BRH.wav
192,192,13868,1,0,0:0:0:0:
448,192,14026,1,0,0:0:0:0:
64,192,14184,128,0,14342:0:0:0:50:LR3_Kick BRH.wav
192,192,14184,1,0,0:0:0:0:
320,192,14342,1,0,0:0:0:0:
64,192,14500,128,0,14658:0:0:0:50:LR3_Kick BRH.wav
192,192,14500,1,0,0:0:0:0:
448,192,14658,128,0,14815:0:0:0:0:
64,192,14815,1,0,0:0:0:50:LR3_Kick BRH.wav
320,192,14815,128,0,14973:0:0:0:0:
448,192,14973,128,0,15131:0:0:0:0:
64,192,15131,128,0,15289:0:0:0:50:LR3_Kick BRH.wav
192,192,15131,1,0,0:0:0:0:
448,192,15289,1,0,0:0:0:0:
192,192,15447,128,0,15605:0:0:0:50:LR3_Kick BRH.wav
320,192,15447,1,0,0:0:0:0:
64,192,15605,1,0,0:0:0:0:
192,192,15763,1,0,0:0:0:50:LR3_Kick BRH.wav
448,192,15763,128,0,15921:0:0:0:0:
192,192,15921,1,0,0:0:0:0:
320,192,16079,1,0,0:0:0:50:LR3_Kick BRH.wav
448,192,16079,1,0,0:0:0:0:
64,192,16237,1,0,0:0:0:50:LR3_Kick BRH.wav
192,192,16237,1,0,0:0:0:0:
320,192,16394,1,0,0:0:0:50:LR3_Kick BRH.wav
448,192,16394,128,0,16552:0:0:0:0:
192,192,16552,1,0,0:0:0:0:
320,192,16710,1,0,0:0:0:50:LR3_Kick BRH.wav
448,192,16710,128,0,16868:0:0:0:0:
64,192,16868,1,0,0:0:0:0:
320,192,17026,1,0,0:0:0:50:LR3_Kick BRH.wav
448,192,17026,128,0,17184:0:0:0:0:
64,192,17184,1,0,0:0:0:0:
192,192,17342,1,0,0:0:0:50:LR3_Kick BRH.wav
320,192,17342,1,0,0:0:0:0:
448,192,17500,1,0,0:0:0:0:
64,192,17658,128,0,17815:0:0:0:50:LR3_Kick BRH.wav
192,192,17658,1,0,0:0:0:0:
320,192,17815,1,0,0:0:0:0:
64,192,17973,128,0,18131:0:0:0:50:LR3_Kick BRH.wav
192,192,17973,1,0,0:0:0:0:
448,192,18131,1,0,0:0:0:0:
64,192,18289,128,0,18447:0:0:0:50:LR3_Kick BRH.wav
192,192,18289,1,0,0:0:0:0:
448,192,18447,1,0,0:0:0:0:
192,192,18605,1,0,0:0:0:50:LR3_Kick BRH.wav
320,192,18605,1,0,0:0:0:0:
64,192,18763,1,0,0:0:0:0:
320,192,18921,128,0,19079:0:0:0:50:LR3_Kick BRH.wav
448,192,18921,1,0,0:0:0:0:
64,192,19079,1,0,0:0:0:0:
320,192,19237,128,0,19394:0:0:0:50:LR3_Kick BRH.wav
448,192,19237,1,0,0:0:0:0:
192,192,19394,128,0,19552:0:0:0:0:
64,192,19552,1,0,0:0:0:50:LR3_Kick BRH.wav
320,192,19552,128,0,19710:0:0:0:0:
192,192,19710,128,0,19868:0:0:0:0:
320,192,19868,128,0,20026:0:0:0:50:LR3_Kick BRH.wav
448,192,19868,1,0,0:0:0:0:
64,192,20026,128,0,20184:0:0:0:0:
192,192,20184,1,0,0:0:0:50:LR3_Kick BRH.wav
320,192,20184,1,0,0:0:0:0:
448,192,20184,128,0,20342:0:0:0:0:
320,192,20500,128,0,20658:0:0:0:0:
192,192,20815,128,0,20973:0:0:0:0:
64,192,20973,1,0,0:0:0:50:LR3_Kick BRH.wav
320,192,20973,1,0,0:0:0:0:
448,192,20973,1,0,0:0:0:0:
64,192,21131,1,0,0:0:0:50:LR3_Kick BRH.wav
320,192,21131,1,0,0:0:0:0:
448,192,21131,1,0,0:0:0:0:
64,192,21289,1,0,0:0:0:50:LR3_Kick BRH.wav
320,192,21289,1,0,0:0:0:0:
448,192,21289,1,0,0:0:0:0:
64,192,21447,128,0,21605:0:0:0:60:cym.ogg
192,192,21447,1,0,0:0:0:50:LR3_Kick BRH.wav
448,192,21447,1,0,0:0:0:0:
320,192,21605,1,0,0:0:0:0:
64,192,21763,128,0,21921:0:0:0:50:LR3_Kick BRH.wav
192,192,21763,1,0,0:0:0:0:
448,192,21921,1,0,0:0:0:0:
64,192,22079,128,0,22237:0:0:0:50:LR3_Kick BRH.wav
192,192,22079,1,0,0:0:0:0:
448,192,22237,128,0,22394:0:0:0:0:
64,192,22394,1,0,0:0:0:50:LR3_Kick BRH.wav
320,192,22394,128,0,22552:0:0:0:0:
448,192,22552,128,0,22710:0:0:0:0:
192,192,22631,1,0,0:0:0:0:
64,192,22710,128,0,22868:0:0:0:50:LR3_Kick BRH.wav
320,192,22710,1,0,0:0:0:0:
448,192,22868,1,0,0:0:0:0:
64,192,23026,128,0,23184:0:0:0:50:LR3_Kick BRH.wav
192,192,23026,1,0,0:0:0:0:
320,192,23184,1,0,0:0:0:0:
64,192,23342,128,0,23500:0:0:0:50:LR3_Kick BRH.wav
192,192,23342,1,0,0:0:0:0:
448,192,23500,1,0,0:0:0:0:
192,192,23658,1,0,0:0:0:50:LR3_Kick BRH.wav
320,192,23658,1,0,0:0:0:0:
64,192,23815,1,0,0:0:0:0:
192,192,23894,1,0,0:0:0:0:
320,192,23973,1,0,0:0:0:50:LR3_Kick BRH.wav
448,192,23973,128,0,24131:0:0:0:0:
64,192,24131,1,0,0:0:0:0:
320,192,24289,1,0,0:0:0:50:LR3_Kick BRH.wav
448,192,24289,128,0,24447:0:0:0:0:
192,192,24447,1,0,0:0:0:0:
320,192,24605,1,0,0:0:0:50:LR3_Kick BRH.wav
448,192,24605,128,0,24763:0:0:0:0:
64,192,24763,128,0,24921:0:0:0:0:
192,192,24921,128,0,25079:0:0:0:50:LR3_Kick BRH.wav
448,192,24921,1,0,0:0:0:0:
64,192,25079,128,0,25237:0:0:0:0:
320,192,25158,1,0,0:0:0:0:
192,192,25237,1,0,0:0:0:50:LR3_Kick BRH.wav
448,192,25237,128,0,25394:0:0:0:0:
64,192,25394,1,0,0:0:0:0:
320,192,25552,128,0,25710:0:0:0:50:LR3_Kick BRH.wav
448,192,25552,1,0,0:0:0:0:
64,192,25710,1,0,0:0:0:0:
192,192,25868,128,0,26026:0:0:0:50:LR3_Kick BRH.wav
448,192,25868,1,0,0:0:0:0:
320,192,26026,1,0,0:0:0:0:
64,192,26184,128,0,26342:0:0:0:50:LR3_Kick BRH.wav
192,192,26184,1,0,0:0:0:0:
320,192,26342,1,0,0:0:0:50:LR3_Kick BRH.wav
448,192,26342,1,0,0:0:0:0:
64,192,26500,1,0,0:0:0:50:drum_cym_crash.ogg
192,192,26500,1,0,0:0:0:50:LR3_Kick BRH.wav
448,192,26500,128,0,26658:0:0:0:0:
320,192,26658,1,0,0:0:0:0:
64,192,26815,1,0,0:0:0:50:LR3_Kick BRH.wav
192,192,26815,1,0,0:0:0:0:
320,192,26973,1,0,0:0:0:0:
64,192,27131,1,0,0:0:0:50:LR3_Kick BRH.wav
448,192,27131,1,0,0:0:0:0:
192,192,27289,1,0,0:0:0:0:
64,192,27447,128,0,27605:0:0:0:50:drum_cym_crash.ogg
320,192,27447,1,0,0:0:0:50:LR3_Kick BRH.wav
448,192,27447,1,0,0:0:0:0:
448,192,27605,1,0,0:0:0:0:
192,192,27684,1,0,0:0:0:0:
64,192,27763,1,0,0:0:0:50:drum_cym_crash.ogg
320,192,27763,1,0,0:0:0:50:LR3_Kick BRH.wav
448,192,27763,128,0,27921:0:0:0:0:
320,192,27921,1,0,0:0:0:0:
64,192,28079,1,0,0:0:0:50:LR3_Kick BRH.wav
448,192,28079,1,0,0:0:0:0:
64,192,28237,1,0,0:0:0:0:
320,192,28315,1,0,0:0:0:0:
64,192,28394,1,0,0:0:0:50:LR3_Kick BRH.wav
448,192,28394,1,0,0:0:0:0:
192,192,28552,1,0,0:0:0:0:
64,192,28710,128,0,28868:0:0:0:50:drum_cym_crash.ogg
320,192,28710,1,0,0:0:0:50:LR3_Kick BRH.wav
448,192,28710,1,0,0:0:0:0:
448,192,28868,1,0,0:0:0:0:
192,192,28947,1,0,0:0:0:0:
64,192,29026,1,0,0:0:0:50:drum_cym_crash.ogg
320,192,29026,1,0,0:0:0:50:LR3_Kick BRH.wav
448,192,29026,128,0,29184:0:0:0:0:
320,192,29184,1,0,0:0:0:0:
64,192,29342,1,0,0:0:0:50:LR3_Kick BRH.wav
192,192,29342,1,0,0:0:0:0:
320,192,29500,1,0,0:0:0:0:
64,192,29658,1,0,0:0:0:50:LR3_Kick BRH.wav
448,192,29658,1,0,0:0:0:0:
64,192,29815,1,0,0:0:0:0:
320,192,29894,1,0,0:0:0:0:
64,192,29973,128,0,30131:0:0:0:50:drum_cym_crash.ogg
192,192,29973,1,0,0:0:0:50:LR3_Kick BRH.wav
448,192,29973,1,0,0:0:0:0:
448,192,30131,1,0,0:0:0:0:
192,192,30210,1,0,0:0:0:0:
64,192,30289,1,0,0:0:0:50:drum_cym_crash.ogg
320,192,30289,1,0,0:0:0:50:LR3_Kick BRH.wav
448,192,30289,128,0,30447:0:0:0:0:
320,192,30605,128,0,30763:0:0:0:0:
192,192,30921,128,0,31079:0:0:0:0:
64,192,31079,1,0,0:0:0:50:LR3_Kick BRH.wav
320,192,31079,1,0,0:0:0:0:
448,192,31079,1,0,0:0:0:0:
64,192,31237,1,0,0:0:0:50:LR3_Kick BRH.wav
320,192,31237,1,0,0:0:0:0:
448,192,31237,1,0,0:0:0:0:
64,192,31394,1,0,0:0:0:50:LR3_Kick BRH.wav
320,192,31394,1,0,0:0:0:0:
448,192,31394,1,0,0:0:0:0:
64,192,31552,128,0,31631:0:0:0:60:cym.ogg
192,192,31552,128,0,31631:0:0:0:0:
448,192,31552,1,0,0:0:0:0:
64,192,31868,128,0,31947:0:0:0:0:
320,192,31868,128,0,31947:0:0:0:0:
320,192,32184,128,0,32263:0:0:0:45:drum_snare.ogg
448,192,32184,128,0,32263:0:0:0:0:
192,192,32500,128,0,32579:0:0:0:0:
448,192,32500,128,0,32579:0:0:0:0:
64,192,32815,128,0,32894:0:0:0:0:
448,192,32815,128,0,32894:0:0:0:0:
192,192,32973,128,0,33052:0:0:0:0:
320,192,33131,128,0,33210:0:0:0:0:
448,192,33131,128,0,33210:0:0:0:0:
192,192,33289,128,0,33368:0:0:0:0:
64,192,33447,128,0,33526:0:0:0:45:drum_snare.ogg
448,192,33447,128,0,33526:0:0:0:0:
192,192,33763,128,0,33842:0:0:0:0:
448,192,33763,128,0,33842:0:0:0:0:
64,192,34079,128,0,34158:0:0:0:0:
192,192,34079,128,0,34158:0:0:0:0:
192,192,34394,128,0,34473:0:0:0:0:
448,192,34394,128,0,34473:0:0:0:0:
320,192,34710,128,0,34789:0:0:0:45:drum_snare.ogg
448,192,34710,128,0,34789:0:0:0:0:
64,192,35026,128,0,35105:0:0:0:0:
320,192,35026,128,0,35105:0:0:0:0:
192,192,35184,128,0,35263:0:0:0:0:
320,192,35342,128,0,35421:0:0:0:0:
448,192,35342,128,0,35421:0:0:0:0:
192,192,35658,128,0,35737:0:0:0:0:
320,192,35658,128,0,35737:0:0:0:0:
192,192,35973,128,0,36052:0:0:0:45:drum_snare.ogg
448,192,35973,128,0,36052:0:0:0:0:
64,192,36289,128,0,36368:0:0:0:0:
320,192,36289,128,0,36368:0:0:0:0:
64,192,36605,128,0,36684:0:0:0:0:
448,192,36605,128,0,36684:0:0:0:0:
192,192,36921,128,0,37000:0:0:0:0:
448,192,36921,128,0,37000:0:0:0:0:
64,192,37237,128,0,37315:0:0:0:45:drum_snare.ogg
320,192,37237,128,0,37315:0:0:0:0:
320,192,37552,128,0,37631:0:0:0:0:
448,192,37552,128,0,37631:0:0:0:0:
192,192,37710,128,0,37789:0:0:0:0:
64,192,37868,128,0,37947:0:0:0:0:
448,192,37868,128,0,37947:0:0:0:0:
192,192,38026,128,0,38105:0:0:0:0:
320,192,38184,128,0,38263:0:0:0:0:
448,192,38184,128,0,38263:0:0:0:0:
64,192,38342,128,0,38421:0:0:0:0:
192,192,38500,128,0,38579:0:0:0:45:drum_snare.ogg
448,192,38500,128,0,38579:0:0:0:0:
320,192,38815,128,0,38894:0:0:0:0:
448,192,38815,128,0,38894:0:0:0:0:
64,192,39131,128,0,39210:0:0:0:0:
320,192,39131,128,0,39210:0:0:0:0:
192,192,39447,128,0,39526:0:0:0:0:
320,192,39447,128,0,39526:0:0:0:0:
192,192,39763,128,0,39842:0:0:0:45:drum_snare.ogg
448,192,39763,128,0,39842:0:0:0:0:
192,192,40079,128,0,40158:0:0:0:0:
320,192,40079,128,0,40158:0:0:0:0:
64,192,40394,128,0,40473:0:0:0:0:
192,192,40394,128,0,40473:0:0:0:0:
192,192,40710,128,0,40789:0:0:0:0:
448,192,40710,128,0,40789:0:0:0:0:
320,192,40868,1,0,0:0:0:0:
64,192,41026,128,0,41105:0:0:0:45:drum_snare.ogg
192,192,41026,128,0,41105:0:0:0:0:
448,192,41184,1,2,0:0:0:45:drum_snare.ogg
320,192,41263,1,2,0:0:0:45:drum_snare.ogg
64,192,41342,128,2,41421:0:0:0:45:drum_snare.ogg
448,192,41342,1,0,0:0:0:0:
192,192,41421,128,0,41500:0:0:0:0:
320,192,41500,128,0,41579:0:0:0:45:drum_snare.ogg
448,192,41579,128,0,41658:0:0:0:0:
64,192,41658,128,0,41815:0:0:0:60:cym.ogg
192,192,41658,128,0,41815:0:0:0:50:LR3_Kick BRH.wav
320,192,41658,1,0,0:0:0:0:
64,192,41973,128,0,42131:0:0:0:0:
448,192,41973,128,0,42131:0:0:0:0:
192,192,42289,128,0,42447:0:0:0:45:drum_snare.ogg
448,192,42289,128,0,42447:0:0:0:0:
320,192,42605,128,0,42763:0:0:0:0:
448,192,42605,128,0,42763:0:0:0:0:
64,192,42921,128,0,43079:0:0:0:0:
192,192,42921,128,0,43079:0:0:0:0:
320,192,43079,128,0,43237:0:0:0:0:
64,192,43237,128,0,43394:0:0:0:0:
448,192,43237,128,0,43394:0:0:0:0:
320,192,43394,128,0,43552:0:0:0:0:
64,192,43552,128,0,43710:0:0:0:45:drum_snare.ogg
192,192,43552,128,0,43710:0:0:0:0:
320,192,43868,128,0,44026:0:0:0:0:
448,192,43868,128,0,44026:0:0:0:0:
192,192,44184,128,0,44342:0:0:0:0:
448,192,44184,128,0,44342:0:0:0:0:
64,192,44500,128,0,44658:0:0:0:0:
448,192,44500,128,0,44658:0:0:0:0:
64,192,44815,128,0,44973:0:0:0:45:drum_snare.ogg
320,192,44815,128,0,44973:0:0:0:0:
64,192,45131,128,0,45289:0:0:0:0:
192,192,45131,128,0,45289:0:0:0:0:
320,192,45289,128,0,45447:0:0:0:0:
192,192,45447,128,0,45605:0:0:0:0:
448,192,45447,128,0,45605:0:0:0:0:
320,192,45763,128,0,45921:0:0:0:0:
448,192,45763,128,0,45921:0:0:0:0:
64,192,46079,128,0,46237:0:0:0:45:drum_snare.ogg
320,192,46079,128,0,46237:0:0:0:0:
192,192,46394,128,0,46552:0:0:0:0:
320,192,46394,128,0,46552:0:0:0:0:
64,192,46710,128,0,46868:0:0:0:0:
448,192,46710,128,0,46868:0:0:0:0:
64,192,47026,128,0,47184:0:0:0:0:
192,192,47026,128,0,47184:0:0:0:0:
64,192,47342,128,0,47500:0:0:0:45:drum_snare.ogg
448,192,47342,128,0,47500:0:0:0:0:
320,192,47658,128,0,47815:0:0:0:0:
448,192,47658,128,0,47815:0:0:0:0:
64,192,47815,128,0,47973:0:0:0:0:
192,192,47973,128,0,48131:0:0:0:0:
448,192,47973,128,0,48131:0:0:0:0:
320,192,48131,128,0,48289:0:0:0:0:
64,192,48289,128,0,48447:0:0:0:0:
448,192,48289,128,0,48447:0:0:0:0:
192,192,48447,128,0,48605:0:0:0:0:
320,192,48605,128,0,48763:0:0:0:45:drum_snare.ogg
448,192,48605,128,0,48763:0:0:0:0:
192,192,48921,128,0,49079:0:0:0:0:
320,192,48921,128,0,49079:0:0:0:0:
64,192,49237,128,0,49394:0:0:0:0:
448,192,49237,128,0,49394:0:0:0:0:
64,192,49552,128,0,49710:0:0:0:0:
320,192,49552,128,0,49710:0:0:0:0:
64,192,49868,128,0,50026:0:0:0:45:drum_snare.ogg
448,192,49868,128,0,50026:0:0:0:0:
192,192,50184,128,0,50342:0:0:0:0:
448,192,50184,128,0,50342:0:0:0:0:
320,192,50500,128,0,50658:0:0:0:0:
448,192,50500,128,0,50658:0:0:0:0:
64,192,50815,128,0,50973:0:0:0:0:
192,192,50815,128,0,50973:0:0:0:0:
320,192,51131,128,0,51289:0:0:0:45:drum_snare.ogg
448,192,51131,128,0,51289:0:0:0:0:
64,192,51447,128,0,51605:0:0:0:0:
192,192,51447,128,0,51605:0:0:0:0:
192,192,51763,1,0,0:0:0:50:drum_cym_crash.ogg
320,192,51763,1,0,0:0:0:50:LR3_Kick BRH.wav
448,192,51763,1,0,0:0:0:0:
64,192,52079,1,0,0:0:0:50:drum_cym_crash.ogg
192,192,52079,1,0,0:0:0:50:LR3_Kick BRH.wav
320,192,52079,1,0,0:0:0:0:
192,192,52237,1,0,0:0:0:50:drum_cym_crash.ogg
320,192,52237,1,0,0:0:0:50:LR3_Kick BRH.wav
448,192,52237,1,0,0:0:0:0:
192,192,53026,1,0,0:0:0:50:drum_cym_crash.ogg
320,192,53026,1,0,0:0:0:50:LR3_Kick BRH.wav
448,192,53026,1,0,0:0:0:0:
192,192,53342,1,0,0:0:0:50:drum_cym_crash.ogg
320,192,53342,1,0,0:0:0:50:LR3_Kick BRH.wav
448,192,53342,1,0,0:0:0:0:
192,192,53658,1,0,0:0:0:50:drum_cym_crash.ogg
320,192,53658,1,0,0:0:0:50:LR3_Kick BRH.wav
448,192,53658,1,0,0:0:0:0:
192,192,53894,1,0,0:0:0:50:drum_cym_crash.ogg
320,192,53894,1,0,0:0:0:50:LR3_Kick BRH.wav
448,192,53894,1,0,0:0:0:0:
64,192,54131,1,0,0:0:0:50:drum_cym_crash.ogg
320,192,54131,1,0,0:0:0:50:LR3_Kick BRH.wav
448,192,54131,1,0,0:0:0:0:
64,192,54289,1,0,0:0:0:50:drum_cym_crash.ogg
192,192,54289,1,0,0:0:0:50:LR3_Kick BRH.wav
448,192,54289,1,0,0:0:0:0:
64,192,54605,1,0,0:0:0:50:drum_cym_crash.ogg
192,192,54605,1,0,0:0:0:50:LR3_Kick BRH.wav
448,192,54605,1,0,0:0:0:0:
64,192,54921,1,0,0:0:0:50:drum_cym_crash.ogg
192,192,54921,1,0,0:0:0:50:LR3_Kick BRH.wav
448,192,54921,1,0,0:0:0:0:
64,192,55158,1,0,0:0:0:50:drum_cym_crash.ogg
192,192,55158,1,0,0:0:0:50:LR3_Kick BRH.wav
448,192,55158,1,0,0:0:0:0:
64,192,55394,1,0,0:0:0:50:drum_cym_crash.ogg
192,192,55394,1,0,0:0:0:50:LR3_Kick BRH.wav
448,192,55473,1,0,0:0:0:50:drum_cym_crash.ogg
64,192,55552,1,0,0:0:0:50:drum_cym_crash.ogg
192,192,55552,1,0,0:0:0:50:LR3_Kick BRH.wav
320,192,55552,1,0,0:0:0:0:
64,192,55868,1,0,0:0:0:50:drum_cym_crash.ogg
192,192,55868,1,0,0:0:0:50:LR3_Kick BRH.wav
320,192,55868,1,0,0:0:0:0:
64,192,56184,1,0,0:0:0:50:drum_cym_crash.ogg
192,192,56184,1,0,0:0:0:50:LR3_Kick BRH.wav
320,192,56184,1,0,0:0:0:0:
64,192,56421,1,0,0:0:0:50:drum_cym_crash.ogg
192,192,56421,1,0,0:0:0:50:LR3_Kick BRH.wav
320,192,56421,1,0,0:0:0:0:
64,192,56658,1,0,0:0:0:50:drum_cym_crash.ogg
192,192,56658,1,0,0:0:0:50:LR3_Kick BRH.wav
448,192,56658,1,0,0:0:0:0:
64,192,56815,1,0,0:0:0:50:drum_cym_crash.ogg
320,192,56815,1,0,0:0:0:50:LR3_Kick BRH.wav
448,192,56815,1,0,0:0:0:0:
64,192,57131,1,0,0:0:0:50:drum_cym_crash.ogg
192,192,57131,1,0,0:0:0:50:LR3_Kick BRH.wav
448,192,57131,1,0,0:0:0:0:
64,192,57289,1,0,0:0:0:50:drum_cym_crash.ogg
320,192,57289,1,0,0:0:0:50:LR3_Kick BRH.wav
448,192,57289,1,0,0:0:0:0:
64,192,57447,1,0,0:0:0:50:drum_cym_crash.ogg
192,192,57447,1,0,0:0:0:50:LR3_Kick BRH.wav
448,192,57447,1,0,0:0:0:0:
448,192,57605,1,0,0:0:0:50:drum_cym_crash.ogg
320,192,57644,1,0,0:0:0:50:LR3_Kick BRH.wav
64,192,57684,1,0,0:0:0:50:LR3_Kick BRH.wav
192,192,57723,1,0,0:0:0:50:LR3_Kick BRH.wav
320,192,57763,1,0,0:0:0:50:drum_cym_crash.ogg
448,192,57763,1,0,0:0:0:50:LR3_Kick BRH.wav
64,192,57921,1,0,0:0:0:50:drum_cym_crash.ogg
192,192,57921,1,0,0:0:0:50:LR3_Kick BRH.wav
320,192,57921,1,0,0:0:0:0:
192,192,58079,1,0,0:0:0:50:drum_cym_crash.ogg
320,192,58079,1,0,0:0:0:50:LR3_Kick BRH.wav
448,192,58079,1,0,0:0:0:0:
192,192,58394,1,0,0:0:0:50:drum_cym_crash.ogg
320,192,58394,1,0,0:0:0:50:LR3_Kick BRH.wav
448,192,58394,1,0,0:0:0:0:
192,192,58710,1,0,0:0:0:50:drum_cym_crash.ogg
320,192,58710,1,0,0:0:0:50:LR3_Kick BRH.wav
448,192,58710,1,0,0:0:0:0:
64,192,58947,1,0,0:0:0:50:drum_cym_crash.ogg
320,192,58947,1,0,0:0:0:50:LR3_Kick BRH.wav
448,192,58947,1,0,0:0:0:0:
64,192,59184,1,0,0:0:0:50:drum_cym_crash.ogg
192,192,59184,1,0,0:0:0:50:LR3_Kick BRH.wav
448,192,59184,1,0,0:0:0:0:
64,192,59342,1,0,0:0:0:50:drum_cym_crash.ogg
192,192,59342,1,0,0:0:0:50:LR3_Kick BRH.wav
448,192,59342,1,0,0:0:0:0:
64,192,59658,1,0,0:0:0:50:drum_cym_crash.ogg
192,192,59658,1,0,0:0:0:50:LR3_Kick BRH.wav
320,192,59658,1,0,0:0:0:0:
64,192,59973,1,0,0:0:0:50:drum_cym_crash.ogg
192,192,59973,1,0,0:0:0:50:LR3_Kick BRH.wav
448,192,59973,1,0,0:0:0:0:
64,192,60210,1,0,0:0:0:50:drum_cym_crash.ogg
320,192,60210,1,0,0:0:0:50:LR3_Kick BRH.wav
448,192,60210,1,0,0:0:0:0:
64,192,60447,1,0,0:0:0:50:drum_cym_crash.ogg
448,192,60447,1,0,0:0:0:50:LR3_Kick BRH.wav
320,192,60526,1,0,0:0:0:50:drum_cym_crash.ogg
64,192,60605,1,0,0:0:0:50:drum_cym_crash.ogg
192,192,60605,1,0,0:0:0:50:LR3_Kick BRH.wav
448,192,60605,1,0,0:0:0:0:
64,192,60921,1,0,0:0:0:50:drum_cym_crash.ogg
192,192,60921,1,0,0:0:0:50:LR3_Kick BRH.wav
320,192,60921,1,0,0:0:0:0:
64,192,61237,1,0,0:0:0:50:drum_cym_crash.ogg
192,192,61237,1,0,0:0:0:50:LR3_Kick BRH.wav
448,192,61237,1,0,0:0:0:0:
192,192,61473,1,0,0:0:0:50:drum_cym_crash.ogg
320,192,61473,1,0,0:0:0:50:LR3_Kick BRH.wav
448,192,61473,1,0,0:0:0:0:
64,192,61710,1,0,0:0:0:50:drum_cym_crash.ogg
320,192,61710,1,0,0:0:0:50:LR3_Kick BRH.wav
448,192,61710,1,0,0:0:0:0:
64,192,61868,1,0,0:0:0:50:drum_cym_crash.ogg
192,192,61868,1,0,0:0:0:50:LR3_Kick BRH.wav
448,192,61868,1,0,0:0:0:0:
64,192,62184,1,0,0:0:0:50:drum_cym_crash.ogg
320,192,62184,1,0,0:0:0:50:LR3_Kick BRH.wav
448,192,62184,1,0,0:0:0:0:
64,192,62342,1,0,0:0:0:50:drum_cym_crash.ogg
192,192,62342,1,0,0:0:0:50:LR3_Kick BRH.wav
448,192,62342,1,0,0:0:0:0:
64,192,62500,1,0,0:0:0:50:drum_cym_crash.ogg
320,192,62500,1,0,0:0:0:50:LR3_Kick BRH.wav
448,192,62500,1,0,0:0:0:0:
448,192,62658,1,0,0:0:0:50:drum_cym_crash.ogg
320,192,62697,1,0,0:0:0:50:LR3_Kick BRH.wav
64,192,62737,1,0,0:0:0:50:LR3_Kick BRH.wav
192,192,62776,1,0,0:0:0:50:LR3_Kick BRH.wav
320,192,62815,1,0,0:0:0:50:drum_cym_crash.ogg
448,192,62815,1,0,0:0:0:50:LR3_Kick BRH.wav
192,192,62973,1,0,0:0:0:50:drum_cym_crash.ogg
320,192,62973,1,0,0:0:0:50:LR3_Kick BRH.wav
448,192,62973,1,0,0:0:0:0:
64,192,63131,1,0,0:0:0:50:drum_cym_crash.ogg
192,192,63131,1,0,0:0:0:50:LR3_Kick BRH.wav
448,192,63131,1,0,0:0:0:0:
64,192,63447,1,0,0:0:0:50:drum_cym_crash.ogg
192,192,63447,1,0,0:0:0:50:LR3_Kick BRH.wav
448,192,63447,1,0,0:0:0:0:
64,192,63763,1,0,0:0:0:50:drum_cym_crash.ogg
192,192,63763,1,0,0:0:0:50:LR3_Kick BRH.wav
448,192,63763,1,0,0:0:0:0:
320,192,63921,1,0,0:0:0:0:
64,192,64000,1,0,0:0:0:50:drum_cym_crash.ogg
192,192,64000,1,0,0:0:0:50:LR3_Kick BRH.wav
448,192,64079,1,0,0:0:0:0:
192,192,64237,1,0,0:0:0:50:drum_cym_crash.ogg
320,192,64237,1,0,0:0:0:50:LR3_Kick BRH.wav
448,192,64237,1,0,0:0:0:0:
64,192,64394,1,0,0:0:0:50:drum_cym_crash.ogg
320,192,64394,1,0,0:0:0:50:LR3_Kick BRH.wav
448,192,64394,1,0,0:0:0:0:
64,192,64552,1,0,0:0:0:0:
64,192,64710,1,0,0:0:0:50:drum_cym_crash.ogg
320,192,64710,1,0,0:0:0:50:LR3_Kick BRH.wav
448,192,64710,1,0,0:0:0:0:
448,192,64868,1,0,0:0:0:0:
64,192,65026,1,0,0:0:0:50:drum_cym_crash.ogg
320,192,65026,1,0,0:0:0:50:LR3_Kick BRH.wav
448,192,65026,1,0,0:0:0:0:
192,192,65184,1,0,0:0:0:0:
64,192,65263,1,0,0:0:0:50:drum_cym_crash.ogg
448,192,65263,1,0,0:0:0:50:LR3_Kick BRH.wav
320,192,65342,1,0,0:0:0:0:
320,192,65500,1,0,0:0:0:50:drum_cym_crash.ogg
448,192,65500,1,0,0:0:0:50:LR3_Kick BRH.wav
64,192,65579,1,0,0:0:0:50:drum_cym_crash.ogg
192,192,65658,1,0,0:0:0:50:drum_cym_crash.ogg
320,192,65658,1,0,0:0:0:50:LR3_Kick BRH.wav
448,192,65658,1,0,0:0:0:0:
192,192,65973,1,0,0:0:0:50:drum_cym_crash.ogg
320,192,65973,1,0,0:0:0:50:LR3_Kick BRH.wav
448,192,65973,1,0,0:0:0:0:
320,192,66131,1,0,0:0:0:0:
192,192,66289,1,0,0:0:0:50:drum_cym_crash.ogg
320,192,66289,1,0,0:0:0:50:LR3_Kick BRH.wav
448,192,66289,1,0,0:0:0:0:
64,192,66447,1,0,0:0:0:0:
192,192,66526,1,0,0:0:0:50:drum_cym_crash.ogg
320,192,66526,1,0,0:0:0:50:LR3_Kick BRH.wav
448,192,66526,1,0,0:0:0:0:
64,192,66763,1,0,0:0:0:50:drum_cym_crash.ogg
320,192,66763,1,0,0:0:0:50:LR3_Kick BRH.wav
448,192,66763,1,0,0:0:0:0:
64,192,66921,1,0,0:0:0:50:drum_cym_crash.ogg
192,192,66921,1,0,0:0:0:50:LR3_Kick BRH.wav
448,192,66921,1,0,0:0:0:0:
192,192,67079,1,0,0:0:0:0:
64,192,67237,1,0,0:0:0:50:drum_cym_crash.ogg
320,192,67237,1,0,0:0:0:50:LR3_Kick BRH.wav
448,192,67237,1,0,0:0:0:0:
64,192,67394,1,0,0:0:0:50:drum_cym_crash.ogg
192,192,67394,1,0,0:0:0:50:LR3_Kick BRH.wav
448,192,67394,1,0,0:0:0:0:
64,192,67552,1,0,0:0:0:50:drum_cym_crash.ogg
320,192,67552,1,0,0:0:0:50:LR3_Kick BRH.wav
448,192,67552,1,0,0:0:0:0:
64,192,67710,1,0,0:0:0:50:drum_cym_crash.ogg
192,192,67750,1,0,0:0:0:50:LR3_Kick BRH.wav
448,192,67789,1,0,0:0:0:50:LR3_Kick BRH.wav
320,192,67829,1,0,0:0:0:50:LR3_Kick BRH.wav
64,192,67868,1,0,0:0:0:50:drum_cym_crash.ogg
192,192,67868,1,0,0:0:0:50:LR3_Kick BRH.wav
64,192,68026,1,0,0:0:0:50:drum_cym_crash.ogg
320,192,68026,1,0,0:0:0:50:LR3_Kick BRH.wav
448,192,68105,1,0,0:0:0:0:
64,192,68184,1,0,0:0:0:50:drum_cym_crash.ogg
192,192,68184,1,0,0:0:0:50:LR3_Kick BRH.wav
320,192,68184,1,0,0:0:0:0:
64,192,68500,1,0,0:0:0:50:drum_cym_crash.ogg
192,192,68500,1,0,0:0:0:50:LR3_Kick BRH.wav
320,192,68500,1,0,0:0:0:0:
64,192,68815,1,0,0:0:0:50:drum_cym_crash.ogg
192,192,68815,1,0,0:0:0:50:LR3_Kick BRH.wav
320,192,68815,1,0,0:0:0:0:
64,192,69052,1,0,0:0:0:50:drum_cym_crash.ogg
192,192,69052,1,0,0:0:0:50:LR3_Kick BRH.wav
448,192,69052,1,0,0:0:0:0:
320,192,69131,1,0,0:0:0:0:
64,192,69289,1,0,0:0:0:50:drum_cym_crash.ogg
320,192,69289,1,0,0:0:0:50:LR3_Kick BRH.wav
448,192,69289,1,0,0:0:0:0:
64,192,69447,1,0,0:0:0:50:drum_cym_crash.ogg
320,192,69447,1,0,0:0:0:50:LR3_Kick BRH.wav
448,192,69447,1,0,0:0:0:0:
448,192,69605,1,0,0:0:0:0:
64,192,69763,1,0,0:0:0:50:drum_cym_crash.ogg
192,192,69763,1,0,0:0:0:50:LR3_Kick BRH.wav
448,192,69763,1,0,0:0:0:0:
64,192,69921,1,0,0:0:0:0:
64,192,70079,1,0,0:0:0:50:drum_cym_crash.ogg
192,192,70079,1,0,0:0:0:50:LR3_Kick BRH.wav
320,192,70079,1,0,0:0:0:0:
64,192,70237,1,0,0:0:0:0:
320,192,70315,1,0,0:0:0:50:drum_cym_crash.ogg
448,192,70315,1,0,0:0:0:50:LR3_Kick BRH.wav
192,192,70394,1,0,0:0:0:0:
64,192,70552,1,0,0:0:0:50:drum_cym_crash.ogg
192,192,70552,1,0,0:0:0:50:LR3_Kick BRH.wav
320,192,70631,1,0,0:0:0:50:drum_cym_crash.ogg
64,192,70710,1,0,0:0:0:50:drum_cym_crash.ogg
192,192,70710,1,0,0:0:0:50:LR3_Kick BRH.wav
448,192,70710,1,0,0:0:0:0:
64,192,70868,1,0,0:0:0:0:
64,192,71026,1,0,0:0:0:50:drum_cym_crash.ogg
320,192,71026,1,0,0:0:0:50:LR3_Kick BRH.wav
448,192,71026,1,0,0:0:0:0:
320,192,71184,1,0,0:0:0:0:
192,192,71342,1,0,0:0:0:50:drum_cym_crash.ogg
320,192,71342,1,0,0:0:0:50:LR3_Kick BRH.wav
448,192,71342,1,0,0:0:0:0:
192,192,71500,1,0,0:0:0:0:
64,192,71579,1,0,0:0:0:50:drum_cym_crash.ogg
320,192,71579,1,0,0:0:0:50:LR3_Kick BRH.wav
448,192,71579,1,0,0:0:0:0:
64,192,71815,1,0,0:0:0:50:drum_cym_crash.ogg
192,192,71815,1,0,0:0:0:50:LR3_Kick BRH.wav
320,192,71815,1,0,0:0:0:0:
64,192,71973,1,0,0:0:0:50:drum_cym_crash.ogg
192,192,71973,1,0,0:0:0:50:LR3_Kick BRH.wav
448,192,71973,1,0,0:0:0:0:
64,192,72210,1,0,0:0:0:50:drum_cym_crash.ogg
320,192,72210,1,0,0:0:0:50:LR3_Kick BRH.wav
448,192,72210,1,0,0:0:0:0:
64,192,72447,1,0,0:0:0:50:drum_cym_crash.ogg
192,192,72447,1,0,0:0:0:50:LR3_Kick BRH.wav
448,192,72447,1,0,0:0:0:0:
64,192,72605,1,0,0:0:0:50:drum_cym_crash.ogg
320,192,72605,1,0,0:0:0:50:LR3_Kick BRH.wav
448,192,72605,1,0,0:0:0:0:
64,192,72763,1,0,0:0:0:50:drum_cym_crash.ogg
192,192,72802,1,0,0:0:0:50:LR3_Kick BRH.wav
448,192,72842,1,0,0:0:0:50:LR3_Kick BRH.wav
320,192,72881,1,0,0:0:0:50:LR3_Kick BRH.wav
64,192,72921,1,0,0:0:0:50:drum_cym_crash.ogg
192,192,72921,1,0,0:0:0:50:LR3_Kick BRH.wav
64,192,73079,1,0,0:0:0:50:LR3_Kick BRH.wav
192,192,73079,1,0,0:0:0:0:
320,192,73079,1,0,0:0:0:0:
320,192,73237,1,0,0:0:0:50:LR3_Kick BRH.wav
448,192,73237,1,0,0:0:0:0:
320,192,73394,1,0,0:0:0:50:LR3_Kick BRH.wav
448,192,73394,1,0,0:0:0:0:
320,192,73552,1,0,0:0:0:50:drum_cym_crash.ogg
448,192,73552,1,0,0:0:0:50:LR3_Kick BRH.wav
64,192,73710,1,0,0:0:0:50:LR3_Kick BRH.wav
192,192,73750,1,0,0:0:0:50:LR3_Kick BRH.wav
320,192,73789,1,0,0:0:0:50:LR3_Kick BRH.wav
448,192,73829,1,0,0:0:0:50:LR3_Kick BRH.wav
64,192,73868,1,0,0:0:0:50:LR3_Kick BRH.wav
192,192,73868,1,0,0:0:0:0:
64,192,74026,1,0,0:0:0:50:LR3_Kick BRH.wav
192,192,74026,1,0,0:0:0:0:
64,192,74184,1,0,0:0:0:50:drum_cym_crash.ogg
192,192,74184,1,0,0:0:0:50:LR3_Kick BRH.wav
448,192,74342,1,0,0:0:0:50:LR3_Kick BRH.wav
320,192,74381,1,0,0:0:0:50:LR3_Kick BRH.wav
192,192,74421,1,0,0:0:0:50:LR3_Kick BRH.wav
64,192,74460,1,0,0:0:0:50:LR3_Kick BRH.wav
320,192,74500,1,0,0:0:0:50:LR3_Kick BRH.wav
448,192,74500,1,0,0:0:0:0:
320,192,74658,1,0,0:0:0:50:LR3_Kick BRH.wav
448,192,74658,1,0,0:0:0:0:
320,192,74815,1,0,0:0:0:50:LR3_Kick BRH.wav
448,192,74815,1,0,0:0:0:0:
192,192,74973,1,0,0:0:0:50:LR3_Kick BRH.wav
320,192,74973,1,0,0:0:0:0:
64,192,75131,1,0,0:0:0:50:LR3_Kick BRH.wav
192,192,75131,1,0,0:0:0:0:
320,192,75210,1,0,0:0:0:0:
192,192,75289,1,0,0:0:0:0:
320,192,75368,1,0,0:0:0:0:
192,192,75447,1,0,0:0:0:0:
320,192,75526,1,0,0:0:0:0:
192,192,75605,1,0,0:0:0:0:
320,192,75684,1,0,0:0:0:0:
64,192,75763,1,0,0:0:0:60:cym.ogg
448,192,75763,1,0,0:0:0:50:LR3_Kick BRH.wav
320,192,75921,1,0,0:0:0:0:
192,192,76000,1,0,0:0:0:0:
320,192,76079,1,0,0:0:0:50:LR3_Kick BRH.wav
448,192,76079,1,0,0:0:0:0:
192,192,76237,1,0,0:0:0:0:
320,192,76315,1,0,0:0:0:0:
64,192,76394,1,0,0:0:0:50:LR3_Kick BRH.wav
192,192,76394,1,0,0:0:0:0:
320,192,76552,1,0,0:0:0:0:
64,192,76710,1,0,0:0:0:50:LR3_Kick BRH.wav
448,192,76710,1,0,0:0:0:0:
192,192,76868,1,0,0:0:0:0:
64,192,77026,1,0,0:0:0:50:LR3_Kick BRH.wav
448,192,77026,1,0,0:0:0:0:
320,192,77105,1,0,0:0:0:0:
192,192,77184,1,0,0:0:0:0:
320,192,77263,1,0,0:0:0:0:
64,192,77342,1,0,0:0:0:50:LR3_Kick BRH.wav
448,192,77342,1,0,0:0:0:0:
320,192,77421,1,0,0:0:0:0:
192,192,77500,1,0,0:0:0:0:
320,192,77579,1,0,0:0:0:0:
64,192,77658,1,0,0:0:0:50:LR3_Kick BRH.wav
448,192,77658,1,0,0:0:0:0:
192,192,77737,1,0,0:0:0:0:
320,192,77815,1,0,0:0:0:0:
192,192,77894,1,0,0:0:0:0:
64,192,77973,1,0,0:0:0:50:LR3_Kick BRH.wav
448,192,77973,1,0,0:0:0:0:
320,192,78052,1,0,0:0:0:0:
192,192,78131,1,0,0:0:0:0:
64,192,78210,1,0,0:0:0:0:
320,192,78289,1,0,0:0:0:50:LR3_Kick BRH.wav
448,192,78289,1,0,0:0:0:0:
192,192,78447,1,0,0:0:0:0:
320,192,78526,1,0,0:0:0:0:
64,192,78605,1,0,0:0:0:50:LR3_Kick BRH.wav
192,192,78605,1,0,0:0:0:0:
320,192,78763,1,0,0:0:0:0:
192,192,78842,1,0,0:0:0:0:
320,192,78921,1,0,0:0:0:50:LR3_Kick BRH.wav
448,192,78921,1,0,0:0:0:0:
64,192,79079,1,0,0:0:0:0:
320,192,79237,1,0,0:0:0:50:LR3_Kick BRH.wav
448,192,79237,1,0,0:0:0:0:
192,192,79315,1,0,0:0:0:0:
320,192,79394,1,0,0:0:0:0:
448,192,79473,1,0,0:0:0:0:
64,192,79552,1,0,0:0:0:50:LR3_Kick BRH.wav
192,192,79552,1,0,0:0:0:0:
320,192,79631,1,0,0:0:0:0:
192,192,79710,1,0,0:0:0:0:
64,192,79789,1,0,0:0:0:0:
320,192,79868,1,0,0:0:0:50:LR3_Kick BRH.wav
448,192,79868,1,0,0:0:0:0:
192,192,79947,1,0,0:0:0:0:
64,192,80026,1,0,0:0:0:0:
448,192,80105,1,0,0:0:0:0:
192,192,80184,1,0,0:0:0:50:LR3_Kick BRH.wav
320,192,80184,1,0,0:0:0:0:
64,192,80263,1,0,0:0:0:0:
448,192,80342,1,0,0:0:0:0:
320,192,80421,1,0,0:0:0:0:
64,192,80500,1,0,0:0:0:50:LR3_Kick BRH.wav
192,192,80500,1,0,0:0:0:0:
448,192,80579,1,0,0:0:0:0:
64,192,80658,1,0,0:0:0:50:LR3_Kick BRH.wav
192,192,80658,1,0,0:0:0:0:
320,192,80737,1,0,0:0:0:0:
64,192,80815,1,0,0:0:0:50:LR3_Kick BRH.wav
448,192,80815,1,0,0:0:0:0:
320,192,80973,1,0,0:0:0:0:
192,192,81052,1,0,0:0:0:0:
448,192,81131,1,0,0:0:0:50:LR3_Kick BRH.wav
320,192,81131,1,0,0:0:0:0:
64,192,81289,1,0,0:0:0:0:
192,192,81447,1,0,0:0:0:50:LR3_Kick BRH.wav
320,192,81447,1,0,0:0:0:0:
64,192,81526,1,0,0:0:0:0:
448,192,81684,1,0,0:0:0:0:
64,192,81763,1,0,0:0:0:50:LR3_Kick BRH.wav
192,192,81763,1,0,0:0:0:0:
320,192,81842,1,0,0:0:0:0:
192,192,82000,1,0,0:0:0:0:
320,192,82079,1,0,0:0:0:50:LR3_Kick BRH.wav
448,192,82079,1,0,0:0:0:0:
64,192,82158,1,0,0:0:0:0:
320,192,82315,1,0,0:0:0:0:
64,192,82394,1,0,0:0:0:50:LR3_Kick BRH.wav
192,192,82394,1,0,0:0:0:0:
448,192,82473,1,0,0:0:0:0:
64,192,82631,1,0,0:0:0:0:
320,192,82710,1,0,0:0:0:50:LR3_Kick BRH.wav
448,192,82710,1,0,0:0:0:0:
192,192,82789,1,0,0:0:0:0:
320,192,82947,1,0,0:0:0:0:
64,192,83026,1,0,0:0:0:50:LR3_Kick BRH.wav
192,192,83026,1,0,0:0:0:0:
448,192,83105,1,0,0:0:0:0:
320,192,83263,1,0,0:0:0:0:
64,192,83342,1,0,0:0:0:50:LR3_Kick BRH.wav
448,192,83342,1,0,0:0:0:0:
192,192,83421,1,0,0:0:0:0:
320,192,83500,1,0,0:0:0:0:
192,192,83579,1,0,0:0:0:0:
64,192,83658,1,0,0:0:0:50:LR3_Kick BRH.wav
448,192,83658,1,0,0:0:0:0:
192,192,83737,1,0,0:0:0:0:
320,192,83815,1,0,0:0:0:0:
192,192,83894,1,0,0:0:0:0:
64,192,83973,1,0,0:0:0:50:LR3_Kick BRH.wav
448,192,83973,1,0,0:0:0:0:
320,192,84052,1,0,0:0:0:0:
192,192,84131,1,0,0:0:0:0:
64,192,84210,1,0,0:0:0:0:
320,192,84289,1,0,0:0:0:50:LR3_Kick BRH.wav
448,192,84289,1,0,0:0:0:0:
64,192,84368,1,0,0:0:0:0:
192,192,84447,1,0,0:0:0:0:
320,192,84526,1,0,0:0:0:0:
64,192,84605,1,0,0:0:0:50:LR3_Kick BRH.wav
192,192,84605,1,0,0:0:0:0:
448,192,84605,1,0,0:0:0:0:
320,192,84684,1,0,0:0:0:0:
192,192,84763,1,0,0:0:0:0:
64,192,84842,1,0,0:0:0:0:
448,192,84921,1,0,0:0:0:0:
320,192,85000,1,0,0:0:0:0:
192,192,85079,1,0,0:0:0:0:
64,192,85158,1,0,0:0:0:0:
320,192,85237,1,0,0:0:0:0:
192,192,85315,1,0,0:0:0:0:
64,192,85394,1,0,0:0:0:50:LR3_Kick BRH.wav
448,192,85394,1,0,0:0:0:0:
320,192,85473,1,0,0:0:0:0:
64,192,85552,1,0,0:0:0:50:LR3_Kick BRH.wav
448,192,85552,1,0,0:0:0:0:
192,192,85631,1,0,0:0:0:0:
64,192,85710,1,0,0:0:0:50:LR3_Kick BRH.wav
448,192,85710,1,0,0:0:0:0:
320,192,85789,1,0,0:0:0:0:
64,192,85868,1,0,0:0:0:60:cym.ogg
192,192,85868,1,0,0:0:0:50:LR3_Kick BRH.wav
448,192,85868,1,0,0:0:0:0:
320,192,86026,1,0,0:0:0:0:
192,192,86105,1,0,0:0:0:0:
320,192,86184,1,0,0:0:0:50:LR3_Kick BRH.wav
448,192,86184,1,0,0:0:0:0:
192,192,86342,1,0,0:0:0:0:
320,192,86421,1,0,0:0:0:0:
64,192,86500,1,0,0:0:0:50:LR3_Kick BRH.wav
192,192,86500,1,0,0:0:0:0:
320,192,86658,1,0,0:0:0:0:
192,192,86737,1,0,0:0:0:0:
320,192,86815,1,0,0:0:0:50:LR3_Kick BRH.wav
448,192,86815,1,0,0:0:0:0:
64,192,86894,1,0,0:0:0:0:
192,192,86973,1,0,0:0:0:0:
320,192,87052,1,0,0:0:0:0:
64,192,87131,1,0,0:0:0:50:LR3_Kick BRH.wav
448,192,87131,1,0,0:0:0:0:
192,192,87289,1,0,0:0:0:0:
320,192,87368,1,0,0:0:0:0:
64,192,87447,1,0,0:0:0:50:LR3_Kick BRH.wav
192,192,87447,1,0,0:0:0:0:
320,192,87605,1,0,0:0:0:0:
192,192,87684,1,0,0:0:0:0:
320,192,87763,1,0,0:0:0:50:LR3_Kick BRH.wav
448,192,87763,1,0,0:0:0:0:
448,192,87921,1,0,0:0:0:0:
320,192,88000,1,0,0:0:0:0:
64,192,88079,1,0,0:0:0:50:LR3_Kick BRH.wav
192,192,88079,1,0,0:0:0:0:
448,192,88158,1,0,0:0:0:0:
320,192,88237,1,0,0:0:0:0:
192,192,88315,1,0,0:0:0:0:
64,192,88394,1,0,0:0:0:50:LR3_Kick BRH.wav
448,192,88394,1,0,0:0:0:0:
320,192,88473,1,0,0:0:0:0:
320,192,88631,1,0,0:0:0:0:
64,192,88710,1,0,0:0:0:50:LR3_Kick BRH.wav
192,192,88710,1,0,0:0:0:0:
448,192,88789,1,0,0:0:0:0:
448,192,88947,1,0,0:0:0:0:
192,192,89026,1,0,0:0:0:50:LR3_Kick BRH.wav
320,192,89026,1,0,0:0:0:0:
64,192,89105,1,0,0:0:0:0:
64,192,89263,1,0,0:0:0:0:
320,192,89342,1,0,0:0:0:50:LR3_Kick BRH.wav
448,192,89342,1,0,0:0:0:0:
192,192,89421,1,0,0:0:0:0:
192,192,89579,1,0,0:0:0:0:
64,192,89658,1,0,0:0:0:50:LR3_Kick BRH.wav
320,192,89658,1,0,0:0:0:0:
448,192,89658,1,0,0:0:0:0:
192,192,89815,1,0,0:0:0:0:
320,192,89815,1,0,0:0:0:0:
64,192,89973,1,0,0:0:0:50:LR3_Kick BRH.wav
320,192,89973,1,0,0:0:0:0:
448,192,89973,1,0,0:0:0:0:
64,192,90131,1,0,0:0:0:0:
192,192,90131,1,0,0:0:0:0:
192,192,90289,1,0,0:0:0:50:LR3_Kick BRH.wav
448,192,90447,1,0,0:0:0:0:
320,192,90526,1,0,0:0:0:0:
64,192,90605,1,0,0:0:0:50:LR3_Kick BRH.wav
192,192,90605,1,0,0:0:0:0:
448,192,90684,1,0,0:0:0:0:
320,192,90763,1,0,0:0:0:50:LR3_Kick BRH.wav
192,192,90842,1,0,0:0:0:0:
64,192,90921,1,0,0:0:0:50:drum_cym_crash.ogg
320,192,90921,1,0,0:0:0:50:LR3_Kick BRH.wav
448,192,90921,1,0,0:0:0:0:
192,192,91079,1,0,0:0:0:0:
448,192,91079,1,0,0:0:0:0:
64,192,91237,1,0,0:0:0:50:LR3_Kick BRH.wav
192,192,91237,1,0,0:0:0:0:
320,192,91237,1,0,0:0:0:0:
64,192,91394,1,0,0:0:0:0:
192,192,91394,1,0,0:0:0:0:
448,192,91552,1,0,0:0:0:50:LR3_Kick BRH.wav
64,192,91710,1,0,0:0:0:0:
192,192,91789,1,0,0:0:0:0:
320,192,91868,1,0,0:0:0:50:LR3_Kick BRH.wav
448,192,91868,1,0,0:0:0:0:
64,192,91947,1,0,0:0:0:0:
192,192,92026,1,0,0:0:0:0:
320,192,92105,1,0,0:0:0:0:
64,192,92184,1,0,0:0:0:50:drum_cym_crash.ogg
192,192,92184,1,0,0:0:0:50:LR3_Kick BRH.wav
448,192,92184,1,0,0:0:0:0:
64,192,92342,1,0,0:0:0:0:
320,192,92342,1,0,0:0:0:0:
192,192,92500,1,0,0:0:0:50:LR3_Kick BRH.wav
320,192,92500,1,0,0:0:0:0:
448,192,92500,1,0,0:0:0:0:
320,192,92658,1,0,0:0:0:0:
448,192,92658,1,0,0:0:0:0:
64,192,92815,1,0,0:0:0:50:LR3_Kick BRH.wav
192,192,92973,1,0,0:0:0:0:
320,192,93052,1,0,0:0:0:0:
64,192,93131,1,0,0:0:0:50:LR3_Kick BRH.wav
192,192,93131,1,0,0:0:0:0:
320,192,93210,1,0,0:0:0:0:
192,192,93289,1,0,0:0:0:0:
448,192,93368,1,0,0:0:0:0:
64,192,93447,128,0,93605:0:0:0:50:drum_cym_crash.ogg
192,192,93447,128,0,93605:0:0:0:50:LR3_Kick BRH.wav
448,192,93605,1,0,0:0:0:0:
320,192,93684,1,0,0:0:0:0:
448,192,93763,1,0,0:0:0:0:
64,192,93921,128,0,94000:0:0:0:50:drum_cym_crash.ogg
192,192,93921,128,0,94000:0:0:0:50:LR3_Kick BRH.wav
64,192,94079,128,0,94237:0:0:0:50:drum_cym_crash.ogg
192,192,94079,128,0,94237:0:0:0:50:LR3_Kick BRH.wav
448,192,94237,1,0,0:0:0:0:
320,192,94315,1,0,0:0:0:0:
448,192,94394,1,0,0:0:0:0:
64,192,94552,128,0,94631:0:0:0:50:drum_cym_crash.ogg
192,192,94552,128,0,94631:0:0:0:50:LR3_Kick BRH.wav
64,192,94710,128,0,94868:0:0:0:50:drum_cym_crash.ogg
192,192,94710,1,0,0:0:0:50:LR3_Kick BRH.wav
448,192,94868,1,0,0:0:0:0:
320,192,94947,1,0,0:0:0:0:
64,192,95026,1,0,0:0:0:50:LR3_Kick BRH.wav
192,192,95026,128,0,95184:0:0:0:0:
320,192,95184,1,0,0:0:0:0:
64,192,95263,1,0,0:0:0:0:
320,192,95342,128,0,95500:0:0:0:50:LR3_Kick BRH.wav
448,192,95342,1,0,0:0:0:0:
64,192,95500,1,0,0:0:0:0:
192,192,95579,1,0,0:0:0:0:
320,192,95658,1,0,0:0:0:50:LR3_Kick BRH.wav
448,192,95658,128,0,95815:0:0:0:0:
192,192,95815,1,0,0:0:0:0:
64,192,95894,1,0,0:0:0:0:
320,192,95973,128,0,96131:0:0:0:50:drum_cym_crash.ogg
448,192,95973,128,0,96131:0:0:0:50:LR3_Kick BRH.wav
64,192,96131,1,0,0:0:0:0:
192,192,96210,1,0,0:0:0:0:
64,192,96289,1,0,0:0:0:0:
320,192,96447,128,0,96526:0:0:0:50:drum_cym_crash.ogg
448,192,96447,128,0,96526:0:0:0:50:LR3_Kick BRH.wav
320,192,96605,128,0,96763:0:0:0:50:drum_cym_crash.ogg
448,192,96605,128,0,96763:0:0:0:50:LR3_Kick BRH.wav
64,192,96763,1,0,0:0:0:0:
192,192,96842,1,0,0:0:0:0:
64,192,96921,1,0,0:0:0:0:
320,192,97079,128,0,97158:0:0:0:50:drum_cym_crash.ogg
448,192,97079,128,0,97158:0:0:0:50:LR3_Kick BRH.wav
320,192,97237,1,0,0:0:0:50:drum_cym_crash.ogg
448,192,97237,128,0,97394:0:0:0:50:LR3_Kick BRH.wav
64,192,97394,1,0,0:0:0:0:
192,192,97473,1,0,0:0:0:0:
320,192,97552,128,0,97710:0:0:0:50:LR3_Kick BRH.wav
448,192,97552,1,0,0:0:0:0:
192,192,97710,1,0,0:0:0:0:
448,192,97789,1,0,0:0:0:0:
64,192,97868,1,0,0:0:0:50:LR3_Kick BRH.wav
192,192,97868,128,0,98026:0:0:0:0:
448,192,98026,1,0,0:0:0:0:
320,192,98105,1,0,0:0:0:0:
64,192,98184,128,0,98342:0:0:0:50:LR3_Kick BRH.wav
192,192,98184,1,0,0:0:0:0:
320,192,98342,1,0,0:0:0:0:
448,192,98421,1,0,0:0:0:0:
64,192,98500,128,0,98658:0:0:0:50:drum_cym_crash.ogg
192,192,98500,128,0,98658:0:0:0:50:LR3_Kick BRH.wav
448,192,98658,1,0,0:0:0:0:
320,192,98737,1,0,0:0:0:0:
448,192,98815,1,0,0:0:0:0:
64,192,98973,128,0,99052:0:0:0:50:drum_cym_crash.ogg
192,192,98973,128,0,99052:0:0:0:50:LR3_Kick BRH.wav
64,192,99131,128,0,99289:0:0:0:50:drum_cym_crash.ogg
192,192,99131,128,0,99289:0:0:0:50:LR3_Kick BRH.wav
448,192,99289,1,0,0:0:0:0:
320,192,99368,1,0,0:0:0:0:
448,192,99447,1,0,0:0:0:0:
64,192,99605,128,0,99684:0:0:0:50:drum_cym_crash.ogg
192,192,99605,128,0,99684:0:0:0:50:LR3_Kick BRH.wav
64,192,99763,128,0,99921:0:0:0:50:drum_cym_crash.ogg
192,192,99763,1,0,0:0:0:50:LR3_Kick BRH.wav
448,192,99921,1,0,0:0:0:0:
320,192,100000,1,0,0:0:0:0:
64,192,100079,1,0,0:0:0:50:LR3_Kick BRH.wav
192,192,100079,128,0,100237:0:0:0:0:
320,192,100237,1,0,0:0:0:0:
64,192,100315,1,0,0:0:0:0:
320,192,100394,128,0,100552:0:0:0:50:LR3_Kick BRH.wav
448,192,100394,1,0,0:0:0:0:
64,192,100552,1,0,0:0:0:0:
192,192,100631,1,0,0:0:0:0:
320,192,100710,1,0,0:0:0:50:LR3_Kick BRH.wav
448,192,100710,128,0,100868:0:0:0:0:
64,192,100868,1,0,0:0:0:0:
192,192,100947,1,0,0:0:0:0:
64,192,101026,128,0,101184:0:0:0:50:drum_cym_crash.ogg
320,192,101026,1,0,0:0:0:50:LR3_Kick BRH.wav
448,192,101026,1,0,0:0:0:0:
448,192,101184,128,0,101342:0:0:0:0:
192,192,101342,128,0,101500:0:0:0:0:
448,192,101500,128,0,101658:0:0:0:0:
64,192,101658,128,0,101815:0:0:0:0:
320,192,101815,128,0,101973:0:0:0:0:
64,192,101973,128,0,102131:0:0:0:0:
448,192,102131,128,0,102289:0:0:0:0:
192,192,102289,128,0,102447:0:0:0:0:
320,192,102447,128,0,102526:0:0:0:0:
192,192,102526,128,0,102605:0:0:0:0:
320,192,102605,128,0,102763:0:0:0:0:
192,192,102763,128,0,102842:0:0:0:0:
320,192,102842,128,0,102921:0:0:0:0:
192,192,102921,128,0,103000:0:0:0:0:
64,192,103079,1,0,0:0:0:50:LR3_Kick BRH.wav
320,192,103079,1,0,0:0:0:0:
448,192,103079,1,0,0:0:0:0:
64,192,103237,1,0,0:0:0:50:LR3_Kick BRH.wav
320,192,103237,1,0,0:0:0:0:
448,192,103237,1,0,0:0:0:0:
64,192,103394,1,0,0:0:0:50:LR3_Kick BRH.wav
320,192,103394,1,0,0:0:0:0:
448,192,103394,1,0,0:0:0:0:
64,192,103552,1,0,0:0:0:60:cym.ogg
192,192,103552,1,0,0:0:0:50:LR3_Kick BRH.wav
448,192,103552,128,0,103868:0:0:0:0:
192,192,103710,1,0,0:0:0:0:
64,192,103868,1,0,0:0:0:0:
320,192,103868,1,0,0:0:0:0:
320,192,104026,128,0,104105:0:0:0:0:
64,192,104184,128,0,104263:0:0:0:50:LR3_Kick BRH.wav
448,192,104184,1,0,0:0:0:0:
192,192,104342,128,0,104421:0:0:0:0:
64,192,104500,1,0,0:0:0:50:LR3_Kick BRH.wav
320,192,104500,128,0,104579:0:0:0:0:
448,192,104658,128,0,104973:0:0:0:0:
64,192,104815,1,0,0:0:0:50:LR3_Kick BRH.wav
192,192,104815,1,0,0:0:0:0:
192,192,104973,1,0,0:0:0:0:
320,192,105131,128,0,105210:0:0:0:50:LR3_Kick BRH.wav
448,192,105131,1,0,0:0:0:0:
192,192,105289,128,0,105368:0:0:0:0:
64,192,105447,1,0,0:0:0:50:LR3_Kick BRH.wav
320,192,105447,1,0,0:0:0:0:
448,192,105605,128,0,105684:0:0:0:0:
64,192,105763,1,0,0:0:0:50:LR3_Kick BRH.wav
320,192,105763,128,0,105842:0:0:0:0:
192,192,105921,128,0,106000:0:0:0:0:
64,192,106079,128,0,106868:0:0:0:50:LR3_Kick BRH.wav
320,192,106079,1,0,0:0:0:0:
320,192,106237,1,0,0:0:0:0:
192,192,106394,1,0,0:0:0:50:LR3_Kick BRH.wav
448,192,106394,1,0,0:0:0:0:
448,192,106552,1,0,0:0:0:0:
192,192,106710,1,0,0:0:0:50:LR3_Kick BRH.wav
320,192,106710,1,0,0:0:0:0:
192,192,106868,1,0,0:0:0:0:
64,192,107026,1,0,0:0:0:50:LR3_Kick BRH.wav
448,192,107026,128,0,107105:0:0:0:0:
320,192,107184,128,0,107263:0:0:0:0:
64,192,107342,128,0,107500:0:0:0:50:LR3_Kick BRH.wav
192,192,107342,1,0,0:0:0:0:
320,192,107500,1,0,0:0:0:0:
320,192,107658,128,0,107815:0:0:0:50:LR3_Kick BRH.wav
448,192,107658,1,0,0:0:0:0:
192,192,107815,1,0,0:0:0:0:
64,192,107973,1,0,0:0:0:50:LR3_Kick BRH.wav
192,192,107973,128,0,108131:0:0:0:0:
448,192,108131,1,0,0:0:0:0:
320,192,108289,1,0,0:0:0:50:LR3_Kick BRH.wav
448,192,108289,128,0,108447:0:0:0:0:
64,192,108447,1,0,0:0:0:50:LR3_Kick BRH.wav
192,192,108447,1,0,0:0:0:0:
64,192,108605,128,0,109237:0:0:0:50:LR3_Kick BRH.wav
448,192,108605,1,0,0:0:0:0:
448,192,108763,1,0,0:0:0:0:
192,192,108921,1,0,0:0:0:50:LR3_Kick BRH.wav
320,192,108921,1,0,0:0:0:0:
320,192,109079,1,0,0:0:0:0:
192,192,109237,1,0,0:0:0:50:LR3_Kick BRH.wav
448,192,109237,1,0,0:0:0:0:
192,192,109394,1,0,0:0:0:0:
320,192,109552,128,0,109631:0:0:0:50:LR3_Kick BRH.wav
448,192,109552,1,0,0:0:0:0:
64,192,109710,128,0,109868:0:0:0:0:
192,192,109868,1,0,0:0:0:50:LR3_Kick BRH.wav
448,192,109868,1,0,0:0:0:0:
320,192,110026,128,0,110105:0:0:0:0:
64,192,110184,1,0,0:0:0:50:LR3_Kick BRH.wav
192,192,110184,128,0,110263:0:0:0:0:
320,192,110342,128,0,110421:0:0:0:0:
64,192,110500,128,0,110579:0:0:0:50:LR3_Kick BRH.wav
192,192,110500,1,0,0:0:0:0:
448,192,110658,128,0,110737:0:0:0:0:
64,192,110815,1,0,0:0:0:50:LR3_Kick BRH.wav
192,192,110815,128,0,110894:0:0:0:0:
448,192,110973,128,0,111763:0:0:0:0:
192,192,111131,1,0,0:0:0:50:LR3_Kick BRH.wav
64,192,111131,1,0,0:0:0:0:
64,192,111289,1,0,0:0:0:0:
320,192,111447,1,0,0:0:0:50:LR3_Kick BRH.wav
192,192,111447,1,0,0:0:0:0:
192,192,111605,1,0,0:0:0:0:
320,192,111763,1,0,0:0:0:50:LR3_Kick BRH.wav
64,192,111763,1,0,0:0:0:0:
320,192,111921,128,0,112000:0:0:0:0:
64,192,112079,128,0,112158:0:0:0:50:LR3_Kick BRH.wav
192,192,112079,1,0,0:0:0:0:
320,192,112237,128,0,112315:0:0:0:0:
64,192,112394,1,0,0:0:0:50:LR3_Kick BRH.wav
192,192,112394,128,0,112552:0:0:0:0:
448,192,112394,1,0,0:0:0:0:
192,192,112710,128,0,112868:0:0:0:0:
192,192,113026,128,0,113105:0:0:0:0:
64,192,113184,1,0,0:0:0:50:LR3_Kick BRH.wav
320,192,113184,1,0,0:0:0:0:
448,192,113184,1,0,0:0:0:0:
192,192,113263,1,0,0:0:0:0:
64,192,113342,1,0,0:0:0:50:LR3_Kick BRH.wav
320,192,113342,1,0,0:0:0:0:
448,192,113342,1,0,0:0:0:0:
64,192,113500,1,0,0:0:0:50:LR3_Kick BRH.wav
320,192,113500,1,0,0:0:0:0:
448,192,113500,1,0,0:0:0:0:
64,192,113658,1,0,0:0:0:60:cym.ogg
192,192,113658,1,0,0:0:0:50:LR3_Kick BRH.wav
448,192,113658,128,0,113814:0:0:0:0:
320,192,113814,1,0,0:0:0:0:
64,192,113970,128,0,114126:0:0:0:50:LR3_Kick BRH.wav
192,192,113970,1,0,0:0:0:0:
448,192,114126,1,0,0:0:0:0:
192,192,114283,128,0,114439:0:0:0:50:LR3_Kick BRH.wav
320,192,114283,1,0,0:0:0:0:
64,192,114439,1,0,0:0:0:0:
320,192,114595,128,0,114751:0:0:0:50:LR3_Kick BRH.wav
448,192,114595,1,0,0:0:0:0:
192,192,114751,1,0,0:0:0:0:
64,192,114908,1,0,0:0:0:50:LR3_Kick BRH.wav
448,192,114908,128,0,115064:0:0:0:0:
320,192,115064,1,0,0:0:0:0:
64,192,115220,1,0,0:0:0:50:LR3_Kick BRH.wav
192,192,115220,128,0,115376:0:0:0:0:
448,192,115376,128,0,115533:0:0:0:0:
64,192,115533,1,0,0:0:0:50:LR3_Kick BRH.wav
192,192,115533,1,0,0:0:0:0:
320,192,115689,128,0,115767:0:0:0:0:
320,192,115845,128,0,116001:0:0:0:50:LR3_Kick BRH.wav
448,192,115845,1,0,0:0:0:0:
192,192,116001,128,0,116158:0:0:0:0:
64,192,116158,128,0,116314:0:0:0:50:LR3_Kick BRH.wav
448,192,116158,1,0,0:0:0:0:
192,192,116314,1,0,0:0:0:0:
320,192,116470,128,0,116626:0:0:0:50:LR3_Kick BRH.wav
448,192,116470,1,0,0:0:0:0:
64,192,116626,128,0,116783:0:0:0:0:
320,192,116783,1,0,0:0:0:50:LR3_Kick BRH.wav
448,192,116783,1,0,0:0:0:0:
192,192,116939,128,0,117017:0:0:0:0:
64,192,117095,1,0,0:0:0:50:LR3_Kick BRH.wav
192,192,117095,128,0,117251:0:0:0:0:
320,192,117251,128,0,117408:0:0:0:0:
64,192,117408,1,0,0:0:0:50:LR3_Kick BRH.wav
448,192,117408,128,0,117564:0:0:0:0:
192,192,117564,1,0,0:0:0:0:
320,192,117720,128,0,117876:0:0:0:50:LR3_Kick BRH.wav
448,192,117720,1,0,0:0:0:0:
192,192,117876,1,0,0:0:0:0:
192,192,118033,128,0,118189:0:0:0:50:LR3_Kick BRH.wav
320,192,118033,1,0,0:0:0:0:
64,192,118189,1,0,0:0:0:0:
64,192,118345,128,0,118501:0:0:0:50:LR3_Kick BRH.wav
192,192,118345,1,0,0:0:0:0:
320,192,118501,1,0,0:0:0:50:LR3_Kick BRH.wav
448,192,118501,1,0,0:0:0:0:
64,192,118658,1,0,0:0:0:50:drum_cym_crash.ogg
192,192,118658,1,0,0:0:0:50:LR3_Kick BRH.wav
448,192,118658,128,0,118813:0:0:0:0:
320,192,118813,1,0,0:0:0:0:
64,192,118968,1,0,0:0:0:50:LR3_Kick BRH.wav
448,192,118968,128,0,119124:0:0:0:0:
192,192,119124,1,0,0:0:0:0:
64,192,119279,1,0,0:0:0:50:LR3_Kick BRH.wav
320,192,119279,128,0,119435:0:0:0:0:
192,192,119435,1,0,0:0:0:0:
64,192,119590,128,0,119746:0:0:0:50:drum_cym_crash.ogg
192,192,119590,1,0,0:0:0:50:LR3_Kick BRH.wav
448,192,119590,1,0,0:0:0:0:
320,192,119746,1,0,0:0:0:0:
64,192,119901,128,0,120056:0:0:0:50:drum_cym_crash.ogg
192,192,119901,1,0,0:0:0:50:LR3_Kick BRH.wav
448,192,119901,1,0,0:0:0:0:
320,192,120056,1,0,0:0:0:0:
192,192,120212,128,0,120367:0:0:0:50:LR3_Kick BRH.wav
448,192,120212,1,0,0:0:0:0:
320,192,120367,128,0,120523:0:0:0:0:
64,192,120523,1,0,0:0:0:50:LR3_Kick BRH.wav
448,192,120523,128,0,120678:0:0:0:0:
320,192,120678,1,0,0:0:0:0:
64,192,120834,1,0,0:0:0:50:drum_cym_crash.ogg
320,192,120834,128,0,120989:0:0:0:50:LR3_Kick BRH.wav
448,192,120834,1,0,0:0:0:0:
192,192,120989,128,0,121145:0:0:0:0:
64,192,121145,128,0,121300:0:0:0:50:drum_cym_crash.ogg
320,192,121145,1,0,0:0:0:50:LR3_Kick BRH.wav
448,192,121145,1,0,0:0:0:0:
192,192,121300,1,0,0:0:0:0:
320,192,121455,128,0,121611:0:0:0:50:LR3_Kick BRH.wav
448,192,121455,1,0,0:0:0:0:
192,192,121611,1,0,0:0:0:0:
64,192,121766,1,0,0:0:0:50:LR3_Kick BRH.wav
448,192,121766,128,0,121844:0:0:0:0:
320,192,121922,128,0,121999:0:0:0:0:
64,192,122077,128,0,122155:0:0:0:50:drum_cym_crash.ogg
192,192,122077,1,0,0:0:0:50:LR3_Kick BRH.wav
448,192,122077,1,0,0:0:0:0:
192,192,122233,128,0,122310:0:0:0:0:
64,192,122388,1,0,0:0:0:50:LR3_Kick BRH.wav
320,192,122388,128,0,122542:0:0:0:0:
448,192,122388,1,0,0:0:0:0:
320,192,122697,128,0,122851:0:0:0:0:
320,192,123006,128,0,123083:0:0:0:0:
64,192,123161,1,0,0:0:0:50:LR3_Kick BRH.wav
192,192,123161,1,0,0:0:0:0:
448,192,123161,1,0,0:0:0:0:
320,192,123238,1,0,0:0:0:0:
64,192,123315,1,0,0:0:0:50:LR3_Kick BRH.wav
192,192,123315,1,0,0:0:0:0:
448,192,123315,1,0,0:0:0:0:
64,192,123470,1,0,0:0:0:50:LR3_Kick BRH.wav
192,192,123470,1,0,0:0:0:0:
448,192,123470,1,0,0:0:0:0:
64,192,123625,1,0,0:0:0:60:cym.ogg
320,192,123625,1,0,0:0:0:50:LR3_Kick BRH.wav
448,192,123625,1,0,0:0:0:0:
192,192,123773,1,0,0:0:0:0:
320,192,123847,1,0,0:0:0:0:
64,192,123922,1,0,0:0:0:50:LR3_Kick BRH.wav
448,192,123922,1,0,0:0:0:0:
192,192,124070,1,0,0:0:0:0:
320,192,124219,1,0,0:0:0:50:LR3_Kick BRH.wav
448,192,124219,1,0,0:0:0:0:
192,192,124367,1,0,0:0:0:0:
64,192,124516,1,0,0:0:0:50:LR3_Kick BRH.wav
320,192,124516,1,0,0:0:0:0:
448,192,124664,128,0,124961:0:0:0:0:
64,192,124813,1,0,0:0:0:50:LR3_Kick BRH.wav
192,192,124813,1,0,0:0:0:0:
320,192,124961,1,0,0:0:0:0:
192,192,125035,1,0,0:0:0:0:
64,192,125110,1,0,0:0:0:50:LR3_Kick BRH.wav
448,192,125110,1,0,0:0:0:0:
320,192,125258,1,0,0:0:0:0:
64,192,125407,1,0,0:0:0:50:LR3_Kick BRH.wav
192,192,125407,1,0,0:0:0:0:
320,192,125555,1,0,0:0:0:0:
64,192,125704,1,0,0:0:0:50:LR3_Kick BRH.wav
448,192,125704,1,0,0:0:0:0:
192,192,125852,1,0,0:0:0:0:
320,192,126001,1,0,0:0:0:50:LR3_Kick BRH.wav
448,192,126001,1,0,0:0:0:0:
448,192,126149,1,0,0:0:0:0:
320,192,126224,1,0,0:0:0:0:
64,192,126298,1,0,0:0:0:50:LR3_Kick BRH.wav
192,192,126298,1,0,0:0:0:0:
64,192,126446,1,0,0:0:0:0:
192,192,126521,1,0,0:0:0:0:
320,192,126595,1,0,0:0:0:50:LR3_Kick BRH.wav
448,192,126595,1,0,0:0:0:0:
448,192,126743,1,0,0:0:0:0:
320,192,126818,1,0,0:0:0:0:
64,192,126892,1,0,0:0:0:50:LR3_Kick BRH.wav
192,192,126892,1,0,0:0:0:0:
320,192,127040,1,0,0:0:0:0:
64,192,127189,1,0,0:0:0:50:LR3_Kick BRH.wav
448,192,127189,1,0,0:0:0:0:
192,192,127262,1,0,0:0:0:0:
320,192,127336,1,0,0:0:0:0:
192,192,127409,1,0,0:0:0:0:
320,192,127483,1,0,0:0:0:50:LR3_Kick BRH.wav
448,192,127483,1,0,0:0:0:0:
64,192,127556,1,0,0:0:0:0:
192,192,127630,1,0,0:0:0:0:
320,192,127703,1,0,0:0:0:0:
64,192,127777,1,0,0:0:0:50:LR3_Kick BRH.wav
192,192,127777,1,0,0:0:0:0:
448,192,127850,1,0,0:0:0:0:
320,192,127924,1,0,0:0:0:0:
192,192,127997,1,0,0:0:0:0:
64,192,128071,1,0,0:0:0:50:LR3_Kick BRH.wav
448,192,128071,1,0,0:0:0:0:
320,192,128144,1,0,0:0:0:0:
64,192,128218,1,0,0:0:0:50:LR3_Kick BRH.wav
192,192,128218,1,0,0:0:0:0:
320,192,128291,1,0,0:0:0:0:
64,192,128365,1,0,0:0:0:50:LR3_Kick BRH.wav
448,192,128365,128,0,128797:0:0:0:0:
64,192,128509,1,0,0:0:0:0:
192,192,128653,1,0,0:0:0:50:LR3_Kick BRH.wav
320,192,128653,1,0,0:0:0:0:
320,192,128797,1,0,0:0:0:0:
64,192,128941,1,0,0:0:0:50:LR3_Kick BRH.wav
192,192,128941,1,0,0:0:0:0:
448,192,129014,1,0,0:0:0:0:
64,192,129086,1,0,0:0:0:0:
448,192,129158,1,0,0:0:0:0:
64,192,129230,1,0,0:0:0:50:LR3_Kick BRH.wav
192,192,129230,1,0,0:0:0:0:
320,192,129374,1,0,0:0:0:0:
64,192,129518,1,0,0:0:0:50:LR3_Kick BRH.wav
448,192,129518,1,0,0:0:0:0:
192,192,129589,1,0,0:0:0:0:
320,192,129660,1,0,0:0:0:0:
64,192,129803,1,0,0:0:0:50:LR3_Kick BRH.wav
448,192,129803,1,0,0:0:0:0:
192,192,129946,1,0,0:0:0:0:
64,192,130089,1,0,0:0:0:50:LR3_Kick BRH.wav
320,192,130089,1,0,0:0:0:0:
448,192,130232,1,0,0:0:0:0:
320,192,130303,1,0,0:0:0:0:
64,192,130375,1,0,0:0:0:50:LR3_Kick BRH.wav
192,192,130375,1,0,0:0:0:0:
320,192,130446,1,0,0:0:0:0:
448,192,130518,128,0,131084:0:0:0:0:
64,192,130660,1,0,0:0:0:50:LR3_Kick BRH.wav
192,192,130660,1,0,0:0:0:0:
192,192,130801,1,0,0:0:0:0:
64,192,130943,1,0,0:0:0:50:LR3_Kick BRH.wav
320,192,130943,1,0,0:0:0:0:
320,192,131084,1,0,0:0:0:0:
192,192,131155,1,0,0:0:0:0:
64,192,131226,1,0,0:0:0:50:LR3_Kick BRH.wav
448,192,131226,1,0,0:0:0:0:
320,192,131367,1,0,0:0:0:0:
64,192,131509,1,0,0:0:0:50:LR3_Kick BRH.wav
448,192,131509,1,0,0:0:0:0:
192,192,131650,1,0,0:0:0:0:
64,192,131792,1,0,0:0:0:50:LR3_Kick BRH.wav
320,192,131792,1,0,0:0:0:0:
448,192,131792,1,0,0:0:0:0:
192,192,131932,1,0,0:0:0:0:
320,192,132002,1,0,0:0:0:0:
192,192,132072,1,0,0:0:0:0:
320,192,132212,1,0,0:0:0:0:
192,192,132282,1,0,0:0:0:0:
320,192,132352,1,0,0:0:0:0:
64,192,132492,1,0,0:0:0:50:LR3_Kick BRH.wav
192,192,132492,1,0,0:0:0:0:
448,192,132492,1,0,0:0:0:0:
64,192,132633,1,0,0:0:0:50:LR3_Kick BRH.wav
192,192,132633,1,0,0:0:0:0:
448,192,132633,1,0,0:0:0:0:
64,192,132773,1,0,0:0:0:50:LR3_Kick BRH.wav
192,192,132773,1,0,0:0:0:0:
448,192,132773,1,0,0:0:0:0:
64,192,132913,128,0,133048:0:0:0:60:cym.ogg
320,192,132913,1,0,0:0:0:50:LR3_Kick BRH.wav
448,192,132913,1,0,0:0:0:0:
192,192,133048,1,0,0:0:0:0:
320,192,133116,1,0,0:0:0:0:
192,192,133184,128,0,133320:0:0:0:50:LR3_Kick BRH.wav
448,192,133184,1,0,0:0:0:0:
64,192,133320,1,0,0:0:0:0:
448,192,133388,1,0,0:0:0:0:
64,192,133455,1,0,0:0:0:50:LR3_Kick BRH.wav
320,192,133455,128,0,133591:0:0:0:0:
192,192,133591,1,0,0:0:0:0:
64,192,133659,1,0,0:0:0:0:
192,192,133727,1,0,0:0:0:50:LR3_Kick BRH.wav
448,192,133727,128,0,133863:0:0:0:0:
320,192,133863,1,0,0:0:0:0:
64,192,133998,1,0,0:0:0:50:LR3_Kick BRH.wav
192,192,133998,128,0,134131:0:0:0:0:
448,192,134131,1,0,0:0:0:0:
320,192,134198,1,0,0:0:0:0:
64,192,134265,1,0,0:0:0:50:LR3_Kick BRH.wav
192,192,134265,1,0,0:0:0:0:
320,192,134399,1,0,0:0:0:0:
64,192,134533,1,0,0:0:0:50:LR3_Kick BRH.wav
448,192,134533,1,0,0:0:0:0:
320,192,134667,1,0,0:0:0:0:
64,192,134801,1,0,0:0:0:50:LR3_Kick BRH.wav
448,192,134801,1,0,0:0:0:0:
192,192,134935,1,0,0:0:0:0:
64,192,135069,1,0,0:0:0:50:LR3_Kick BRH.wav
448,192,135069,1,0,0:0:0:0:
320,192,135135,1,0,0:0:0:0:
192,192,135201,1,0,0:0:0:0:
320,192,135267,1,0,0:0:0:0:
64,192,135333,1,0,0:0:0:50:LR3_Kick BRH.wav
192,192,135333,1,0,0:0:0:0:
448,192,135399,1,0,0:0:0:0:
320,192,135465,1,0,0:0:0:0:
64,192,135531,1,0,0:0:0:0:
192,192,135597,1,0,0:0:0:50:LR3_Kick BRH.wav
448,192,135597,1,0,0:0:0:0:
320,192,135663,1,0,0:0:0:0:
64,192,135729,1,0,0:0:0:0:
192,192,135795,1,0,0:0:0:0:
320,192,135861,1,0,0:0:0:50:LR3_Kick BRH.wav
448,192,135861,1,0,0:0:0:0:
64,192,135928,1,0,0:0:0:0:
192,192,135994,1,0,0:0:0:0:
320,192,136060,1,0,0:0:0:0:
64,192,136126,1,0,0:0:0:50:LR3_Kick BRH.wav
448,192,136126,1,0,0:0:0:0:
192,192,136191,1,0,0:0:0:0:
320,192,136256,1,0,0:0:0:0:
448,192,136321,1,0,0:0:0:0:
64,192,136386,1,0,0:0:0:50:LR3_Kick BRH.wav
192,192,136386,1,0,0:0:0:0:
320,192,136452,1,0,0:0:0:0:
448,192,136517,1,0,0:0:0:0:
64,192,136582,1,0,0:0:0:0:
192,192,136647,1,0,0:0:0:50:LR3_Kick BRH.wav
448,192,136647,1,0,0:0:0:0:
320,192,136712,1,0,0:0:0:0:
192,192,136778,1,0,0:0:0:0:
64,192,136843,1,0,0:0:0:0:
320,192,136908,1,0,0:0:0:50:LR3_Kick BRH.wav
448,192,136908,1,0,0:0:0:0:
64,192,136973,1,0,0:0:0:0:
320,192,137039,1,0,0:0:0:50:LR3_Kick BRH.wav
448,192,137039,1,0,0:0:0:0:
192,192,137104,1,0,0:0:0:0:
64,192,137169,1,0,0:0:0:50:drum_cym_crash.ogg
448,192,137169,1,0,0:0:0:50:LR3_Kick BRH.wav
448,192,137297,1,0,0:0:0:0:
320,192,137362,1,0,0:0:0:0:
64,192,137426,1,0,0:0:0:50:LR3_Kick BRH.wav
192,192,137426,1,0,0:0:0:0:
320,192,137555,1,0,0:0:0:0:
192,192,137619,1,0,0:0:0:0:
64,192,137684,1,0,0:0:0:50:LR3_Kick BRH.wav
448,192,137684,1,0,0:0:0:0:
64,192,137812,1,0,0:0:0:0:
192,192,137877,1,0,0:0:0:0:
320,192,137941,1,0,0:0:0:50:drum_cym_crash.ogg
448,192,137941,1,0,0:0:0:50:LR3_Kick BRH.wav
192,192,138070,1,0,0:0:0:0:
320,192,138134,1,0,0:0:0:0:
64,192,138199,1,0,0:0:0:50:drum_cym_crash.ogg
448,192,138199,1,0,0:0:0:50:LR3_Kick BRH.wav
192,192,138326,1,0,0:0:0:0:
320,192,138389,1,0,0:0:0:0:
64,192,138453,1,0,0:0:0:50:LR3_Kick BRH.wav
448,192,138453,1,0,0:0:0:0:
192,192,138516,1,0,0:0:0:0:
448,192,138580,1,0,0:0:0:0:
320,192,138643,1,0,0:0:0:0:
64,192,138707,1,0,0:0:0:50:LR3_Kick BRH.wav
192,192,138707,1,0,0:0:0:0:
64,192,138834,1,0,0:0:0:0:
192,192,138898,1,0,0:0:0:0:
320,192,138961,1,0,0:0:0:50:drum_cym_crash.ogg
448,192,138961,1,0,0:0:0:50:LR3_Kick BRH.wav
192,192,139088,1,0,0:0:0:0:
64,192,139215,1,0,0:0:0:50:drum_cym_crash.ogg
448,192,139215,1,0,0:0:0:50:LR3_Kick BRH.wav
192,192,139340,1,0,0:0:0:0:
320,192,139403,1,0,0:0:0:0:
64,192,139466,1,0,0:0:0:50:LR3_Kick BRH.wav
448,192,139466,1,0,0:0:0:0:
320,192,139591,1,0,0:0:0:0:
192,192,139654,1,0,0:0:0:0:
64,192,139717,1,0,0:0:0:50:LR3_Kick BRH.wav
448,192,139717,1,0,0:0:0:0:
320,192,139779,1,0,0:0:0:0:
192,192,139842,1,0,0:0:0:0:
320,192,139905,1,0,0:0:0:0:
64,192,139968,1,0,0:0:0:50:drum_cym_crash.ogg
448,192,139968,1,0,0:0:0:50:LR3_Kick BRH.wav
192,192,140030,1,0,0:0:0:0:
320,192,140093,1,0,0:0:0:0:
192,192,140156,1,0,0:0:0:0:
64,192,140219,1,0,0:0:0:50:drum_cym_crash.ogg
448,192,140219,1,0,0:0:0:50:LR3_Kick BRH.wav
320,192,140280,1,0,0:0:0:0:
192,192,140342,1,0,0:0:0:0:
64,192,140404,1,0,0:0:0:0:
320,192,140466,1,0,0:0:0:50:drum_cym_crash.ogg
448,192,140466,1,0,0:0:0:50:LR3_Kick BRH.wav
192,192,140528,1,0,0:0:0:0:
64,192,140590,1,0,0:0:0:0:
448,192,140652,1,0,0:0:0:0:
192,192,140714,1,0,0:0:0:50:drum_cym_crash.ogg
320,192,140714,1,0,0:0:0:50:LR3_Kick BRH.wav
64,192,140776,1,0,0:0:0:0:
448,192,140838,1,0,0:0:0:0:
320,192,140900,1,0,0:0:0:0:
64,192,140962,1,0,0:0:0:50:LR3_Kick BRH.wav
192,192,140962,1,0,0:0:0:0:
192,192,141086,1,0,0:0:0:50:LR3_Kick BRH.wav
320,192,141086,1,0,0:0:0:0:
320,192,141210,1,0,0:0:0:50:LR3_Kick BRH.wav
448,192,141210,1,0,0:0:0:0:
320,192,141330,1,0,0:0:0:50:LR3_Kick BRH.wav
448,192,141330,1,0,0:0:0:0:
320,192,141450,1,0,0:0:0:50:LR3_Kick BRH.wav
448,192,141450,1,0,0:0:0:0:
320,192,141570,1,0,0:0:0:50:LR3_Kick BRH.wav
448,192,141570,1,0,0:0:0:0:
64,192,141690,1,0,0:0:0:50:LR3_Kick BRH.wav
192,192,141690,1,0,0:0:0:0:
64,192,141810,1,0,0:0:0:50:LR3_Kick BRH.wav
192,192,141810,1,0,0:0:0:0:
64,192,141930,1,0,0:0:0:50:LR3_Kick BRH.wav
192,192,141930,1,0,0:0:0:0:
64,192,142050,1,0,0:0:0:50:LR3_Kick BRH.wav
192,192,142050,1,0,0:0:0:0:
320,192,142170,1,0,0:0:0:50:LR3_Kick BRH.wav
448,192,142170,1,0,0:0:0:0:
320,192,142290,1,0,0:0:0:50:LR3_Kick BRH.wav
448,192,142290,1,0,0:0:0:0:
64,192,142410,1,0,0:0:0:50:LR3_Kick BRH.wav
192,192,142410,1,0,0:0:0:0:
64,192,142530,1,0,0:0:0:50:LR3_Kick BRH.wav
192,192,142530,1,0,0:0:0:0:
320,192,142650,1,0,0:0:0:50:LR3_Kick BRH.wav
448,192,142650,1,0,0:0:0:0:
320,192,142770,1,0,0:0:0:50:LR3_Kick BRH.wav
448,192,142770,1,0,0:0:0:0:
64,192,142890,1,0,0:0:0:50:LR3_Kick BRH.wav
192,192,142890,1,0,0:0:0:0:
64,192,143010,1,0,0:0:0:50:LR3_Kick BRH.wav
192,192,143010,1,0,0:0:0:0:
320,192,143130,1,0,0:0:0:50:LR3_Kick BRH.wav
448,192,143130,1,0,0:0:0:0:
64,192,143250,1,0,0:0:0:50:LR3_Kick BRH.wav
192,192,143250,1,0,0:0:0:0:
320,192,143370,1,0,0:0:0:50:LR3_Kick BRH.wav
448,192,143370,1,0,0:0:0:0:
64,192,143490,1,0,0:0:0:50:LR3_Kick BRH.wav
192,192,143490,1,0,0:0:0:0:
320,192,143610,1,0,0:0:0:50:LR3_Kick BRH.wav
448,192,143610,1,0,0:0:0:0:
64,192,143730,1,0,0:0:0:50:LR3_Kick BRH.wav
192,192,143730,1,0,0:0:0:0:
320,192,143850,1,0,0:0:0:50:LR3_Kick BRH.wav
448,192,143850,1,0,0:0:0:0:
64,192,143970,1,0,0:0:0:50:LR3_Kick BRH.wav
192,192,143970,1,0,0:0:0:0:
320,192,144090,1,0,0:0:0:50:LR3_Kick BRH.wav
448,192,144090,1,0,0:0:0:0:
192,192,144150,1,0,0:0:0:50:LR3_Kick BRH.wav
64,192,144210,1,0,0:0:0:50:LR3_Kick BRH.wav
448,192,144210,1,0,0:0:0:0:
320,192,144270,1,0,0:0:0:50:LR3_Kick BRH.wav
64,192,144330,1,0,0:0:0:50:LR3_Kick BRH.wav
192,192,144330,1,0,0:0:0:0:
320,192,144390,1,0,0:0:0:50:LR3_Kick BRH.wav
448,192,144450,1,0,0:0:0:50:LR3_Kick BRH.wav
64,192,144450,1,0,0:0:0:0:
192,192,144510,1,0,0:0:0:50:LR3_Kick BRH.wav
448,192,144570,1,0,0:0:0:50:LR3_Kick BRH.wav
320,192,144600,1,0,0:0:0:0:
64,192,144630,1,0,0:0:0:50:LR3_Kick BRH.wav
192,192,144660,1,0,0:0:0:0:
448,192,144690,1,0,0:0:0:50:LR3_Kick BRH.wav
320,192,144720,1,0,0:0:0:0:
64,192,144750,1,0,0:0:0:50:LR3_Kick BRH.wav
192,192,144780,1,0,0:0:0:0:
448,192,144810,1,0,0:0:0:50:LR3_Kick BRH.wav
320,192,144840,1,0,0:0:0:0:
64,192,144870,1,0,0:0:0:50:LR3_Kick BRH.wav
192,192,144900,1,0,0:0:0:0:
448,192,144930,1,0,0:0:0:50:LR3_Kick BRH.wav
320,192,144960,1,0,0:0:0:0:
64,192,144990,1,0,0:0:0:50:LR3_Kick BRH.wav
192,192,145020,1,0,0:0:0:0:
320,192,145050,128,0,147576:0:0:0:50:drum_cym_crash.ogg
448,192,145050,128,0,147576:0:0:0:50:LR3_Kick BRH.wav
64,192,147576,128,0,149471:0:0:0:0:
192,192,147576,128,0,149471:0:0:0:0:
448,192,149471,128,0,149550:0:0:0:0:
320,192,149550,128,0,149628:0:0:0:0:
192,192,149628,128,0,149707:0:0:0:0:
448,192,149707,128,0,149786:0:0:0:0:
64,192,149786,128,0,149865:0:0:0:0:
192,192,149865,128,0,149944:0:0:0:0:
320,192,149944,128,0,150023:0:0:0:0:
448,192,150023,128,0,150102:0:0:0:0:
64,192,150102,128,0,150260:0:0:0:50:drum_cym_crash.ogg
192,192,150102,128,0,150260:0:0:0:50:LR3_Kick BRH.wav
448,192,150260,1,0,0:0:0:0:
320,192,150339,1,0,0:0:0:0:
448,192,150418,1,0,0:0:0:0:
64,192,150576,128,0,150655:0:0:0:50:drum_cym_crash.ogg
192,192,150576,128,0,150655:0:0:0:50:LR3_Kick BRH.wav
64,192,150734,128,0,150892:0:0:0:50:drum_cym_crash.ogg
192,192,150734,128,0,150892:0:0:0:50:LR3_Kick BRH.wav
448,192,150892,1,0,0:0:0:0:
320,192,150971,1,0,0:0:0:0:
448,192,151050,1,0,0:0:0:0:
64,192,151207,128,0,151286:0:0:0:50:drum_cym_crash.ogg
192,192,151207,128,0,151286:0:0:0:50:LR3_Kick BRH.wav
64,192,151365,128,0,151523:0:0:0:50:drum_cym_crash.ogg
192,192,151365,1,0,0:0:0:50:LR3_Kick BRH.wav
448,192,151523,1,0,0:0:0:0:
320,192,151602,1,0,0:0:0:0:
64,192,151681,1,0,0:0:0:50:LR3_Kick BRH.wav
192,192,151681,128,0,151839:0:0:0:0:
320,192,151839,1,0,0:0:0:0:
64,192,151918,1,0,0:0:0:0:
320,192,151997,128,0,152155:0:0:0:50:LR3_Kick BRH.wav
448,192,151997,1,0,0:0:0:0:
64,192,152155,1,0,0:0:0:0:
192,192,152234,1,0,0:0:0:0:
320,192,152313,1,0,0:0:0:50:LR3_Kick BRH.wav
448,192,152313,128,0,152471:0:0:0:0:
192,192,152471,1,0,0:0:0:0:
64,192,152550,1,0,0:0:0:0:
320,192,152628,128,0,152786:0:0:0:50:drum_cym_crash.ogg
448,192,152628,128,0,152786:0:0:0:50:LR3_Kick BRH.wav
64,192,152786,1,0,0:0:0:0:
192,192,152865,1,0,0:0:0:0:
64,192,152944,1,0,0:0:0:0:
320,192,153102,128,0,153181:0:0:0:50:drum_cym_crash.ogg
448,192,153102,128,0,153181:0:0:0:50:LR3_Kick BRH.wav
320,192,153260,128,0,153418:0:0:0:50:drum_cym_crash.ogg
448,192,153260,128,0,153418:0:0:0:50:LR3_Kick BRH.wav
64,192,153418,1,0,0:0:0:0:
192,192,153497,1,0,0:0:0:0:
64,192,153576,1,0,0:0:0:0:
320,192,153734,128,0,153813:0:0:0:50:drum_cym_crash.ogg
448,192,153734,128,0,153813:0:0:0:50:LR3_Kick BRH.wav
320,192,153892,1,0,0:0:0:50:drum_cym_crash.ogg
448,192,153892,128,0,154050:0:0:0:50:LR3_Kick BRH.wav
64,192,154050,1,0,0:0:0:0:
192,192,154128,1,0,0:0:0:0:
320,192,154207,128,0,154365:0:0:0:50:LR3_Kick BRH.wav
448,192,154207,1,0,0:0:0:0:
192,192,154365,1,0,0:0:0:0:
448,192,154444,1,0,0:0:0:0:
64,192,154523,1,0,0:0:0:50:LR3_Kick BRH.wav
192,192,154523,128,0,154681:0:0:0:0:
448,192,154681,1,0,0:0:0:0:
320,192,154760,1,0,0:0:0:0:
64,192,154839,128,0,154997:0:0:0:50:LR3_Kick BRH.wav
192,192,154839,1,0,0:0:0:0:
320,192,154997,1,0,0:0:0:0:
448,192,155076,1,0,0:0:0:0:
64,192,155155,128,0,155313:0:0:0:50:drum_cym_crash.ogg
192,192,155155,128,0,155313:0:0:0:50:LR3_Kick BRH.wav
448,192,155313,1,0,0:0:0:0:
320,192,155392,1,0,0:0:0:0:
448,192,155471,1,0,0:0:0:0:
64,192,155628,128,0,155707:0:0:0:50:drum_cym_crash.ogg
192,192,155628,128,0,155707:0:0:0:50:LR3_Kick BRH.wav
64,192,155786,128,0,155944:0:0:0:50:drum_cym_crash.ogg
192,192,155786,128,0,155944:0:0:0:50:LR3_Kick BRH.wav
448,192,155944,1,0,0:0:0:0:
320,192,156023,1,0,0:0:0:0:
448,192,156102,1,0,0:0:0:0:
64,192,156260,128,0,156339:0:0:0:50:drum_cym_crash.ogg
192,192,156260,128,0,156339:0:0:0:50:LR3_Kick BRH.wav
64,192,156418,128,0,156576:0:0:0:50:drum_cym_crash.ogg
192,192,156418,1,0,0:0:0:50:LR3_Kick BRH.wav
448,192,156576,1,0,0:0:0:0:
320,192,156655,1,0,0:0:0:0:
64,192,156734,1,0,0:0:0:50:LR3_Kick BRH.wav
192,192,156734,128,0,156892:0:0:0:0:
320,192,156892,1,0,0:0:0:0:
64,192,156971,1,0,0:0:0:0:
320,192,157050,128,0,157207:0:0:0:50:LR3_Kick BRH.wav
448,192,157050,1,0,0:0:0:0:
64,192,157207,1,0,0:0:0:0:
192,192,157286,1,0,0:0:0:0:
320,192,157365,1,0,0:0:0:50:LR3_Kick BRH.wav
448,192,157365,128,0,157523:0:0:0:0:
64,192,157523,1,0,0:0:0:0:
192,192,157602,1,0,0:0:0:0:
64,192,157681,128,0,157760:0:0:0:50:drum_cym_crash.ogg
320,192,157681,1,0,0:0:0:60:cym.ogg
448,192,157681,1,0,0:0:0:50:LR3_Kick BRH.wav
320,192,157839,128,0,157918:0:0:0:0:
192,192,157997,128,0,158076:0:0:0:0:
448,192,158155,128,0,158234:0:0:0:0:
64,192,158313,128,0,158392:0:0:0:0:
320,192,158471,128,0,158550:0:0:0:0:
192,192,158628,128,0,158707:0:0:0:0:
448,192,158786,128,0,158865:0:0:0:0:
64,192,158944,128,0,159102:0:0:0:0:
448,192,159102,128,0,159181:0:0:0:0:
64,192,159181,128,0,159260:0:0:0:0:
448,192,159260,128,0,159418:0:0:0:0:
64,192,159418,128,0,159497:0:0:0:0:
448,192,159497,128,0,159576:0:0:0:0:
64,192,159576,128,0,159655:0:0:0:0:
64,192,159734,128,0,159813:0:0:0:0:
64,192,159892,128,0,159971:0:0:0:0:
64,192,160050,128,0,160128:0:0:0:0:
64,192,160523,128,0,161155:0:0:0:60:cym.ogg
192,192,160563,128,0,161115:0:0:0:0:
320,192,160602,128,0,161076:0:0:0:0:
448,192,161155,128,0,163365:0:0:0:0:
320,192,161194,128,0,163365:0:0:0:0:
192,192,161234,128,0,163365:0:0:0:0:
64,192,161273,128,0,163365:0:0:0:0:
